<?xml version="1.0" encoding="UTF-8" standalone="no"?>
<!DOCTYPE svg PUBLIC "-//W3C//DTD SVG 1.1//EN" "http://www.w3.org/Graphics/SVG/1.1/DTD/svg11.dtd" >
<svg xmlns="http://www.w3.org/2000/svg">
<metadata>
Generated by SVGconv.
Copyright   : Copyright (c) 2018 Paratype, Inc., ParaType Ltd. All rights reserved.
Designer    : A.Korolkova
Foundry     : ParaType Ltd
Foundry URL : http://www.paratype.com
</metadata>
<defs>
<font id="CirceSlabAWeb-Regular" horiz-adv-x="587" >
<font-face units-per-em="1000" ascent="935" descent="320" >
<font-face-src>
<font-face-name/>
</font-face-src>
</font-face>
<missing-glyph horiz-adv-x="500" />
<glyph unicode="&#13;" horiz-adv-x="240" />
<glyph unicode="&#32;" horiz-adv-x="240" />
<glyph unicode="&#33;" horiz-adv-x="310" d="M112 700h85v-485h-85zM79 70q0 13 5.5 26q5.5 13 15.5 23q10 10 24 16q14 6 31 6q31 0 51 -22.5q20 -22.5 20 -48.5q0 -30 -19.5 -53q-19.5 -23 -51.5 -23q-35 0 -55.5 23t-20.5 53z" />
<glyph unicode="&#34;" horiz-adv-x="415" d="M85 700h80v-223h-80zM250 700h80v-223l-80 0z" />
<glyph unicode="&#35;" horiz-adv-x="704" d="M61 12l68 183h-89v70h115l63 170h-178v70h204l76 205l63 -23l-68 -182h184l76 205l63 -22l-68 -183h94v-70h-120l-63 -170h183v-70h-209l-76 -205l-62 22l67 183h-184l-76 -205zM410 265l63 170h-184l-63 -170z" />
<glyph unicode="&#36;" horiz-adv-x="592" d="M82 0v210h80v-81q30 -34 65 -50.5q35 -16.5 71 -16.5q27 0 52 8.5q25 8.5 44 23.5q19 15 30 36.5q11 21.5 11 48.5q0 43 -25.5 69q-25.5 26 -64.5 45.5q-39 19.5 -83.5 36.5q-44.5 17 -83.5 41.5q-39 24.5 -64.5 61q-25.5 36.5 -25.5 94.5q0 34 12 64q12 30 34.5 54q22.5 24 54.5 40q32 16 73 22l0 83h80v-82q24 -3 45 -11q21 -8 39 -19l0 22h80v-195h-80v90q-24 20 -52.5 31.5q-28.5 11.5 -64.5 11.5q-63 0 -99.5 -32q-36.5 -32 -36.5 -79q0 -43 25.5 -69q25.5 -26 64.5 -44.5q39 -18.5 83.5 -35q44.5 -16.5 83.5 -40.5q39 -24 64.5 -61q25.5 -37 25.5 -97q0 -38 -13 -69.5q-13 -31.5 -37 -55.5q-24 -24 -56.5 -39.5q-32.5 -15.5 -71.5 -21.5l0 -94h-80v92q-57 8 -100 40l0 -32z" />
<glyph unicode="&#37;" horiz-adv-x="877" d="M673 710l46 -34l-513 -686l-47 33zM466 164q0 38 14 69q14 31 38.5 53.5q24.5 22.5 58 34.5q33.5 12 72.5 12q39 0 72.5 -12q33.5 -12 58 -34.5q24.5 -22.5 38.5 -53.5q14 -31 14 -69q0 -38 -14 -69q-14 -31 -38.5 -53.5q-24.5 -22.5 -58 -35q-33.5 -12.5 -72.5 -12.5q-39 0 -72.5 12.5q-33.5 12.5 -58 35q-24.5 22.5 -38.5 53.5q-14 31 -14 69zt0 0zM541 164q0 -24 9 -43.5q9 -19.5 24 -33q15 -13.5 34.5 -21q19.5 -7.5 40.5 -7.5q22 0 41.5 7.5q19.5 7.5 34.5 21q15 13.5 23.5 33q8.5 19.5 8.5 43.5q0 24 -8.5 43q-8.5 19 -23.5 32.5q-15 13.5 -34.5 21q-19.5 7.5 -41.5 7.5q-45 0 -76.5 -28q-31.5 -28 -31.5 -76zt0 0zM45 537q0 38 14 69q14 31 38.5 53.5q24.5 22.5 58 34.5q33.5 12 72.5 12q39 0 72.5 -12q33.5 -12 58 -34.5q24.5 -22.5 38.5 -53.5q14 -31 14 -69q0 -38 -14 -69q-14 -31 -38.5 -53.5q-24.5 -22.5 -58 -35q-33.5 -12.5 -72.5 -12.5q-39 0 -72.5 12.5q-33.5 12.5 -58 35q-24.5 22.5 -38.5 53.5q-14 31 -14 69zt0 0zM120 537q0 -24 9 -43.5q9 -19.5 24 -33q15 -13.5 34.5 -21q19.5 -7.5 40.5 -7.5q22 0 41.5 7.5q19.5 7.5 34.5 21q15 13.5 23.5 33q8.5 19.5 8.5 43.5q0 24 -8.5 43q-8.5 19 -23.5 32.5q-15 13.5 -34.5 21q-19.5 7.5 -41.5 7.5q-45 0 -76.5 -28t-31.5 -76z" />
<glyph unicode="&#38;" horiz-adv-x="744" d="M518 213q20 35 34.5 79.5q14.5 44.5 19.5 97.5l-60 0v60h190v-60h-50q-8 -68 -29 -130q-21 -62 -56 -111l70 -89h54v-60h-107l-73 92q-33 -43 -85 -72.5q-52 -29.5 -130 -29.5q-50 0 -91.5 15q-41.5 15 -71.5 41.5q-30 26.5 -46.5 63q-16.5 36.5 -16.5 80.5q0 44 13.5 78q13.5 34 35.5 61.5q22 27.5 51 50q29 22.5 60 43.5q-34 32 -60.5 69.5q-26.5 37.5 -26.5 83.5q0 57 41 95.5q41 38.5 126 38.5q32 0 58.5 -10q26.5 -10 45 -28q18.5 -18 28.5 -41.5q10 -23.5 10 -50.5q0 -30 -10 -53.5q-10 -23.5 -26 -43q-16 -19.5 -36 -35.5q-20 -16 -39 -31zM160 206q0 -32 11 -57.5q11 -25.5 30 -43q19 -17.5 44 -26.5q25 -9 53 -9q57 0 97.5 23.5q40.5 23.5 66.5 62.5l-187 213q-27 -21 -48.5 -39q-21.5 -18 -36.5 -36.5q-15 -18.5 -22.5 -39.5q-7.5 -21 -7.5 -48zt0 0zM293 468q12 7 26.5 17.5q14.5 10.5 27.5 24q13 13.5 21.5 31q8.5 17.5 8.5 38.5q0 29 -23.5 47.5q-23.5 18.5 -56.5 18.5q-37 0 -55.5 -21.5q-18.5 -21.5 -18.5 -47.5q0 -16 7 -32q7 -16 17.5 -30.5q10.5 -14.5 23 -26t22.5 -19.5z" />
<glyph unicode="&#39;" horiz-adv-x="250" d="M85 700h80v-223l-80 0z" />
<glyph unicode="&#40;" horiz-adv-x="293" d="M293 612q-93 -89 -133 -183q-40 -94 -40 -204q0 -111 44.5 -211.5q44.5 -100.5 128.5 -175.5l-51 -44q-57 49 -95.5 102q-38.5 53 -62.5 107.5q-24 54.5 -34 110.5q-10 56 -10 111q0 55 10 110q10 55 34 109q24 54 63 107q39 53 96 105z" />
<glyph unicode="&#41;" horiz-adv-x="293" d="M0 -162q84 75 128.5 175.5q44.5 100.5 44.5 211.5q0 110 -40 204q-40 94 -133 183l50 44q57 -52 96 -105q39 -53 63 -107q24 -54 34 -109q10 -55 10 -110q0 -55 -10 -111q-10 -56 -34 -110.5q-24 -54.5 -62.5 -107.5q-38.5 -53 -95.5 -102z" />
<glyph unicode="&#42;" horiz-adv-x="479" d="M188 375q0 23 16 38q16 15 36 15q21 0 36.5 -15q15.5 -15 15.5 -38q0 -20 -15.5 -36q-15.5 -16 -36.5 -16q-20 0 -36 16q-16 16 -16 36zt0 0zM71 583q0 22 15 37.5q15 15.5 36 15.5q22 0 37 -15.5q15 -15.5 15 -37.5q0 -21 -15 -36.5q-15 -15.5 -37 -15.5q-21 0 -36 15.5q-15 15.5 -15 36.5zt0 0zM71 449q0 22 15 37q15 15 36 15q22 0 37 -15q15 -15 15 -37q0 -22 -15 -37.5q-15 -15.5 -37 -15.5q-21 0 -36 15.5q-15 15.5 -15 37.5zt0 0zM305 583q0 22 15 37.5q15 15.5 36 15.5q22 0 37 -15.5q15 -15.5 15 -37.5q0 -21 -15 -36.5q-15 -15.5 -37 -15.5q-21 0 -36 15.5q-15 15.5 -15 36.5zt0 0zM305 449q0 22 15 37q15 15 36 15q22 0 37 -15q15 -15 15 -37q0 -22 -15 -37.5q-15 -15.5 -37 -15.5q-21 0 -36 15.5q-15 15.5 -15 37.5zt0 0zM188 657q0 21 15.5 36.5q15.5 15.5 35.5 15.5q23 0 37.5 -15.5q14.5 -15.5 14.5 -36.5q0 -22 -14.5 -37.5q-14.5 -15.5 -37.5 -15.5q-20 0 -35.5 15.5t-15.5 37.5z" />
<glyph unicode="&#43;" horiz-adv-x="592" d="M257 325h-188v70h188v191h75v-191h191v-70h-191v-193l-75 0z" />
<glyph unicode="&#44;" horiz-adv-x="272" d="M75 -105q11 3 23.5 11.5q12.5 8.5 23 20.5q10.5 12 17.5 27q7 15 7 30q0 13 -4 25q-3 -4 -9.5 -7q-6.5 -3 -17.5 -3q-20 0 -38 17q-18 17 -17 48q1 30 21.5 51.5q20.5 21.5 52.5 21.5q38 0 61 -29.5q23 -29.5 23 -81.5q0 -71 -33.5 -114q-33.5 -43 -86.5 -58z" />
<glyph unicode="&#45;" horiz-adv-x="389" d="M75 310h239v-75l-239 0z" />
<glyph unicode="&#46;" horiz-adv-x="266" d="M60 73q0 13 5.5 26q5.5 13 15.5 23q10 10 24 16q14 6 31 6q31 0 51 -22.5q20 -22.5 20 -48.5q0 -30 -19.5 -53q-19.5 -23 -51.5 -23q-35 0 -55.5 23t-20.5 53z" />
<glyph unicode="&#47;" horiz-adv-x="335" d="M-30 -185l333 895l62 -23l-332 -895z" />
<glyph unicode="&#48;" horiz-adv-x="564" d="M284 -8q-59 0 -102.5 26.5q-43.5 26.5 -71.5 73.5q-28 47 -41.5 113q-13.5 66 -13.5 145q0 79 13 144.5q13 65.5 41 113q28 47.5 71 74q43 26.5 102 26.5q59 0 102 -26.5q43 -26.5 70.5 -74q27.5 -47.5 41 -113q13.5 -65.5 13.5 -144.5q0 -79 -13 -145q-13 -66 -40.5 -113q-27.5 -47 -70 -73.5q-42.5 -26.5 -101.5 -26.5zt0 0zM284 67q76 0 108 73.5q32 73.5 32 209.5q0 136 -33 209.5q-33 73.5 -109 73.5q-77 0 -109.5 -74.5q-32.5 -74.5 -32.5 -208.5q0 -136 34.5 -209.5t109.5 -73.5z" />
<glyph unicode="&#49;" horiz-adv-x="379" d="M74 70h105v498q-27 -14 -54 -25q-27 -11 -59 -18l-23 58q34 15 60 28.5q26 13.5 47 28.5q21 15 38.5 32.5q17.5 17.5 34.5 38.5l36 0v-641h82v-70l-267 0z" />
<glyph unicode="&#50;" horiz-adv-x="527" d="M45 65q43 42 97 96.5q54 54.5 102 114.5q48 60 81 121.5q33 61.5 33 117.5q0 23 -7 44.5q-7 21.5 -21.5 38q-14.5 16.5 -36 26q-21.5 9.5 -49.5 9.5q-27 0 -55 -11.5q-28 -11.5 -41 -34.5q8 -8 12.5 -18q4.5 -10 4.5 -21q0 -23 -16.5 -39q-16.5 -16 -39.5 -16q-23 0 -39 17.5q-16 17.5 -16 48.5q0 33 17.5 60.5q17.5 27.5 46 47q28.5 19.5 63.5 30.5q35 11 70 11q49 0 85 -15.5q36 -15.5 60 -40.5q24 -25 35.5 -56.5q11.5 -31.5 11.5 -64.5q0 -49 -18 -98.5q-18 -49.5 -46 -96q-28 -46.5 -62 -88.5q-34 -42 -67 -76.5q-33 -34.5 -60 -59.5q-27 -25 -41 -37l242 0v85h75v-160l-421 0z" />
<glyph unicode="&#51;" horiz-adv-x="532" d="M184 323v70h50q23 0 45 9.5q22 9.5 39 26.5q17 17 27 40q10 23 10 50q0 52 -30 84q-30 32 -84 32q-26 0 -52 -5.5q-26 -5.5 -36 -17.5q3 -6 5.5 -14.5q2.5 -8.5 2.5 -15.5q0 -23 -16.5 -39q-16.5 -16 -39.5 -16q-23 0 -39 16q-16 16 -16 39q0 30 17 54q17 24 44.5 40.5q27.5 16.5 63 25q35.5 8.5 72.5 8.5q88 0 140.5 -47q52.5 -47 52.5 -130q0 -57 -27.5 -101q-27.5 -44 -81.5 -67l0 -3q33 -5 58 -20.5q25 -15.5 42.5 -38.5q17.5 -23 26.5 -51q9 -28 9 -59q0 -47 -17 -84.5q-17 -37.5 -46.5 -64q-29.5 -26.5 -69.5 -40.5q-40 -14 -87 -14q-41 0 -80.5 10q-39.5 10 -70 29q-30.5 19 -49.5 47q-19 28 -19 63q0 23 16 39.5q16 16.5 39 16.5q23 0 39.5 -16.5q16.5 -16.5 16.5 -39.5q0 -8 -4 -18.5q-4 -10.5 -9 -17.5q22 -24 54.5 -31q32.5 -7 63.5 -7q33 0 58.5 10.5q25.5 10.5 43 28.5q17.5 18 27 41.5q9.5 23.5 9.5 50.5q0 28 -10.5 51.5q-10.5 23.5 -29.5 40q-19 16.5 -45.5 26q-26.5 9.5 -57.5 9.5z" />
<glyph unicode="&#52;" horiz-adv-x="550" d="M343 255v195h29h51v-195h97v-80h-97v-175h-80v175h-323v57q85 114 157.5 230q72.5 116 132.5 238l92 0q-57 -112 -123.5 -222.5q-66.5 -110.5 -153.5 -222.5z" />
<glyph unicode="&#53;" horiz-adv-x="516" d="M187 431q11 3 26 5q15 2 30 2q48 0 88.5 -15q40.5 -15 70 -43.5q29.5 -28.5 46 -68.5q16.5 -40 16.5 -90q0 -54 -18.5 -97q-18.5 -43 -50.5 -73q-32 -30 -75 -45.5q-43 -15.5 -93 -15.5q-29 0 -62.5 8q-33.5 8 -63 25q-29.5 17 -49 43q-19.5 26 -19.5 63q0 27 17.5 45.5q17.5 18.5 42.5 18.5q32 0 46.5 -18q14.5 -18 14.5 -43q0 -9 -6.5 -19q-6.5 -10 -14.5 -17q37 -31 105 -31q30 0 56 12q26 12 44.5 32.5q18.5 20.5 29.5 48.5q11 28 11 60q0 31 -12 58.5q-12 27.5 -34 47q-22 19.5 -53.5 31q-31.5 11.5 -70.5 11.5q-32 0 -62.5 -5.5q-30.5 -5.5 -47.5 -12.5l44 352h252l10 40h75l-22 -120l-245 0z" />
<glyph unicode="&#54;" horiz-adv-x="554" d="M293 -10q-59 0 -104 21q-45 21 -76 56q-31 35 -47 82q-16 47 -16 99q0 96 31.5 175.5q31.5 79.5 81 138.5q49.5 59 109.5 96.5q60 37.5 118 51.5l33 -61q-47 -12 -92 -38q-45 -26 -82.5 -65q-37.5 -39 -65 -91q-27.5 -52 -39.5 -117q21 40 61.5 66.5q40.5 26.5 103.5 26.5q43 0 79.5 -15.5q36.5 -15.5 63.5 -44q27 -28.5 42 -68q15 -39.5 15 -87.5q0 -52 -18.5 -93.5q-18.5 -41.5 -48.5 -71q-30 -29.5 -69 -45.5q-39 -16 -80 -16zt0 0zM292 70q29 0 53 11.5q24 11.5 41.5 30.5q17.5 19 27.5 44.5q10 25.5 10 53.5q0 30 -9 57q-9 27 -27 46.5q-18 19.5 -44.5 31q-26.5 11.5 -61.5 11.5q-31 0 -55.5 -10q-24.5 -10 -43 -25.5q-18.5 -15.5 -30.5 -35q-12 -19.5 -18 -37.5q0 -36 10 -68q10 -32 29.5 -56.5q19.5 -24.5 49 -39t68.5 -14.5z" />
<glyph unicode="&#55;" horiz-adv-x="485" d="M27 700h423v-52q-78 -154 -142 -315q-64 -161 -116 -333l-88 0q56 165 117.5 319.5q61.5 154.5 131.5 300.5l-251 0v-80l-75 0z" />
<glyph unicode="&#56;" horiz-adv-x="595" d="M393 359q29 -5 54 -19.5q25 -14.5 43.5 -36.5q18.5 -22 29 -51.5q10.5 -29.5 10.5 -64.5q0 -47 -18.5 -83.5q-18.5 -36.5 -50 -62q-31.5 -25.5 -74 -38.5q-42.5 -13 -89.5 -13q-47 0 -89.5 13q-42.5 13 -74.5 38q-32 25 -50.5 60q-18.5 35 -18.5 80q0 66 36.5 113q36.5 47 95.5 64l0 3q-23 8 -43 24q-20 16 -35 37.5q-15 21.5 -23.5 48.5q-8.5 27 -8.5 56q0 41 16.5 75q16.5 34 45 58q28.5 24 66.5 37q38 13 82 13q43 0 81.5 -13q38.5 -13 67.5 -37q29 -24 45.5 -58q16.5 -34 16.5 -75q0 -51 -30.5 -97.5q-30.5 -46.5 -84.5 -67.5zM150 196q0 -27 11 -50.5q11 -23.5 30.5 -40q19.5 -16.5 46.5 -26q27 -9.5 59 -9.5q68 0 108 34.5q40 34.5 40 91.5q0 30 -11 53q-11 23 -29.5 38.5q-18.5 15.5 -43 24q-24.5 8.5 -51.5 8.5h-22q-28 0 -53 -9q-25 -9 -44 -25.5q-19 -16.5 -30 -39.5q-11 -23 -11 -50zt0 0zM311 400q22 0 42.5 9q20.5 9 36 24.5q15.5 15.5 24.5 36.5q9 21 9 45q0 27 -10.5 48.5q-10.5 21.5 -27.5 36.5q-17 15 -40.5 22.5q-23.5 7.5 -48.5 7.5q-52 0 -88 -31q-36 -31 -36 -84q0 -24 9 -45q9 -21 25 -36.5q16 -15.5 36 -24.5q20 -9 43 -9z" />
<glyph unicode="&#57;" horiz-adv-x="551" d="M124 53q118 23 192 100.5q74 77.5 91 202.5q-21 -39 -61 -63q-40 -24 -97 -24q-46 0 -84.5 16.5q-38.5 16.5 -66 45.5q-27.5 29 -43 68.5q-15.5 39.5 -15.5 84.5q0 52 19.5 93.5q19.5 41.5 51 71q31.5 29.5 71.5 45.5q40 16 81 16q58 0 102.5 -20q44.5 -20 74.5 -55.5q30 -35.5 45.5 -83.5q15.5 -48 15.5 -104q0 -99 -27 -179.5q-27 -80.5 -74 -139q-47 -58.5 -111 -94q-64 -35.5 -138 -44.5zM269 344q31 0 55.5 9q24.5 9 43 23.5q18.5 14.5 30.5 33q12 18.5 18 37.5q0 36 -9 69q-9 33 -27.5 58.5q-18.5 25.5 -47.5 40.5q-29 15 -68 15q-29 0 -54.5 -11.5q-25.5 -11.5 -44 -30.5q-18.5 -19 -29.5 -44.5q-11 -25.5 -11 -53.5q0 -29 9.5 -55q9.5 -26 27.5 -46.5q18 -20.5 45 -32.5t62 -12z" />
<glyph unicode="&#58;" horiz-adv-x="320" d="M87 73q0 13 5.5 26q5.5 13 15.5 23q10 10 24 16q14 6 31 6q31 0 51 -22.5q20 -22.5 20 -48.5q0 -30 -19.5 -53q-19.5 -23 -51.5 -23q-35 0 -55.5 23q-20.5 23 -20.5 53zt0 0zM86 385q0 13 5.5 26q5.5 13 15.5 23q10 10 24 16q14 6 31 6q31 0 51 -22.5q20 -22.5 20 -48.5q0 -30 -19.5 -53q-19.5 -23 -51.5 -23q-35 0 -55.5 23t-20.5 53z" />
<glyph unicode="&#59;" horiz-adv-x="324" d="M86 385q0 13 5.5 26q5.5 13 15.5 23q10 10 24 16q14 6 31 6q31 0 51 -22.5q20 -22.5 20 -48.5q0 -30 -19.5 -53q-19.5 -23 -51.5 -23q-35 0 -55.5 23q-20.5 23 -20.5 53zt0 0zM97 -105q11 3 23.5 11.5q12.5 8.5 23 20.5q10.5 12 17.5 27q7 15 7 30q0 13 -4 25q-3 -4 -9.5 -7q-6.5 -3 -17.5 -3q-20 0 -38 17q-18 17 -17 48q1 30 21.5 51.5q20.5 21.5 52.5 21.5q38 0 61 -29.5q23 -29.5 23 -81.5q0 -71 -33.5 -114q-33.5 -43 -86.5 -58z" />
<glyph unicode="&#60;" horiz-adv-x="592" d="M497 643v-87l-329 -194l329 -196v-87l-440 266l0 34z" />
<glyph unicode="&#61;" horiz-adv-x="592" d="M69 305h454v-70h-454zM69 485h454v-70l-454 0z" />
<glyph unicode="&#62;" horiz-adv-x="592" d="M95 166l329 196l-329 194v87l439 -264v-34l-439 -266z" />
<glyph unicode="&#63;" horiz-adv-x="466" d="M172 202q-4 19 -4 38q-1 36 12.5 61.5q13.5 25.5 34 45q20.5 19.5 44 35.5q23.5 16 44 35q20.5 19 34 43.5q13.5 24.5 13.5 59.5q0 23 -9 44q-9 21 -25.5 36.5q-16.5 15.5 -38.5 25q-22 9.5 -49 9.5q-32 0 -51.5 -7q-19.5 -7 -35.5 -21q33 -16 33 -50q0 -27 -20 -43q-20 -16 -47 -16q-27 0 -46.5 20q-19.5 20 -19.5 52q0 29 18 54.5q18 25.5 45.5 44.5q27.5 19 61.5 30q34 11 67 11q48 0 86 -14q38 -14 64 -37.5q26 -23.5 39.5 -55q13.5 -31.5 13.5 -66.5q0 -46 -14.5 -78.5q-14.5 -32.5 -36 -56.5q-21.5 -24 -46.5 -42q-25 -18 -46.5 -37q-21.5 -19 -36 -41q-14.5 -22 -14.5 -53q-1 -11 2 -26zM140 73q0 13 5.5 26q5.5 13 15.5 23q10 10 24 16q14 6 31 6q31 0 51 -22.5q20 -22.5 20 -48.5q0 -30 -19.5 -53q-19.5 -23 -51.5 -23q-35 0 -55.5 23t-20.5 53z" />
<glyph unicode="&#64;" horiz-adv-x="1006" d="M628 47q-24 -24 -60.5 -40.5q-36.5 -16.5 -78.5 -16.5q-51 0 -92 16.5q-41 16.5 -70.5 47.5q-29.5 31 -45 74.5q-15.5 43.5 -15.5 96.5q0 49 19 92q19 43 52.5 74.5q33.5 31.5 80 50q46.5 18.5 101.5 18.5q54 0 104 -14.5q50 -14.5 85 -36.5l0 -334h21q31 0 56.5 15q25.5 15 43.5 41q18 26 27.5 62q9.5 36 9.5 77q0 67 -25.5 125q-25.5 58 -71.5 101q-46 43 -111.5 67.5q-65.5 24.5 -144.5 24.5q-79 0 -147 -26.5q-68 -26.5 -118.5 -74q-50.5 -47.5 -79 -114.5q-28.5 -67 -28.5 -148q0 -78 28.5 -144.5q28.5 -66.5 79 -115q50.5 -48.5 118.5 -76q68 -27.5 147 -27.5q57 0 108 12l5 -74q-27 -6 -55.5 -9.5q-28.5 -3.5 -57.5 -3.5q-97 0 -179 33.5q-82 33.5 -142 92q-60 58.5 -93.5 138.5q-33.5 80 -33.5 174q0 91 33.5 171q33.5 80 93.5 139.5q60 59.5 142 93.5q82 34 179 34q91 0 169.5 -28.5q78.5 -28.5 136 -80q57.5 -51.5 90 -124q32.5 -72.5 32.5 -159.5q0 -51 -14.5 -99.5q-14.5 -48.5 -43 -87q-28.5 -38.5 -72 -61.5q-43.5 -23 -100.5 -23h-83zM502 65q39 0 73 18.5q34 18.5 53 40.5l0 232q-26 15 -54 22q-28 7 -56 7q-38 0 -69 -13q-31 -13 -52.5 -35.5q-21.5 -22.5 -33.5 -52q-12 -29.5 -12 -63.5q0 -74 42 -115t109 -41z" />
<glyph unicode="&#65;" horiz-adv-x="741" d="M5 70h56l256 630h102l260 -630h57v-70h-228v70h80l-59 142h-326l-58 -142h88v-70h-228zM498 292l-98 243q-8 19 -17.5 45q-9.5 26 -15.5 45l-3 0q-6 -19 -15.5 -45q-9.5 -26 -17.5 -45l-96 -243z" />
<glyph unicode="&#66;" horiz-adv-x="630" d="M133 70v560h-83v70h83q15 0 37.5 0.5q22.5 0.5 49 1q26.5 0.5 54 1q27.5 0.5 51.5 0.5q63 0 106 -13.5q43 -13.5 69.5 -36.5q26.5 -23 38 -55q11.5 -32 11.5 -68q0 -66 -34.5 -105.5q-34.5 -39.5 -85.5 -56.5l0 -2q66 -11 105.5 -52.5q39.5 -41.5 39.5 -113.5q0 -53 -19.5 -91.5q-19.5 -38.5 -53.5 -63.5q-34 -25 -80.5 -36.5q-46.5 -11.5 -100.5 -11.5q-47 0 -99 1.5q-52 1.5 -89 1.5h-83v70zM218 324v-253q17 -2 47.5 -3q30.5 -1 60.5 -1q78 0 121 36.5q43 36.5 43 101.5q0 56 -41.5 87.5q-41.5 31.5 -117.5 31.5zM330 389q28 0 52.5 8.5q24.5 8.5 43 24q18.5 15.5 29 38q10.5 22.5 10.5 51.5q0 55 -36 88.5q-36 33.5 -106 33.5q-28 0 -57 -1q-29 -1 -48 -2l0 -241z" />
<glyph unicode="&#67;" horiz-adv-x="690" d="M575 210h70v-210h-70v39q-34 -21 -80 -35q-46 -14 -100 -14q-80 0 -145 25.5q-65 25.5 -110.5 72.5q-45.5 47 -70 113.5q-24.5 66.5 -24.5 148.5q0 75 23.5 141q23.5 66 68.5 114.5q45 48.5 110 76.5q65 28 147 28q51 0 96.5 -12q45.5 -12 78.5 -32l0 34h70v-195h-70v84q-34 23 -78.5 34.5q-44.5 11.5 -95.5 11.5q-57 0 -105 -21q-48 -21 -82.5 -59q-34.5 -38 -53.5 -90.5q-19 -52.5 -19 -114.5q0 -63 20 -115q20 -52 56 -90q36 -38 86 -59q50 -21 111 -21q42 0 86.5 12.5q44.5 12.5 80.5 37.5z" />
<glyph unicode="&#68;" horiz-adv-x="762" d="M218 70q35 -1 53 -1.5q18 -0.5 34 -0.5q160 0 241 77.5q81 77.5 81 213.5q0 62 -19.5 112.5q-19.5 50.5 -59.5 86.5q-40 36 -101 55.5q-61 19.5 -145 19.5q-17 0 -37.5 -1q-20.5 -1 -46.5 -2zM133 70v560h-83v70h95q17 0 39 0.5q22 0.5 46 1q24 0.5 48.5 1q24.5 0.5 45.5 0.5q105 0 179.5 -28q74.5 -28 122 -75.5q47.5 -47.5 69.5 -109.5q22 -62 22 -131q0 -75 -25 -140.5q-25 -65.5 -75.5 -114.5q-50.5 -49 -125.5 -77.5q-75 -28.5 -175 -28.5q-35 0 -81 1q-46 1 -91 1h-94l0 70z" />
<glyph unicode="&#69;" horiz-adv-x="632" d="M50 70h83v560h-83v70h502v-195h-70v125h-264v-241h214v-70h-214v-249h284v141h70v-211l-522 0z" />
<glyph unicode="&#70;" horiz-adv-x="592" d="M50 70h83v560h-83v70h502v-195h-70v125h-264v-268h234v-70h-234v-222h115v-70l-283 0z" />
<glyph unicode="&#71;" horiz-adv-x="722" d="M662 356v-356h-70v43q-42 -24 -94 -38.5q-52 -14.5 -108 -14.5q-78 0 -141.5 25.5q-63.5 25.5 -109 72.5q-45.5 47 -70 113.5q-24.5 66.5 -24.5 148.5q0 75 24.5 141q24.5 66 69.5 114.5q45 48.5 108.5 76.5q63.5 28 141.5 28q109 0 180 -44l0 34h70v-195h-70v76q-31 27 -76 40.5q-45 13.5 -94 13.5q-59 0 -107.5 -21q-48.5 -21 -83 -58.5q-34.5 -37.5 -54 -90q-19.5 -52.5 -19.5 -115.5q0 -64 19.5 -116.5q19.5 -52.5 54.5 -90q35 -37.5 84 -58q49 -20.5 109 -20.5q25 0 52.5 4.5q27.5 4.5 53.5 13q26 8.5 48 19.5q22 11 36 25l0 159h-199l0 70z" />
<glyph unicode="&#72;" horiz-adv-x="821" d="M50 70h83v560h-83v70h248v-70h-80v-238h385v238h-80v70h248v-70h-83v-560h83v-70h-248v70h80v252h-385v-252h80v-70l-248 0z" />
<glyph unicode="&#73;" horiz-adv-x="371" d="M60 70h83v560h-83v70h251v-70h-83v-560h83v-70l-251 0z" />
<glyph unicode="&#74;" horiz-adv-x="373" d="M174 630h-102v70h271v-70h-84v-471q0 -79 -36 -124q-36 -45 -117 -45q-35 0 -61.5 8q-26.5 8 -45.5 22l30 67q12 -9 29.5 -15.5q17.5 -6.5 36.5 -6.5q46 0 62.5 29q16.5 29 16.5 74z" />
<glyph unicode="&#75;" horiz-adv-x="688" d="M50 70h83v560h-83v70h238v-70h-70v-560h80v-70h-248zM235 358l244 272h-59v70h228v-70h-68l-245 -264l255 -296h78v-70l-126 0z" />
<glyph unicode="&#76;" horiz-adv-x="592" d="M50 70h83v560h-83v70h258v-70h-90v-560h284v140h70v-210l-522 0z" />
<glyph unicode="&#77;" horiz-adv-x="948" d="M50 70h83v560h-83v70h169l263 -359l252 359h164v-70h-83v-560h83v-70h-248v70h80v496l-248 -348h-13l-251 345v-493h80v-70l-248 0z" />
<glyph unicode="&#78;" horiz-adv-x="825" d="M50 70h83v560h-83v70h151l427 -552v482h-81v70h248v-70h-87v-630h-68l-427 550v-480h85v-70l-248 0z" />
<glyph unicode="&#79;" horiz-adv-x="804" d="M402 -10q-76 0 -141.5 26.5q-65.5 26.5 -113.5 74q-48 47.5 -75 113.5q-27 66 -27 146q0 76 26.5 142q26.5 66 74 114.5q47.5 48.5 113 76q65.5 27.5 143.5 27.5q76 0 141.5 -26.5q65.5 -26.5 113.5 -74q48 -47.5 75 -113.5q27 -66 27 -146q0 -78 -27 -144q-27 -66 -75 -114q-48 -48 -113.5 -75q-65.5 -27 -141.5 -27zt0 0zM402 65q60 0 109 21q49 21 84.5 59q35.5 38 54.5 90.5q19 52.5 19 114.5q0 66 -20.5 118.5q-20.5 52.5 -56.5 89.5q-36 37 -85 57q-49 20 -105 20q-57 0 -106 -20q-49 -20 -84.5 -57q-35.5 -37 -56 -89.5q-20.5 -52.5 -20.5 -118.5q0 -62 20.5 -114q20.5 -52 56.5 -90q36 -38 85 -59.5t105 -21.5z" />
<glyph unicode="&#80;" horiz-adv-x="615" d="M50 70h83v560h-83v70h83q15 0 39 0.5q24 0.5 50.5 0.5q26.5 0 51.5 0.5q25 0.5 42 0.5q75 0 125 -18.5q50 -18.5 79.5 -49q29.5 -30.5 42 -69.5q12.5 -39 12.5 -80q0 -43 -15.5 -82.5q-15.5 -39.5 -46.5 -70q-31 -30.5 -78.5 -49q-47.5 -18.5 -111.5 -18.5q-21 0 -50 1q-29 1 -55 3l0 -199h110v-70h-278zM218 340q26 -2 51 -3.5q25 -1.5 51 -1.5q39 0 69.5 11q30.5 11 51.5 31.5q21 20.5 32.5 48q11.5 27.5 11.5 60.5q0 31 -9.5 58q-9.5 27 -29.5 46.5q-20 19.5 -50 30.5q-30 11 -72 11q-21 0 -51 -0.5q-30 -0.5 -55 -1.5z" />
<glyph unicode="&#81;" horiz-adv-x="804" d="M837 -125q-25 -23 -60.5 -36q-35.5 -13 -65.5 -13q-55 -1 -101 14q-46 15 -83 38.5q-37 23.5 -66 53q-29 29.5 -51 58.5q-83 0 -150 26.5q-67 26.5 -115 74q-48 47.5 -74 113.5q-26 66 -26 146q0 76 26.5 142q26.5 66 74 114.5q47.5 48.5 113 76q65.5 27.5 143.5 27.5q76 0 141.5 -26.5q65.5 -26.5 113.5 -74q48 -47.5 75 -113.5q27 -66 27 -146q0 -65 -18 -122q-18 -57 -51.5 -102q-33.5 -45 -80.5 -77q-47 -32 -105 -48q37 -43 88 -74q51 -31 110 -31q29 0 57 8.5q28 8.5 45 19.5zM408 65q58 0 106 20q48 20 82.5 57.5q34.5 37.5 53.5 90q19 52.5 19 117.5q0 66 -20.5 118.5q-20.5 52.5 -56.5 89.5q-36 37 -85 57q-49 20 -105 20q-57 0 -106 -20q-49 -20 -84.5 -57q-35.5 -37 -56 -89.5q-20.5 -52.5 -20.5 -118.5q0 -63 20.5 -115.5q20.5 -52.5 57.5 -90q37 -37.5 86.5 -58.5t108.5 -21z" />
<glyph unicode="&#82;" horiz-adv-x="667" d="M50 70h83v560h-83v70h83q15 0 43 0.5q28 0.5 58 0.5q30 0 54.5 0.5q24.5 0.5 32.5 0.5q72 0 119.5 -16.5q47.5 -16.5 76.5 -45q29 -28.5 41 -66.5q12 -38 12 -80q0 -41 -13 -74q-13 -33 -34 -58q-21 -25 -48.5 -42q-27.5 -17 -56.5 -24l178 -226h61v-70h-110l-215 280h-114v-210h80v-70h-248zM321 350q30 0 59 10.5q29 10.5 51 29.5q22 19 35.5 45.5q13.5 26.5 13.5 57.5q0 27 -8 52q-8 25 -27.5 44.5q-19.5 19.5 -51 31q-31.5 11.5 -77.5 11.5q-17 0 -45 -0.5q-28 -0.5 -53 -1.5l0 -280z" />
<glyph unicode="&#83;" horiz-adv-x="569" d="M70 0v210h70v-71q30 -38 70.5 -56q40.5 -18 86.5 -18q25 0 47.5 8q22.5 8 39 22.5q16.5 14.5 26 35.5q9.5 21 9.5 48q0 43 -25.5 69q-25.5 26 -63.5 45.5q-38 19.5 -82 36.5q-44 17 -82 41.5q-38 24.5 -63.5 61q-25.5 36.5 -25.5 94.5q0 38 14.5 71.5q14.5 33.5 41.5 58q27 24.5 66 39q39 14.5 89 14.5q42 0 76 -14q34 -14 60 -35l0 39h70v-195h-70v78q-26 23 -57.5 37.5q-31.5 14.5 -73.5 14.5q-59 0 -92.5 -30.5q-33.5 -30.5 -33.5 -77.5q0 -43 25.5 -69q25.5 -26 63.5 -44.5q38 -18.5 82 -35q44 -16.5 82 -40.5q38 -24 63.5 -61q25.5 -37 25.5 -97q0 -46 -17.5 -81.5q-17.5 -35.5 -46.5 -59.5q-29 -24 -67 -36.5q-38 -12.5 -79 -12.5q-53 0 -91.5 14.5q-38.5 14.5 -67.5 42.5l0 -47z" />
<glyph unicode="&#84;" horiz-adv-x="614" d="M173 70h91v560h-184v-125h-70v195h594v-195h-70v125h-184v-560h91v-70l-268 0z" />
<glyph unicode="&#85;" horiz-adv-x="755" d="M15 700h258v-70h-91v-320q0 -115 53 -179.5q53 -64.5 152 -64.5q87 0 136.5 59q49.5 59 49.5 179v326h-91v70h258v-70h-82v-338q0 -80 -22 -137q-22 -57 -59.5 -93.5q-37.5 -36.5 -86.5 -53.5q-49 -17 -103 -17q-63 0 -116 19.5q-53 19.5 -92 58q-39 38.5 -60.5 96q-21.5 57.5 -21.5 134.5v331l-82 0z" />
<glyph unicode="&#86;" horiz-adv-x="722" d="M67 630h-62v70h238v-70h-89l213 -517l208 517h-96v70h238v-70h-62l-259 -634l-63 0z" />
<glyph unicode="&#87;" horiz-adv-x="1024" d="M58 630h-53v70h228v-70h-87l146 -498l185 568h82l191 -567l135 497h-84v70h218v-70h-52l-182 -630h-78l-191 583l-189 -583l-78 0z" />
<glyph unicode="&#88;" horiz-adv-x="668" d="M15 70h59l212 288l-201 272h-60v70h238v-70h-85l159 -219l156 219h-88v70h238v-70h-57l-201 -274l210 -286h58v-70h-238v70h86l-167 233l-167 -233h86v-70l-238 0z" />
<glyph unicode="&#89;" horiz-adv-x="618" d="M172 70h93v230l-205 330h-55v70h223v-70h-75l158 -257l160 257h-81v70h223v-70h-56l-207 -330v-230h90v-70l-268 0z" />
<glyph unicode="&#90;" horiz-adv-x="634" d="M40 57l438 573h-348v-125h-70v195h525v-57l-440 -573h379v140h70v-210l-554 0z" />
<glyph unicode="&#91;" horiz-adv-x="320" d="M60 650h250v-70h-170v-710h170v-70l-250 0z" />
<glyph unicode="&#92;" horiz-adv-x="335" d="M-30 687l62 23l333 -895l-63 -23z" />
<glyph unicode="&#93;" horiz-adv-x="320" d="M10 -130h170v710h-170v70h250v-850l-250 0z" />
<glyph unicode="&#94;" horiz-adv-x="492" d="M220 708h54l178 -258h-87l-119 176l-119 -176l-87 0z" />
<glyph unicode="&#95;" horiz-adv-x="312" d="M0 -130h312v-70l-312 0z" />
<glyph unicode="&#96;" horiz-adv-x="290" d="M60 673l63 48l107 -156l-49 -34z" />
<glyph unicode="&#97;" horiz-adv-x="460" d="M390 96q0 -25 6.5 -31.5q6.5 -6.5 17.5 -6.5q8 0 14 2q6 2 14 6l13 -45q-9 -13 -27.5 -20.5q-18.5 -7.5 -39.5 -7.5q-21 0 -34.5 7.5q-13.5 7.5 -21 19.5q-7.5 12 -10.5 26.5q-3 14.5 -2 28.5q-7 -15 -20 -29.5q-13 -14.5 -31.5 -26.5q-18.5 -12 -41.5 -19q-23 -7 -49 -7q-73 0 -113 37.5q-40 37.5 -40 99.5q0 34 13 60.5q13 26.5 36.5 44q23.5 17.5 55.5 26.5q32 9 71 9q29 0 62 -6q33 -6 56 -18q1 10 1 19q0 9 0 18q0 28 -5 49.5q-5 21.5 -17 36.5q-12 15 -32 23q-20 8 -51 8q-23 0 -41 -4q-18 -4 -32 -11q3 -4 6.5 -13q3.5 -9 3.5 -18q0 -19 -13.5 -30.5q-13.5 -11.5 -34.5 -11.5q-25 0 -36.5 14.5q-11.5 14.5 -11.5 33.5q0 24 14 42.5q14 18.5 36.5 31q22.5 12.5 52 19.5q29.5 7 61.5 7q88 0 131.5 -43q43.5 -43 43.5 -113q0 -29 -1 -54.5q-1 -25.5 -1.5 -50q-0.5 -24.5 -1.5 -50q-1 -25.5 -1 -53.5zt0 0zM110 134q0 -31 22 -53.5q22 -22.5 69 -22.5q22 0 42 8.5q20 8.5 36 21q16 12.5 26 28q10 15.5 12 30.5l0 39q-44 25 -101 25q-51 0 -78.5 -18.5t-27.5 -57.5z" />
<glyph unicode="&#98;" horiz-adv-x="522" d="M-10 700h148v-293q24 22 61.5 37.5q37.5 15.5 78.5 15.5q50 0 90 -17q40 -17 67.5 -47q27.5 -30 42 -72q14.5 -42 14.5 -92q0 -56 -18 -100.5q-18 -44.5 -50.5 -76q-32.5 -31.5 -78.5 -48.5q-46 -17 -103 -17q-54 0 -103 14.5q-49 14.5 -81 37.5l0 598h-68zM138 86q48 -26 108 -26q76 0 118.5 45q42.5 45 42.5 121q0 76 -40.5 120q-40.5 44 -106.5 44q-39 0 -72 -16q-33 -16 -50 -37z" />
<glyph unicode="&#99;" horiz-adv-x="469" d="M30 225q0 49 17 92q17 43 47.5 74.5q30.5 31.5 72 50q41.5 18.5 91.5 18.5q40 0 73.5 -7.5q33.5 -7.5 58 -21q24.5 -13.5 38 -34q13.5 -20.5 13.5 -45.5q0 -23 -17 -39.5q-17 -16.5 -40 -16.5q-23 0 -39.5 16.5q-16.5 16.5 -16.5 39.5q0 11 5 23q-14 8 -27.5 11.5q-13.5 3.5 -30.5 3.5q-36 0 -65.5 -12.5q-29.5 -12.5 -50.5 -34.5q-21 -22 -32.5 -52q-11.5 -30 -11.5 -66q0 -37 13 -66.5q13 -29.5 35 -50.5q22 -21 51.5 -32q29.5 -11 62.5 -11q41 0 73.5 16q32.5 16 55.5 42l38 -58q-29 -37 -75 -56q-46 -19 -98 -19q-54 0 -98 16.5q-44 16.5 -76 47.5q-32 31 -49.5 74.5t-17.5 96.5z" />
<glyph unicode="&#100;" horiz-adv-x="543" d="M528 60v-60h-138v57q-25 -27 -61 -46q-36 -19 -82 -19q-50 0 -90 16.5q-40 16.5 -68 46.5q-28 30 -43.5 72.5q-15.5 42.5 -15.5 94.5q0 52 18.5 96q18.5 44 51.5 75.5q33 31.5 78 49q45 17.5 98 17.5q36 0 63.5 -7.5q27.5 -7.5 50.5 -24.5l0 212h-68v60h148v-640zM262 62q39 0 73 18.5q34 18.5 55 41.5l0 233q-55 35 -111 35q-33 0 -63 -12q-30 -12 -52.5 -34q-22.5 -22 -35.5 -52.5q-13 -30.5 -13 -67.5q0 -37 11 -67q11 -30 31 -51q20 -21 46.5 -32.5t58.5 -11.5z" />
<glyph unicode="&#101;" horiz-adv-x="501" d="M115 200q2 -34 15.5 -60q13.5 -26 35 -44q21.5 -18 50 -27q28.5 -9 61.5 -9q44 0 76 13q32 13 54 33l33 -57q-33 -30 -78.5 -44.5q-45.5 -14.5 -90.5 -14.5q-55 0 -99.5 16.5q-44.5 16.5 -76 47.5q-31.5 31 -48.5 74.5q-17 43.5 -17 96.5q0 49 15.5 92q15.5 43 45 74.5q29.5 31.5 72.5 50q43 18.5 99 18.5q43 0 81.5 -15q38.5 -15 66.5 -42q28 -27 44.5 -65q16.5 -38 16.5 -84q0 -31 -5 -54zM388 260q-2 28 -10 51.5q-8 23.5 -24 41q-16 17.5 -39.5 27.5q-23.5 10 -56.5 10q-35 0 -61.5 -11q-26.5 -11 -44.5 -29q-18 -18 -27.5 -41.5q-9.5 -23.5 -9.5 -48.5z" />
<glyph unicode="&#102;" horiz-adv-x="315" d="M35 60h68v330h-68v59h68v74q0 187 171 187q51 0 83.5 -22q32.5 -22 32.5 -62q0 -22 -16.5 -38q-16.5 -16 -39.5 -16q-22 0 -35.5 13.5q-13.5 13.5 -13.5 30.5q0 8 3.5 17.5q3.5 9.5 6.5 11.5q-2 2 -9 3.5q-7 1.5 -12 1.5q-43 0 -67 -33q-24 -33 -24 -103v-64h120v-60h-120v-330h102v-60l-250 0z" />
<glyph unicode="&#103;" horiz-adv-x="480" d="M228 138q-8 0 -15 0q-7 0 -15 1q-5 -6 -6.5 -15q-1.5 -9 -1.5 -15q0 -18 12 -30q7 0 13.5 0.5q6.5 0.5 13.5 0.5q49 0 91 -9q42 -9 72.5 -27q30.5 -18 48 -45q17.5 -27 17.5 -64q0 -36 -17.5 -63q-17.5 -27 -48 -44.5q-30.5 -17.5 -72.5 -26.5q-42 -9 -91 -9q-49 0 -91 8.5q-42 8.5 -72.5 26q-30.5 17.5 -48 44.5q-17.5 27 -17.5 64q0 31 12 54q12 23 32 39.5q20 16.5 46 27q26 10.5 54 16.5q-6 8 -10 17.5q-4 9.5 -4 19.5q0 11 4.5 23.5q4.5 12.5 10.5 19.5q-44 17 -72.5 52.5q-28.5 35.5 -28.5 90.5q0 34 13 64q13 30 37 52.5q24 22.5 58 35.5q34 13 76 13q37 0 71 -12q34 -12 60 -35q20 1 32 13q-14 14 -14 36q0 21 15 36.5q15 15.5 36 15.5q21 0 36.5 -15.5q15.5 -15.5 15.5 -36.5q0 -17 -8.5 -31.5q-8.5 -14.5 -21 -26q-12.5 -11.5 -28 -19.5q-15.5 -8 -30.5 -12q20 -34 20 -78q0 -34 -13 -62.5q-13 -28.5 -37 -49.5q-24 -21 -58 -33q-34 -12 -76 -12zt0 0zM229 -143q70 0 112 20q42 20 42 58q0 38 -41 61.5q-41 23.5 -113 23.5q-72 0 -113 -23.5q-41 -23.5 -41 -61.5q0 -38 42 -58q42 -20 112 -20zt0 0zM228 198q48 0 78.5 26.5q30.5 26.5 30.5 70.5q0 42 -29 71q-29 29 -80 29q-50 0 -79.5 -29q-29.5 -29 -29.5 -71q0 -42 29.5 -69.5t79.5 -27.5z" />
<glyph unicode="&#104;" horiz-adv-x="562" d="M23 60h60v580h-68v60h148v-302q25 26 64.5 43q39.5 17 82.5 17q88 0 137.5 -47q49.5 -47 49.5 -153v-198h55v-60h-190v60h55v187q0 68 -31.5 104.5q-31.5 36.5 -94.5 36.5q-38 0 -72.5 -16.5q-34.5 -16.5 -55.5 -40.5l0 -271h50v-60l-190 0z" />
<glyph unicode="&#105;" horiz-adv-x="265" d="M35 60h58v330h-58v60h138v-390h62v-60h-200zM130 587q-25 0 -43 15.5q-18 15.5 -18 44.5q0 26 18 41q18 15 43 15q22 0 39.5 -15q17.5 -15 17.5 -41q0 -29 -17.5 -44.5t-39.5 -15.5z" />
<glyph unicode="&#106;" horiz-adv-x="242" d="M30 450h139v-483q0 -83 -33 -129q-33 -46 -108 -46q-16 0 -34.5 4q-18.5 4 -35 13.5q-16.5 9.5 -27.5 25q-11 15.5 -11 38.5q0 24 14.5 39q14.5 15 40.5 15q29 0 41.5 -15q12.5 -15 12.5 -32q0 -11 -6 -20q9 -3 16 -3q29 0 39.5 27.5q10.5 27.5 10.5 78.5v189v238h-59zM125 587q-25 0 -43 15.5q-18 15.5 -18 44.5q0 26 18 41q18 15 43 15q22 0 39.5 -15q17.5 -15 17.5 -41q0 -29 -17.5 -44.5t-39.5 -15.5z" />
<glyph unicode="&#107;" horiz-adv-x="497" d="M23 60h60v580h-68v60h148v-640h50v-60h-190zM183 232l145 158h-56v60h190v-60h-43l-142 -149l161 -181h44v-60l-99 0z" />
<glyph unicode="&#108;" horiz-adv-x="281" d="M281 26q-18 -14 -44.5 -24q-26.5 -10 -61.5 -10q-102 0 -102 128v520h-68v60h148v-554q0 -46 12 -67.5q12 -21.5 41 -21.5q17 0 31.5 6q14.5 6 25.5 14z" />
<glyph unicode="&#109;" horiz-adv-x="826" d="M35 60h58v330h-58v60h138v-57q25 29 65 47q40 18 84 18q53 0 88 -21.5q35 -21.5 48 -56.5q24 35 65.5 56.5q41.5 21.5 92.5 21.5q31 0 57.5 -8q26.5 -8 46 -27q19.5 -19 30.5 -50.5q11 -31.5 11 -77.5v-235h55v-60h-191v60h56v218q0 110 -97 110q-41 0 -71.5 -18.5q-30.5 -18.5 -46.5 -46.5q1 -6 1 -15q0 -9 0 -17v-231h55v-60h-192v60h57v235q0 42 -24 67.5q-24 25.5 -72 25.5q-39 0 -70 -18q-31 -18 -48 -43l0 -267h57v-60l-195 0z" />
<glyph unicode="&#110;" horiz-adv-x="572" d="M35 60h58v330h-58v60h138v-55q23 26 62.5 44.5q39.5 18.5 84.5 18.5q88 0 137.5 -46q49.5 -46 49.5 -152v-200h55v-60h-190v60h55v190q0 71 -32 104.5q-32 33.5 -95 33.5q-38 0 -71.5 -16.5q-33.5 -16.5 -55.5 -41.5l0 -270h55v-60l-193 0z" />
<glyph unicode="&#111;" horiz-adv-x="540" d="M270 -10q-58 0 -103 17.5q-45 17.5 -75.5 49q-30.5 31.5 -46 74.5q-15.5 43 -15.5 94q0 51 17 94q17 43 48.5 74.5q31.5 31.5 76 49q44.5 17.5 98.5 17.5q56 0 100.5 -17.5q44.5 -17.5 75.5 -49q31 -31.5 47.5 -74.5q16.5 -43 16.5 -94q0 -51 -17.5 -94q-17.5 -43 -49 -74.5q-31.5 -31.5 -75.5 -49q-44 -17.5 -98 -17.5zt0 0zM270 60q68 0 111.5 42.5q43.5 42.5 43.5 122.5q0 39 -11.5 69.5q-11.5 30.5 -32 52q-20.5 21.5 -49 32.5q-28.5 11 -62.5 11q-33 0 -61.5 -11q-28.5 -11 -49 -32q-20.5 -21 -32.5 -52q-12 -31 -12 -70q0 -39 11.5 -69.5q11.5 -30.5 32 -52q20.5 -21.5 49 -32.5t62.5 -11z" />
<glyph unicode="&#112;" horiz-adv-x="559" d="M30 -140h58v530h-58v60h138v-53q23 27 64.5 45q41.5 18 88.5 18q48 0 86.5 -17q38.5 -17 65.5 -47q27 -30 41.5 -72q14.5 -42 14.5 -92q0 -51 -16.5 -95.5q-16.5 -44.5 -47.5 -77q-31 -32.5 -74 -51q-43 -18.5 -96 -18.5q-36 0 -69.5 7.5q-33.5 7.5 -57.5 23.5l0 -161h72v-60h-210zM168 95q30 -20 59 -27.5q29 -7.5 61 -7.5q72 0 114 45q42 45 42 124q0 76 -38 118.5q-38 42.5 -108 42.5q-40 0 -74.5 -18q-34.5 -18 -55.5 -44z" />
<glyph unicode="&#113;" horiz-adv-x="527" d="M312 -140h80v176q-27 -21 -62 -33.5q-35 -12.5 -69 -12.5q-53 0 -95.5 16.5q-42.5 16.5 -72.5 47.5q-30 31 -46.5 74.5q-16.5 43.5 -16.5 96.5q0 49 19 92q19 43 52.5 74.5q33.5 31.5 80 50q46.5 18.5 101.5 18.5q54 0 104 -14.5q50 -14.5 85 -36.5l0 -549h50v-60h-210zM271 60q36 0 69.5 16q33.5 16 51.5 38l0 247q-26 15 -54 22q-28 7 -56 7q-38 0 -69 -12.5q-31 -12.5 -52.5 -34.5q-21.5 -22 -33.5 -53.5q-12 -31.5 -12 -68.5q0 -77 42.5 -119t113.5 -42z" />
<glyph unicode="&#114;" horiz-adv-x="371" d="M35 60h58v330h-58v60h138v-53q17 26 43.5 43.5q26.5 17.5 69.5 17.5q41 0 58 -18.5q17 -18.5 17 -48.5q0 -22 -16 -37.5q-16 -15.5 -39 -15.5q-22 0 -37.5 13.5q-15.5 13.5 -15.5 35.5v6q-32 -5 -50.5 -25q-18.5 -20 -29.5 -43l0 -265h82v-60l-220 0z" />
<glyph unicode="&#115;" horiz-adv-x="420" d="M80 112q10 -11 26 -21.5q16 -10.5 34.5 -18.5q18.5 -8 38 -12.5q19.5 -4.5 36.5 -4.5q45 0 67.5 18q22.5 18 22.5 49q0 23 -19 35q-19 12 -48 20.5q-29 8.5 -62 17q-33 8.5 -62 24q-29 15.5 -48 41.5q-19 26 -19 70q0 31 14.5 55q14.5 24 38.5 40.5q24 16.5 56 25.5q32 9 67 9q27 0 53.5 -7.5q26.5 -7.5 47.5 -20q21 -12.5 34 -30q13 -17.5 13 -37.5q0 -21 -15.5 -36q-15.5 -15 -36.5 -15q-21 0 -36 13.5q-15 13.5 -15 34.5q0 4 1.5 11q1.5 7 2.5 11q-9 5 -23.5 8q-14.5 3 -28.5 3q-42 0 -67.5 -16.5q-25.5 -16.5 -25.5 -44.5q0 -26 19 -40.5q19 -14.5 48 -24.5q29 -10 62 -19q33 -9 62 -23q29 -14 48 -38q19 -24 19 -63q0 -36 -15.5 -61.5q-15.5 -25.5 -40.5 -42q-25 -16.5 -57 -24.5q-32 -8 -66 -8q-27 0 -54.5 6.5q-27.5 6.5 -50.5 16.5q-23 10 -40.5 22.5q-17.5 12.5 -25.5 24.5z" />
<glyph unicode="&#116;" horiz-adv-x="344" d="M329 30q-18 -15 -47.5 -26.5q-29.5 -11.5 -67.5 -11.5q-76 0 -108.5 46q-32.5 46 -32.5 133v219h-58v60h58v125h80v-125h165v-60h-165v-216q0 -54 18.5 -83q18.5 -29 61.5 -29q23 0 41 8q18 8 30 17z" />
<glyph unicode="&#117;" horiz-adv-x="548" d="M20 450h138q0 -63 -2 -128q-2 -65 -2 -127q0 -64 27 -99.5q27 -35.5 89 -35.5q39 0 73.5 20q34.5 20 55.5 47l0 263h-58v60h138v-390h58v-60h-138v64q-23 -29 -64 -51.5q-41 -22.5 -95 -22.5q-75 0 -120.5 46.5q-45.5 46.5 -45.5 145.5q0 52 1 103q1 51 2 105l-57 0z" />
<glyph unicode="&#118;" horiz-adv-x="513" d="M45 390h-43v60h190v-60h-63l90 -200q10 -22 23 -52q13 -30 21 -55q4 12 11 28q7 16 13.5 31.5q6.5 15.5 12.5 29q6 13.5 9 20.5l84 198h-72v60h190v-60h-43l-171 -394l-72 0z" />
<glyph unicode="&#119;" horiz-adv-x="738" d="M45 390h-40v60h180v-60h-64l75 -238q5 -17 8.5 -32q3.5 -15 8.5 -31q5 15 8.5 29.5q3.5 14.5 10.5 33.5l112 298h57l113 -297q6 -16 11 -32q5 -16 10 -33q7 34 18 69l70 233h-70v60h180v-60h-40l-125 -394h-70l-112 293q-5 14 -9 27.5q-4 13.5 -8 27.5q-5 -16 -9 -30q-4 -14 -10 -28l-109 -290l-66 0z" />
<glyph unicode="&#120;" horiz-adv-x="513" d="M77 60l140 168l-123 162h-59v60h107l123 -170l86 110h-52v60h180v-60h-45l-131 -155l132 -175h53v-60h-99l-133 182l-97 -122h56v-60h-190l0 60z" />
<glyph unicode="&#121;" horiz-adv-x="500" d="M43 390h-33v60h185v-60h-66l114 -246q8 -17 14 -34q6 -17 13 -34q9 33 21 69l92 245h-65v60h177v-60h-32l-157 -390q-25 -60 -46 -99q-21 -39 -41 -61.5q-20 -22.5 -40.5 -31q-20.5 -8.5 -44.5 -8.5q-18 0 -32 6.5q-14 6.5 -23.5 17q-9.5 10.5 -14 23q-4.5 12.5 -4.5 24.5q0 21 15 36.5q15 15.5 36 15.5q20 0 32 -10.5q12 -10.5 14 -25.5q0 -3 0 -6.5q0 -3.5 -1 -7.5q19 5 33.5 33.5q14.5 28.5 31.5 69.5l10 24z" />
<glyph unicode="&#122;" horiz-adv-x="450" d="M30 56l301 329h-222v-95h-65v160h381v-56l-302 -329h232v95h65v-160l-390 0z" />
<glyph unicode="&#123;" horiz-adv-x="335" d="M315 -130v-70h-71q-65 0 -99.5 31q-34.5 31 -34.5 104v157q0 30 -8.5 49.5q-8.5 19.5 -21.5 30.5q-13 11 -29 15.5q-16 4.5 -31 4.5l0 65q13 0 29 5q16 5 29.5 18q13.5 13 22.5 35q9 22 9 55v139q0 69 30 105q30 36 108 36h67v-70h-48q-43 0 -60 -21q-17 -21 -17 -72v-147q0 -49 -20.5 -79q-20.5 -30 -54.5 -35q32 -4 53.5 -30q21.5 -26 21.5 -84v-150q0 -50 20 -71q20 -21 63 -21z" />
<glyph unicode="&#124;" horiz-adv-x="330" d="M125 700h80v-700l-80 0z" />
<glyph unicode="&#125;" horiz-adv-x="335" d="M20 -130h42q43 0 63 21q20 21 20 71v150q0 58 21.5 84q21.5 26 53.5 30q-34 5 -54.5 35q-20.5 30 -20.5 79v147q0 51 -17.5 72q-17.5 21 -59.5 21h-48v70h67q77 0 107.5 -36.5q30.5 -36.5 30.5 -104.5v-139q0 -33 9 -55q9 -22 22.5 -34.5q13.5 -12.5 29 -17.5q15.5 -5 29.5 -5l0 -65q-15 0 -31 -4.5q-16 -4.5 -29 -16q-13 -11.5 -21.5 -31q-8.5 -19.5 -8.5 -49.5v-157q0 -73 -34.5 -104q-34.5 -31 -100.5 -31l-70 0z" />
<glyph unicode="&#126;" horiz-adv-x="592" d="M541 349q-29 -27 -60.5 -43.5q-31.5 -16.5 -63.5 -16.5q-30 0 -59 11q-29 11 -57 24.5q-28 13.5 -56 24.5q-28 11 -55 11q-29 0 -55.5 -16q-26.5 -16 -48.5 -37l-36 51q32 34 67 53q35 19 69 19q31 0 60 -11q29 -11 57.5 -24.5q28.5 -13.5 57 -24.5q28.5 -11 57.5 -11q23 0 47 12.5q24 12.5 44 32.5z" />
<glyph unicode="&#160;" horiz-adv-x="240" />
<glyph unicode="&#161;" horiz-adv-x="310" d="M196 -246h-85v485h85zM229 384q0 -26 -21 -48.5q-21 -22.5 -55 -22.5q-16 0 -29 6q-13 6 -22.5 16q-9.5 10 -14.5 23q-5 13 -5 26q0 30 19.5 53q19.5 23 51.5 23q35 0 55.5 -23t20.5 -53z" />
<glyph unicode="&#162;" horiz-adv-x="592" d="M280 -6q-44 7 -79 26.5q-35 19.5 -60 49.5q-25 30 -38.5 69q-13.5 39 -13.5 86q0 44 14 83.5q14 39.5 39 70q25 30.5 60.5 51q35.5 20.5 77.5 27.5l0 109h80v-108q31 0 58 -9.5q27 -9.5 46.5 -25q19.5 -15.5 30.5 -35.5q11 -20 11 -41q0 -22 -15.5 -37.5q-15.5 -15.5 -37.5 -15.5q-22 0 -37.5 15.5q-15.5 15.5 -15.5 37.5q0 5 0.5 12q0.5 7 2.5 12q-17 12 -35 15.5q-18 3.5 -40 3.5q-30 0 -58 -12.5q-28 -12.5 -49.5 -34.5q-21.5 -22 -34 -52q-12.5 -30 -12.5 -66q0 -37 13 -67q13 -30 35 -51.5q22 -21.5 51.5 -33q29.5 -11.5 62.5 -11.5q41 0 73.5 16q32.5 16 55.5 42l38 -55q-25 -32 -62 -50q-37 -18 -81 -23l0 -112l-80 0z" />
<glyph unicode="&#163;" horiz-adv-x="592" d="M38 56q20 22 41 36.5q21 14.5 43 23.5q22 28 37 61q15 33 15 74q0 6 0 12q0 6 -1 12l-98 0v65h79q-8 19 -17.5 37.5q-9.5 18.5 -17.5 39q-8 20.5 -13.5 44q-5.5 23.5 -5.5 53.5q0 39 15 74.5q15 35.5 43.5 62q28.5 26.5 68 42q39.5 15.5 89.5 15.5q38 0 73.5 -8q35.5 -8 63 -23.5q27.5 -15.5 44 -37.5q16.5 -22 16.5 -50q0 -23 -16.5 -39q-16.5 -16 -39.5 -16q-23 0 -39 16q-16 16 -16 39q0 5 1 12.5q1 7.5 3 12.5q-16 13 -40 16q-24 3 -48 3q-29 0 -53 -10.5q-24 -10.5 -40.5 -28q-16.5 -17.5 -25.5 -39.5q-9 -22 -9 -46q0 -28 6 -49.5q6 -21.5 15 -41q9 -19.5 18.5 -38q9.5 -18.5 17.5 -40.5l162 0v-65h-151q1 -5 1 -10q0 -5 0 -10q0 -38 -17 -70q-17 -32 -37 -58q28 0 54.5 -8q26.5 -8 52 -17.5q25.5 -9.5 50.5 -17.5q25 -8 51 -8q28 0 54 9q26 9 55 37l36 -62q-32 -32 -70 -48q-38 -16 -77 -16q-29 0 -57.5 8q-28.5 8 -56.5 18q-28 10 -56.5 18q-28.5 8 -57.5 8q-29 0 -57 -14.5q-28 -14.5 -54 -40.5z" />
<glyph unicode="&#164;" horiz-adv-x="592" d="M23 121l87 89q-20 29 -30.5 63.5q-10.5 34.5 -10.5 71.5q0 76 41 135l-83 85l50 50l83 -85q27 20 61 31q34 11 75 11q41 0 74.5 -11q33.5 -11 60.5 -30l88 87l50 -50l-88 -87q20 -29 31 -64q11 -35 11 -72q0 -76 -42 -135l85 -85l-49 -49l-85 84q-27 -20 -61 -31q-34 -11 -75 -11q-42 0 -75.5 11q-33.5 11 -60.5 31l-88 -88zM296 188q37 0 65 12.5q28 12.5 47.5 34q19.5 21.5 29.5 50q10 28.5 10 60.5q0 33 -10.5 61.5q-10.5 28.5 -30 50q-19.5 21.5 -47.5 33.5q-28 12 -64 12q-35 0 -63.5 -12.5q-28.5 -12.5 -48 -33.5q-19.5 -21 -30 -49.5q-10.5 -28.5 -10.5 -61.5q0 -32 10.5 -60.5q10.5 -28.5 30 -50q19.5 -21.5 47.5 -34t64 -12.5z" />
<glyph unicode="&#165;" horiz-adv-x="592" d="M159 70h93v89h-184v65h184v75h-184v65h146l-155 266h-66v70h223v-70h-60l142 -250l142 250h-62v70h223v-70h-70l-156 -266h147v-65h-185v-75h185v-65h-185v-89h90v-70l-268 0z" />
<glyph unicode="&#166;" horiz-adv-x="330" d="M125 260h80v-260h-80zM125 700h80v-260l-80 0z" />
<glyph unicode="&#167;" horiz-adv-x="524" d="M101 -105q0 23 16 39.5q16 16.5 39 16.5q23 0 39.5 -16.5q16.5 -16.5 16.5 -39.5q0 -5 -2 -15q15 -5 34 -5q35 0 58.5 18q23.5 18 24.5 53q1 26 -18.5 45.5q-19.5 19.5 -48.5 37.5q-29 18 -63 36.5q-34 18.5 -63.5 43.5q-29.5 25 -49 58.5q-19.5 33.5 -19.5 81.5q0 31 10.5 58.5q10.5 27.5 28.5 50q18 22.5 42 39q24 16.5 51 27.5q-34 19 -58 53q-24 34 -24 82q0 29 11 55q11 26 31.5 45q20.5 19 50.5 30q30 11 68 11q30 0 57 -7.5q27 -7.5 47 -21q20 -13.5 32 -32q12 -18.5 12 -39.5q0 -23 -16.5 -39q-16.5 -16 -39.5 -16q-23 0 -39 16q-16 16 -16 39q0 9 3 18q-8 3 -17.5 5q-9.5 2 -20.5 2q-45 0 -64 -18q-19 -18 -19 -50q0 -34 19.5 -56.5q19.5 -22.5 49 -40q29.5 -17.5 63.5 -33.5q34 -16 63.5 -39q29.5 -23 49 -56q19.5 -33 19.5 -83q0 -63 -36 -106q-36 -43 -91 -73q33 -19 54 -50q21 -31 21 -79q0 -29 -11 -55q-11 -26 -31.5 -45q-20.5 -19 -50.5 -30q-30 -11 -68 -11q-29 0 -55.5 7.5q-26.5 7.5 -46.5 20q-20 12.5 -31.5 30q-11.5 17.5 -11.5 37.5zt0 0zM278 109q42 18 71.5 56q29.5 38 29.5 84q0 46 -38 79.5q-38 33.5 -96 55.5q-49 -22 -74.5 -55q-25.5 -33 -25.5 -80q0 -46 36 -80t97 -60z" />
<glyph unicode="&#168;" horiz-adv-x="415" d="M112 596q-22 0 -39 14q-17 14 -17 41q0 24 17 39q17 15 39 15q20 0 36.5 -15q16.5 -15 16.5 -39q0 -27 -16.5 -41q-16.5 -14 -36.5 -14zt0 0zM307 596q-22 0 -39 14q-17 14 -17 41q0 24 17 39q17 15 39 15q20 0 36.5 -15q16.5 -15 16.5 -39q0 -27 -16.5 -41t-36.5 -14z" />
<glyph unicode="&#169;" horiz-adv-x="1018" d="M509 -213q-93 0 -172 34q-79 34 -137.5 92.5q-58.5 58.5 -91.5 137.5q-33 79 -33 170q0 91 33 170q33 79 91.5 137.5q58.5 58.5 137.5 92.5q79 34 172 34q93 0 172 -34q79 -34 137.5 -92.5q58.5 -58.5 91.5 -137.5q33 -79 33 -170q0 -91 -33 -170q-33 -79 -91.5 -137.5q-58.5 -58.5 -137.5 -92.5q-79 -34 -172 -34zt0 0zM509 -143q78 0 145 28.5q67 28.5 115.5 78q48.5 49.5 76 115.5q27.5 66 27.5 141q0 75 -27.5 141.5q-27.5 66.5 -76 116q-48.5 49.5 -115.5 78.5q-67 29 -145 29q-79 0 -145.5 -29q-66.5 -29 -115 -78.5q-48.5 -49.5 -76 -116q-27.5 -66.5 -27.5 -141.5q0 -75 27.5 -141q27.5 -66 76 -115.5q48.5 -49.5 115 -78q66.5 -28.5 145.5 -28.5zt0 0zM275 225q0 49 17 92q17 43 47.5 74.5q30.5 31.5 72 50q41.5 18.5 91.5 18.5q40 0 73.5 -7.5q33.5 -7.5 58 -21q24.5 -13.5 38 -34q13.5 -20.5 13.5 -45.5q0 -23 -17 -39.5q-17 -16.5 -40 -16.5q-23 0 -39.5 16.5q-16.5 16.5 -16.5 39.5q0 11 5 23q-14 8 -27.5 11.5q-13.5 3.5 -30.5 3.5q-36 0 -65.5 -12.5q-29.5 -12.5 -50.5 -34.5q-21 -22 -32.5 -52q-11.5 -30 -11.5 -66q0 -37 13 -66.5q13 -29.5 35 -50.5q22 -21 51.5 -32q29.5 -11 62.5 -11q41 0 73.5 16q32.5 16 55.5 42l38 -58q-29 -37 -75 -56q-46 -19 -98 -19q-54 0 -98 16.5q-44 16.5 -76 47.5q-32 31 -49.5 74.5t-17.5 96.5z" />
<glyph unicode="&#170;" horiz-adv-x="405" d="M381 395v-45h-118v43q-13 -21 -41 -36q-28 -15 -67 -15q-61 0 -90.5 26q-29.5 26 -29.5 66q0 39 32.5 65q32.5 26 106.5 26q27 0 50.5 -5q23.5 -5 40.5 -13q1 7 1 13.5q0 6.5 0 13.5q0 37 -16.5 60.5q-16.5 23.5 -59.5 23.5q-20 0 -34.5 -4.5q-14.5 -4.5 -19.5 -9.5q2 -4 5 -10.5q3 -6.5 3 -12.5q0 -16 -11 -26q-11 -10 -31 -10q-17 0 -28 10.5q-11 10.5 -11 28.5q0 19 11 34.5q11 15.5 29 26q18 10.5 41.5 16q23.5 5.5 49.5 5.5q78 0 110 -30.5q32 -30.5 32 -88.5q0 -19 -0.5 -35.5q-0.5 -16.5 -1.5 -34q-1 -17.5 -1 -37q0 -19.5 0 -45.5zM110 437q0 -18 15 -32.5q15 -14.5 53 -14.5q32 0 53 12q21 12 33 26l0 41q-17 8 -33.5 12.5q-16.5 4.5 -40.5 4.5q-42 0 -61 -13.5t-19 -35.5z" />
<glyph unicode="&#171;" horiz-adv-x="530" d="M45 248v4l188 216l52 -46l-148 -172l147 -173l-54 -47zM235 248v4l188 216l52 -46l-148 -172l147 -173l-54 -47z" />
<glyph unicode="&#172;" horiz-adv-x="592" d="M533 395v-201h-70v131h-404l0 70z" />
<glyph unicode="&#173;" horiz-adv-x="389" d="M75 310h239v-75l-239 0z" />
<glyph unicode="&#174;" horiz-adv-x="618" d="M310 236q-54 0 -101.5 20.5q-47.5 20.5 -83 55.5q-35.5 35 -55.5 83q-20 48 -20 102q0 53 20 100q20 47 55.5 82q35.5 35 83 55.5q47.5 20.5 101.5 20.5q53 0 100 -20.5q47 -20.5 82 -55.5q35 -35 55.5 -82q20.5 -47 20.5 -100q0 -54 -20.5 -102q-20.5 -48 -55.5 -83q-35 -35 -82 -55.5q-47 -20.5 -100 -20.5zt0 0zM309 301q40 0 75.5 15.5q35.5 15.5 61.5 42q26 26.5 41.5 62q15.5 35.5 15.5 75.5q0 40 -15.5 75.5q-15.5 35.5 -41.5 61.5q-26 26 -61.5 41.5q-35.5 15.5 -75.5 15.5q-40 0 -75.5 -15.5q-35.5 -15.5 -61.5 -41.5q-26 -26 -41.5 -61.5q-15.5 -35.5 -15.5 -75.5q0 -40 15.5 -75.5q15.5 -35.5 41.5 -62q26 -26.5 61.5 -42q35.5 -15.5 75.5 -15.5zt0 0zM211 640h98q59 0 83.5 -25q24.5 -25 24.5 -62q0 -29 -17 -51q-17 -22 -43 -30l74 -112h-65l-63 101h-37v-101h-55zM305 501q24 0 40.5 14q16.5 14 16.5 37q0 22 -15.5 35q-15.5 13 -44.5 13h-36l0 -99z" />
<glyph unicode="&#175;" horiz-adv-x="384" d="M60 645h264v-65l-264 0z" />
<glyph unicode="&#176;" horiz-adv-x="410" d="M204 415q-32 0 -60 12q-28 12 -49 32.5q-21 20.5 -33 48.5q-12 28 -12 61q0 33 12 61.5q12 28.5 33 49.5q21 21 49 33q28 12 60 12q32 0 60.5 -11.5q28.5 -11.5 49.5 -31.5q21 -20 33.5 -48.5q12.5 -28.5 12.5 -61.5q0 -33 -12.5 -61.5q-12.5 -28.5 -33.5 -49.5q-21 -21 -49.5 -33.5q-28.5 -12.5 -60.5 -12.5zt0 0zM205 485q17 0 32.5 6.5q15.5 6.5 27 18q11.5 11.5 18.5 27q7 15.5 7 33.5q0 35 -25 60q-25 25 -60 25q-18 0 -33.5 -7q-15.5 -7 -27 -18.5q-11.5 -11.5 -18 -27q-6.5 -15.5 -6.5 -32.5q0 -35 25 -60t60 -25z" />
<glyph unicode="&#177;" horiz-adv-x="592" d="M257 410h-188v70h188v191h75v-191h191v-70h-191v-123h-75zM69 235h454v-70l-454 0z" />
<glyph unicode="&#178;" horiz-adv-x="374" d="M25 399q38 15 77.5 36q39.5 21 71.5 45.5q32 24.5 52.5 52q20.5 27.5 20.5 56.5q0 55 -70 55q-36 0 -57 -20q10 -7 14 -18q4 -11 4 -20q0 -18 -12.5 -31q-12.5 -13 -35.5 -13q-22 0 -35.5 14q-13.5 14 -13.5 39q0 21 10 40.5q10 19.5 28 35q18 15.5 44.5 24.5q26.5 9 59.5 9q71 0 104.5 -29q33.5 -29 33.5 -72q0 -38 -22.5 -69.5q-22.5 -31.5 -53 -56.5q-30.5 -25 -61.5 -42q-31 -17 -47 -25l141 0v48h56v-108l-309 0z" />
<glyph unicode="&#179;" horiz-adv-x="376" d="M137 505v45h31q44 0 61 16.5q17 16.5 17 37.5q0 20 -14.5 35q-14.5 15 -56.5 15q-17 0 -31.5 -3q-14.5 -3 -22.5 -11q2 -5 5 -13q3 -8 3 -13q0 -17 -10 -29q-10 -12 -30 -12q-20 0 -33.5 11.5q-13.5 11.5 -13.5 34.5q0 21 11.5 37.5q11.5 16.5 31 27.5q19.5 11 45.5 17q26 6 55 6q69 0 102 -23.5q33 -23.5 33 -65.5q0 -29 -16 -50q-16 -21 -51 -32l0 -3q47 -5 65 -29q18 -24 18 -55q0 -51 -44 -78.5q-44 -27.5 -117 -27.5q-33 0 -61 8q-28 8 -47.5 22q-19.5 14 -30.5 32q-11 18 -11 38q0 21 14.5 35q14.5 14 36.5 14q22 0 34 -13.5q12 -13.5 12 -30.5q0 -7 -3.5 -15.5q-3.5 -8.5 -10.5 -13.5q12 -10 30.5 -15.5q18.5 -5.5 44.5 -5.5q40 0 59.5 15.5q19.5 15.5 19.5 38.5q0 22 -16.5 37.5q-16.5 15.5 -65.5 15.5z" />
<glyph unicode="&#180;" horiz-adv-x="288" d="M60 565l106 157l62 -48l-120 -143z" />
<glyph unicode="&#181;" horiz-adv-x="545" d="M77 390h-57v60h137v-240q0 -84 28 -117q28 -33 84 -33q40 0 74.5 20q34.5 20 55.5 47l0 263h-58v60h138v-390h58v-60h-138v64q-23 -29 -64 -51.5q-41 -22.5 -95 -22.5q-49 0 -83 18l0 -208l-80 0z" />
<glyph unicode="&#182;" horiz-adv-x="461" d="M257 263q-43 0 -81.5 15q-38.5 15 -67.5 43q-29 28 -46 68.5q-17 40.5 -17 91.5q0 51 15.5 91.5q15.5 40.5 44 69q28.5 28.5 67.5 43.5q39 15 87 15h172v-75h-94v-638q0 -94 -39 -144.5q-39 -50.5 -126 -50.5q-35 0 -66 12q-31 12 -48 29l33 58q12 -9 32 -16.5q20 -7.5 43 -7.5q28 0 46 9.5q18 9.5 28 26.5q10 17 13.5 39q3.5 22 3.5 48z" />
<glyph unicode="&#183;" horiz-adv-x="225" d="M39 318q0 13 5.5 26q5.5 13 15.5 23q10 10 24 16q14 6 31 6q31 0 51 -22.5q20 -22.5 20 -48.5q0 -30 -19.5 -53q-19.5 -23 -51.5 -23q-35 0 -55.5 23t-20.5 53z" />
<glyph unicode="&#184;" horiz-adv-x="351" d="M147 0h43v-43q51 -3 76 -24q25 -21 25 -56q0 -36 -32.5 -59q-32.5 -23 -93.5 -23q-38 0 -62.5 11q-24.5 11 -42.5 23l24 39q15 -10 34 -16.5q19 -6.5 37 -6.5q24 0 40 9.5q16 9.5 16 26.5q0 18 -13 28.5q-13 10.5 -45 10.5l-6 0z" />
<glyph unicode="&#185;" horiz-adv-x="302" d="M54 405h72v198q-24 -11 -42.5 -18q-18.5 -7 -38.5 -12l-15 46q31 13 68 34.5q37 21.5 66 55.5l32 0v-304h71v-55l-213 0z" />
<glyph unicode="&#186;" horiz-adv-x="426" d="M213 345q-79 0 -126 42q-47 42 -47 119q0 75 47 117.5q47 42.5 126 42.5q79 0 126 -42.5q47 -42.5 47 -117.5q0 -78 -47 -119.5q-47 -41.5 -126 -41.5zt0 0zM213 396q45 0 71.5 27.5q26.5 27.5 26.5 82.5q0 53 -27 81.5q-27 28.5 -71 28.5q-45 0 -71.5 -29.5q-26.5 -29.5 -26.5 -80.5q0 -57 27.5 -83.5t70.5 -26.5z" />
<glyph unicode="&#187;" horiz-adv-x="530" d="M56 77l147 173l-148 172l52 46l188 -216v-4l-185 -218zM246 77l147 173l-148 172l52 46l188 -216v-4l-185 -218z" />
<glyph unicode="&#188;" horiz-adv-x="697" d="M44 405h72v198q-24 -11 -42.5 -18q-18.5 -7 -38.5 -12l-15 46q31 13 68 34.5q37 21.5 66 55.5l32 0v-304h71v-55h-213zM533 134v91h47h18v-91h59v-55h-59v-79h-65v79h-194v46q57 66 92.5 121q35.5 55 55.5 104l67 0q-9 -20 -22.5 -45.5q-13.5 -25.5 -31.5 -54q-18 -28.5 -40 -58.5q-22 -30 -49 -58zM84 23l514 687l46 -34l-513 -686z" />
<glyph unicode="&#189;" horiz-adv-x="744" d="M44 405h72v198q-24 -11 -42.5 -18q-18.5 -7 -38.5 -12l-15 46q31 13 68 34.5q37 21.5 66 55.5l32 0v-304h71v-55h-213zM405 49q38 15 77.5 36q39.5 21 71.5 45.5q32 24.5 52.5 52q20.5 27.5 20.5 56.5q0 55 -70 55q-36 0 -57 -20q10 -7 14 -18q4 -11 4 -20q0 -18 -12.5 -31q-12.5 -13 -35.5 -13q-22 0 -35.5 14q-13.5 14 -13.5 39q0 21 10 40.5q10 19.5 28 35q18 15.5 44.5 24.5q26.5 9 59.5 9q71 0 104.5 -29q33.5 -29 33.5 -72q0 -38 -22.5 -69.5q-22.5 -31.5 -53 -56.5q-30.5 -25 -61.5 -42q-31 -17 -47 -25l141 0v48h56v-108h-309zM83 23l514 687l46 -34l-513 -686z" />
<glyph unicode="&#190;" horiz-adv-x="733" d="M137 505v45h31q44 0 61 16.5q17 16.5 17 37.5q0 20 -14.5 35q-14.5 15 -56.5 15q-17 0 -31.5 -3q-14.5 -3 -22.5 -11q2 -5 5 -13q3 -8 3 -13q0 -17 -10 -29q-10 -12 -30 -12q-20 0 -33.5 11.5q-13.5 11.5 -13.5 34.5q0 21 11.5 37.5q11.5 16.5 31 27.5q19.5 11 45.5 17q26 6 55 6q69 0 102 -23.5q33 -23.5 33 -65.5q0 -29 -16 -50q-16 -21 -51 -32l0 -3q47 -5 65 -29q18 -24 18 -55q0 -51 -44 -78.5q-44 -27.5 -117 -27.5q-33 0 -61 8q-28 8 -47.5 22q-19.5 14 -30.5 32q-11 18 -11 38q0 21 14.5 35q14.5 14 36.5 14q22 0 34 -13.5q12 -13.5 12 -30.5q0 -7 -3.5 -15.5q-3.5 -8.5 -10.5 -13.5q12 -10 30.5 -15.5q18.5 -5.5 44.5 -5.5q40 0 59.5 15.5q19.5 15.5 19.5 38.5q0 22 -16.5 37.5q-16.5 15.5 -65.5 15.5zM588 134v91h47h18v-91h59v-55h-59v-79h-65v79h-194v46q57 66 92.5 121q35.5 55 55.5 104l67 0q-9 -20 -22.5 -45.5q-13.5 -25.5 -31.5 -54q-18 -28.5 -40 -58.5q-22 -30 -49 -58zM129 23l514 687l46 -34l-513 -686z" />
<glyph unicode="&#191;" horiz-adv-x="466" d="M295 255q4 -19 4 -38q0 -36 -13 -61.5q-13 -25.5 -33.5 -45q-20.5 -19.5 -44 -35.5q-23.5 -16 -44 -35q-20.5 -19 -34 -43.5q-13.5 -24.5 -13.5 -59.5q0 -23 9 -44q9 -21 25.5 -36.5q16.5 -15.5 38.5 -25q22 -9.5 49 -9.5q32 0 51.5 7q19.5 7 35.5 21q-33 16 -33 50q0 27 20 43q20 16 47 16q27 0 46.5 -20q19.5 -20 19.5 -52q0 -29 -18 -54.5q-18 -25.5 -45.5 -44.5q-27.5 -19 -61.5 -30q-34 -11 -67 -11q-48 0 -86 14q-38 14 -64 37.5q-26 23.5 -39.5 55q-13.5 31.5 -13.5 66.5q0 46 14.5 78.5q14.5 32.5 36 56.5q21.5 24 46.5 42q25 18 46.5 37q21.5 19 36 41q14.5 22 14.5 53q1 11 -2 26zM327 384q0 -26 -21 -48.5q-21 -22.5 -55 -22.5q-16 0 -29 6q-13 6 -22.5 16q-9.5 10 -14.5 23q-5 13 -5 26q0 30 19.5 53q19.5 23 51.5 23q35 0 55.5 -23t20.5 -53z" />
<glyph unicode="&#192;" horiz-adv-x="741" d="M5 70h56l256 630h102l260 -630h57v-70h-228v70h80l-59 142h-326l-58 -142h88v-70h-228zM498 292l-98 243q-8 19 -17.5 45q-9.5 26 -15.5 45l-3 0q-6 -19 -15.5 -45q-9.5 -26 -17.5 -45l-96 -243zM436 783l-23 -48l-202 84l30 68z" />
<glyph unicode="&#193;" horiz-adv-x="741" d="M5 70h56l256 630h102l260 -630h57v-70h-228v70h80l-59 142h-326l-58 -142h88v-70h-228zM498 292l-98 243q-8 19 -17.5 45q-9.5 26 -15.5 45l-3 0q-6 -19 -15.5 -45q-9.5 -26 -17.5 -45l-96 -243zM306 783l195 104l30 -68l-202 -84z" />
<glyph unicode="&#194;" horiz-adv-x="741" d="M5 70h56l256 630h102l260 -630h57v-70h-228v70h80l-59 142h-326l-58 -142h88v-70h-228zM498 292l-98 243q-8 19 -17.5 45q-9.5 26 -15.5 45l-3 0q-6 -19 -15.5 -45q-9.5 -26 -17.5 -45l-96 -243zM195 778l171 104h4l174 -103l-33 -46l-143 76l-144 -76z" />
<glyph unicode="&#195;" horiz-adv-x="741" d="M5 70h56l256 630h102l260 -630h57v-70h-228v70h80l-59 142h-326l-58 -142h88v-70h-228zM498 292l-98 243q-8 19 -17.5 45q-9.5 26 -15.5 45l-3 0q-6 -19 -15.5 -45q-9.5 -26 -17.5 -45l-96 -243zM543 800q-21 -28 -46.5 -40q-25.5 -12 -55.5 -12q-20 0 -38.5 6q-18.5 6 -37 13.5q-18.5 7.5 -37.5 14q-19 6.5 -40 6.5q-33 0 -66 -27l-26 50q21 23 47.5 35q26.5 12 52.5 12q22 0 41 -6.5q19 -6.5 36.5 -14q17.5 -7.5 35 -13.5q17.5 -6 37.5 -6q17 0 36.5 6q19.5 6 38.5 26z" />
<glyph unicode="&#196;" horiz-adv-x="741" d="M5 70h56l256 630h102l260 -630h57v-70h-228v70h80l-59 142h-326l-58 -142h88v-70h-228zM498 292l-98 243q-8 19 -17.5 45q-9.5 26 -15.5 45l-3 0q-6 -19 -15.5 -45q-9.5 -26 -17.5 -45l-96 -243zM263 755q-25 0 -43 13.5q-18 13.5 -18 39.5q0 23 18 36.5q18 13.5 43 13.5q22 0 40 -13.5q18 -13.5 18 -36.5q0 -26 -18 -39.5q-18 -13.5 -40 -13.5zt0 0zM482 755q-25 0 -43 13.5q-18 13.5 -18 39.5q0 23 18 36.5q18 13.5 43 13.5q22 0 40 -13.5q18 -13.5 18 -36.5q0 -26 -18 -39.5t-40 -13.5z" />
<glyph unicode="&#197;" horiz-adv-x="741" d="M5 70h56l256 630h102l260 -630h57v-70h-228v70h80l-59 142h-326l-58 -142h88v-70h-228zM498 292l-98 243q-8 19 -17.5 45q-9.5 26 -15.5 45l-3 0q-6 -19 -15.5 -45q-9.5 -26 -17.5 -45l-96 -243zM369 727q-51 0 -87.5 25q-36.5 25 -36.5 75q0 25 10 43q10 18 26.5 30q16.5 12 39 17.5q22.5 5.5 48.5 5.5q26 0 49 -5.5q23 -5.5 40 -17.5q17 -12 27 -30q10 -18 10 -43q0 -25 -10 -43.5q-10 -18.5 -27 -31q-17 -12.5 -40 -19q-23 -6.5 -49 -6.5zt0 0zM370 772q27 0 46 13.5q19 13.5 19 41.5q0 27 -19 39q-19 12 -46 12q-28 0 -46.5 -12q-18.5 -12 -18.5 -39q0 -28 18.5 -41.5t46.5 -13.5z" />
<glyph unicode="&#198;" horiz-adv-x="976" d="M5 70h59l319 560h-81v70h594v-195h-70v125h-264v-241h214v-70h-214v-249h284v141h70v-211h-522v70h83v142h-248l-81 -142h76v-70h-219zM477 292v338h-10q-14 -23 -23 -39.5q-9 -16.5 -22 -39.5l-148 -259z" />
<glyph unicode="&#199;" horiz-adv-x="690" d="M363 -9q-73 5 -132 33q-59 28 -100 74.5q-41 46.5 -63.5 110q-22.5 63.5 -22.5 141.5q0 75 23.5 141q23.5 66 68.5 114.5q45 48.5 110 76.5q65 28 147 28q51 0 96.5 -12q45.5 -12 78.5 -32l0 34h70v-195h-70v84q-34 23 -78.5 34.5q-44.5 11.5 -95.5 11.5q-57 0 -105 -21q-48 -21 -82.5 -59q-34.5 -38 -53.5 -90.5q-19 -52.5 -19 -114.5q0 -63 20 -115q20 -52 56 -90q36 -38 86 -59q50 -21 111 -21q42 0 86.5 12.5q44.5 12.5 80.5 37.5l0 95h70v-210h-70v39q-32 -20 -75 -33.5q-43 -13.5 -94 -15.5l0 -33q56 -3 81 -24q25 -21 25 -56q0 -36 -32.5 -59q-32.5 -23 -90.5 -23q-45 0 -72.5 12q-27.5 12 -45.5 24l26 42q15 -11 35.5 -19.5q20.5 -8.5 38.5 -8.5q24 0 40 9.5q16 9.5 16 26.5q0 18 -13 28.5q-13 10.5 -45 10.5l-6 0z" />
<glyph unicode="&#200;" horiz-adv-x="632" d="M50 70h83v560h-83v70h502v-195h-70v125h-264v-241h214v-70h-214v-249h284v141h70v-211h-522zM411 783l-23 -48l-202 84l30 68z" />
<glyph unicode="&#201;" horiz-adv-x="632" d="M50 70h83v560h-83v70h502v-195h-70v125h-264v-241h214v-70h-214v-249h284v141h70v-211h-522zM256 783l195 104l30 -68l-202 -84z" />
<glyph unicode="&#202;" horiz-adv-x="632" d="M50 70h83v560h-83v70h502v-195h-70v125h-264v-241h214v-70h-214v-249h284v141h70v-211h-522zM157 778l171 104h4l174 -103l-33 -46l-143 76l-144 -76z" />
<glyph unicode="&#203;" horiz-adv-x="632" d="M50 70h83v560h-83v70h502v-195h-70v125h-264v-241h214v-70h-214v-249h284v141h70v-211h-522zM226 755q-25 0 -43 13.5q-18 13.5 -18 39.5q0 23 18 36.5q18 13.5 43 13.5q22 0 40 -13.5q18 -13.5 18 -36.5q0 -26 -18 -39.5q-18 -13.5 -40 -13.5zt0 0zM445 755q-25 0 -43 13.5q-18 13.5 -18 39.5q0 23 18 36.5q18 13.5 43 13.5q22 0 40 -13.5q18 -13.5 18 -36.5q0 -26 -18 -39.5t-40 -13.5z" />
<glyph unicode="&#204;" horiz-adv-x="371" d="M60 70h83v560h-83v70h251v-70h-83v-560h83v-70h-251zM241 783l-23 -48l-202 84l30 68z" />
<glyph unicode="&#205;" horiz-adv-x="371" d="M60 70h83v560h-83v70h251v-70h-83v-560h83v-70h-251zM131 783l195 104l30 -68l-202 -84z" />
<glyph unicode="&#206;" horiz-adv-x="371" d="M60 70h83v560h-83v70h251v-70h-83v-560h83v-70h-251zM11 778l171 104h4l174 -103l-33 -46l-143 76l-144 -76z" />
<glyph unicode="&#207;" horiz-adv-x="371" d="M60 70h83v560h-83v70h251v-70h-83v-560h83v-70h-251zM78 755q-25 0 -43 13.5q-18 13.5 -18 39.5q0 23 18 36.5q18 13.5 43 13.5q22 0 40 -13.5q18 -13.5 18 -36.5q0 -26 -18 -39.5q-18 -13.5 -40 -13.5zt0 0zM297 755q-25 0 -43 13.5q-18 13.5 -18 39.5q0 23 18 36.5q18 13.5 43 13.5q22 0 40 -13.5q18 -13.5 18 -36.5q0 -26 -18 -39.5t-40 -13.5z" />
<glyph unicode="&#208;" horiz-adv-x="762" d="M133 70v252h-83v70h83v238h-83v70h95q17 0 39 0.5q22 0.5 46 1q24 0.5 48.5 1q24.5 0.5 45.5 0.5q105 0 179.5 -28q74.5 -28 122 -75.5q47.5 -47.5 69.5 -109.5q22 -62 22 -131q0 -75 -25 -140.5q-25 -65.5 -75.5 -114.5q-50.5 -49 -125.5 -77.5q-75 -28.5 -175 -28.5q-35 0 -81 1q-46 1 -91 1h-94v70zM218 322v-252q35 -1 53 -1.5q18 -0.5 34 -0.5q160 0 241 77.5q81 77.5 81 213.5q0 62 -19.5 112.5q-19.5 50.5 -59.5 86.5q-40 36 -101 55.5q-61 19.5 -145 19.5q-17 0 -37.5 -1q-20.5 -1 -46.5 -2l0 -238h188l0 -70z" />
<glyph unicode="&#209;" horiz-adv-x="825" d="M50 70h83v560h-83v70h151l427 -552v482h-81v70h248v-70h-87v-630h-68l-427 550v-480h85v-70h-248zM605 800q-21 -28 -46.5 -40q-25.5 -12 -55.5 -12q-20 0 -38.5 6q-18.5 6 -37 13.5q-18.5 7.5 -37.5 14q-19 6.5 -40 6.5q-33 0 -66 -27l-26 50q21 23 47.5 35q26.5 12 52.5 12q22 0 41 -6.5q19 -6.5 36.5 -14q17.5 -7.5 35 -13.5q17.5 -6 37.5 -6q17 0 36.5 6q19.5 6 38.5 26z" />
<glyph unicode="&#210;" horiz-adv-x="804" d="M402 -10q-76 0 -141.5 26.5q-65.5 26.5 -113.5 74q-48 47.5 -75 113.5q-27 66 -27 146q0 76 26.5 142q26.5 66 74 114.5q47.5 48.5 113 76q65.5 27.5 143.5 27.5q76 0 141.5 -26.5q65.5 -26.5 113.5 -74q48 -47.5 75 -113.5q27 -66 27 -146q0 -78 -27 -144q-27 -66 -75 -114q-48 -48 -113.5 -75q-65.5 -27 -141.5 -27zt0 0zM402 65q60 0 109 21q49 21 84.5 59q35.5 38 54.5 90.5q19 52.5 19 114.5q0 66 -20.5 118.5q-20.5 52.5 -56.5 89.5q-36 37 -85 57q-49 20 -105 20q-57 0 -106 -20q-49 -20 -84.5 -57q-35.5 -37 -56 -89.5q-20.5 -52.5 -20.5 -118.5q0 -62 20.5 -114q20.5 -52 56.5 -90q36 -38 85 -59.5q49 -21.5 105 -21.5zt0 0zM498 783l-23 -48l-202 84l30 68z" />
<glyph unicode="&#211;" horiz-adv-x="804" d="M402 -10q-76 0 -141.5 26.5q-65.5 26.5 -113.5 74q-48 47.5 -75 113.5q-27 66 -27 146q0 76 26.5 142q26.5 66 74 114.5q47.5 48.5 113 76q65.5 27.5 143.5 27.5q76 0 141.5 -26.5q65.5 -26.5 113.5 -74q48 -47.5 75 -113.5q27 -66 27 -146q0 -78 -27 -144q-27 -66 -75 -114q-48 -48 -113.5 -75q-65.5 -27 -141.5 -27zt0 0zM402 65q60 0 109 21q49 21 84.5 59q35.5 38 54.5 90.5q19 52.5 19 114.5q0 66 -20.5 118.5q-20.5 52.5 -56.5 89.5q-36 37 -85 57q-49 20 -105 20q-57 0 -106 -20q-49 -20 -84.5 -57q-35.5 -37 -56 -89.5q-20.5 -52.5 -20.5 -118.5q0 -62 20.5 -114q20.5 -52 56.5 -90q36 -38 85 -59.5q49 -21.5 105 -21.5zt0 0zM333 783l195 104l30 -68l-202 -84z" />
<glyph unicode="&#212;" horiz-adv-x="804" d="M402 -10q-76 0 -141.5 26.5q-65.5 26.5 -113.5 74q-48 47.5 -75 113.5q-27 66 -27 146q0 76 26.5 142q26.5 66 74 114.5q47.5 48.5 113 76q65.5 27.5 143.5 27.5q76 0 141.5 -26.5q65.5 -26.5 113.5 -74q48 -47.5 75 -113.5q27 -66 27 -146q0 -78 -27 -144q-27 -66 -75 -114q-48 -48 -113.5 -75q-65.5 -27 -141.5 -27zt0 0zM402 65q60 0 109 21q49 21 84.5 59q35.5 38 54.5 90.5q19 52.5 19 114.5q0 66 -20.5 118.5q-20.5 52.5 -56.5 89.5q-36 37 -85 57q-49 20 -105 20q-57 0 -106 -20q-49 -20 -84.5 -57q-35.5 -37 -56 -89.5q-20.5 -52.5 -20.5 -118.5q0 -62 20.5 -114q20.5 -52 56.5 -90q36 -38 85 -59.5q49 -21.5 105 -21.5zt0 0zM231 778l171 104h4l174 -103l-33 -46l-143 76l-144 -76z" />
<glyph unicode="&#213;" horiz-adv-x="804" d="M402 -10q-76 0 -141.5 26.5q-65.5 26.5 -113.5 74q-48 47.5 -75 113.5q-27 66 -27 146q0 76 26.5 142q26.5 66 74 114.5q47.5 48.5 113 76q65.5 27.5 143.5 27.5q76 0 141.5 -26.5q65.5 -26.5 113.5 -74q48 -47.5 75 -113.5q27 -66 27 -146q0 -78 -27 -144q-27 -66 -75 -114q-48 -48 -113.5 -75q-65.5 -27 -141.5 -27zt0 0zM402 65q60 0 109 21q49 21 84.5 59q35.5 38 54.5 90.5q19 52.5 19 114.5q0 66 -20.5 118.5q-20.5 52.5 -56.5 89.5q-36 37 -85 57q-49 20 -105 20q-57 0 -106 -20q-49 -20 -84.5 -57q-35.5 -37 -56 -89.5q-20.5 -52.5 -20.5 -118.5q0 -62 20.5 -114q20.5 -52 56.5 -90q36 -38 85 -59.5q49 -21.5 105 -21.5zt0 0zM574 800q-21 -28 -46.5 -40q-25.5 -12 -55.5 -12q-20 0 -38.5 6q-18.5 6 -37 13.5q-18.5 7.5 -37.5 14q-19 6.5 -40 6.5q-33 0 -66 -27l-26 50q21 23 47.5 35q26.5 12 52.5 12q22 0 41 -6.5q19 -6.5 36.5 -14q17.5 -7.5 35 -13.5q17.5 -6 37.5 -6q17 0 36.5 6q19.5 6 38.5 26z" />
<glyph unicode="&#214;" horiz-adv-x="804" d="M402 -10q-76 0 -141.5 26.5q-65.5 26.5 -113.5 74q-48 47.5 -75 113.5q-27 66 -27 146q0 76 26.5 142q26.5 66 74 114.5q47.5 48.5 113 76q65.5 27.5 143.5 27.5q76 0 141.5 -26.5q65.5 -26.5 113.5 -74q48 -47.5 75 -113.5q27 -66 27 -146q0 -78 -27 -144q-27 -66 -75 -114q-48 -48 -113.5 -75q-65.5 -27 -141.5 -27zt0 0zM402 65q60 0 109 21q49 21 84.5 59q35.5 38 54.5 90.5q19 52.5 19 114.5q0 66 -20.5 118.5q-20.5 52.5 -56.5 89.5q-36 37 -85 57q-49 20 -105 20q-57 0 -106 -20q-49 -20 -84.5 -57q-35.5 -37 -56 -89.5q-20.5 -52.5 -20.5 -118.5q0 -62 20.5 -114q20.5 -52 56.5 -90q36 -38 85 -59.5q49 -21.5 105 -21.5zt0 0zM295 755q-25 0 -43 13.5q-18 13.5 -18 39.5q0 23 18 36.5q18 13.5 43 13.5q22 0 40 -13.5q18 -13.5 18 -36.5q0 -26 -18 -39.5q-18 -13.5 -40 -13.5zt0 0zM514 755q-25 0 -43 13.5q-18 13.5 -18 39.5q0 23 18 36.5q18 13.5 43 13.5q22 0 40 -13.5q18 -13.5 18 -36.5q0 -26 -18 -39.5t-40 -13.5z" />
<glyph unicode="&#215;" horiz-adv-x="592" d="M110 224l136 136l-135 135l50 50l135 -136l135 136l49 -50l-135 -135l137 -136l-50 -50l-136 136l-137 -136z" />
<glyph unicode="&#216;" horiz-adv-x="814" d="M121 126q-34 45 -52.5 101.5q-18.5 56.5 -18.5 122.5q0 76 26.5 142q26.5 66 74 114.5q47.5 48.5 113 76q65.5 27.5 143.5 27.5q68 0 126.5 -21q58.5 -21 104.5 -59l44 43l46 -47l-43 -42q38 -46 58.5 -105q20.5 -59 20.5 -129q0 -78 -27 -144q-27 -66 -75 -114q-48 -48 -113.5 -75q-65.5 -27 -141.5 -27q-71 0 -132 22.5q-61 22.5 -108 64.5l-45 -44l-47 48zM229 138q35 -32 80.5 -50q45.5 -18 97.5 -18q60 0 109 21.5q49 21.5 84.5 59q35.5 37.5 54.5 89q19 51.5 19 110.5q0 50 -14 93q-14 43 -39 78zM576 570q-34 29 -77 44.5q-43 15.5 -92 15.5q-57 0 -106 -21q-49 -21 -84.5 -58q-35.5 -37 -56 -88.5q-20.5 -51.5 -20.5 -112.5q0 -46 12 -86.5q12 -40.5 34 -74.5z" />
<glyph unicode="&#217;" horiz-adv-x="755" d="M15 700h258v-70h-91v-320q0 -115 53 -179.5q53 -64.5 152 -64.5q87 0 136.5 59q49.5 59 49.5 179v326h-91v70h258v-70h-82v-338q0 -80 -22 -137q-22 -57 -59.5 -93.5q-37.5 -36.5 -86.5 -53.5q-49 -17 -103 -17q-63 0 -116 19.5q-53 19.5 -92 58q-39 38.5 -60.5 96q-21.5 57.5 -21.5 134.5v331h-82zM460 783l-23 -48l-202 84l30 68z" />
<glyph unicode="&#218;" horiz-adv-x="755" d="M15 700h258v-70h-91v-320q0 -115 53 -179.5q53 -64.5 152 -64.5q87 0 136.5 59q49.5 59 49.5 179v326h-91v70h258v-70h-82v-338q0 -80 -22 -137q-22 -57 -59.5 -93.5q-37.5 -36.5 -86.5 -53.5q-49 -17 -103 -17q-63 0 -116 19.5q-53 19.5 -92 58q-39 38.5 -60.5 96q-21.5 57.5 -21.5 134.5v331h-82zM305 783l195 104l30 -68l-202 -84z" />
<glyph unicode="&#219;" horiz-adv-x="755" d="M15 700h258v-70h-91v-320q0 -115 53 -179.5q53 -64.5 152 -64.5q87 0 136.5 59q49.5 59 49.5 179v326h-91v70h258v-70h-82v-338q0 -80 -22 -137q-22 -57 -59.5 -93.5q-37.5 -36.5 -86.5 -53.5q-49 -17 -103 -17q-63 0 -116 19.5q-53 19.5 -92 58q-39 38.5 -60.5 96q-21.5 57.5 -21.5 134.5v331h-82zM202 778l171 104h4l174 -103l-33 -46l-143 76l-144 -76z" />
<glyph unicode="&#220;" horiz-adv-x="755" d="M15 700h258v-70h-91v-320q0 -115 53 -179.5q53 -64.5 152 -64.5q87 0 136.5 59q49.5 59 49.5 179v326h-91v70h258v-70h-82v-338q0 -80 -22 -137q-22 -57 -59.5 -93.5q-37.5 -36.5 -86.5 -53.5q-49 -17 -103 -17q-63 0 -116 19.5q-53 19.5 -92 58q-39 38.5 -60.5 96q-21.5 57.5 -21.5 134.5v331h-82zM266 755q-25 0 -43 13.5q-18 13.5 -18 39.5q0 23 18 36.5q18 13.5 43 13.5q22 0 40 -13.5q18 -13.5 18 -36.5q0 -26 -18 -39.5q-18 -13.5 -40 -13.5zt0 0zM485 755q-25 0 -43 13.5q-18 13.5 -18 39.5q0 23 18 36.5q18 13.5 43 13.5q22 0 40 -13.5q18 -13.5 18 -36.5q0 -26 -18 -39.5t-40 -13.5z" />
<glyph unicode="&#221;" horiz-adv-x="618" d="M172 70h93v230l-205 330h-55v70h223v-70h-75l158 -257l160 257h-81v70h223v-70h-56l-207 -330v-230h90v-70h-268zM240 783l195 104l30 -68l-202 -84z" />
<glyph unicode="&#222;" horiz-adv-x="615" d="M50 70h83v560h-83v70h251v-70h-83v-55q9 0 22.5 0.5q13.5 0.5 28 0.5q14.5 0 27 0.5q12.5 0.5 20.5 0.5q75 0 125 -17.5q50 -17.5 79.5 -47q29.5 -29.5 42 -66.5q12.5 -37 12.5 -76q0 -41 -15.5 -79q-15.5 -38 -46.5 -67q-31 -29 -78.5 -46.5q-47.5 -17.5 -111.5 -17.5q-21 0 -50 1q-29 1 -55 3l0 -94h110v-70h-278zM218 235q26 -2 51 -3.5q25 -1.5 51 -1.5q78 0 121.5 39.5q43.5 39.5 43.5 101.5q0 58 -39 97q-39 39 -122 39q-21 0 -51 -0.5q-30 -0.5 -55 -1.5z" />
<glyph unicode="&#223;" horiz-adv-x="529" d="M15 449h58v59q0 105 49.5 153.5q49.5 48.5 138.5 48.5q33 0 61 -9.5q28 -9.5 49 -27q21 -17.5 32.5 -40.5q11.5 -23 11.5 -50q0 -37 -14.5 -59.5q-14.5 -22.5 -32.5 -40.5q-18 -18 -32.5 -35.5q-14.5 -17.5 -14.5 -44.5q0 -26 13.5 -44q13.5 -18 34 -33q20.5 -15 44 -29q23.5 -14 44 -33.5q20.5 -19.5 34 -46q13.5 -26.5 13.5 -65.5q0 -34 -11.5 -63.5q-11.5 -29.5 -32 -51.5q-20.5 -22 -49 -34.5q-28.5 -12.5 -61.5 -12.5q-52 0 -88 20q-36 20 -55 45l27 56q16 -19 40 -35q24 -16 57 -16q35 0 61.5 25.5q26.5 25.5 26.5 68.5q0 27 -13.5 46.5q-13.5 19.5 -34 36q-20.5 16.5 -44 31q-23.5 14.5 -44 31.5q-20.5 17 -34 38q-13.5 21 -13.5 51q0 36 14.5 59q14.5 23 32.5 41.5q18 18.5 32.5 36.5q14.5 18 14.5 44q0 29 -24 50q-24 21 -56 21q-51 0 -74 -32.5q-23 -32.5 -23 -104.5v-503h-138v60h58v325l-58 0z" />
<glyph unicode="&#224;" horiz-adv-x="460" d="M390 96q0 -25 6.5 -31.5q6.5 -6.5 17.5 -6.5q8 0 14 2q6 2 14 6l13 -45q-9 -13 -27.5 -20.5q-18.5 -7.5 -39.5 -7.5q-21 0 -34.5 7.5q-13.5 7.5 -21 19.5q-7.5 12 -10.5 26.5q-3 14.5 -2 28.5q-7 -15 -20 -29.5q-13 -14.5 -31.5 -26.5q-18.5 -12 -41.5 -19q-23 -7 -49 -7q-73 0 -113 37.5q-40 37.5 -40 99.5q0 34 13 60.5q13 26.5 36.5 44q23.5 17.5 55.5 26.5q32 9 71 9q29 0 62 -6q33 -6 56 -18q1 10 1 19q0 9 0 18q0 28 -5 49.5q-5 21.5 -17 36.5q-12 15 -32 23q-20 8 -51 8q-23 0 -41 -4q-18 -4 -32 -11q3 -4 6.5 -13q3.5 -9 3.5 -18q0 -19 -13.5 -30.5q-13.5 -11.5 -34.5 -11.5q-25 0 -36.5 14.5q-11.5 14.5 -11.5 33.5q0 24 14 42.5q14 18.5 36.5 31q22.5 12.5 52 19.5q29.5 7 61.5 7q88 0 131.5 -43q43.5 -43 43.5 -113q0 -29 -1 -54.5q-1 -25.5 -1.5 -50q-0.5 -24.5 -1.5 -50q-1 -25.5 -1 -53.5zt0 0zM110 134q0 -31 22 -53.5q22 -22.5 69 -22.5q22 0 42 8.5q20 8.5 36 21q16 12.5 26 28q10 15.5 12 30.5l0 39q-44 25 -101 25q-51 0 -78.5 -18.5q-27.5 -18.5 -27.5 -57.5zt0 0zM125 673l63 48l107 -156l-49 -34z" />
<glyph unicode="&#225;" horiz-adv-x="460" d="M390 96q0 -25 6.5 -31.5q6.5 -6.5 17.5 -6.5q8 0 14 2q6 2 14 6l13 -45q-9 -13 -27.5 -20.5q-18.5 -7.5 -39.5 -7.5q-21 0 -34.5 7.5q-13.5 7.5 -21 19.5q-7.5 12 -10.5 26.5q-3 14.5 -2 28.5q-7 -15 -20 -29.5q-13 -14.5 -31.5 -26.5q-18.5 -12 -41.5 -19q-23 -7 -49 -7q-73 0 -113 37.5q-40 37.5 -40 99.5q0 34 13 60.5q13 26.5 36.5 44q23.5 17.5 55.5 26.5q32 9 71 9q29 0 62 -6q33 -6 56 -18q1 10 1 19q0 9 0 18q0 28 -5 49.5q-5 21.5 -17 36.5q-12 15 -32 23q-20 8 -51 8q-23 0 -41 -4q-18 -4 -32 -11q3 -4 6.5 -13q3.5 -9 3.5 -18q0 -19 -13.5 -30.5q-13.5 -11.5 -34.5 -11.5q-25 0 -36.5 14.5q-11.5 14.5 -11.5 33.5q0 24 14 42.5q14 18.5 36.5 31q22.5 12.5 52 19.5q29.5 7 61.5 7q88 0 131.5 -43q43.5 -43 43.5 -113q0 -29 -1 -54.5q-1 -25.5 -1.5 -50q-0.5 -24.5 -1.5 -50q-1 -25.5 -1 -53.5zt0 0zM110 134q0 -31 22 -53.5q22 -22.5 69 -22.5q22 0 42 8.5q20 8.5 36 21q16 12.5 26 28q10 15.5 12 30.5l0 39q-44 25 -101 25q-51 0 -78.5 -18.5q-27.5 -18.5 -27.5 -57.5zt0 0zM162 565l106 157l62 -48l-120 -143z" />
<glyph unicode="&#226;" horiz-adv-x="460" d="M390 96q0 -25 6.5 -31.5q6.5 -6.5 17.5 -6.5q8 0 14 2q6 2 14 6l13 -45q-9 -13 -27.5 -20.5q-18.5 -7.5 -39.5 -7.5q-21 0 -34.5 7.5q-13.5 7.5 -21 19.5q-7.5 12 -10.5 26.5q-3 14.5 -2 28.5q-7 -15 -20 -29.5q-13 -14.5 -31.5 -26.5q-18.5 -12 -41.5 -19q-23 -7 -49 -7q-73 0 -113 37.5q-40 37.5 -40 99.5q0 34 13 60.5q13 26.5 36.5 44q23.5 17.5 55.5 26.5q32 9 71 9q29 0 62 -6q33 -6 56 -18q1 10 1 19q0 9 0 18q0 28 -5 49.5q-5 21.5 -17 36.5q-12 15 -32 23q-20 8 -51 8q-23 0 -41 -4q-18 -4 -32 -11q3 -4 6.5 -13q3.5 -9 3.5 -18q0 -19 -13.5 -30.5q-13.5 -11.5 -34.5 -11.5q-25 0 -36.5 14.5q-11.5 14.5 -11.5 33.5q0 24 14 42.5q14 18.5 36.5 31q22.5 12.5 52 19.5q29.5 7 61.5 7q88 0 131.5 -43q43.5 -43 43.5 -113q0 -29 -1 -54.5q-1 -25.5 -1.5 -50q-0.5 -24.5 -1.5 -50q-1 -25.5 -1 -53.5zt0 0zM110 134q0 -31 22 -53.5q22 -22.5 69 -22.5q22 0 42 8.5q20 8.5 36 21q16 12.5 26 28q10 15.5 12 30.5l0 39q-44 25 -101 25q-51 0 -78.5 -18.5q-27.5 -18.5 -27.5 -57.5zt0 0zM82 574l141 133h4l139 -133l-38 -48l-104 91l-104 -90z" />
<glyph unicode="&#227;" horiz-adv-x="460" d="M390 96q0 -25 6.5 -31.5q6.5 -6.5 17.5 -6.5q8 0 14 2q6 2 14 6l13 -45q-9 -13 -27.5 -20.5q-18.5 -7.5 -39.5 -7.5q-21 0 -34.5 7.5q-13.5 7.5 -21 19.5q-7.5 12 -10.5 26.5q-3 14.5 -2 28.5q-7 -15 -20 -29.5q-13 -14.5 -31.5 -26.5q-18.5 -12 -41.5 -19q-23 -7 -49 -7q-73 0 -113 37.5q-40 37.5 -40 99.5q0 34 13 60.5q13 26.5 36.5 44q23.5 17.5 55.5 26.5q32 9 71 9q29 0 62 -6q33 -6 56 -18q1 10 1 19q0 9 0 18q0 28 -5 49.5q-5 21.5 -17 36.5q-12 15 -32 23q-20 8 -51 8q-23 0 -41 -4q-18 -4 -32 -11q3 -4 6.5 -13q3.5 -9 3.5 -18q0 -19 -13.5 -30.5q-13.5 -11.5 -34.5 -11.5q-25 0 -36.5 14.5q-11.5 14.5 -11.5 33.5q0 24 14 42.5q14 18.5 36.5 31q22.5 12.5 52 19.5q29.5 7 61.5 7q88 0 131.5 -43q43.5 -43 43.5 -113q0 -29 -1 -54.5q-1 -25.5 -1.5 -50q-0.5 -24.5 -1.5 -50q-1 -25.5 -1 -53.5zt0 0zM110 134q0 -31 22 -53.5q22 -22.5 69 -22.5q22 0 42 8.5q20 8.5 36 21q16 12.5 26 28q10 15.5 12 30.5l0 39q-44 25 -101 25q-51 0 -78.5 -18.5q-27.5 -18.5 -27.5 -57.5zt0 0zM383 604q-56 -59 -106 -59q-17 0 -30.5 7q-13.5 7 -26.5 15q-13 8 -26.5 15q-13.5 7 -30.5 7q-15 0 -32.5 -9q-17.5 -9 -36.5 -23l-33 37q29 32 57 46q28 14 53 14q18 0 32 -7q14 -7 27 -15q13 -8 26 -15q13 -7 28 -7q20 0 34.5 8.5q14.5 8.5 36.5 26.5z" />
<glyph unicode="&#228;" horiz-adv-x="460" d="M390 96q0 -25 6.5 -31.5q6.5 -6.5 17.5 -6.5q8 0 14 2q6 2 14 6l13 -45q-9 -13 -27.5 -20.5q-18.5 -7.5 -39.5 -7.5q-21 0 -34.5 7.5q-13.5 7.5 -21 19.5q-7.5 12 -10.5 26.5q-3 14.5 -2 28.5q-7 -15 -20 -29.5q-13 -14.5 -31.5 -26.5q-18.5 -12 -41.5 -19q-23 -7 -49 -7q-73 0 -113 37.5q-40 37.5 -40 99.5q0 34 13 60.5q13 26.5 36.5 44q23.5 17.5 55.5 26.5q32 9 71 9q29 0 62 -6q33 -6 56 -18q1 10 1 19q0 9 0 18q0 28 -5 49.5q-5 21.5 -17 36.5q-12 15 -32 23q-20 8 -51 8q-23 0 -41 -4q-18 -4 -32 -11q3 -4 6.5 -13q3.5 -9 3.5 -18q0 -19 -13.5 -30.5q-13.5 -11.5 -34.5 -11.5q-25 0 -36.5 14.5q-11.5 14.5 -11.5 33.5q0 24 14 42.5q14 18.5 36.5 31q22.5 12.5 52 19.5q29.5 7 61.5 7q88 0 131.5 -43q43.5 -43 43.5 -113q0 -29 -1 -54.5q-1 -25.5 -1.5 -50q-0.5 -24.5 -1.5 -50q-1 -25.5 -1 -53.5zt0 0zM110 134q0 -31 22 -53.5q22 -22.5 69 -22.5q22 0 42 8.5q20 8.5 36 21q16 12.5 26 28q10 15.5 12 30.5l0 39q-44 25 -101 25q-51 0 -78.5 -18.5q-27.5 -18.5 -27.5 -57.5zt0 0zM130 596q-22 0 -39 14q-17 14 -17 41q0 24 17 39q17 15 39 15q20 0 36.5 -15q16.5 -15 16.5 -39q0 -27 -16.5 -41q-16.5 -14 -36.5 -14zt0 0zM325 596q-22 0 -39 14q-17 14 -17 41q0 24 17 39q17 15 39 15q20 0 36.5 -15q16.5 -15 16.5 -39q0 -27 -16.5 -41t-36.5 -14z" />
<glyph unicode="&#229;" horiz-adv-x="460" d="M390 96q0 -25 6.5 -31.5q6.5 -6.5 17.5 -6.5q8 0 14 2q6 2 14 6l13 -45q-9 -13 -27.5 -20.5q-18.5 -7.5 -39.5 -7.5q-21 0 -34.5 7.5q-13.5 7.5 -21 19.5q-7.5 12 -10.5 26.5q-3 14.5 -2 28.5q-7 -15 -20 -29.5q-13 -14.5 -31.5 -26.5q-18.5 -12 -41.5 -19q-23 -7 -49 -7q-73 0 -113 37.5q-40 37.5 -40 99.5q0 34 13 60.5q13 26.5 36.5 44q23.5 17.5 55.5 26.5q32 9 71 9q29 0 62 -6q33 -6 56 -18q1 10 1 19q0 9 0 18q0 28 -5 49.5q-5 21.5 -17 36.5q-12 15 -32 23q-20 8 -51 8q-23 0 -41 -4q-18 -4 -32 -11q3 -4 6.5 -13q3.5 -9 3.5 -18q0 -19 -13.5 -30.5q-13.5 -11.5 -34.5 -11.5q-25 0 -36.5 14.5q-11.5 14.5 -11.5 33.5q0 24 14 42.5q14 18.5 36.5 31q22.5 12.5 52 19.5q29.5 7 61.5 7q88 0 131.5 -43q43.5 -43 43.5 -113q0 -29 -1 -54.5q-1 -25.5 -1.5 -50q-0.5 -24.5 -1.5 -50q-1 -25.5 -1 -53.5zt0 0zM110 134q0 -31 22 -53.5q22 -22.5 69 -22.5q22 0 42 8.5q20 8.5 36 21q16 12.5 26 28q10 15.5 12 30.5l0 39q-44 25 -101 25q-51 0 -78.5 -18.5q-27.5 -18.5 -27.5 -57.5zt0 0zM225 503q-24 0 -45 8.5q-21 8.5 -36.5 23.5q-15.5 15 -24 35q-8.5 20 -8.5 43q0 23 8.5 43q8.5 20 24 35q15.5 15 36.5 24q21 9 45 9q25 0 46 -9q21 -9 36.5 -24q15.5 -15 24.5 -35q9 -20 9 -43q0 -23 -9 -43q-9 -20 -24.5 -35q-15.5 -15 -36.5 -23.5q-21 -8.5 -46 -8.5zt0 0zM226 548q27 0 45 19q18 19 18 47q0 27 -18 46q-18 19 -45 19q-27 0 -45 -19q-18 -19 -18 -46q0 -28 18 -47t45 -19z" />
<glyph unicode="&#230;" horiz-adv-x="763" d="M702 49q-33 -30 -78.5 -44.5q-45.5 -14.5 -90.5 -14.5q-58 0 -103.5 18.5q-45.5 18.5 -77.5 51.5q-42 -38 -81.5 -52.5q-39.5 -14.5 -81.5 -14.5q-81 0 -122.5 37.5q-41.5 37.5 -41.5 99.5q0 69 49.5 104.5q49.5 35.5 130.5 35.5q26 0 58.5 -5q32.5 -5 55.5 -19q2 29 0 57q-2 28 -12.5 49.5q-10.5 21.5 -32.5 34.5q-22 13 -59 13q-23 0 -41.5 -4.5q-18.5 -4.5 -24.5 -10.5q2 -4 3.5 -10q1.5 -6 1.5 -11q0 -21 -11.5 -34q-11.5 -13 -32.5 -13q-51 0 -51 48q0 24 13.5 41q13.5 17 35.5 29q22 12 51 18q29 6 61 7q54 2 88 -14q34 -16 54 -45q29 27 70 43q41 16 92 16q43 0 81.5 -15q38.5 -15 66.5 -42q28 -27 44.5 -65q16.5 -38 16.5 -84q0 -17 -2 -30q-2 -13 -4 -24l-334 0v-62q21 -35 57 -56.5q36 -21.5 89 -21.5q44 0 76 13q32 13 54 33zM650 260q-3 63 -37 96.5q-34 33.5 -93 33.5q-42 0 -77.5 -19q-35.5 -19 -51.5 -55q1 -9 1.5 -19q0.5 -10 0.5 -21v-16zM201 58q22 0 39.5 6.5q17.5 6.5 32 16q14.5 9.5 25 21q10.5 11.5 19.5 21.5l0 57q-42 30 -101 30q-51 0 -78.5 -18.5q-27.5 -18.5 -27.5 -57.5q0 -31 22 -53.5t69 -22.5z" />
<glyph unicode="&#231;" horiz-adv-x="469" d="M234 -8q-46 6 -83.5 25q-37.5 19 -64.5 49q-27 30 -41.5 70.5q-14.5 40.5 -14.5 88.5q0 49 17 92q17 43 47.5 74.5q30.5 31.5 72 50q41.5 18.5 91.5 18.5q40 0 73.5 -7.5q33.5 -7.5 58 -21q24.5 -13.5 38 -34q13.5 -20.5 13.5 -45.5q0 -23 -17 -39.5q-17 -16.5 -40 -16.5q-23 0 -39.5 16.5q-16.5 16.5 -16.5 39.5q0 11 5 23q-14 8 -27.5 11.5q-13.5 3.5 -30.5 3.5q-36 0 -65.5 -12.5q-29.5 -12.5 -50.5 -34.5q-21 -22 -32.5 -52q-11.5 -30 -11.5 -66q0 -37 13 -66.5q13 -29.5 35 -50.5q22 -21 51.5 -32q29.5 -11 62.5 -11q41 0 73.5 16q32.5 16 55.5 42l38 -58q-28 -36 -72 -54.5q-44 -18.5 -95 -20.5l0 -33q51 -3 76 -24q25 -21 25 -56q0 -36 -32.5 -59q-32.5 -23 -93.5 -23q-38 0 -62.5 11q-24.5 11 -42.5 23l24 39q15 -10 34 -16.5q19 -6.5 37 -6.5q24 0 40 9.5q16 9.5 16 26.5q0 18 -13 28.5q-13 10.5 -45 10.5l-6 0z" />
<glyph unicode="&#232;" horiz-adv-x="501" d="M115 200q2 -34 15.5 -60q13.5 -26 35 -44q21.5 -18 50 -27q28.5 -9 61.5 -9q44 0 76 13q32 13 54 33l33 -57q-33 -30 -78.5 -44.5q-45.5 -14.5 -90.5 -14.5q-55 0 -99.5 16.5q-44.5 16.5 -76 47.5q-31.5 31 -48.5 74.5q-17 43.5 -17 96.5q0 49 15.5 92q15.5 43 45 74.5q29.5 31.5 72.5 50q43 18.5 99 18.5q43 0 81.5 -15q38.5 -15 66.5 -42q28 -27 44.5 -65q16.5 -38 16.5 -84q0 -31 -5 -54zM388 260q-2 28 -10 51.5q-8 23.5 -24 41q-16 17.5 -39.5 27.5q-23.5 10 -56.5 10q-35 0 -61.5 -11q-26.5 -11 -44.5 -29q-18 -18 -27.5 -41.5q-9.5 -23.5 -9.5 -48.5zM153 673l63 48l107 -156l-49 -34z" />
<glyph unicode="&#233;" horiz-adv-x="501" d="M115 200q2 -34 15.5 -60q13.5 -26 35 -44q21.5 -18 50 -27q28.5 -9 61.5 -9q44 0 76 13q32 13 54 33l33 -57q-33 -30 -78.5 -44.5q-45.5 -14.5 -90.5 -14.5q-55 0 -99.5 16.5q-44.5 16.5 -76 47.5q-31.5 31 -48.5 74.5q-17 43.5 -17 96.5q0 49 15.5 92q15.5 43 45 74.5q29.5 31.5 72.5 50q43 18.5 99 18.5q43 0 81.5 -15q38.5 -15 66.5 -42q28 -27 44.5 -65q16.5 -38 16.5 -84q0 -31 -5 -54zM388 260q-2 28 -10 51.5q-8 23.5 -24 41q-16 17.5 -39.5 27.5q-23.5 10 -56.5 10q-35 0 -61.5 -11q-26.5 -11 -44.5 -29q-18 -18 -27.5 -41.5q-9.5 -23.5 -9.5 -48.5zM210 565l106 157l62 -48l-120 -143z" />
<glyph unicode="&#234;" horiz-adv-x="501" d="M115 200q2 -34 15.5 -60q13.5 -26 35 -44q21.5 -18 50 -27q28.5 -9 61.5 -9q44 0 76 13q32 13 54 33l33 -57q-33 -30 -78.5 -44.5q-45.5 -14.5 -90.5 -14.5q-55 0 -99.5 16.5q-44.5 16.5 -76 47.5q-31.5 31 -48.5 74.5q-17 43.5 -17 96.5q0 49 15.5 92q15.5 43 45 74.5q29.5 31.5 72.5 50q43 18.5 99 18.5q43 0 81.5 -15q38.5 -15 66.5 -42q28 -27 44.5 -65q16.5 -38 16.5 -84q0 -31 -5 -54zM388 260q-2 28 -10 51.5q-8 23.5 -24 41q-16 17.5 -39.5 27.5q-23.5 10 -56.5 10q-35 0 -61.5 -11q-26.5 -11 -44.5 -29q-18 -18 -27.5 -41.5q-9.5 -23.5 -9.5 -48.5zM115 574l141 133h4l139 -133l-38 -48l-104 91l-104 -90z" />
<glyph unicode="&#235;" horiz-adv-x="501" d="M115 200q2 -34 15.5 -60q13.5 -26 35 -44q21.5 -18 50 -27q28.5 -9 61.5 -9q44 0 76 13q32 13 54 33l33 -57q-33 -30 -78.5 -44.5q-45.5 -14.5 -90.5 -14.5q-55 0 -99.5 16.5q-44.5 16.5 -76 47.5q-31.5 31 -48.5 74.5q-17 43.5 -17 96.5q0 49 15.5 92q15.5 43 45 74.5q29.5 31.5 72.5 50q43 18.5 99 18.5q43 0 81.5 -15q38.5 -15 66.5 -42q28 -27 44.5 -65q16.5 -38 16.5 -84q0 -31 -5 -54zM388 260q-2 28 -10 51.5q-8 23.5 -24 41q-16 17.5 -39.5 27.5q-23.5 10 -56.5 10q-35 0 -61.5 -11q-26.5 -11 -44.5 -29q-18 -18 -27.5 -41.5q-9.5 -23.5 -9.5 -48.5zM159 596q-22 0 -39 14q-17 14 -17 41q0 24 17 39q17 15 39 15q20 0 36.5 -15q16.5 -15 16.5 -39q0 -27 -16.5 -41q-16.5 -14 -36.5 -14zt0 0zM354 596q-22 0 -39 14q-17 14 -17 41q0 24 17 39q17 15 39 15q20 0 36.5 -15q16.5 -15 16.5 -39q0 -27 -16.5 -41t-36.5 -14z" />
<glyph unicode="&#236;" horiz-adv-x="265" d="M35 60h58v330h-58v60h138v-390h62v-60h-200zM5 673l63 48l107 -156l-49 -34z" />
<glyph unicode="&#237;" horiz-adv-x="265" d="M35 60h58v330h-58v60h138v-390h62v-60h-200zM77 565l106 157l62 -48l-120 -143z" />
<glyph unicode="&#238;" horiz-adv-x="265" d="M35 60h58v330h-58v60h138v-390h62v-60h-200zM-9 574l141 133h4l139 -133l-38 -48l-104 91l-104 -90z" />
<glyph unicode="&#239;" horiz-adv-x="265" d="M35 60h58v330h-58v60h138v-390h62v-60h-200zM38 596q-22 0 -39 14q-17 14 -17 41q0 24 17 39q17 15 39 15q20 0 36.5 -15q16.5 -15 16.5 -39q0 -27 -16.5 -41q-16.5 -14 -36.5 -14zt0 0zM233 596q-22 0 -39 14q-17 14 -17 41q0 24 17 39q17 15 39 15q20 0 36.5 -15q16.5 -15 16.5 -39q0 -27 -16.5 -41t-36.5 -14z" />
<glyph unicode="&#240;" horiz-adv-x="565" d="M269 623q-50 44 -103 72l90 15q45 -24 84 -57l105 45l23 -71l-72 -30q30 -36 53.5 -77q23.5 -41 39.5 -84.5q16 -43.5 24.5 -88q8.5 -44.5 8.5 -87.5q0 -63 -17.5 -113.5q-17.5 -50.5 -49 -85q-31.5 -34.5 -75.5 -53q-44 -18.5 -98 -18.5q-58 0 -103 17.5q-45 17.5 -75.5 49q-30.5 31.5 -46 74.5q-15.5 43 -15.5 94q0 51 17 94q17 43 47.5 74.5q30.5 31.5 73 49q42.5 17.5 92.5 17.5q51 0 88 -21.5q37 -21.5 57 -57.5q-12 52 -36 98.5q-24 46.5 -57 86.5l-128 -54l-23 71zM282 60q35 0 64.5 14.5q29.5 14.5 50 41.5q20.5 27 31.5 64.5q11 37.5 9 84.5q-5 23 -18 45.5q-13 22.5 -32.5 40q-19.5 17.5 -46 28.5q-26.5 11 -58.5 11q-33 0 -61.5 -12.5q-28.5 -12.5 -49 -34.5q-20.5 -22 -32.5 -52q-12 -30 -12 -66q0 -35 11.5 -65.5q11.5 -30.5 32 -52.5q20.5 -22 49 -34.5t62.5 -12.5z" />
<glyph unicode="&#241;" horiz-adv-x="572" d="M35 60h58v330h-58v60h138v-55q23 26 62.5 44.5q39.5 18.5 84.5 18.5q88 0 137.5 -46q49.5 -46 49.5 -152v-200h55v-60h-190v60h55v190q0 71 -32 104.5q-32 33.5 -95 33.5q-38 0 -71.5 -16.5q-33.5 -16.5 -55.5 -41.5l0 -270h55v-60h-193zM454 604q-56 -59 -106 -59q-17 0 -30.5 7q-13.5 7 -26.5 15q-13 8 -26.5 15q-13.5 7 -30.5 7q-15 0 -32.5 -9q-17.5 -9 -36.5 -23l-33 37q29 32 57 46q28 14 53 14q18 0 32 -7q14 -7 27 -15q13 -8 26 -15q13 -7 28 -7q20 0 34.5 8.5q14.5 8.5 36.5 26.5z" />
<glyph unicode="&#242;" horiz-adv-x="540" d="M270 -10q-58 0 -103 17.5q-45 17.5 -75.5 49q-30.5 31.5 -46 74.5q-15.5 43 -15.5 94q0 51 17 94q17 43 48.5 74.5q31.5 31.5 76 49q44.5 17.5 98.5 17.5q56 0 100.5 -17.5q44.5 -17.5 75.5 -49q31 -31.5 47.5 -74.5q16.5 -43 16.5 -94q0 -51 -17.5 -94q-17.5 -43 -49 -74.5q-31.5 -31.5 -75.5 -49q-44 -17.5 -98 -17.5zt0 0zM270 60q68 0 111.5 42.5q43.5 42.5 43.5 122.5q0 39 -11.5 69.5q-11.5 30.5 -32 52q-20.5 21.5 -49 32.5q-28.5 11 -62.5 11q-33 0 -61.5 -11q-28.5 -11 -49 -32q-20.5 -21 -32.5 -52q-12 -31 -12 -70q0 -39 11.5 -69.5q11.5 -30.5 32 -52q20.5 -21.5 49 -32.5q28.5 -11 62.5 -11zt0 0zM157 673l63 48l107 -156l-49 -34z" />
<glyph unicode="&#243;" horiz-adv-x="540" d="M270 -10q-58 0 -103 17.5q-45 17.5 -75.5 49q-30.5 31.5 -46 74.5q-15.5 43 -15.5 94q0 51 17 94q17 43 48.5 74.5q31.5 31.5 76 49q44.5 17.5 98.5 17.5q56 0 100.5 -17.5q44.5 -17.5 75.5 -49q31 -31.5 47.5 -74.5q16.5 -43 16.5 -94q0 -51 -17.5 -94q-17.5 -43 -49 -74.5q-31.5 -31.5 -75.5 -49q-44 -17.5 -98 -17.5zt0 0zM270 60q68 0 111.5 42.5q43.5 42.5 43.5 122.5q0 39 -11.5 69.5q-11.5 30.5 -32 52q-20.5 21.5 -49 32.5q-28.5 11 -62.5 11q-33 0 -61.5 -11q-28.5 -11 -49 -32q-20.5 -21 -32.5 -52q-12 -31 -12 -70q0 -39 11.5 -69.5q11.5 -30.5 32 -52q20.5 -21.5 49 -32.5q28.5 -11 62.5 -11zt0 0zM214 565l106 157l62 -48l-120 -143z" />
<glyph unicode="&#244;" horiz-adv-x="540" d="M270 -10q-58 0 -103 17.5q-45 17.5 -75.5 49q-30.5 31.5 -46 74.5q-15.5 43 -15.5 94q0 51 17 94q17 43 48.5 74.5q31.5 31.5 76 49q44.5 17.5 98.5 17.5q56 0 100.5 -17.5q44.5 -17.5 75.5 -49q31 -31.5 47.5 -74.5q16.5 -43 16.5 -94q0 -51 -17.5 -94q-17.5 -43 -49 -74.5q-31.5 -31.5 -75.5 -49q-44 -17.5 -98 -17.5zt0 0zM270 60q68 0 111.5 42.5q43.5 42.5 43.5 122.5q0 39 -11.5 69.5q-11.5 30.5 -32 52q-20.5 21.5 -49 32.5q-28.5 11 -62.5 11q-33 0 -61.5 -11q-28.5 -11 -49 -32q-20.5 -21 -32.5 -52q-12 -31 -12 -70q0 -39 11.5 -69.5q11.5 -30.5 32 -52q20.5 -21.5 49 -32.5q28.5 -11 62.5 -11zt0 0zM128 574l141 133h4l139 -133l-38 -48l-104 91l-104 -90z" />
<glyph unicode="&#245;" horiz-adv-x="540" d="M270 -10q-58 0 -103 17.5q-45 17.5 -75.5 49q-30.5 31.5 -46 74.5q-15.5 43 -15.5 94q0 51 17 94q17 43 48.5 74.5q31.5 31.5 76 49q44.5 17.5 98.5 17.5q56 0 100.5 -17.5q44.5 -17.5 75.5 -49q31 -31.5 47.5 -74.5q16.5 -43 16.5 -94q0 -51 -17.5 -94q-17.5 -43 -49 -74.5q-31.5 -31.5 -75.5 -49q-44 -17.5 -98 -17.5zt0 0zM270 60q68 0 111.5 42.5q43.5 42.5 43.5 122.5q0 39 -11.5 69.5q-11.5 30.5 -32 52q-20.5 21.5 -49 32.5q-28.5 11 -62.5 11q-33 0 -61.5 -11q-28.5 -11 -49 -32q-20.5 -21 -32.5 -52q-12 -31 -12 -70q0 -39 11.5 -69.5q11.5 -30.5 32 -52q20.5 -21.5 49 -32.5q28.5 -11 62.5 -11zt0 0zM429 604q-56 -59 -106 -59q-17 0 -30.5 7q-13.5 7 -26.5 15q-13 8 -26.5 15q-13.5 7 -30.5 7q-15 0 -32.5 -9q-17.5 -9 -36.5 -23l-33 37q29 32 57 46q28 14 53 14q18 0 32 -7q14 -7 27 -15q13 -8 26 -15q13 -7 28 -7q20 0 34.5 8.5q14.5 8.5 36.5 26.5z" />
<glyph unicode="&#246;" horiz-adv-x="540" d="M270 -10q-58 0 -103 17.5q-45 17.5 -75.5 49q-30.5 31.5 -46 74.5q-15.5 43 -15.5 94q0 51 17 94q17 43 48.5 74.5q31.5 31.5 76 49q44.5 17.5 98.5 17.5q56 0 100.5 -17.5q44.5 -17.5 75.5 -49q31 -31.5 47.5 -74.5q16.5 -43 16.5 -94q0 -51 -17.5 -94q-17.5 -43 -49 -74.5q-31.5 -31.5 -75.5 -49q-44 -17.5 -98 -17.5zt0 0zM270 60q68 0 111.5 42.5q43.5 42.5 43.5 122.5q0 39 -11.5 69.5q-11.5 30.5 -32 52q-20.5 21.5 -49 32.5q-28.5 11 -62.5 11q-33 0 -61.5 -11q-28.5 -11 -49 -32q-20.5 -21 -32.5 -52q-12 -31 -12 -70q0 -39 11.5 -69.5q11.5 -30.5 32 -52q20.5 -21.5 49 -32.5q28.5 -11 62.5 -11zt0 0zM174 596q-22 0 -39 14q-17 14 -17 41q0 24 17 39q17 15 39 15q20 0 36.5 -15q16.5 -15 16.5 -39q0 -27 -16.5 -41q-16.5 -14 -36.5 -14zt0 0zM369 596q-22 0 -39 14q-17 14 -17 41q0 24 17 39q17 15 39 15q20 0 36.5 -15q16.5 -15 16.5 -39q0 -27 -16.5 -41t-36.5 -14z" />
<glyph unicode="&#247;" horiz-adv-x="592" d="M229 174q0 23 18 43q18 20 49 20q28 0 45.5 -20q17.5 -20 17.5 -43q0 -26 -17.5 -46.5q-17.5 -20.5 -45.5 -20.5q-31 0 -49 20.5q-18 20.5 -18 46.5zt0 0zM229 550q0 23 18 43q18 20 49 20q28 0 45.5 -20q17.5 -20 17.5 -43q0 -26 -17.5 -46.5q-17.5 -20.5 -45.5 -20.5q-31 0 -49 20.5q-18 20.5 -18 46.5zt0 0zM69 395h454v-70l-454 0z" />
<glyph unicode="&#248;" horiz-adv-x="540" d="M29 37l46 44q-22 29 -33.5 65.5q-11.5 36.5 -11.5 78.5q0 51 17 94q17 43 48.5 74.5q31.5 31.5 76 49q44.5 17.5 98.5 17.5q46 0 84.5 -13q38.5 -13 68.5 -36l46 44l44 -49l-45 -43q42 -59 42 -138q0 -51 -17.5 -94q-17.5 -43 -49 -74.5q-31.5 -31.5 -75.5 -49q-44 -17.5 -98 -17.5q-44 0 -80.5 11.5q-36.5 11.5 -65.5 31.5l-50 -47zM367 359q-20 14 -45 22.5q-25 8.5 -52 8.5q-36 0 -64.5 -12.5q-28.5 -12.5 -48.5 -34.5q-20 -22 -31 -52q-11 -30 -11 -66q0 -50 21 -86zM181 85q37 -25 89 -25q35 0 63.5 12.5q28.5 12.5 49 34q20.5 21.5 31.5 52q11 30.5 11 66.5q0 22 -5 42q-5 20 -13 37z" />
<glyph unicode="&#249;" horiz-adv-x="548" d="M20 450h138q0 -63 -2 -128q-2 -65 -2 -127q0 -64 27 -99.5q27 -35.5 89 -35.5q39 0 73.5 20q34.5 20 55.5 47l0 263h-58v60h138v-390h58v-60h-138v64q-23 -29 -64 -51.5q-41 -22.5 -95 -22.5q-75 0 -120.5 46.5q-45.5 46.5 -45.5 145.5q0 52 1 103q1 51 2 105l-57 0zM166 673l63 48l107 -156l-49 -34z" />
<glyph unicode="&#250;" horiz-adv-x="548" d="M20 450h138q0 -63 -2 -128q-2 -65 -2 -127q0 -64 27 -99.5q27 -35.5 89 -35.5q39 0 73.5 20q34.5 20 55.5 47l0 263h-58v60h138v-390h58v-60h-138v64q-23 -29 -64 -51.5q-41 -22.5 -95 -22.5q-75 0 -120.5 46.5q-45.5 46.5 -45.5 145.5q0 52 1 103q1 51 2 105l-57 0zM228 565l106 157l62 -48l-120 -143z" />
<glyph unicode="&#251;" horiz-adv-x="548" d="M20 450h138q0 -63 -2 -128q-2 -65 -2 -127q0 -64 27 -99.5q27 -35.5 89 -35.5q39 0 73.5 20q34.5 20 55.5 47l0 263h-58v60h138v-390h58v-60h-138v64q-23 -29 -64 -51.5q-41 -22.5 -95 -22.5q-75 0 -120.5 46.5q-45.5 46.5 -45.5 145.5q0 52 1 103q1 51 2 105l-57 0zM136 574l141 133h4l139 -133l-38 -48l-104 91l-104 -90z" />
<glyph unicode="&#252;" horiz-adv-x="548" d="M20 450h138q0 -63 -2 -128q-2 -65 -2 -127q0 -64 27 -99.5q27 -35.5 89 -35.5q39 0 73.5 20q34.5 20 55.5 47l0 263h-58v60h138v-390h58v-60h-138v64q-23 -29 -64 -51.5q-41 -22.5 -95 -22.5q-75 0 -120.5 46.5q-45.5 46.5 -45.5 145.5q0 52 1 103q1 51 2 105l-57 0zM185 596q-22 0 -39 14q-17 14 -17 41q0 24 17 39q17 15 39 15q20 0 36.5 -15q16.5 -15 16.5 -39q0 -27 -16.5 -41q-16.5 -14 -36.5 -14zt0 0zM380 596q-22 0 -39 14q-17 14 -17 41q0 24 17 39q17 15 39 15q20 0 36.5 -15q16.5 -15 16.5 -39q0 -27 -16.5 -41t-36.5 -14z" />
<glyph unicode="&#253;" horiz-adv-x="500" d="M43 390h-33v60h185v-60h-66l114 -246q8 -17 14 -34q6 -17 13 -34q9 33 21 69l92 245h-65v60h177v-60h-32l-157 -390q-25 -60 -46 -99q-21 -39 -41 -61.5q-20 -22.5 -40.5 -31q-20.5 -8.5 -44.5 -8.5q-18 0 -32 6.5q-14 6.5 -23.5 17q-9.5 10.5 -14 23q-4.5 12.5 -4.5 24.5q0 21 15 36.5q15 15.5 36 15.5q20 0 32 -10.5q12 -10.5 14 -25.5q0 -3 0 -6.5q0 -3.5 -1 -7.5q19 5 33.5 33.5q14.5 28.5 31.5 69.5l10 24zM192 565l106 157l62 -48l-120 -143z" />
<glyph unicode="&#254;" horiz-adv-x="559" d="M30 -140h58v780h-58v60h138v-303q23 27 64.5 45q41.5 18 88.5 18q48 0 86.5 -17q38.5 -17 65.5 -47q27 -30 41.5 -72q14.5 -42 14.5 -92q0 -51 -16.5 -95.5q-16.5 -44.5 -47.5 -77q-31 -32.5 -74 -51q-43 -18.5 -96 -18.5q-36 0 -69.5 7.5q-33.5 7.5 -57.5 23.5l0 -161h72v-60h-210zM168 95q30 -20 59 -27.5q29 -7.5 61 -7.5q72 0 114 45q42 45 42 124q0 76 -38 118.5q-38 42.5 -108 42.5q-40 0 -74.5 -18q-34.5 -18 -55.5 -44z" />
<glyph unicode="&#255;" horiz-adv-x="500" d="M43 390h-33v60h185v-60h-66l114 -246q8 -17 14 -34q6 -17 13 -34q9 33 21 69l92 245h-65v60h177v-60h-32l-157 -390q-25 -60 -46 -99q-21 -39 -41 -61.5q-20 -22.5 -40.5 -31q-20.5 -8.5 -44.5 -8.5q-18 0 -32 6.5q-14 6.5 -23.5 17q-9.5 10.5 -14 23q-4.5 12.5 -4.5 24.5q0 21 15 36.5q15 15.5 36 15.5q20 0 32 -10.5q12 -10.5 14 -25.5q0 -3 0 -6.5q0 -3.5 -1 -7.5q19 5 33.5 33.5q14.5 28.5 31.5 69.5l10 24zM160 596q-22 0 -39 14q-17 14 -17 41q0 24 17 39q17 15 39 15q20 0 36.5 -15q16.5 -15 16.5 -39q0 -27 -16.5 -41q-16.5 -14 -36.5 -14zt0 0zM355 596q-22 0 -39 14q-17 14 -17 41q0 24 17 39q17 15 39 15q20 0 36.5 -15q16.5 -15 16.5 -39q0 -27 -16.5 -41t-36.5 -14z" />
<glyph unicode="&#256;" horiz-adv-x="741" d="M5 70h56l256 630h102l260 -630h57v-70h-228v70h80l-59 142h-326l-58 -142h88v-70h-228zM498 292l-98 243q-8 19 -17.5 45q-9.5 26 -15.5 45l-3 0q-6 -19 -15.5 -45q-9.5 -26 -17.5 -45l-96 -243zM218 835h304v-65l-304 0z" />
<glyph unicode="&#257;" horiz-adv-x="460" d="M390 96q0 -25 6.5 -31.5q6.5 -6.5 17.5 -6.5q8 0 14 2q6 2 14 6l13 -45q-9 -13 -27.5 -20.5q-18.5 -7.5 -39.5 -7.5q-21 0 -34.5 7.5q-13.5 7.5 -21 19.5q-7.5 12 -10.5 26.5q-3 14.5 -2 28.5q-7 -15 -20 -29.5q-13 -14.5 -31.5 -26.5q-18.5 -12 -41.5 -19q-23 -7 -49 -7q-73 0 -113 37.5q-40 37.5 -40 99.5q0 34 13 60.5q13 26.5 36.5 44q23.5 17.5 55.5 26.5q32 9 71 9q29 0 62 -6q33 -6 56 -18q1 10 1 19q0 9 0 18q0 28 -5 49.5q-5 21.5 -17 36.5q-12 15 -32 23q-20 8 -51 8q-23 0 -41 -4q-18 -4 -32 -11q3 -4 6.5 -13q3.5 -9 3.5 -18q0 -19 -13.5 -30.5q-13.5 -11.5 -34.5 -11.5q-25 0 -36.5 14.5q-11.5 14.5 -11.5 33.5q0 24 14 42.5q14 18.5 36.5 31q22.5 12.5 52 19.5q29.5 7 61.5 7q88 0 131.5 -43q43.5 -43 43.5 -113q0 -29 -1 -54.5q-1 -25.5 -1.5 -50q-0.5 -24.5 -1.5 -50q-1 -25.5 -1 -53.5zt0 0zM110 134q0 -31 22 -53.5q22 -22.5 69 -22.5q22 0 42 8.5q20 8.5 36 21q16 12.5 26 28q10 15.5 12 30.5l0 39q-44 25 -101 25q-51 0 -78.5 -18.5q-27.5 -18.5 -27.5 -57.5zt0 0zM96 645h264v-65l-264 0z" />
<glyph unicode="&#258;" horiz-adv-x="741" d="M5 70h56l256 630h102l260 -630h57v-70h-228v70h80l-59 142h-326l-58 -142h88v-70h-228zM498 292l-98 243q-8 19 -17.5 45q-9.5 26 -15.5 45l-3 0q-6 -19 -15.5 -45q-9.5 -26 -17.5 -45l-96 -243zM545 838q-12 -18 -29 -35q-17 -17 -39 -29.5q-22 -12.5 -48 -20.5q-26 -8 -55 -8q-33 0 -62 9q-29 9 -51.5 23q-22.5 14 -39.5 30q-17 16 -26 31l36 42q9 -10 21.5 -21.5q12.5 -11.5 30 -21q17.5 -9.5 40 -16q22.5 -6.5 51.5 -6.5q50 0 85 20.5q35 20.5 55 44.5z" />
<glyph unicode="&#259;" horiz-adv-x="460" d="M390 96q0 -25 6.5 -31.5q6.5 -6.5 17.5 -6.5q8 0 14 2q6 2 14 6l13 -45q-9 -13 -27.5 -20.5q-18.5 -7.5 -39.5 -7.5q-21 0 -34.5 7.5q-13.5 7.5 -21 19.5q-7.5 12 -10.5 26.5q-3 14.5 -2 28.5q-7 -15 -20 -29.5q-13 -14.5 -31.5 -26.5q-18.5 -12 -41.5 -19q-23 -7 -49 -7q-73 0 -113 37.5q-40 37.5 -40 99.5q0 34 13 60.5q13 26.5 36.5 44q23.5 17.5 55.5 26.5q32 9 71 9q29 0 62 -6q33 -6 56 -18q1 10 1 19q0 9 0 18q0 28 -5 49.5q-5 21.5 -17 36.5q-12 15 -32 23q-20 8 -51 8q-23 0 -41 -4q-18 -4 -32 -11q3 -4 6.5 -13q3.5 -9 3.5 -18q0 -19 -13.5 -30.5q-13.5 -11.5 -34.5 -11.5q-25 0 -36.5 14.5q-11.5 14.5 -11.5 33.5q0 24 14 42.5q14 18.5 36.5 31q22.5 12.5 52 19.5q29.5 7 61.5 7q88 0 131.5 -43q43.5 -43 43.5 -113q0 -29 -1 -54.5q-1 -25.5 -1.5 -50q-0.5 -24.5 -1.5 -50q-1 -25.5 -1 -53.5zt0 0zM110 134q0 -31 22 -53.5q22 -22.5 69 -22.5q22 0 42 8.5q20 8.5 36 21q16 12.5 26 28q10 15.5 12 30.5l0 39q-44 25 -101 25q-51 0 -78.5 -18.5q-27.5 -18.5 -27.5 -57.5zt0 0zM369 641q-11 -15 -24 -30q-13 -15 -31 -27.5q-18 -12.5 -40.5 -20.5q-22.5 -8 -51.5 -8q-31 0 -55.5 9.5q-24.5 9.5 -43 22.5q-18.5 13 -30.5 27.5q-12 14.5 -19 25.5l37 41q7 -9 17.5 -19.5q10.5 -10.5 24.5 -20q14 -9.5 31.5 -15.5q17.5 -6 40.5 -6q39 0 68 19q29 19 47 41z" />
<glyph unicode="&#260;" horiz-adv-x="741" d="M5 70h56l256 630h102l260 -630h57v-70h-228v70h80l-59 142h-326l-58 -142h88v-70h-228zM498 292l-98 243q-8 19 -17.5 45q-9.5 26 -15.5 45l-3 0q-6 -19 -15.5 -45q-9.5 -26 -17.5 -45l-96 -243zM719 0q-23 0 -44.5 -6.5q-21.5 -6.5 -38 -17.5q-16.5 -11 -26.5 -26q-10 -15 -10 -32q0 -16 6 -26q6 -10 15 -16q9 -6 19.5 -8.5q10.5 -2.5 19.5 -2.5q11 0 21 1.5q10 1.5 23 7.5l24 -49q-13 -11 -36.5 -18q-23.5 -7 -49.5 -7q-22 0 -43.5 4.5q-21.5 4.5 -39 15.5q-17.5 11 -28.5 28.5q-11 17.5 -11 43.5q0 31 18 54.5q18 23.5 47 39q29 15.5 64 23q35 7.5 70 7.5z" />
<glyph unicode="&#261;" horiz-adv-x="460" d="M349 0q-13 5 -21.5 20q-8.5 15 -10.5 38q-20 -26 -54 -45.5q-34 -19.5 -90 -19.5q-69 0 -108.5 37.5q-39.5 37.5 -39.5 99.5q0 69 49.5 104.5q49.5 35.5 130.5 35.5q26 0 58.5 -3.5q32.5 -3.5 55.5 -20.5q2 29 0 57q-2 28 -12.5 49.5q-10.5 21.5 -32.5 34.5q-22 13 -59 13q-23 0 -41.5 -4.5q-18.5 -4.5 -24.5 -10.5q2 -4 3.5 -10q1.5 -6 1.5 -11q0 -21 -11.5 -34q-11.5 -13 -32.5 -13q-51 0 -51 51q0 22 15 39.5q15 17.5 38.5 29q23.5 11.5 52 17.5q28.5 6 55.5 6q96 0 135.5 -46q39.5 -46 39.5 -134q0 -29 -0.5 -49q-0.5 -20 -1 -39q-0.5 -19 -1 -40.5q-0.5 -21.5 -0.5 -53.5q0 -23 5 -30.5q5 -7.5 24 -7.5h29v-60q-23 0 -44.5 -6.5q-21.5 -6.5 -38 -17.5q-16.5 -11 -26.5 -26q-10 -15 -10 -32q0 -16 6 -26q6 -10 15 -16q9 -6 19.5 -8.5q10.5 -2.5 19.5 -2.5q11 0 21 1.5q10 1.5 23 7.5l24 -49q-13 -11 -36.5 -18q-23.5 -7 -49.5 -7q-22 0 -43.5 4.5q-21.5 4.5 -39 15.5q-17.5 11 -28.5 28.5q-11 17.5 -11 43.5q0 40 28 67q28 27 70 41zt0 0zM110 134q0 -31 22 -53.5q22 -22.5 69 -22.5q22 0 39.5 6.5q17.5 6.5 32 16q14.5 9.5 25 21q10.5 11.5 19.5 21.5l0 57q-42 30 -101 30q-51 0 -78.5 -18.5t-27.5 -57.5z" />
<glyph unicode="&#262;" horiz-adv-x="690" d="M575 210h70v-210h-70v39q-34 -21 -80 -35q-46 -14 -100 -14q-80 0 -145 25.5q-65 25.5 -110.5 72.5q-45.5 47 -70 113.5q-24.5 66.5 -24.5 148.5q0 75 23.5 141q23.5 66 68.5 114.5q45 48.5 110 76.5q65 28 147 28q51 0 96.5 -12q45.5 -12 78.5 -32l0 34h70v-195h-70v84q-34 23 -78.5 34.5q-44.5 11.5 -95.5 11.5q-57 0 -105 -21q-48 -21 -82.5 -59q-34.5 -38 -53.5 -90.5q-19 -52.5 -19 -114.5q0 -63 20 -115q20 -52 56 -90q36 -38 86 -59q50 -21 111 -21q42 0 86.5 12.5q44.5 12.5 80.5 37.5zM308 783l195 104l30 -68l-202 -84z" />
<glyph unicode="&#263;" horiz-adv-x="469" d="M30 225q0 49 17 92q17 43 47.5 74.5q30.5 31.5 72 50q41.5 18.5 91.5 18.5q40 0 73.5 -7.5q33.5 -7.5 58 -21q24.5 -13.5 38 -34q13.5 -20.5 13.5 -45.5q0 -23 -17 -39.5q-17 -16.5 -40 -16.5q-23 0 -39.5 16.5q-16.5 16.5 -16.5 39.5q0 11 5 23q-14 8 -27.5 11.5q-13.5 3.5 -30.5 3.5q-36 0 -65.5 -12.5q-29.5 -12.5 -50.5 -34.5q-21 -22 -32.5 -52q-11.5 -30 -11.5 -66q0 -37 13 -66.5q13 -29.5 35 -50.5q22 -21 51.5 -32q29.5 -11 62.5 -11q41 0 73.5 16q32.5 16 55.5 42l38 -58q-29 -37 -75 -56q-46 -19 -98 -19q-54 0 -98 16.5q-44 16.5 -76 47.5q-32 31 -49.5 74.5q-17.5 43.5 -17.5 96.5zt0 0zM202 565l106 157l62 -48l-120 -143z" />
<glyph unicode="&#264;" horiz-adv-x="690" d="M575 210h70v-210h-70v39q-34 -21 -80 -35q-46 -14 -100 -14q-80 0 -145 25.5q-65 25.5 -110.5 72.5q-45.5 47 -70 113.5q-24.5 66.5 -24.5 148.5q0 75 23.5 141q23.5 66 68.5 114.5q45 48.5 110 76.5q65 28 147 28q51 0 96.5 -12q45.5 -12 78.5 -32l0 34h70v-195h-70v84q-34 23 -78.5 34.5q-44.5 11.5 -95.5 11.5q-57 0 -105 -21q-48 -21 -82.5 -59q-34.5 -38 -53.5 -90.5q-19 -52.5 -19 -114.5q0 -63 20 -115q20 -52 56 -90q36 -38 86 -59q50 -21 111 -21q42 0 86.5 12.5q44.5 12.5 80.5 37.5zM211 778l171 104h4l174 -103l-33 -46l-143 76l-144 -76z" />
<glyph unicode="&#265;" horiz-adv-x="469" d="M30 225q0 49 17 92q17 43 47.5 74.5q30.5 31.5 72 50q41.5 18.5 91.5 18.5q40 0 73.5 -7.5q33.5 -7.5 58 -21q24.5 -13.5 38 -34q13.5 -20.5 13.5 -45.5q0 -23 -17 -39.5q-17 -16.5 -40 -16.5q-23 0 -39.5 16.5q-16.5 16.5 -16.5 39.5q0 11 5 23q-14 8 -27.5 11.5q-13.5 3.5 -30.5 3.5q-36 0 -65.5 -12.5q-29.5 -12.5 -50.5 -34.5q-21 -22 -32.5 -52q-11.5 -30 -11.5 -66q0 -37 13 -66.5q13 -29.5 35 -50.5q22 -21 51.5 -32q29.5 -11 62.5 -11q41 0 73.5 16q32.5 16 55.5 42l38 -58q-29 -37 -75 -56q-46 -19 -98 -19q-54 0 -98 16.5q-44 16.5 -76 47.5q-32 31 -49.5 74.5q-17.5 43.5 -17.5 96.5zt0 0zM122 574l141 133h4l139 -133l-38 -48l-104 91l-104 -90z" />
<glyph unicode="&#266;" horiz-adv-x="690" d="M575 210h70v-210h-70v39q-34 -21 -80 -35q-46 -14 -100 -14q-80 0 -145 25.5q-65 25.5 -110.5 72.5q-45.5 47 -70 113.5q-24.5 66.5 -24.5 148.5q0 75 23.5 141q23.5 66 68.5 114.5q45 48.5 110 76.5q65 28 147 28q51 0 96.5 -12q45.5 -12 78.5 -32l0 34h70v-195h-70v84q-34 23 -78.5 34.5q-44.5 11.5 -95.5 11.5q-57 0 -105 -21q-48 -21 -82.5 -59q-34.5 -38 -53.5 -90.5q-19 -52.5 -19 -114.5q0 -63 20 -115q20 -52 56 -90q36 -38 86 -59q50 -21 111 -21q42 0 86.5 12.5q44.5 12.5 80.5 37.5zM377 752q-25 0 -44 15.5q-19 15.5 -19 44.5q0 26 19 41q19 15 44 15q23 0 41.5 -15q18.5 -15 18.5 -41q0 -29 -18.5 -44.5t-41.5 -15.5z" />
<glyph unicode="&#267;" horiz-adv-x="469" d="M30 225q0 49 17 92q17 43 47.5 74.5q30.5 31.5 72 50q41.5 18.5 91.5 18.5q40 0 73.5 -7.5q33.5 -7.5 58 -21q24.5 -13.5 38 -34q13.5 -20.5 13.5 -45.5q0 -23 -17 -39.5q-17 -16.5 -40 -16.5q-23 0 -39.5 16.5q-16.5 16.5 -16.5 39.5q0 11 5 23q-14 8 -27.5 11.5q-13.5 3.5 -30.5 3.5q-36 0 -65.5 -12.5q-29.5 -12.5 -50.5 -34.5q-21 -22 -32.5 -52q-11.5 -30 -11.5 -66q0 -37 13 -66.5q13 -29.5 35 -50.5q22 -21 51.5 -32q29.5 -11 62.5 -11q41 0 73.5 16q32.5 16 55.5 42l38 -58q-29 -37 -75 -56q-46 -19 -98 -19q-54 0 -98 16.5q-44 16.5 -76 47.5q-32 31 -49.5 74.5q-17.5 43.5 -17.5 96.5zt0 0zM261 587q-25 0 -43 15.5q-18 15.5 -18 44.5q0 26 18 41q18 15 43 15q22 0 39.5 -15q17.5 -15 17.5 -41q0 -29 -17.5 -44.5t-39.5 -15.5z" />
<glyph unicode="&#268;" horiz-adv-x="690" d="M575 210h70v-210h-70v39q-34 -21 -80 -35q-46 -14 -100 -14q-80 0 -145 25.5q-65 25.5 -110.5 72.5q-45.5 47 -70 113.5q-24.5 66.5 -24.5 148.5q0 75 23.5 141q23.5 66 68.5 114.5q45 48.5 110 76.5q65 28 147 28q51 0 96.5 -12q45.5 -12 78.5 -32l0 34h70v-195h-70v84q-34 23 -78.5 34.5q-44.5 11.5 -95.5 11.5q-57 0 -105 -21q-48 -21 -82.5 -59q-34.5 -38 -53.5 -90.5q-19 -52.5 -19 -114.5q0 -63 20 -115q20 -52 56 -90q36 -38 86 -59q50 -21 111 -21q42 0 86.5 12.5q44.5 12.5 80.5 37.5zM387 806l143 81l30 -45l-171 -104h-4l-175 103l33 46z" />
<glyph unicode="&#269;" horiz-adv-x="469" d="M30 225q0 49 17 92q17 43 47.5 74.5q30.5 31.5 72 50q41.5 18.5 91.5 18.5q40 0 73.5 -7.5q33.5 -7.5 58 -21q24.5 -13.5 38 -34q13.5 -20.5 13.5 -45.5q0 -23 -17 -39.5q-17 -16.5 -40 -16.5q-23 0 -39.5 16.5q-16.5 16.5 -16.5 39.5q0 11 5 23q-14 8 -27.5 11.5q-13.5 3.5 -30.5 3.5q-36 0 -65.5 -12.5q-29.5 -12.5 -50.5 -34.5q-21 -22 -32.5 -52q-11.5 -30 -11.5 -66q0 -37 13 -66.5q13 -29.5 35 -50.5q22 -21 51.5 -32q29.5 -11 62.5 -11q41 0 73.5 16q32.5 16 55.5 42l38 -58q-29 -37 -75 -56q-46 -19 -98 -19q-54 0 -98 16.5q-44 16.5 -76 47.5q-32 31 -49.5 74.5q-17.5 43.5 -17.5 96.5zt0 0zM160 710l104 -103l104 102l37 -47l-140 -133h-4l-140 133z" />
<glyph unicode="&#270;" horiz-adv-x="762" d="M218 70q35 -1 53 -1.5q18 -0.5 34 -0.5q160 0 241 77.5q81 77.5 81 213.5q0 62 -19.5 112.5q-19.5 50.5 -59.5 86.5q-40 36 -101 55.5q-61 19.5 -145 19.5q-17 0 -37.5 -1q-20.5 -1 -46.5 -2zM133 70v560h-83v70h95q17 0 39 0.5q22 0.5 46 1q24 0.5 48.5 1q24.5 0.5 45.5 0.5q105 0 179.5 -28q74.5 -28 122 -75.5q47.5 -47.5 69.5 -109.5q22 -62 22 -131q0 -75 -25 -140.5q-25 -65.5 -75.5 -114.5q-50.5 -49 -125.5 -77.5q-75 -28.5 -175 -28.5q-35 0 -81 1q-46 1 -91 1h-94v70zM365 806l143 81l30 -45l-171 -104h-4l-175 103l33 46z" />
<glyph unicode="&#271;" horiz-adv-x="655" d="M528 60v-60h-138v57q-25 -27 -61 -46q-36 -19 -82 -19q-50 0 -90 16.5q-40 16.5 -68 46.5q-28 30 -43.5 72.5q-15.5 42.5 -15.5 94.5q0 52 18.5 96q18.5 44 51.5 75.5q33 31.5 78 49q45 17.5 98 17.5q36 0 63.5 -7.5q27.5 -7.5 50.5 -24.5l0 212h-68v60h148v-640zM262 62q39 0 73 18.5q34 18.5 55 41.5l0 233q-55 35 -111 35q-33 0 -63 -12q-30 -12 -52.5 -34q-22.5 -22 -35.5 -52.5q-13 -30.5 -13 -67.5q0 -37 11 -67q11 -30 31 -51q20 -21 46.5 -32.5q26.5 -11.5 58.5 -11.5zt0 0zM523 544q21 18 34 46.5q13 28.5 13 62.5q0 15 -3 26q-3 11 -8 21l78 0q8 -16 8 -38q0 -30 -7.5 -55q-7.5 -25 -19.5 -44q-12 -19 -27.5 -32.5q-15.5 -13.5 -31.5 -21.5z" />
<glyph unicode="&#272;" horiz-adv-x="762" d="M133 70v252h-83v70h83v238h-83v70h95q17 0 39 0.5q22 0.5 46 1q24 0.5 48.5 1q24.5 0.5 45.5 0.5q105 0 179.5 -28q74.5 -28 122 -75.5q47.5 -47.5 69.5 -109.5q22 -62 22 -131q0 -75 -25 -140.5q-25 -65.5 -75.5 -114.5q-50.5 -49 -125.5 -77.5q-75 -28.5 -175 -28.5q-35 0 -81 1q-46 1 -91 1h-94v70zM218 322v-252q35 -1 53 -1.5q18 -0.5 34 -0.5q160 0 241 77.5q81 77.5 81 213.5q0 62 -19.5 112.5q-19.5 50.5 -59.5 86.5q-40 36 -101 55.5q-61 19.5 -145 19.5q-17 0 -37.5 -1q-20.5 -1 -46.5 -2l0 -238h188l0 -70z" />
<glyph unicode="&#273;" horiz-adv-x="543" d="M528 60v-60h-138v57q-25 -27 -61 -46q-36 -19 -82 -19q-50 0 -90 16.5q-40 16.5 -68 46.5q-28 30 -43.5 72.5q-15.5 42.5 -15.5 94.5q0 52 18.5 96q18.5 44 51.5 75.5q33 31.5 78 49q45 17.5 98 17.5q36 0 63.5 -7.5q27.5 -7.5 50.5 -24.5l0 86h-157v65h157v61h-68v60h148v-121h92v-65h-92v-454zM262 62q39 0 73 18.5q34 18.5 55 41.5l0 233q-55 35 -111 35q-33 0 -63 -12q-30 -12 -52.5 -34q-22.5 -22 -35.5 -52.5q-13 -30.5 -13 -67.5q0 -37 11 -67q11 -30 31 -51q20 -21 46.5 -32.5t58.5 -11.5z" />
<glyph unicode="&#274;" horiz-adv-x="632" d="M50 70h83v560h-83v70h502v-195h-70v125h-264v-241h214v-70h-214v-249h284v141h70v-211h-522zM178 835h304v-65l-304 0z" />
<glyph unicode="&#275;" horiz-adv-x="501" d="M115 200q2 -34 15.5 -60q13.5 -26 35 -44q21.5 -18 50 -27q28.5 -9 61.5 -9q44 0 76 13q32 13 54 33l33 -57q-33 -30 -78.5 -44.5q-45.5 -14.5 -90.5 -14.5q-55 0 -99.5 16.5q-44.5 16.5 -76 47.5q-31.5 31 -48.5 74.5q-17 43.5 -17 96.5q0 49 15.5 92q15.5 43 45 74.5q29.5 31.5 72.5 50q43 18.5 99 18.5q43 0 81.5 -15q38.5 -15 66.5 -42q28 -27 44.5 -65q16.5 -38 16.5 -84q0 -31 -5 -54zM388 260q-2 28 -10 51.5q-8 23.5 -24 41q-16 17.5 -39.5 27.5q-23.5 10 -56.5 10q-35 0 -61.5 -11q-26.5 -11 -44.5 -29q-18 -18 -27.5 -41.5q-9.5 -23.5 -9.5 -48.5zM120 645h264v-65l-264 0z" />
<glyph unicode="&#278;" horiz-adv-x="632" d="M50 70h83v560h-83v70h502v-195h-70v125h-264v-241h214v-70h-214v-249h284v141h70v-211h-522zM335 752q-25 0 -44 15.5q-19 15.5 -19 44.5q0 26 19 41q19 15 44 15q23 0 41.5 -15q18.5 -15 18.5 -41q0 -29 -18.5 -44.5t-41.5 -15.5z" />
<glyph unicode="&#279;" horiz-adv-x="501" d="M115 200q2 -34 15.5 -60q13.5 -26 35 -44q21.5 -18 50 -27q28.5 -9 61.5 -9q44 0 76 13q32 13 54 33l33 -57q-33 -30 -78.5 -44.5q-45.5 -14.5 -90.5 -14.5q-55 0 -99.5 16.5q-44.5 16.5 -76 47.5q-31.5 31 -48.5 74.5q-17 43.5 -17 96.5q0 49 15.5 92q15.5 43 45 74.5q29.5 31.5 72.5 50q43 18.5 99 18.5q43 0 81.5 -15q38.5 -15 66.5 -42q28 -27 44.5 -65q16.5 -38 16.5 -84q0 -31 -5 -54zM388 260q-2 28 -10 51.5q-8 23.5 -24 41q-16 17.5 -39.5 27.5q-23.5 10 -56.5 10q-35 0 -61.5 -11q-26.5 -11 -44.5 -29q-18 -18 -27.5 -41.5q-9.5 -23.5 -9.5 -48.5zM250 587q-25 0 -43 15.5q-18 15.5 -18 44.5q0 26 18 41q18 15 43 15q22 0 39.5 -15q17.5 -15 17.5 -41q0 -29 -17.5 -44.5t-39.5 -15.5z" />
<glyph unicode="&#280;" horiz-adv-x="632" d="M133 70v560h-83v70h502v-195h-70v125h-264v-241h214v-70h-214v-249h284v141h70v-211h-14q-21 0 -40 -7q-19 -7 -33.5 -18.5q-14.5 -11.5 -23 -26q-8.5 -14.5 -8.5 -30.5q0 -16 6 -26q6 -10 15 -16q9 -6 19.5 -8.5q10.5 -2.5 19.5 -2.5q11 0 21 1.5q10 1.5 23 7.5l24 -49q-13 -11 -36.5 -18q-23.5 -7 -49.5 -7q-22 0 -43.5 4.5q-21.5 4.5 -39 15.5q-17.5 11 -28.5 28.5q-11 17.5 -11 43.5q0 40 28 67q28 27 70 41l-421 0l0 70z" />
<glyph unicode="&#281;" horiz-adv-x="501" d="M440 49q-32 -29 -74 -43q-30 -20 -48.5 -41.5q-18.5 -21.5 -18.5 -46.5q0 -16 6.5 -26q6.5 -10 15.5 -16q9 -6 19.5 -8.5q10.5 -2.5 19.5 -2.5q11 0 20.5 1.5q9.5 1.5 22.5 7.5l24 -49q-13 -11 -36 -18q-23 -7 -49 -7q-22 0 -44 4.5q-22 4.5 -39.5 15.5q-17.5 11 -28.5 28.5q-11 17.5 -11 43.5q0 31 19.5 55q19.5 24 51.5 44q-5 -1 -9.5 -1q-4.5 0 -9.5 0q-55 0 -99.5 16.5q-44.5 16.5 -76 47.5q-31.5 31 -48.5 74.5q-17 43.5 -17 96.5q0 49 15.5 92q15.5 43 45 74.5q29.5 31.5 72.5 50q43 18.5 99 18.5q43 0 81.5 -15q38.5 -15 66.5 -42q28 -27 44.5 -65q16.5 -38 16.5 -84q0 -31 -5 -54l-351 0q2 -34 15.5 -60q13.5 -26 35 -44q21.5 -18 50 -27q28.5 -9 61.5 -9q44 0 76 13q32 13 54 33zM388 260q-2 28 -10 51.5q-8 23.5 -24 41q-16 17.5 -39.5 27.5q-23.5 10 -56.5 10q-35 0 -61.5 -11q-26.5 -11 -44.5 -29q-18 -18 -27.5 -41.5q-9.5 -23.5 -9.5 -48.5z" />
<glyph unicode="&#282;" horiz-adv-x="632" d="M50 70h83v560h-83v70h502v-195h-70v125h-264v-241h214v-70h-214v-249h284v141h70v-211h-522zM340 806l143 81l30 -45l-171 -104h-4l-175 103l33 46z" />
<glyph unicode="&#283;" horiz-adv-x="501" d="M115 200q2 -34 15.5 -60q13.5 -26 35 -44q21.5 -18 50 -27q28.5 -9 61.5 -9q44 0 76 13q32 13 54 33l33 -57q-33 -30 -78.5 -44.5q-45.5 -14.5 -90.5 -14.5q-55 0 -99.5 16.5q-44.5 16.5 -76 47.5q-31.5 31 -48.5 74.5q-17 43.5 -17 96.5q0 49 15.5 92q15.5 43 45 74.5q29.5 31.5 72.5 50q43 18.5 99 18.5q43 0 81.5 -15q38.5 -15 66.5 -42q28 -27 44.5 -65q16.5 -38 16.5 -84q0 -31 -5 -54zM388 260q-2 28 -10 51.5q-8 23.5 -24 41q-16 17.5 -39.5 27.5q-23.5 10 -56.5 10q-35 0 -61.5 -11q-26.5 -11 -44.5 -29q-18 -18 -27.5 -41.5q-9.5 -23.5 -9.5 -48.5zM158 710l104 -103l104 102l37 -47l-140 -133h-4l-140 133z" />
</font>
</defs>
</svg>
