<?xml version="1.0" encoding="UTF-8" standalone="no"?>
<!DOCTYPE svg PUBLIC "-//W3C//DTD SVG 1.1//EN" "http://www.w3.org/Graphics/SVG/1.1/DTD/svg11.dtd" >
<svg xmlns="http://www.w3.org/2000/svg">
<metadata>
Generated by SVGconv.
Copyright   : Copyright (c) 2018 Paratype, Inc., ParaType Ltd. All rights reserved.
Designer    : A.Korolkova
Foundry     : ParaType Ltd
Foundry URL : http://www.paratype.com
</metadata>
<defs>
<font id="CirceSlabAWeb-Light" horiz-adv-x="585" >
<font-face units-per-em="1000" ascent="935" descent="320" >
<font-face-src>
<font-face-name/>
</font-face-src>
</font-face>
<missing-glyph horiz-adv-x="500" />
<glyph unicode="&#13;" horiz-adv-x="240" />
<glyph unicode="&#32;" horiz-adv-x="240" />
<glyph unicode="&#33;" horiz-adv-x="309" d="M122 700h66v-499h-66zM93 57q0 22 16.5 40q16.5 18 44.5 18q26 0 42 -18q16 -18 16 -40q0 -24 -16 -42.5q-16 -18.5 -42 -18.5q-28 0 -44.5 18.5t-16.5 42.5z" />
<glyph unicode="&#34;" horiz-adv-x="406" d="M94 700h62v-213h-62zM250 700h62v-213l-62 0z" />
<glyph unicode="&#35;" horiz-adv-x="694" d="M62 8l72 195h-94v55h115l68 185h-183v55h204l79 212l49 -18l-72 -194h200l79 212l49 -18l-72 -194h98v-55h-118l-69 -185h187v-55h-207l-79 -213l-49 18l72 195h-201l-78 -213zM411 258l69 185h-201l-68 -185z" />
<glyph unicode="&#36;" horiz-adv-x="577" d="M79 0v200h63v-77q29 -38 68.5 -57q39.5 -19 82.5 -19q29 0 56 9q27 9 47.5 25.5q20.5 16.5 33 40.5q12.5 24 12.5 54q0 47 -26.5 75.5q-26.5 28.5 -66.5 48.5q-40 20 -86 36.5q-46 16.5 -86 40.5q-40 24 -66.5 60q-26.5 36 -26.5 94q0 34 12 64q12 30 35 53.5q23 23.5 56 38.5q33 15 75 20l0 83h63v-82q60 -6 102 -42l0 34h62v-185h-62v85q-53 53 -129 53q-69 0 -108.5 -34.5q-39.5 -34.5 -39.5 -86.5q0 -47 26.5 -75q26.5 -28 66.5 -47q40 -19 86 -35.5q46 -16.5 86 -40q40 -23.5 66.5 -60.5q26.5 -37 26.5 -97q0 -39 -14 -70.5q-14 -31.5 -38 -55.5q-24 -24 -57.5 -39q-33.5 -15 -72.5 -19l-1 0v-93h-63v92q-35 4 -66.5 17.5q-31.5 13.5 -53.5 35.5l0 -45z" />
<glyph unicode="&#37;" horiz-adv-x="860" d="M672 710l37 -27l-518 -693l-37 27zM459 161q0 37 13.5 67q13.5 30 37 52q23.5 22 55.5 34q32 12 70 12q38 0 70 -12q32 -12 55.5 -34q23.5 -22 37 -52q13.5 -30 13.5 -67q0 -37 -13.5 -67.5q-13.5 -30.5 -37 -52.5q-23.5 -22 -55.5 -34q-32 -12 -70 -12q-38 0 -70 12q-32 12 -55.5 34q-23.5 22 -37 52.5q-13.5 30.5 -13.5 67.5zt0 0zM518 161q0 -26 9.5 -47q9.5 -21 26 -36q16.5 -15 37.5 -23.5q21 -8.5 44 -8.5q24 0 45.5 8.5q21.5 8.5 37.5 23.5q16 15 25.5 36q9.5 21 9.5 47q0 26 -9.5 47q-9.5 21 -26 36q-16.5 15 -37.5 23q-21 8 -45 8q-24 0 -45 -8q-21 -8 -37 -23q-16 -15 -25.5 -36q-9.5 -21 -9.5 -47zt0 0zM49 540q0 37 13.5 67q13.5 30 37 52q23.5 22 55.5 34q32 12 70 12q37 0 69.5 -12q32.5 -12 56 -34q23.5 -22 37 -52q13.5 -30 13.5 -67q0 -37 -13.5 -67.5q-13.5 -30.5 -37 -52.5q-23.5 -22 -56 -34q-32.5 -12 -69.5 -12q-38 0 -70 12q-32 12 -55.5 34q-23.5 22 -37 52.5q-13.5 30.5 -13.5 67.5zt0 0zM108 540q0 -26 9.5 -47q9.5 -21 26 -36q16.5 -15 37.5 -23.5q21 -8.5 44 -8.5q24 0 45 8.5q21 8.5 37 23.5q16 15 25.5 36q9.5 21 9.5 47q0 25 -9.5 46q-9.5 21 -25.5 36q-16 15 -37.5 23.5q-21.5 8.5 -44.5 8.5q-24 0 -45 -8.5q-21 -8.5 -37 -23.5q-16 -15 -25.5 -36t-9.5 -46z" />
<glyph unicode="&#38;" horiz-adv-x="744" d="M520 196q24 43 39.5 95.5q15.5 52.5 20.5 111.5l-62 0v47h176v-47h-52q-6 -72 -27 -138q-21 -66 -57 -119l78 -98h55v-48h-96l-80 101q-35 -48 -88.5 -79.5q-53.5 -31.5 -131.5 -31.5q-48 0 -88.5 15q-40.5 15 -70 41.5q-29.5 26.5 -46 63q-16.5 36.5 -16.5 80.5q0 44 14.5 79q14.5 35 38 64q23.5 29 53.5 52.5q30 23.5 61 44.5q-33 32 -60 70.5q-27 38.5 -27 83.5q0 27 9.5 50q9.5 23 28.5 40q19 17 47.5 26.5q28.5 9.5 67.5 9.5q60 0 97 -35q37 -35 37 -89q0 -29 -10 -52q-10 -23 -26.5 -42.5q-16.5 -19.5 -36.5 -35.5q-20 -16 -41 -32zM144 202q0 -35 12.5 -62.5q12.5 -27.5 33.5 -47q21 -19.5 48.5 -29.5q27.5 -10 57.5 -10q62 0 106.5 26.5q44.5 26.5 73.5 71.5l-200 236q-29 -21 -53 -41q-24 -20 -41.5 -42q-17.5 -22 -27.5 -47q-10 -25 -10 -55zt0 0zM290 465q15 9 31 21q16 12 29.5 26.5q13.5 14.5 22.5 32.5q9 18 9 40q0 35 -24.5 54q-24.5 19 -60.5 19q-40 0 -60.5 -22.5q-20.5 -22.5 -20.5 -51.5q0 -17 7 -34q7 -17 18 -32q11 -15 24 -28.5t25 -24.5z" />
<glyph unicode="&#39;" horiz-adv-x="250" d="M94 700h62v-213l-62 0z" />
<glyph unicode="&#40;" horiz-adv-x="282" d="M282 622q-49 -46 -83 -93q-34 -47 -55.5 -96.5q-21.5 -49.5 -31 -101q-9.5 -51.5 -9.5 -106.5q0 -111 44.5 -214q44.5 -103 134.5 -183l-40 -34q-57 49 -95.5 102q-38.5 53 -62.5 107.5q-24 54.5 -34 110.5q-10 56 -10 111q0 55 10 110q10 55 34 109q24 54 63 107q39 53 96 105z" />
<glyph unicode="&#41;" horiz-adv-x="282" d="M0 -172q91 80 135.5 183q44.5 103 44.5 214q0 110 -41 207.5q-41 97.5 -139 189.5l39 34q57 -52 96 -105q39 -53 63 -107q24 -54 34 -109q10 -55 10 -110q0 -55 -10 -111q-10 -56 -34 -110.5q-24 -54.5 -62.5 -107.5q-38.5 -53 -95.5 -102z" />
<glyph unicode="&#42;" horiz-adv-x="467" d="M79 595q0 18 12 30.5q12 12.5 29 12.5q18 0 30.5 -12.5q12.5 -12.5 12.5 -30.5q0 -17 -12.5 -29.5q-12.5 -12.5 -30.5 -12.5q-17 0 -29 12.5q-12 12.5 -12 29.5zt0 0zM79 468q0 18 12 30.5q12 12.5 29 12.5q18 0 30.5 -12.5q12.5 -12.5 12.5 -30.5q0 -17 -12.5 -29.5q-12.5 -12.5 -30.5 -12.5q-17 0 -29 12.5q-12 12.5 -12 29.5zt0 0zM191 397q0 18 12.5 30.5q12.5 12.5 29.5 12.5q17 0 29.5 -12.5q12.5 -12.5 12.5 -30.5q0 -17 -12.5 -29.5q-12.5 -12.5 -29.5 -12.5q-17 0 -29.5 12.5q-12.5 12.5 -12.5 29.5zt0 0zM192 667q0 17 12.5 29.5q12.5 12.5 29.5 12.5q18 0 30 -12.5q12 -12.5 12 -29.5q0 -18 -12 -30.5q-12 -12.5 -30 -12.5q-17 0 -29.5 12.5q-12.5 12.5 -12.5 30.5zt0 0zM305 595q0 18 12.5 30.5q12.5 12.5 29.5 12.5q17 0 29.5 -12.5q12.5 -12.5 12.5 -30.5q0 -17 -12.5 -29.5q-12.5 -12.5 -29.5 -12.5q-17 0 -29.5 12.5q-12.5 12.5 -12.5 29.5zt0 0zM305 468q0 18 12.5 30.5q12.5 12.5 29.5 12.5q17 0 29.5 -12.5q12.5 -12.5 12.5 -30.5q0 -17 -12.5 -29.5q-12.5 -12.5 -29.5 -12.5q-17 0 -29.5 12.5t-12.5 29.5z" />
<glyph unicode="&#43;" horiz-adv-x="590" d="M264 333h-193v55h193v196h59v-196h197v-55h-197v-198l-59 0z" />
<glyph unicode="&#44;" horiz-adv-x="245" d="M68 -114q11 3 23.5 11.5q12.5 8.5 23 20.5q10.5 12 17.5 27q7 15 7 32q0 11 -3 19q-3 8 -6 14q-6 -11 -24 -11q-17 0 -31.5 14q-14.5 14 -13.5 39q0 24 17 41.5q17 17.5 43 17.5q32 0 53 -27q21 -27 21 -75q0 -64 -31 -103q-31 -39 -78 -53z" />
<glyph unicode="&#45;" horiz-adv-x="395" d="M81 301h233v-58l-233 0z" />
<glyph unicode="&#46;" horiz-adv-x="237" d="M60 59q0 22 16.5 40q16.5 18 44.5 18q26 0 42 -18q16 -18 16 -40q0 -24 -16 -42.5q-16 -18.5 -42 -18.5q-28 0 -44.5 18.5t-16.5 42.5z" />
<glyph unicode="&#47;" horiz-adv-x="323" d="M-30 -190l335 900l49 -18l-334 -900z" />
<glyph unicode="&#48;" horiz-adv-x="569" d="M287 -8q-59 0 -101.5 26.5q-42.5 26.5 -70.5 74q-28 47.5 -41 113.5q-13 66 -13 144q0 78 13 143.5q13 65.5 40 113.5q27 48 69.5 74.5q42.5 26.5 101.5 26.5q58 0 100.5 -26.5q42.5 -26.5 69.5 -74.5q27 -48 40 -113.5q13 -65.5 13 -143.5q0 -78 -12.5 -144q-12.5 -66 -39.5 -113.5q-27 -47.5 -69 -74q-42 -26.5 -100 -26.5zt0 0zM287 51q42 0 71.5 20.5q29.5 20.5 48 59.5q18.5 39 27 94.5q8.5 55.5 8.5 124.5q0 69 -8.5 124.5q-8.5 55.5 -27.5 94.5q-19 39 -49 59.5q-30 20.5 -72 20.5q-43 0 -73 -21q-30 -21 -48.5 -59.5q-18.5 -38.5 -27 -94q-8.5 -55.5 -8.5 -124.5q0 -69 9 -124.5q9 -55.5 28.5 -94q19.5 -38.5 49.5 -59.5t72 -21z" />
<glyph unicode="&#49;" horiz-adv-x="370" d="M76 55h106v539q-26 -17 -54.5 -31q-28.5 -14 -63.5 -24l-18 46q64 27 104 56.5q40 29.5 66 68.5l29 0v-655h83v-55l-252 0z" />
<glyph unicode="&#50;" horiz-adv-x="530" d="M49 51q28 28 63.5 63q35.5 35 71.5 74.5q36 39.5 70 81.5q34 42 60.5 85q26.5 43 42.5 85.5q16 42.5 16 81.5q0 24 -7.5 47q-7.5 23 -23.5 41q-16 18 -39.5 28.5q-23.5 10.5 -55.5 10.5q-18 0 -35.5 -4.5q-17.5 -4.5 -33 -13q-15.5 -8.5 -27 -20q-11.5 -11.5 -16.5 -25.5q8 -6 13 -15q5 -9 5 -20q0 -19 -14 -32.5q-14 -13.5 -33 -13.5q-19 0 -32.5 15q-13.5 15 -13.5 42q0 31 17 58q17 27 44.5 46.5q27.5 19.5 61.5 30.5q34 11 68 11q49 0 84.5 -15.5q35.5 -15.5 58.5 -40q23 -24.5 34 -56q11 -31.5 11 -62.5q0 -49 -19 -99.5q-19 -50.5 -48.5 -99q-29.5 -48.5 -65.5 -93q-36 -44.5 -70 -81q-34 -36.5 -63 -63q-29 -26.5 -43 -39.5l278 0v91h58v-150l-417 0z" />
<glyph unicode="&#51;" horiz-adv-x="528" d="M187 331v55h53q24 0 47 10.5q23 10.5 40.5 29q17.5 18.5 28.5 43.5q11 25 11 54q0 60 -34 94q-34 34 -94 34q-35 0 -65.5 -11.5q-30.5 -11.5 -39.5 -28.5q4 -5 7.5 -12.5q3.5 -7.5 3.5 -14.5q0 -19 -13.5 -32.5q-13.5 -13.5 -33.5 -13.5q-19 0 -32.5 13.5q-13.5 13.5 -13.5 32.5q0 28 16 51.5q16 23.5 42.5 40q26.5 16.5 61 25.5q34.5 9 71.5 9q88 0 139 -47q51 -47 51 -130q0 -56 -27.5 -101q-27.5 -45 -83.5 -68l0 -3q33 -5 58.5 -20.5q25.5 -15.5 43 -38.5q17.5 -23 27 -51.5q9.5 -28.5 9.5 -58.5q0 -47 -16.5 -84q-16.5 -37 -45.5 -63.5q-29 -26.5 -69 -40.5q-40 -14 -86 -14q-41 0 -79 10.5q-38 10.5 -67.5 29.5q-29.5 19 -47.5 46q-18 27 -18 59q0 19 13.5 33q13.5 14 32.5 14q19 0 33 -14q14 -14 14 -33q0 -8 -4.5 -17.5q-4.5 -9.5 -10.5 -14.5q18 -27 54.5 -40.5q36.5 -13.5 78.5 -13.5q36 0 64 11.5q28 11.5 47.5 31q19.5 19.5 30 46q10.5 26.5 10.5 56.5q0 30 -11 55q-11 25 -31 43.5q-20 18.5 -47.5 28.5q-27.5 10 -59.5 10z" />
<glyph unicode="&#52;" horiz-adv-x="542" d="M347 244v206h23h39v-206h101v-63h-101v-181h-62v181h-324v45q88 107 163.5 229.5q75.5 122.5 126.5 244.5l72 0q-48 -114 -120.5 -233.5q-72.5 -119.5 -158.5 -222.5z" />
<glyph unicode="&#53;" horiz-adv-x="516" d="M175 424q12 4 29 6.5q17 2.5 35 2.5q48 0 88.5 -15q40.5 -15 70 -43q29.5 -28 46 -68q16.5 -40 16.5 -89q0 -53 -18 -95.5q-18 -42.5 -49 -72q-31 -29.5 -72.5 -45q-41.5 -15.5 -89.5 -15.5q-32 0 -66.5 9q-34.5 9 -63 26q-28.5 17 -47 43q-18.5 26 -18.5 59q0 23 15 38q15 15 35 15q26 0 38.5 -15q12.5 -15 12.5 -35q0 -9 -6.5 -18.5q-6.5 -9.5 -14.5 -14.5q16 -20 47 -34q31 -14 76 -14q33 0 61.5 13q28.5 13 49 35.5q20.5 22.5 32.5 53q12 30.5 12 65.5q0 34 -13 63.5q-13 29.5 -36.5 51q-23.5 21.5 -57 33.5q-33.5 12 -74.5 12q-30 0 -59.5 -5.5q-29.5 -5.5 -47.5 -12.5l43 342h257l10 48h58l-19 -110l-252 0z" />
<glyph unicode="&#54;" horiz-adv-x="551" d="M292 -10q-59 0 -103.5 21q-44.5 21 -74.5 56.5q-30 35.5 -45.5 82q-15.5 46.5 -15.5 98.5q0 96 31 175.5q31 79.5 80 138.5q49 59 109 97q60 38 118 51l26 -48q-49 -12 -96.5 -39.5q-47.5 -27.5 -87.5 -70q-40 -42.5 -68.5 -100q-28.5 -57.5 -38.5 -129.5q20 45 64 76q44 31 111 31q45 0 82 -16q37 -16 63.5 -44.5q26.5 -28.5 41.5 -68q15 -39.5 15 -87.5q0 -50 -18 -91q-18 -41 -47.5 -70.5q-29.5 -29.5 -67.5 -46q-38 -16.5 -78 -16.5zt0 0zM291 53q31 0 57.5 12.5q26.5 12.5 46 34q19.5 21.5 31 50q11.5 28.5 11.5 60.5q0 33 -10 62.5q-10 29.5 -29.5 51.5q-19.5 22 -48.5 34.5q-29 12.5 -68 12.5q-35 0 -62 -11.5q-27 -11.5 -47.5 -29.5q-20.5 -18 -33.5 -39.5q-13 -21.5 -19 -42.5q0 -38 10.5 -73.5q10.5 -35.5 32 -62.5q21.5 -27 53.5 -43t76 -16z" />
<glyph unicode="&#55;" horiz-adv-x="483" d="M32 700h412v-41q-47 -89 -85.5 -171.5q-38.5 -82.5 -70 -163.5q-31.5 -81 -56 -161q-24.5 -80 -43.5 -163l-69 0q21 79 45.5 155.5q24.5 76.5 54.5 154q30 77.5 66.5 158.5q36.5 81 81.5 170l-278 0v-88l-58 0z" />
<glyph unicode="&#56;" horiz-adv-x="592" d="M382 359q30 -5 56 -19.5q26 -14.5 45 -37q19 -22.5 30 -52q11 -29.5 11 -64.5q0 -47 -18.5 -83q-18.5 -36 -49.5 -61.5q-31 -25.5 -72.5 -38.5q-41.5 -13 -86.5 -13q-45 0 -86.5 13q-41.5 13 -73 38q-31.5 25 -50 60q-18.5 35 -18.5 80q0 32 10 60.5q10 28.5 28 52q18 23.5 43.5 40q25.5 16.5 56.5 24.5l0 3q-24 7 -45 23.5q-21 16.5 -36.5 39q-15.5 22.5 -24.5 49q-9 26.5 -9 54.5q0 41 16 75q16 34 44 58q28 24 65 37q37 13 79 13q42 0 79.5 -13q37.5 -13 65 -37q27.5 -24 44 -58q16.5 -34 16.5 -75q0 -26 -8 -51q-8 -25 -23.5 -47q-15.5 -22 -37.5 -39.5q-22 -17.5 -50 -27.5zM135 192q0 -30 12.5 -55.5q12.5 -25.5 34 -44q21.5 -18.5 51 -29q29.5 -10.5 63.5 -10.5q35 0 64.5 10q29.5 10 51.5 28q22 18 34 43.5q12 25.5 12 57.5q0 33 -12 58.5q-12 25.5 -32.5 43q-20.5 17.5 -47 26.5q-26.5 9 -56.5 9h-24q-30 0 -57.5 -10.5q-27.5 -10.5 -48.5 -28.5q-21 -18 -33 -43q-12 -25 -12 -55zt0 0zM311 391q23 0 45 10q22 10 39.5 27q17.5 17 28 40.5q10.5 23.5 10.5 50.5q0 31 -11.5 54.5q-11.5 23.5 -31 40q-19.5 16.5 -44.5 25q-25 8.5 -52 8.5q-27 0 -52 -9q-25 -9 -44 -25.5q-19 -16.5 -30 -40q-11 -23.5 -11 -53.5q0 -27 10.5 -50.5q10.5 -23.5 28 -40.5q17.5 -17 39.5 -27q22 -10 46 -10z" />
<glyph unicode="&#57;" horiz-adv-x="549" d="M130 40q61 11 111.5 38.5q50.5 27.5 88.5 69.5q38 42 62 98.5q24 56.5 32 125.5q-21 -44 -64 -71.5q-43 -27.5 -106 -27.5q-47 0 -85 16.5q-38 16.5 -66 45.5q-28 29 -43 68q-15 39 -15 84q0 50 19 91q19 41 50 70.5q31 29.5 70 45.5q39 16 80 16q58 0 102 -20.5q44 -20.5 73 -56q29 -35.5 43.5 -83q14.5 -47.5 14.5 -102.5q0 -99 -26.5 -179q-26.5 -80 -73 -138.5q-46.5 -58.5 -110 -94.5q-63.5 -36 -136.5 -46zM269 332q34 0 61.5 10q27.5 10 48 26.5q20.5 16.5 33.5 37.5q13 21 19 42q0 38 -9.5 74q-9.5 36 -30 63.5q-20.5 27.5 -52 44.5q-31.5 17 -74.5 17q-31 0 -59 -12.5q-28 -12.5 -49 -33.5q-21 -21 -33.5 -49q-12.5 -28 -12.5 -60q0 -31 10 -60q10 -29 30 -51q20 -22 49.5 -35.5t68.5 -13.5z" />
<glyph unicode="&#58;" horiz-adv-x="276" d="M78 59q0 22 16.5 40q16.5 18 44.5 18q26 0 42 -18q16 -18 16 -40q0 -24 -16 -42.5q-16 -18.5 -42 -18.5q-28 0 -44.5 18.5q-16.5 18.5 -16.5 42.5zt0 0zM78 397q0 22 16.5 40q16.5 18 44.5 18q26 0 42 -18q16 -18 16 -40q0 -24 -16 -42.5q-16 -18.5 -42 -18.5q-28 0 -44.5 18.5t-16.5 42.5z" />
<glyph unicode="&#59;" horiz-adv-x="306" d="M101 397q0 22 16.5 40q16.5 18 44.5 18q26 0 42 -18q16 -18 16 -40q0 -24 -16 -42.5q-16 -18.5 -42 -18.5q-28 0 -44.5 18.5q-16.5 18.5 -16.5 42.5zt0 0zM104 -114q11 3 23.5 11.5q12.5 8.5 23 20.5q10.5 12 17.5 27q7 15 7 32q0 11 -3 19q-3 8 -6 14q-6 -11 -24 -11q-17 0 -31.5 14q-14.5 14 -13.5 39q0 24 17 41.5q17 17.5 43 17.5q32 0 53 -27q21 -27 21 -75q0 -64 -31 -103q-31 -39 -78 -53z" />
<glyph unicode="&#60;" horiz-adv-x="590" d="M489 637v-68l-340 -207l340 -208v-69l-427 264l0 26z" />
<glyph unicode="&#61;" horiz-adv-x="590" d="M71 301h449v-55h-449zM71 475h449v-55l-449 0z" />
<glyph unicode="&#62;" horiz-adv-x="590" d="M101 154l341 208l-341 207v68l427 -262v-26l-427 -264z" />
<glyph unicode="&#63;" horiz-adv-x="466" d="M180 195q-2 11 -3.5 21q-1.5 10 -1.5 19q0 37 14 62.5q14 25.5 35 45.5q21 20 46 37q25 17 46.5 36.5q21.5 19.5 35.5 45.5q14 26 14 63q0 26 -10 49q-10 23 -28 40q-18 17 -43 27q-25 10 -55 10q-39 0 -65 -13q-26 -13 -39 -32q30 -11 30 -43q0 -23 -16 -36q-16 -13 -39 -13q-23 0 -38.5 16.5q-15.5 16.5 -15.5 42.5q0 28 16.5 52.5q16.5 24.5 43 43.5q26.5 19 60 30q33.5 11 67.5 11q48 0 85 -14q37 -14 62.5 -37.5q25.5 -23.5 38.5 -54.5q13 -31 13 -66q0 -46 -15 -78q-15 -32 -37 -56q-22 -24 -48 -42q-26 -18 -48 -37q-22 -19 -37 -42q-15 -23 -15 -56q0 -15 3 -31zM153 59q0 22 16.5 40q16.5 18 44.5 18q26 0 42 -18q16 -18 16 -40q0 -24 -16 -42.5q-16 -18.5 -42 -18.5q-28 0 -44.5 18.5t-16.5 42.5z" />
<glyph unicode="&#64;" horiz-adv-x="1011" d="M643 54q-24 -26 -63.5 -45q-39.5 -19 -83.5 -19q-51 0 -92 16.5q-41 16.5 -70.5 47.5q-29.5 31 -45 74.5q-15.5 43.5 -15.5 96.5q0 49 19 92q19 43 52 74.5q33 31.5 79 50q46 18.5 100 18.5q53 0 100.5 -14q47.5 -14 82.5 -36l0 -351h21q37 0 66 16.5q29 16.5 49 45q20 28.5 31 67q11 38.5 11 81.5q0 71 -27 132q-27 61 -75.5 106q-48.5 45 -116.5 70.5q-68 25.5 -149 25.5q-83 0 -154 -28q-71 -28 -123 -78.5q-52 -50.5 -81.5 -120q-29.5 -69.5 -29.5 -151.5q0 -80 29.5 -149q29.5 -69 81.5 -120q52 -51 123 -80q71 -29 154 -29q57 0 108 12l5 -58q-27 -6 -55.5 -9.5q-28.5 -3.5 -57.5 -3.5q-97 0 -179 33.5q-82 33.5 -141.5 92.5q-59.5 59 -93 138.5q-33.5 79.5 -33.5 172.5q0 91 33.5 170.5q33.5 79.5 93 139q59.5 59.5 141.5 93.5q82 34 179 34q91 0 169 -28.5q78 -28.5 135 -80.5q57 -52 89.5 -124q32.5 -72 32.5 -159q0 -51 -14 -99.5q-14 -48.5 -42.5 -86.5q-28.5 -38 -71.5 -61q-43 -23 -100 -23h-71zM506 49q21 0 41.5 6q20.5 6 38.5 15.5q18 9.5 33 21q15 11.5 24 23.5l0 254q-29 17 -60 24.5q-31 7.5 -61 7.5q-40 0 -73.5 -14q-33.5 -14 -58 -38.5q-24.5 -24.5 -38 -57q-13.5 -32.5 -13.5 -69.5q0 -41 12 -73q12 -32 34 -54q22 -22 53 -34t68 -12z" />
<glyph unicode="&#65;" horiz-adv-x="743" d="M5 55h57l267 646h79l272 -646h58v-55h-210v55h81l-74 173h-334l-73 -173h89v-55h-212zM511 291l-111 269q-3 7 -7.5 18q-4.5 11 -9 22.5q-4.5 11.5 -8.5 22.5q-4 11 -6 19l-3 0q-3 -8 -7 -19q-4 -11 -8.5 -22.5q-4.5 -11.5 -8.5 -22.5q-4 -11 -7 -18l-109 -269z" />
<glyph unicode="&#66;" horiz-adv-x="630" d="M138 55v590h-84v55h84q15 0 37.5 0.5q22.5 0.5 48 1q25.5 0.5 52 1q26.5 0.5 49.5 0.5q63 0 105.5 -13.5q42.5 -13.5 68.5 -36.5q26 -23 37.5 -55q11.5 -32 11.5 -68q0 -34 -10.5 -61q-10.5 -27 -28.5 -47.5q-18 -20.5 -41.5 -34q-23.5 -13.5 -49.5 -20.5l0 -2q72 -10 114 -52q42 -42 42 -116q0 -53 -19 -90.5q-19 -37.5 -53 -62q-34 -24.5 -79.5 -36q-45.5 -11.5 -99.5 -11.5q-23 0 -48 0.5q-25 0.5 -49.5 1q-24.5 0.5 -47 1q-22.5 0.5 -40.5 0.5h-84v55zM204 332v-276q20 -2 55 -3q35 -1 67 -1q85 0 133.5 38.5q48.5 38.5 48.5 110.5q0 62 -46.5 96.5q-46.5 34.5 -131.5 34.5zM331 383q31 0 58 9q27 9 47.5 26.5q20.5 17.5 32.5 42q12 24.5 12 55.5q0 61 -38.5 96.5q-38.5 35.5 -119.5 35.5q-31 0 -65 -1q-34 -1 -54 -2l0 -262z" />
<glyph unicode="&#67;" horiz-adv-x="688" d="M585 200h55v-200h-55v46q-35 -25 -84 -40.5q-49 -15.5 -104 -15.5q-79 0 -143.5 25.5q-64.5 25.5 -110 72.5q-45.5 47 -70 113.5q-24.5 66.5 -24.5 148.5q0 75 24 141q24 66 68.5 114.5q44.5 48.5 108.5 76.5q64 28 144 28q55 0 102.5 -13.5q47.5 -13.5 82.5 -38.5l0 42h55v-185h-55v82q-36 27 -83 40.5q-47 13.5 -101 13.5q-61 0 -112 -22.5q-51 -22.5 -87.5 -63q-36.5 -40.5 -56.5 -95.5q-20 -55 -20 -120q0 -67 21 -122.5q21 -55.5 59 -95q38 -39.5 91 -61.5q53 -22 117 -22q48 0 94.5 15q46.5 15 83.5 43z" />
<glyph unicode="&#68;" horiz-adv-x="763" d="M204 55q40 -1 65 -1.5q25 -0.5 37 -0.5q85 0 148.5 22q63.5 22 106 62.5q42.5 40.5 63.5 97q21 56.5 21 125.5q0 63 -20 116q-20 53 -61.5 91q-41.5 38 -106 59.5q-64.5 21.5 -152.5 21.5q-26 0 -49 -1q-23 -1 -52 -2zM138 55v590h-84v55h96q36 0 81.5 1.5q45.5 1.5 90.5 1.5q105 0 179.5 -28q74.5 -28 122 -75.5q47.5 -47.5 69.5 -109.5q22 -62 22 -130q0 -75 -25 -141q-25 -66 -75.5 -115q-50.5 -49 -125.5 -77.5q-75 -28.5 -175 -28.5q-38 0 -80.5 1q-42.5 1 -85.5 1h-94l0 55z" />
<glyph unicode="&#69;" horiz-adv-x="628" d="M54 55h84v590h-84v55h493v-185h-55v130h-288v-263h226v-55h-226v-272h306v146h55v-201l-511 0z" />
<glyph unicode="&#70;" horiz-adv-x="593" d="M54 55h84v590h-84v55h496v-185h-55v130h-291v-288h246v-55h-246v-247h117v-55l-267 0z" />
<glyph unicode="&#71;" horiz-adv-x="724" d="M661 345v-345h-55v52q-43 -29 -100.5 -45.5q-57.5 -16.5 -114.5 -16.5q-77 0 -140 25.5q-63 25.5 -108 72.5q-45 47 -69.5 113.5q-24.5 66.5 -24.5 148.5q0 75 24.5 141q24.5 66 69 114.5q44.5 48.5 107.5 76.5q63 28 140 28q115 0 189 -52l0 40h55v-188h-55v81q-34 31 -81 45.5q-47 14.5 -100 14.5q-62 0 -113.5 -22.5q-51.5 -22.5 -88.5 -62.5q-37 -40 -57 -95q-20 -55 -20 -121q0 -68 20.5 -123q20.5 -55 57.5 -95q37 -40 89 -61.5q52 -21.5 115 -21.5q27 0 56.5 5q29.5 5 57 14q27.5 9 51.5 22q24 13 40 28l0 172h-207l0 55z" />
<glyph unicode="&#72;" horiz-adv-x="826" d="M54 55h84v590h-84v55h232v-55h-82v-260h418v260h-81v55h231v-55h-84v-590h84v-55h-231v55h81v275h-418v-275h82v-55l-232 0z" />
<glyph unicode="&#73;" horiz-adv-x="362" d="M64 55h84v590h-84v55h235v-55h-85v-590h85v-55l-235 0z" />
<glyph unicode="&#74;" horiz-adv-x="367" d="M182 645h-103v55h254v-55h-85v-489q0 -76 -33 -121q-33 -45 -112 -45q-32 0 -57.5 8.5q-25.5 8.5 -42.5 20.5l24 53q12 -9 30 -16q18 -7 38 -7q26 0 43 8.5q17 8.5 26.5 24q9.5 15.5 13.5 36.5q4 21 4 45z" />
<glyph unicode="&#75;" horiz-adv-x="689" d="M54 55h84v590h-84v55h222v-55h-72v-590h82v-55h-232zM231 360l271 285h-60v55h209v-55h-70l-271 -279l282 -311h79v-55l-116 0z" />
<glyph unicode="&#76;" horiz-adv-x="596" d="M54 55h84v590h-84v55h242v-55h-92v-590h313v143h55v-198l-518 0z" />
<glyph unicode="&#77;" horiz-adv-x="945" d="M54 55h84v590h-84v55h151l275 -375l264 375h148v-55h-84v-590h84v-55h-232v55h81v541l-261 -367h-10l-266 364v-538h82v-55l-232 0z" />
<glyph unicode="&#78;" horiz-adv-x="828" d="M54 55h84v590h-84v55h137l453 -584v529h-82v55h233v-55h-88v-645h-53l-453 583v-528h86v-55l-233 0z" />
<glyph unicode="&#79;" horiz-adv-x="804" d="M402 -10q-75 0 -139.5 26.5q-64.5 26.5 -112 74.5q-47.5 48 -74.5 114q-27 66 -27 145q0 76 26.5 142q26.5 66 73.5 114.5q47 48.5 111.5 76q64.5 27.5 141.5 27.5q75 0 140 -26.5q65 -26.5 112 -74.5q47 -48 74 -114q27 -66 27 -145q0 -78 -27 -144q-27 -66 -74 -114q-47 -48 -112 -75q-65 -27 -140 -27zt0 0zM402 49q63 0 115 22.5q52 22.5 89.5 62.5q37.5 40 58 95.5q20.5 55.5 20.5 120.5q0 68 -21.5 123.5q-21.5 55.5 -60 95q-38.5 39.5 -90 61q-51.5 21.5 -111.5 21.5q-60 0 -112 -21.5q-52 -21.5 -90 -61q-38 -39.5 -59.5 -95q-21.5 -55.5 -21.5 -123.5q0 -65 22 -120q22 -55 60 -95q38 -40 89.5 -63t111.5 -23z" />
<glyph unicode="&#80;" horiz-adv-x="610" d="M54 55h84v590h-84v55h84q15 0 38 0.5q23 0.5 48.5 0.5q25.5 0 49.5 0.5q24 0.5 39 0.5q74 0 122.5 -18.5q48.5 -18.5 77.5 -48.5q29 -30 41 -68q12 -38 12 -78q0 -42 -14.5 -81q-14.5 -39 -45.5 -69q-31 -30 -78 -48q-47 -18 -112 -18q-23 0 -53 1q-30 1 -59 3l0 -222h112v-55h-262zM204 333q28 -2 54.5 -3.5q26.5 -1.5 55.5 -1.5q44 0 78 12q34 12 57 34q23 22 35 51.5q12 29.5 12 64.5q0 33 -10 61.5q-10 28.5 -31.5 50q-21.5 21.5 -55 33.5q-33.5 12 -79.5 12q-23 0 -57 -0.5q-34 -0.5 -59 -1.5z" />
<glyph unicode="&#81;" horiz-adv-x="804" d="M844 -128q-26 -26 -64 -40q-38 -14 -71 -14q-51 -1 -93 13.5q-42 14.5 -78 38.5q-36 24 -68.5 55.5q-32.5 31.5 -63.5 65.5q-80 0 -145.5 26.5q-65.5 26.5 -112.5 74q-47 47.5 -73 113.5q-26 66 -26 145q0 76 26.5 142q26.5 66 73.5 114.5q47 48.5 111.5 76q64.5 27.5 141.5 27.5q75 0 140 -26.5q65 -26.5 112 -74.5q47 -48 74 -114q27 -66 27 -145q0 -68 -20 -126.5q-20 -58.5 -56 -104.5q-36 -46 -86.5 -76.5q-50.5 -30.5 -111.5 -42.5q55 -56 107 -91.5q52 -35.5 114 -35.5q32 0 63.5 10.5q31.5 10.5 52.5 27.5zM407 49q61 0 112 22q51 22 88 61.5q37 39.5 57.5 95q20.5 55.5 20.5 122.5q0 68 -21.5 123.5q-21.5 55.5 -60 95q-38.5 39.5 -90 61q-51.5 21.5 -111.5 21.5q-60 0 -112 -21.5q-52 -21.5 -90 -61q-38 -39.5 -59.5 -95q-21.5 -55.5 -21.5 -123.5q0 -66 22 -121.5q22 -55.5 60.5 -95q38.5 -39.5 91 -62t114.5 -22.5z" />
<glyph unicode="&#82;" horiz-adv-x="667" d="M54 55h84v590h-84v55h84q15 0 41.5 0.5q26.5 0.5 54 0.5q27.5 0 50 0.5q22.5 0.5 30.5 0.5q72 0 119 -16.5q47 -16.5 75.5 -44.5q28.5 -28 40 -65q11.5 -37 11.5 -78q0 -39 -13 -71.5q-13 -32.5 -34.5 -58q-21.5 -25.5 -50.5 -42.5q-29 -17 -62 -25l196 -246h63v-55h-101l-226 289h-128v-234h82v-55h-232zM319 344q32 0 63 11.5q31 11.5 55 32q24 20.5 38.5 48.5q14.5 28 14.5 62q0 30 -9 57q-9 27 -30 47.5q-21 20.5 -55.5 32.5q-34.5 12 -85.5 12q-8 0 -21 0q-13 0 -28 -0.5q-15 -0.5 -30 -1q-15 -0.5 -27 -0.5l0 -301z" />
<glyph unicode="&#83;" horiz-adv-x="567" d="M74 0v200h55v-70q29 -40 72.5 -60.5q43.5 -20.5 94.5 -20.5q27 0 52 8.5q25 8.5 44 24.5q19 16 30.5 40q11.5 24 11.5 54q0 47 -26.5 75.5q-26.5 28.5 -65.5 48.5q-39 20 -85.5 36.5q-46.5 16.5 -85.5 40.5q-39 24 -65.5 60q-26.5 36 -26.5 94q0 37 14 70q14 33 40.5 57q26.5 24 65 38q38.5 14 87.5 14q44 0 80.5 -16q36.5 -16 62.5 -41l0 47h55v-185h-55v76q-27 28 -61.5 44q-34.5 16 -78.5 16q-65 0 -102.5 -33.5q-37.5 -33.5 -37.5 -85.5q0 -47 26.5 -75q26.5 -28 65.5 -47q39 -19 85.5 -35.5q46.5 -16.5 85.5 -40q39 -23.5 65.5 -60.5q26.5 -37 26.5 -97q0 -45 -17 -79.5q-17 -34.5 -45.5 -58.5q-28.5 -24 -66 -36.5q-37.5 -12.5 -77.5 -12.5q-56 0 -98 17q-42 17 -71 49l0 -56z" />
<glyph unicode="&#84;" horiz-adv-x="618" d="M183 55h93v590h-207v-130h-55v185h590v-185h-55v130h-207v-590h93v-55l-252 0z" />
<glyph unicode="&#85;" horiz-adv-x="757" d="M589 645h-94v55h244v-55h-83v-352q0 -80 -22 -137q-22 -57 -59 -93.5q-37 -36.5 -85.5 -53.5q-48.5 -17 -101.5 -17q-62 0 -114 19.5q-52 19.5 -90.5 58q-38.5 38.5 -60 96q-21.5 57.5 -21.5 134.5v345h-83v55h242v-55h-93v-337q0 -123 59 -190q59 -67 161 -67q90 0 145.5 62q55.5 62 55.5 190z" />
<glyph unicode="&#86;" horiz-adv-x="729" d="M68 645h-63v55h222v-55h-91l234 -558l229 558h-98v55h224v-55h-64l-269 -650l-48 0z" />
<glyph unicode="&#87;" horiz-adv-x="1022" d="M59 645h-54v55h211v-55h-88l161 -539l196 594h63l202 -593l150 538h-85v55h203v-55h-53l-188 -645h-59l-203 606l-200 -606l-59 0z" />
<glyph unicode="&#88;" horiz-adv-x="677" d="M14 55h60l227 303l-216 287h-61v55h220v-55h-86l183 -245l181 245h-89v55h220v-55h-58l-216 -289l225 -301h60v-55h-221v55h88l-192 259l-192 -259h87v-55l-220 0z" />
<glyph unicode="&#89;" horiz-adv-x="621" d="M182 55h94v249l-215 341h-56v55h206v-55h-77l178 -284l180 284h-82v55h207v-55h-58l-216 -341v-249h91v-55l-252 0z" />
<glyph unicode="&#90;" horiz-adv-x="639" d="M44 43l456 602h-382v-130h-55v185h522v-43l-458 -602h414v145h55v-200l-552 0z" />
<glyph unicode="&#91;" horiz-adv-x="305" d="M60 650h238v-55h-175v-740h175v-55l-238 0z" />
<glyph unicode="&#92;" horiz-adv-x="323" d="M-30 692l49 18l335 -900l-50 -18z" />
<glyph unicode="&#93;" horiz-adv-x="305" d="M8 -145h175v740h-175v55h237v-850l-237 0z" />
<glyph unicode="&#94;" horiz-adv-x="484" d="M223 708h41l176 -258h-69l-128 193l-130 -193l-68 0z" />
<glyph unicode="&#95;" horiz-adv-x="296" d="M0 -145h297v-55l-297 0z" />
<glyph unicode="&#96;" horiz-adv-x="276" d="M60 680l49 37l108 -152l-39 -27z" />
<glyph unicode="&#97;" horiz-adv-x="463" d="M331 65q-19 -27 -56 -49q-37 -22 -94 -22q-71 0 -110.5 37q-39.5 37 -39.5 97q0 34 13 60q13 26 36.5 43.5q23.5 17.5 55.5 26.5q32 9 70 9q29 0 64 -6.5q35 -6.5 61 -21.5q1 12 1 23.5q0 11.5 0 27.5q0 27 -5.5 49.5q-5.5 22.5 -18.5 38.5q-13 16 -34.5 25q-21.5 9 -53.5 9q-32 0 -55 -8.5q-23 -8.5 -35 -16.5q4 -3 7.5 -11q3.5 -8 3.5 -17q0 -16 -11 -26q-11 -10 -29 -10q-20 0 -30 12.5q-10 12.5 -10 28.5q0 21 13.5 39q13.5 18 36 30.5q22.5 12.5 51.5 19.5q29 7 61 7q91 0 129 -44.5q38 -44.5 38 -127.5q0 -26 -0.5 -47.5q-0.5 -21.5 -0.5 -43q0 -21.5 -0.5 -45q-0.5 -23.5 -0.5 -53.5q0 -8 0.5 -17.5q0.5 -9.5 3 -17.5q2.5 -8 8 -13.5q5.5 -5.5 15.5 -5.5q5 0 10.5 1q5.5 1 10.5 3q5 2 9 5l14 -39q-8 -8 -22.5 -14.5q-14.5 -6.5 -36.5 -6.5q-32 0 -50.5 19.5q-18.5 19.5 -18.5 51.5zt0 0zM98 131q0 -37 26 -61.5q26 -24.5 74 -24.5q26 0 46.5 7q20.5 7 37 17.5q16.5 10.5 28 23.5q11.5 13 19.5 25l0 72q-47 29 -112 29q-53 0 -86 -21t-33 -67z" />
<glyph unicode="&#98;" horiz-adv-x="528" d="M-4 700h132v-301q26 26 66.5 43.5q40.5 17.5 83.5 17.5q51 0 90.5 -17q39.5 -17 67.5 -47q28 -30 42.5 -72q14.5 -42 14.5 -92q0 -56 -18 -100.5q-18 -44.5 -50.5 -76q-32.5 -31.5 -78 -48.5q-45.5 -17 -100.5 -17q-54 0 -101 14.5q-47 14.5 -79 39.5l0 609h-70zM128 78q29 -18 59 -25q30 -7 62 -7q40 0 73 12.5q33 12.5 56 36q23 23.5 35.5 57q12.5 33.5 12.5 75.5q0 40 -11.5 73q-11.5 33 -32.5 56.5q-21 23.5 -50.5 36q-29.5 12.5 -66.5 12.5q-44 0 -81.5 -19.5q-37.5 -19.5 -55.5 -42.5z" />
<glyph unicode="&#99;" horiz-adv-x="477" d="M36 225q0 49 17 92q17 43 47 74.5q30 31.5 71.5 50q41.5 18.5 90.5 18.5q39 0 72 -8q33 -8 57.5 -22q24.5 -14 38 -34q13.5 -20 13.5 -44q0 -20 -13.5 -33.5q-13.5 -13.5 -33.5 -13.5q-19 0 -32.5 13.5q-13.5 13.5 -13.5 32.5q0 13 9 22q-14 13 -35 22.5q-21 9.5 -49 9.5q-38 0 -69.5 -13.5q-31.5 -13.5 -54 -37.5q-22.5 -24 -35.5 -57q-13 -33 -13 -72q0 -41 13.5 -73.5q13.5 -32.5 37.5 -55q24 -22.5 56.5 -35q32.5 -12.5 69.5 -12.5q43 0 78 17q35 17 58 44l30 -45q-29 -37 -74.5 -56q-45.5 -19 -95.5 -19q-53 0 -97 16.5q-44 16.5 -76 47.5q-32 31 -49.5 74.5t-17.5 96.5z" />
<glyph unicode="&#100;" horiz-adv-x="548" d="M527 48v-48h-121v62q-26 -29 -64.5 -49.5q-38.5 -20.5 -86.5 -20.5q-50 0 -90 16.5q-40 16.5 -69 46.5q-29 30 -44.5 72.5q-15.5 42.5 -15.5 95.5q0 52 18.5 95.5q18.5 43.5 51.5 75q33 31.5 78 49q45 17.5 98 17.5q38 0 68 -8.5q30 -8.5 56 -27.5l0 229h-70v47h132v-652zM267 47q21 0 41.5 6q20.5 6 38.5 15.5q18 9.5 33 21.5q15 12 26 24l0 252q-32 21 -62.5 30q-30.5 9 -59.5 9q-38 0 -70.5 -13q-32.5 -13 -57.5 -37q-25 -24 -39 -57.5q-14 -33.5 -14 -73.5q0 -41 12 -73.5q12 -32.5 34 -55.5q22 -23 52 -35.5t66 -12.5z" />
<glyph unicode="&#101;" horiz-adv-x="508" d="M103 209q1 -39 15 -69q14 -30 37.5 -51q23.5 -21 55 -32q31.5 -11 69.5 -11q45 0 79.5 14q34.5 14 57.5 37l26 -44q-32 -32 -77 -47.5q-45 -15.5 -90 -15.5q-54 0 -98.5 16.5q-44.5 16.5 -76 47.5q-31.5 31 -48.5 74.5q-17 43.5 -17 96.5q0 49 15 92q15 43 44 74.5q29 31.5 71.5 50q42.5 18.5 98.5 18.5q43 0 81 -14.5q38 -14.5 66 -41.5q28 -27 44 -65q16 -38 16 -84q0 -14 -1 -25.5q-1 -11.5 -3 -20.5zM407 256q-2 66 -38 107.5q-36 41.5 -108 41.5q-38 0 -67 -12q-29 -12 -49.5 -32.5q-20.5 -20.5 -31 -47.5q-10.5 -27 -10.5 -57z" />
<glyph unicode="&#102;" horiz-adv-x="324" d="M41 48h70v355h-70v46h70v74q0 187 166 187q24 0 45.5 -6q21.5 -6 37.5 -17.5q16 -11.5 25 -27q9 -15.5 9 -34.5q0 -18 -14 -31.5q-14 -13.5 -33 -13.5q-18 0 -29.5 11.5q-11.5 11.5 -11.5 26.5q0 7 4 15.5q4 8.5 8 10.5q-2 6 -14.5 12q-12.5 6 -26.5 6q-51 0 -77.5 -35.5q-26.5 -35.5 -26.5 -112.5v-64h141v-47h-141v-355h106v-48l-238 0z" />
<glyph unicode="&#103;" horiz-adv-x="482" d="M232 140q-21 0 -40 3q-5 -7 -7.5 -16.5q-2.5 -9.5 -2.5 -17.5q0 -9 3 -18q3 -9 11 -16q9 1 18.5 1.5q9.5 0.5 18.5 0.5q49 0 90.5 -9q41.5 -9 71.5 -27q30 -18 47 -45q17 -27 17 -63q0 -35 -17 -61.5q-17 -26.5 -47 -44q-30 -17.5 -71.5 -26.5q-41.5 -9 -90.5 -9q-49 0 -90.5 8.5q-41.5 8.5 -72 26q-30.5 17.5 -47.5 44q-17 26.5 -17 62.5q0 30 12 53q12 23 31.5 39.5q19.5 16.5 45.5 27q26 10.5 55 16.5q-15 17 -15 40q0 12 4.5 25.5q4.5 13.5 11.5 20.5q-44 17 -71.5 52.5q-27.5 35.5 -27.5 89.5q0 34 12.5 63.5q12.5 29.5 36 51.5q23.5 22 57 35q33.5 13 74.5 13q37 0 70.5 -12.5q33.5 -12.5 59.5 -35.5q32 6 43 22q-15 10 -15 32q0 17 12.5 30q12.5 13 29.5 13q17 0 30 -13q13 -13 13 -31q0 -15 -7.5 -29q-7.5 -14 -20 -25.5q-12.5 -11.5 -28 -19.5q-15.5 -8 -30.5 -12q11 -17 17 -38q6 -21 6 -44q0 -34 -13 -62.5q-13 -28.5 -36.5 -49.5q-23.5 -21 -57 -33q-33.5 -12 -73.5 -12zt0 0zM233 -157q75 0 121.5 23q46.5 23 46.5 67q0 44 -45.5 70q-45.5 26 -122.5 26q-78 0 -123 -26q-45 -26 -45 -70q0 -43 46.5 -66.5q46.5 -23.5 121.5 -23.5zt0 0zM232 188q53 0 87 30q34 30 34 79q0 48 -33 79.5q-33 31.5 -88 31.5q-55 0 -88.5 -31.5q-33.5 -31.5 -33.5 -79.5q0 -48 33.5 -78.5t88.5 -30.5z" />
<glyph unicode="&#104;" horiz-adv-x="569" d="M29 48h62v605h-70v47h132v-307q26 28 68.5 46.5q42.5 18.5 87.5 18.5q91 0 139.5 -47.5q48.5 -47.5 48.5 -153.5v-209h56v-48h-175v48h57v200q0 76 -35 115.5q-35 39.5 -105 39.5q-43 0 -82 -19q-39 -19 -60 -45l0 -291h51v-48l-175 0z" />
<glyph unicode="&#105;" horiz-adv-x="262" d="M41 48h60v355h-60v47h122v-402h63v-48h-185zM130 593q-20 0 -35 13q-15 13 -15 36q0 21 15 34q15 13 35 13q18 0 32.5 -13q14.5 -13 14.5 -34q0 -23 -14.5 -36t-32.5 -13z" />
<glyph unicode="&#106;" horiz-adv-x="237" d="M35 450h125v-483q0 -83 -32.5 -129q-32.5 -46 -103.5 -46q-17 0 -36.5 5q-19.5 5 -35.5 15q-16 10 -26.5 25.5q-10.5 15.5 -10.5 36.5q0 20 12 32.5q12 12.5 34 12.5q24 0 34.5 -13q10.5 -13 10.5 -27q0 -10 -9 -19q4 -5 13.5 -11q9.5 -6 21.5 -6q35 0 50 31.5q15 31.5 15 89.5v204v235h-62zM125 593q-20 0 -35 13q-15 13 -15 36q0 21 15 34q15 13 35 13q18 0 32.5 -13q14.5 -13 14.5 -34q0 -23 -14.5 -36t-32.5 -13z" />
<glyph unicode="&#107;" horiz-adv-x="495" d="M29 48h62v605h-70v47h132v-652h51v-48h-175zM180 233l165 170h-58v47h174v-47h-44l-163 -163l182 -192h45v-48l-88 0z" />
<glyph unicode="&#108;" horiz-adv-x="278" d="M277 25q-17 -13 -42 -22.5q-25 -9.5 -58 -9.5q-99 0 -99 125v535h-69v47h132v-559q0 -50 13.5 -73q13.5 -23 46.5 -23q17 0 33.5 6.5q16.5 6.5 27.5 14.5z" />
<glyph unicode="&#109;" horiz-adv-x="833" d="M41 48h60v355h-60v47h122v-61q25 31 66.5 50q41.5 19 86.5 19q53 0 89 -21.5q36 -21.5 49 -59.5q24 36 67 58.5q43 22.5 94 22.5q31 0 58 -8q27 -8 46.5 -27q19.5 -19 30.5 -50.5q11 -31.5 11 -77.5v-247h56v-48h-176v48h58v234q0 63 -27 92q-27 29 -81 29q-45 0 -78.5 -20.5q-33.5 -20.5 -51.5 -50.5q1 -6 1 -15q0 -9 0 -17v-252h56v-48h-177v48h59v255q0 45 -27.5 72.5q-27.5 27.5 -79.5 27.5q-44 0 -78 -20.5q-34 -20.5 -52 -46.5l0 -288h58v-48l-180 0z" />
<glyph unicode="&#110;" horiz-adv-x="579" d="M41 48h60v355h-60v47h122v-60q25 28 67.5 48q42.5 20 88.5 20q91 0 139.5 -47q48.5 -47 48.5 -153v-210h56v-48h-175v48h57v202q0 78 -35 115.5q-35 37.5 -106 37.5q-44 0 -81.5 -19.5q-37.5 -19.5 -59.5 -45.5l0 -290h56v-48l-178 0z" />
<glyph unicode="&#111;" horiz-adv-x="547" d="M274 -10q-56 0 -100.5 17.5q-44.5 17.5 -75 49q-30.5 31.5 -46.5 74.5q-16 43 -16 94q0 51 17 94q17 43 48.5 74.5q31.5 31.5 75.5 49q44 17.5 97 17.5q55 0 98.5 -17.5q43.5 -17.5 74.5 -49q31 -31.5 47.5 -74.5q16.5 -43 16.5 -94q0 -51 -17 -94q-17 -43 -48.5 -74.5q-31.5 -31.5 -75 -49q-43.5 -17.5 -96.5 -17.5zt0 0zM274 46q37 0 68.5 12q31.5 12 54.5 35.5q23 23.5 35.5 56.5q12.5 33 12.5 75q0 42 -12.5 75q-12.5 33 -35.5 56.5q-23 23.5 -54.5 36q-31.5 12.5 -68.5 12.5q-37 0 -68 -12.5q-31 -12.5 -54 -36q-23 -23.5 -36 -56.5q-13 -33 -13 -75q0 -41 12.5 -74.5q12.5 -33.5 35.5 -56.5q23 -23 54 -35.5t69 -12.5z" />
<glyph unicode="&#112;" horiz-adv-x="564" d="M36 -153h60v556h-60v47h122v-57q25 29 68.5 48q43.5 19 91.5 19q49 0 88 -17q39 -17 66 -47q27 -30 41.5 -72q14.5 -42 14.5 -92q0 -51 -16.5 -95.5q-16.5 -44.5 -47 -77q-30.5 -32.5 -73.5 -51q-43 -18.5 -95 -18.5q-39 0 -75.5 9q-36.5 9 -62.5 27l0 -179h73v-47h-195zM158 85q33 -23 65.5 -31q32.5 -8 67.5 -8q78 0 124.5 49q46.5 49 46.5 134q0 82 -42 129q-42 47 -119 47q-45 0 -83.5 -20.5q-38.5 -20.5 -59.5 -47.5z" />
<glyph unicode="&#113;" horiz-adv-x="532" d="M326 -153h81v198q-27 -24 -65 -39.5q-38 -15.5 -76 -15.5q-53 0 -95.5 16.5q-42.5 16.5 -72.5 47.5q-30 31 -46 74.5q-16 43.5 -16 96.5q0 49 19 92q19 43 52.5 74.5q33.5 31.5 79.5 50q46 18.5 100 18.5q52 0 100 -14q48 -14 83 -36l0 -563h51v-47h-195zM273 46q21 0 41 5q20 5 37.5 13.5q17.5 8.5 32 19.5q14.5 11 23.5 23l0 265q-29 17 -60 25q-31 8 -61 8q-40 0 -73.5 -13.5q-33.5 -13.5 -58 -38q-24.5 -24.5 -38 -58q-13.5 -33.5 -13.5 -73.5q0 -84 46 -130t124 -46z" />
<glyph unicode="&#114;" horiz-adv-x="373" d="M41 48h60v355h-60v47h122v-57q18 27 46 46q28 19 72 19q38 0 57 -16.5q19 -16.5 19 -44.5q0 -19 -13.5 -32q-13.5 -13 -32.5 -13q-18 0 -31 12q-13 12 -13 30q0 2 1.5 4.5q1.5 2.5 3.5 3.5q-3 5 -16 5q-38 -4 -58.5 -26q-20.5 -22 -34.5 -47l0 -286h83v-48l-205 0z" />
<glyph unicode="&#115;" horiz-adv-x="415" d="M77 98q10 -12 25.5 -22q15.5 -10 34 -17.5q18.5 -7.5 37.5 -12q19 -4.5 36 -4.5q47 0 74.5 20q27.5 20 27.5 57q0 26 -19 40.5q-19 14.5 -48 24q-29 9.5 -62 18.5q-33 9 -62 24q-29 15 -48 40.5q-19 25.5 -19 68.5q0 29 13 52q13 23 35 39.5q22 16.5 52 25q30 8.5 63 8.5q27 0 53.5 -7.5q26.5 -7.5 47 -20.5q20.5 -13 33.5 -30q13 -17 13 -36q0 -18 -13 -30.5q-13 -12.5 -30 -12.5q-18 0 -30.5 11.5q-12.5 11.5 -12.5 28.5q0 5 2.5 11.5q2.5 6.5 5.5 9.5q-8 9 -27.5 16.5q-19.5 7.5 -42.5 7.5q-46 0 -73 -19.5q-27 -19.5 -27 -49.5q0 -29 19 -45.5q19 -16.5 48 -27.5q29 -11 62 -20q33 -9 62 -23q29 -14 48 -37.5q19 -23.5 19 -62.5q0 -35 -14.5 -60q-14.5 -25 -38 -41q-23.5 -16 -54 -24q-30.5 -8 -63.5 -8q-25 0 -50.5 6q-25.5 6 -48 16q-22.5 10 -39.5 22q-17 12 -25 24z" />
<glyph unicode="&#116;" horiz-adv-x="349" d="M328 28q-17 -14 -44.5 -24.5q-27.5 -10.5 -61.5 -10.5q-76 0 -108.5 45.5q-32.5 45.5 -32.5 132.5v232h-60v47h60v125h62v-125h175v-47h-175v-227q0 -62 21.5 -95q21.5 -33 71.5 -33q23 0 41.5 8q18.5 8 30.5 17z" />
<glyph unicode="&#117;" horiz-adv-x="557" d="M26 450h122q0 -27 -0.5 -60q-0.5 -33 -1 -67q-0.5 -34 -1 -66.5q-0.5 -32.5 -0.5 -59.5q0 -74 30.5 -112.5q30.5 -38.5 99.5 -38.5q22 0 43.5 6.5q21.5 6.5 40.5 17q19 10.5 34 23.5q15 13 26 27l0 283h-59v47h121v-402h60v-48h-122v69q-25 -30 -69 -54.5q-44 -24.5 -98 -24.5q-80 0 -124.5 47.5q-44.5 47.5 -44.5 148.5q0 23 0 51q0 28 0.5 57q0.5 29 1 57q0.5 28 0.5 52l-59 0z" />
<glyph unicode="&#118;" horiz-adv-x="513" d="M46 403h-44v47h174v-47h-64l92 -204q15 -32 29.5 -66q14.5 -34 28.5 -69q14 35 31 72q17 37 28 64l88 203h-74v47h177v-47h-44l-179 -408l-56 0z" />
<glyph unicode="&#119;" horiz-adv-x="736" d="M47 403h-42v47h167v-47h-66l74 -231q3 -9 7 -22.5q4 -13.5 8.5 -28q4.5 -14.5 8.5 -28q4 -13.5 7 -21.5q3 7 7 20q4 13 9 27.5q5 14.5 9.5 29q4.5 14.5 8.5 24.5l104 277h44l105 -277q3 -8 8.5 -22q5.5 -14 10.5 -29q5 -15 10 -29q5 -14 8 -22q2 9 6 23q4 14 8.5 29q4.5 15 8.5 29q4 14 7 23l70 228h-71v47h167v-47h-41l-130 -408h-53l-105 275q-3 7 -7.5 20q-4.5 13 -9.5 27q-5 14 -9.5 27q-4.5 13 -6.5 21q-3 -9 -7.5 -22.5q-4.5 -13.5 -9.5 -27.5q-5 -14 -10 -27q-5 -13 -8 -21l-102 -272l-50 0z" />
<glyph unicode="&#120;" horiz-adv-x="511" d="M75 48l151 181l-136 174h-55v47h102v-13l126 -167l106 133h-55v47h164v-47h-43l-142 -169l145 -186h50v-48h-94v10l-138 182l-117 -144h60v-48h-175l0 48z" />
<glyph unicode="&#121;" horiz-adv-x="504" d="M44 403h-34v47h169v-47h-67l131 -274q8 -18 14.5 -34.5q6.5 -16.5 14.5 -34.5q6 18 11.5 34.5q5.5 16.5 12.5 35.5l105 273h-66v47h162v-47h-33l-163 -403q-25 -60 -46 -99q-21 -39 -41 -61.5q-20 -22.5 -40 -31q-20 -8.5 -44 -8.5q-33 0 -51.5 20q-18.5 20 -18.5 43q0 18 13 31q13 13 30 13q17 0 27 -9.5q10 -9.5 12 -22.5q0 -9 -6 -15q4 -3 10 -3q25 3 44 34q19 31 42 85l10 24z" />
<glyph unicode="&#122;" horiz-adv-x="457" d="M36 43l315 356h-250v-99h-52v150h377v-42l-315 -357h259v99h51v-150l-385 0z" />
<glyph unicode="&#123;" horiz-adv-x="321" d="M301 -145v-55h-64q-62 0 -94.5 30q-32.5 30 -32.5 100v170q0 30 -8.5 49q-8.5 19 -21.5 30.5q-13 11.5 -29 15.5q-16 4 -31 4l0 51q13 0 29 5q16 5 29.5 18q13.5 13 22.5 35q9 22 9 55v152q0 65 28 100q28 35 100 35h63v-55h-48q-45 0 -62.5 -22q-17.5 -22 -17.5 -74v-159q0 -49 -20.5 -79q-20.5 -30 -54.5 -35q32 -4 53.5 -30q21.5 -26 21.5 -84v-162q0 -51 21 -73q21 -22 65 -22z" />
<glyph unicode="&#124;" horiz-adv-x="325" d="M131 700h63v-700l-63 0z" />
<glyph unicode="&#125;" horiz-adv-x="321" d="M20 -145h43q44 0 65 22q21 22 21 73v162q0 58 21.5 84q21.5 26 53.5 30q-34 5 -54.5 35q-20.5 30 -20.5 79v159q0 52 -18 74q-18 22 -62 22h-49v55h63q72 0 100 -35q28 -35 28 -100v-152q0 -33 9 -55q9 -22 22.5 -34.5q13.5 -12.5 29 -17.5q15.5 -5 29.5 -5l0 -51q-15 0 -31 -4.5q-16 -4.5 -29 -15.5q-13 -11 -21.5 -30.5q-8.5 -19.5 -8.5 -49.5v-170q0 -70 -32 -100q-32 -30 -95 -30l-64 0z" />
<glyph unicode="&#126;" horiz-adv-x="590" d="M535 354q-29 -27 -59.5 -42q-30.5 -15 -59.5 -15q-30 0 -59 11q-29 11 -57.5 24.5q-28.5 13.5 -56 25q-27.5 11.5 -55.5 11.5q-29 0 -55 -14.5q-26 -14.5 -49 -37.5l-29 40q32 32 65 49.5q33 17.5 65 17.5q31 0 60 -11.5q29 -11.5 57.5 -25q28.5 -13.5 57 -24.5q28.5 -11 57.5 -11q47 0 92 45z" />
<glyph unicode="&#160;" horiz-adv-x="240" />
<glyph unicode="&#161;" horiz-adv-x="310" d="M186 -244h-66v499h66zM215 399q0 -22 -16.5 -40q-16.5 -18 -44.5 -18q-26 0 -42 18q-16 18 -16 40q0 24 16 42.5q16 18.5 42 18.5q28 0 44.5 -18.5t16.5 -42.5z" />
<glyph unicode="&#162;" horiz-adv-x="590" d="M288 -6q-90 12 -143.5 73q-53.5 61 -53.5 158q0 45 14.5 85q14.5 40 41 71q26.5 31 62.5 51q36 20 79 25l0 110h62v-109q32 0 60 -9.5q28 -9.5 48.5 -25q20.5 -15.5 32 -35q11.5 -19.5 11.5 -40.5q0 -19 -13 -32q-13 -13 -31 -13q-18 0 -31 13.5q-13 13.5 -13 31.5q0 5 1.5 11.5q1.5 6.5 5.5 10.5q-14 17 -39.5 26q-25.5 9 -56.5 9q-34 0 -64.5 -13.5q-30.5 -13.5 -53.5 -37.5q-23 -24 -36.5 -57q-13.5 -33 -13.5 -72q0 -41 13.5 -73.5q13.5 -32.5 37.5 -56q24 -23.5 56.5 -36q32.5 -12.5 69.5 -12.5q43 0 78 17q35 17 58 43l30 -42q-26 -33 -64.5 -51.5q-38.5 -18.5 -83.5 -21.5l-2 0v-112l-62 0z" />
<glyph unicode="&#163;" horiz-adv-x="590" d="M42 42q20 20 40 34q20 14 40 23q23 28 38 63.5q15 35.5 15 81.5q0 19 -3 36l-93 0v51h78q-8 20 -18 39.5q-10 19.5 -18 40.5q-8 21 -13.5 46q-5.5 25 -5.5 57q0 38 14.5 73q14.5 35 42 62q27.5 27 66.5 43q39 16 88 16q37 0 72 -8.5q35 -8.5 61 -23.5q26 -15 42 -36.5q16 -21.5 16 -47.5q0 -20 -13.5 -33q-13.5 -13 -32.5 -13q-19 0 -32.5 13.5q-13.5 13.5 -13.5 32.5q0 13 8 23q-13 17 -43 25.5q-30 8.5 -63 8.5q-32 0 -58.5 -11.5q-26.5 -11.5 -45 -31q-18.5 -19.5 -28.5 -44.5q-10 -25 -10 -51q0 -31 6 -54.5q6 -23.5 15 -43.5q9 -20 18.5 -39.5q9.5 -19.5 17.5 -42.5l169 0v-51h-160q3 -15 3 -33q0 -45 -16 -79q-16 -34 -37 -60q8 2 12 2q29 0 56 -8q27 -8 53 -17.5q26 -9.5 51.5 -17.5q25.5 -8 52.5 -8q28 0 54.5 9.5q26.5 9.5 55.5 37.5l29 -49q-32 -32 -68 -46.5q-36 -14.5 -73 -14.5q-29 0 -57.5 8q-28.5 8 -56.5 18q-28 10 -56.5 18q-28.5 8 -57.5 8q-57 0 -114 -55z" />
<glyph unicode="&#164;" horiz-adv-x="590" d="M23 112l92 94q-22 29 -33.5 65.5q-11.5 36.5 -11.5 74.5q0 39 11.5 75q11.5 36 33.5 65l-87 89l39 39l87 -88q28 22 63.5 34.5q35.5 12.5 77.5 12.5q43 0 78 -12.5q35 -12.5 62 -33.5l93 91l39 -39l-92 -92q22 -30 34 -66q12 -36 12 -75q0 -38 -12 -74.5q-12 -36.5 -34 -65.5l89 -89l-39 -38l-89 88q-27 -22 -62.5 -35q-35.5 -13 -78.5 -13q-43 0 -78 12.5q-35 12.5 -63 35.5l-93 -93zM295 174q40 0 71 14q31 14 52.5 37.5q21.5 23.5 32.5 54.5q11 31 11 66q0 36 -11.5 67q-11.5 31 -33 54.5q-21.5 23.5 -52.5 37q-31 13.5 -70 13.5q-39 0 -69.5 -13.5q-30.5 -13.5 -52 -37q-21.5 -23.5 -33 -55q-11.5 -31.5 -11.5 -66.5q0 -35 11.5 -66q11.5 -31 32.5 -54.5q21 -23.5 52 -37.5t70 -14z" />
<glyph unicode="&#165;" horiz-adv-x="602" d="M172 55h95v103h-191v51h191v94h-191v51h161l-176 291h-65v55h206v-55h-65l165 -279l166 279h-67v55h207v-55h-68l-177 -291h162v-51h-192v-94h192v-51h-192v-103h91v-55l-252 0z" />
<glyph unicode="&#166;" horiz-adv-x="325" d="M131 260h63v-260h-63zM131 700h63v-260l-63 0z" />
<glyph unicode="&#167;" horiz-adv-x="524" d="M104 -106q0 19 13.5 32.5q13.5 13.5 32.5 13.5q19 0 32.5 -13.5q13.5 -13.5 13.5 -32.5q0 -10 -6 -16q6 -6 21 -12.5q15 -6.5 35 -6.5q40 0 67 22q27 22 28 62q0 31 -20 52q-20 21 -50 38.5q-30 17.5 -65.5 35q-35.5 17.5 -66 41q-30.5 23.5 -50.5 56.5q-20 33 -20 83q0 33 11.5 61q11.5 28 31 51q19.5 23 45 39q25.5 16 52.5 25q-17 9 -33.5 21.5q-16.5 12.5 -29 29q-12.5 16.5 -20 37.5q-7.5 21 -7.5 47q0 30 10.5 55.5q10.5 25.5 31 44q20.5 18.5 49.5 29.5q29 11 65 11q30 0 56 -7.5q26 -7.5 45.5 -20.5q19.5 -13 30.5 -31q11 -18 11 -38q0 -20 -14 -33q-14 -13 -32 -13q-19 0 -32.5 13.5q-13.5 13.5 -13.5 31.5q0 11 7 18q-8 8 -21 14.5q-13 6.5 -36 6.5q-48 0 -71.5 -22.5q-23.5 -22.5 -23.5 -59.5q0 -37 20.5 -60q20.5 -23 50.5 -40.5q30 -17.5 66 -33q36 -15.5 66 -37.5q30 -22 50.5 -55q20.5 -33 20.5 -84q0 -33 -10.5 -60q-10.5 -27 -29 -49.5q-18.5 -22.5 -43.5 -40q-25 -17.5 -53 -29.5q16 -9 31 -21q15 -12 27 -27.5q12 -15.5 19 -36q7 -20.5 7 -45.5q0 -30 -10.5 -55.5q-10.5 -25.5 -31 -44q-20.5 -18.5 -49.5 -29.5q-29 -11 -65 -11q-28 0 -54 7.5q-26 7.5 -45.5 20q-19.5 12.5 -31.5 29.5q-12 17 -12 37zt0 0zM275 101q24 7 45 21.5q21 14.5 37.5 34q16.5 19.5 26 43q9.5 23.5 9.5 49.5q0 27 -11 48.5q-11 21.5 -30.5 39.5q-19.5 18 -45.5 32q-26 14 -57 25q-53 -18 -85.5 -54.5q-32.5 -36.5 -32.5 -90.5q0 -53 39.5 -88t104.5 -60z" />
<glyph unicode="&#168;" horiz-adv-x="401" d="M102 599q-18 0 -32 12q-14 12 -14 34q0 20 14 32.5q14 12.5 32 12.5q17 0 30.5 -12.5q13.5 -12.5 13.5 -32.5q0 -22 -13.5 -34q-13.5 -12 -30.5 -12zt0 0zM302 599q-18 0 -32 12q-14 12 -14 34q0 20 14 32.5q14 12.5 32 12.5q17 0 30.5 -12.5q13.5 -12.5 13.5 -32.5q0 -22 -13.5 -34t-30.5 -12z" />
<glyph unicode="&#169;" horiz-adv-x="1018" d="M509 -212q-93 0 -172 34q-79 34 -137 92.5q-58 58.5 -91 137.5q-33 79 -33 169q0 90 33 169q33 79 91 137.5q58 58.5 137 92.5q79 34 172 34q93 0 172 -34q79 -34 137 -92.5q58 -58.5 91 -137.5q33 -79 33 -169q0 -90 -33 -169q-33 -79 -91 -137.5q-58 -58.5 -137 -92.5q-79 -34 -172 -34zt0 0zM509 -157q81 0 150.5 30q69.5 30 120 81q50.5 51 79 119.5q28.5 68.5 28.5 146.5q0 78 -28.5 147q-28.5 69 -79 120.5q-50.5 51.5 -120 81.5q-69.5 30 -150.5 30q-82 0 -151 -30q-69 -30 -119.5 -81.5q-50.5 -51.5 -79 -120.5q-28.5 -69 -28.5 -147q0 -78 28.5 -146.5q28.5 -68.5 79 -119.5q50.5 -51 119.5 -81q69 -30 151 -30zt0 0zM277 225q0 49 17 92q17 43 47 74.5q30 31.5 71.5 50q41.5 18.5 90.5 18.5q39 0 72 -8q33 -8 57.5 -22q24.5 -14 38 -34q13.5 -20 13.5 -44q0 -20 -13.5 -33.5q-13.5 -13.5 -33.5 -13.5q-19 0 -32.5 13.5q-13.5 13.5 -13.5 32.5q0 12 8 22q-11 13 -33 22.5q-22 9.5 -50 9.5q-38 0 -69.5 -13.5q-31.5 -13.5 -54 -37.5q-22.5 -24 -35.5 -57q-13 -33 -13 -72q0 -41 13.5 -73.5q13.5 -32.5 37.5 -55q24 -22.5 56.5 -35q32.5 -12.5 69.5 -12.5q43 0 78 17q35 17 58 44l30 -45q-29 -37 -74.5 -56q-45.5 -19 -95.5 -19q-53 0 -97 16.5q-44 16.5 -76 47.5q-32 31 -49.5 74.5t-17.5 96.5z" />
<glyph unicode="&#170;" horiz-adv-x="400" d="M375 389v-36h-104v46q-12 -20 -40 -36.5q-28 -16.5 -72 -16.5q-59 0 -88.5 25q-29.5 25 -29.5 65q0 38 31.5 62.5q31.5 24.5 103.5 24.5q29 0 53.5 -4.5q24.5 -4.5 43.5 -12.5l0 30q0 41 -19 65.5q-19 24.5 -64 24.5q-22 0 -39.5 -7q-17.5 -7 -22.5 -15q4 -3 7 -9.5q3 -6.5 3 -11.5q0 -14 -9.5 -23q-9.5 -9 -26.5 -9q-14 0 -23.5 9q-9.5 9 -9.5 25q0 19 10.5 34q10.5 15 28 25q17.5 10 40 15q22.5 5 45.5 5q73 0 104 -30.5q31 -30.5 31 -87.5q0 -34 -1.5 -73q-1.5 -39 -0.5 -84zM100 438q0 -23 19 -38.5q19 -15.5 57 -15.5q37 0 59.5 14q22.5 14 36.5 30l0 47q-36 16 -84 16q-45 0 -66.5 -14t-21.5 -39z" />
<glyph unicode="&#171;" horiz-adv-x="514" d="M49 248v4l184 212l41 -36l-153 -178l151 -178l-42 -37zM229 248v4l184 212l41 -36l-153 -178l151 -178l-42 -37z" />
<glyph unicode="&#172;" horiz-adv-x="590" d="M527 388v-186h-55v131h-409l0 55z" />
<glyph unicode="&#173;" horiz-adv-x="395" d="M81 301h233v-58l-233 0z" />
<glyph unicode="&#174;" horiz-adv-x="595" d="M299 250q-51 0 -96 19.5q-45 19.5 -78.5 53q-33.5 33.5 -52.5 78.5q-19 45 -19 96q0 51 19 95.5q19 44.5 52.5 77.5q33.5 33 78.5 52q45 19 96 19q50 0 94.5 -19q44.5 -19 77.5 -52q33 -33 52.5 -77.5q19.5 -44.5 19.5 -95.5q0 -51 -19.5 -96q-19.5 -45 -52.5 -78.5q-33 -33.5 -77.5 -53q-44.5 -19.5 -94.5 -19.5zt0 0zM298 301q40 0 75.5 15.5q35.5 15.5 61.5 42q26 26.5 41.5 62q15.5 35.5 15.5 75.5q0 40 -15.5 75.5q-15.5 35.5 -41.5 61.5q-26 26 -61.5 41.5q-35.5 15.5 -75.5 15.5q-40 0 -75.5 -15.5q-35.5 -15.5 -61.5 -41.5q-26 -26 -41.5 -61.5q-15.5 -35.5 -15.5 -75.5q0 -40 15.5 -75.5q15.5 -35.5 41.5 -62q26 -26.5 61.5 -42q35.5 -15.5 75.5 -15.5zt0 0zM206 640h89q29 0 49 -6.5q20 -6.5 32.5 -18q12.5 -11.5 18 -27q5.5 -15.5 5.5 -32.5q0 -29 -18 -51q-18 -22 -46 -29l82 -116h-53l-73 107h-42v-107h-44zM294 500q24 0 43 15q19 15 19 40q0 24 -17 38.5q-17 14.5 -49 14.5h-40l0 -108z" />
<glyph unicode="&#175;" horiz-adv-x="376" d="M60 646h257v-51l-257 0z" />
<glyph unicode="&#176;" horiz-adv-x="402" d="M201 421q-31 0 -58 11.5q-27 11.5 -47 31.5q-20 20 -31.5 47q-11.5 27 -11.5 58q0 31 11.5 58.5q11.5 27.5 31.5 48q20 20.5 47 32q27 11.5 58 11.5q31 0 58 -11q27 -11 47 -31q20 -20 32 -47q12 -27 12 -58q0 -32 -12 -59.5q-12 -27.5 -32 -47.5q-20 -20 -47 -32q-27 -12 -58 -12zt0 0zM201 476q19 0 36 7.5q17 7.5 30 20q13 12.5 20.5 29.5q7.5 17 7.5 37q0 19 -7.5 36q-7.5 17 -20.5 30q-13 13 -30 20.5q-17 7.5 -36 7.5q-19 0 -36 -7.5q-17 -7.5 -29.5 -20.5q-12.5 -13 -20 -30q-7.5 -17 -7.5 -36q0 -20 7.5 -37q7.5 -17 20 -29.5q12.5 -12.5 29.5 -20t36 -7.5z" />
<glyph unicode="&#177;" horiz-adv-x="590" d="M264 469v196h59v-196h197v-55h-197v-133h-59v133h-193v55zM71 226h449v-55l-449 0z" />
<glyph unicode="&#178;" horiz-adv-x="361" d="M30 389q34 16 73 38.5q39 22.5 71.5 49q32.5 26.5 54 56.5q21.5 30 21.5 61q0 28 -19.5 45.5q-19.5 17.5 -57.5 17.5q-44 0 -66 -31q9 -5 14 -15q5 -10 5 -19q0 -15 -11 -26.5q-11 -11.5 -30 -11.5q-18 0 -30 12.5q-12 12.5 -12 32.5q0 19 9.5 38q9.5 19 27 34q17.5 15 42.5 24q25 9 55 9q68 0 99.5 -29.5q31.5 -29.5 31.5 -71.5q0 -38 -23.5 -71.5q-23.5 -33.5 -55 -60.5q-31.5 -27 -63.5 -46q-32 -19 -48 -27l161 0v51h45v-99l-294 0z" />
<glyph unicode="&#179;" horiz-adv-x="364" d="M136 510v36h32q42 0 61 18.5q19 18.5 19 42.5q0 25 -17.5 41q-17.5 16 -59.5 16q-20 0 -39 -6.5q-19 -6.5 -27 -18.5q4 -3 8 -10.5q4 -7.5 4 -13.5q0 -15 -9 -25.5q-9 -10.5 -26 -10.5q-17 0 -28.5 10q-11.5 10 -11.5 29q0 19 10.5 35.5q10.5 16.5 29 28q18.5 11.5 43.5 18q25 6.5 53 6.5q64 0 96 -23q32 -23 32 -65q0 -28 -16.5 -50q-16.5 -22 -50.5 -33l0 -3q45 -5 64 -29q19 -24 19 -55q0 -49 -41 -77q-41 -28 -110 -28q-32 0 -58.5 8.5q-26.5 8.5 -45 22q-18.5 13.5 -29 31q-10.5 17.5 -10.5 36.5q0 18 12 30q12 12 31 12q18 0 28.5 -11.5q10.5 -11.5 10.5 -26.5q0 -8 -4 -15.5q-4 -7.5 -12 -11.5q11 -14 32 -22.5q21 -8.5 51 -8.5q45 0 66 18.5q21 18.5 21 44.5q0 26 -19.5 43q-19.5 17 -66.5 17z" />
<glyph unicode="&#180;" horiz-adv-x="275" d="M60 565l107 153l48 -37l-117 -143z" />
<glyph unicode="&#181;" horiz-adv-x="556" d="M86 403h-58v47h121v-242q0 -89 31 -125.5q31 -36.5 96 -36.5q22 0 43.5 6.5q21.5 6.5 40.5 17q19 10.5 34 23.5q15 13 26 27l0 283h-59v47h122v-402h59v-48h-122v69q-25 -30 -68.5 -54.5q-43.5 -24.5 -97.5 -24.5q-73 0 -105 44l0 -234l-63 0z" />
<glyph unicode="&#182;" horiz-adv-x="446" d="M257 263q-43 0 -80.5 15q-37.5 15 -66 43q-28.5 28 -45 68.5q-16.5 40.5 -16.5 91.5q0 51 15 91.5q15 40.5 42.5 69q27.5 28.5 66 43.5q38.5 15 86.5 15h155v-59h-94v-664q0 -88 -35.5 -136.5q-35.5 -48.5 -118.5 -48.5q-32 0 -60.5 11q-28.5 11 -45.5 26l26 46q12 -9 32 -16.5q20 -7.5 43 -7.5q30 0 48.5 10q18.5 10 29 27.5q10.5 17.5 14.5 40.5q4 23 4 50z" />
<glyph unicode="&#183;" horiz-adv-x="205" d="M45 327q0 22 16.5 40q16.5 18 44.5 18q26 0 42 -18q16 -18 16 -40q0 -24 -16 -42.5q-16 -18.5 -42 -18.5q-28 0 -44.5 18.5t-16.5 42.5z" />
<glyph unicode="&#184;" horiz-adv-x="337" d="M143 0h35v-47q51 -3 75.5 -23q24.5 -20 24.5 -55q0 -35 -31.5 -57q-31.5 -22 -88.5 -22q-34 0 -56.5 9.5q-22.5 9.5 -41.5 21.5v31q36 -10 55 -16q19 -6 36 -6q28 0 46 11q18 11 18 31q0 20 -15 32q-15 12 -51 12l-6 0z" />
<glyph unicode="&#185;" horiz-adv-x="281" d="M51 394h74v228q-21 -12 -40 -20q-19 -8 -41 -13l-12 36q33 13 66 33q33 20 56 50l26 0v-314h70v-44l-199 0z" />
<glyph unicode="&#186;" horiz-adv-x="427" d="M214 347q-76 0 -122.5 42.5q-46.5 42.5 -46.5 116.5q0 73 46.5 115.5q46.5 42.5 122.5 42.5q75 0 121.5 -42.5q46.5 -42.5 46.5 -115.5q0 -75 -46.5 -117q-46.5 -42 -121.5 -42zt0 0zM214 388q48 0 78.5 30.5q30.5 30.5 30.5 87.5q0 56 -31 87q-31 31 -78 31q-48 0 -79 -32q-31 -32 -31 -86q0 -58 32 -88t78 -30z" />
<glyph unicode="&#187;" horiz-adv-x="514" d="M63 72l151 178l-153 178l41 36l184 -212v-4l-181 -213zM243 72l151 178l-153 178l41 36l184 -212v-4l-181 -213z" />
<glyph unicode="&#188;" horiz-adv-x="681" d="M48 394h74v228q-21 -12 -40 -20q-19 -8 -41 -13l-12 36q33 13 66 33q33 20 56 50l26 0v-314h70v-44h-199zM534 128v97h37h14v-97h61v-44h-61v-84h-51v84h-195v36q57 62 94.5 119q37.5 57 58.5 111l53 0q-9 -23 -23.5 -51q-14.5 -28 -33.5 -57.5q-19 -29.5 -42 -59q-23 -29.5 -48 -54.5zM78 17l519 693l36 -27l-518 -693z" />
<glyph unicode="&#189;" horiz-adv-x="720" d="M48 394h74v228q-21 -12 -40 -20q-19 -8 -41 -13l-12 36q33 13 66 33q33 20 56 50l26 0v-314h70v-44h-199zM395 39q34 16 73 38.5q39 22.5 71.5 49q32.5 26.5 54 56.5q21.5 30 21.5 61q0 28 -19.5 45.5q-19.5 17.5 -57.5 17.5q-44 0 -66 -31q9 -5 14 -15q5 -10 5 -19q0 -15 -11 -26.5q-11 -11.5 -30 -11.5q-18 0 -30 12.5q-12 12.5 -12 32.5q0 19 9.5 38q9.5 19 27 34q17.5 15 42.5 24q25 9 55 9q68 0 99.5 -29.5q31.5 -29.5 31.5 -71.5q0 -38 -23.5 -71.5q-23.5 -33.5 -55 -60.5q-31.5 -27 -63.5 -46q-32 -19 -48 -27l161 0v51h45v-99h-294zM68 17l519 693l36 -27l-518 -693z" />
<glyph unicode="&#190;" horiz-adv-x="715" d="M136 510v36h32q42 0 61 18.5q19 18.5 19 42.5q0 25 -17.5 41q-17.5 16 -59.5 16q-20 0 -39 -6.5q-19 -6.5 -27 -18.5q4 -3 8 -10.5q4 -7.5 4 -13.5q0 -15 -9 -25.5q-9 -10.5 -26 -10.5q-17 0 -28.5 10q-11.5 10 -11.5 29q0 19 10.5 35.5q10.5 16.5 29 28q18.5 11.5 43.5 18q25 6.5 53 6.5q64 0 96 -23q32 -23 32 -65q0 -28 -16.5 -50q-16.5 -22 -50.5 -33l0 -3q45 -5 64 -29q19 -24 19 -55q0 -49 -41 -77q-41 -28 -110 -28q-32 0 -58.5 8.5q-26.5 8.5 -45 22q-18.5 13.5 -29 31q-10.5 17.5 -10.5 36.5q0 18 12 30q12 12 31 12q18 0 28.5 -11.5q10.5 -11.5 10.5 -26.5q0 -8 -4 -15.5q-4 -7.5 -12 -11.5q11 -14 32 -22.5q21 -8.5 51 -8.5q45 0 66 18.5q21 18.5 21 44.5q0 26 -19.5 43q-19.5 17 -66.5 17zM583 128v97h37h14v-97h61v-44h-61v-84h-51v84h-195v36q57 62 94.5 119q37.5 57 58.5 111l53 0q-9 -23 -23.5 -51q-14.5 -28 -33.5 -57.5q-19 -29.5 -42 -59q-23 -29.5 -48 -54.5zM121 17l519 693l36 -27l-518 -693z" />
<glyph unicode="&#191;" horiz-adv-x="466" d="M288 263q2 -11 3.5 -21q1.5 -10 1.5 -19q0 -37 -14 -62.5q-14 -25.5 -35 -45.5q-21 -20 -46 -37q-25 -17 -46.5 -36.5q-21.5 -19.5 -35.5 -45.5q-14 -26 -14 -63q0 -26 10 -49q10 -23 28 -40q18 -17 43 -27q25 -10 55 -10q39 0 65 13q26 13 39 32q-30 11 -30 43q0 23 16 36q16 13 39 13q23 0 38.5 -16.5q15.5 -16.5 15.5 -42.5q0 -28 -16.5 -53q-16.5 -25 -43 -43.5q-26.5 -18.5 -60 -29.5q-33.5 -11 -67.5 -11q-48 0 -85 14q-37 14 -62.5 37.5q-25.5 23.5 -38.5 54.5q-13 31 -13 66q0 46 15 78q15 32 37 56q22 24 48 42q26 18 48 37q22 19 37 42q15 23 15 56q0 14 -3 31zM315 399q0 -22 -16.5 -40q-16.5 -18 -44.5 -18q-26 0 -42 18q-16 18 -16 40q0 24 16 42.5q16 18.5 42 18.5q28 0 44.5 -18.5t16.5 -42.5z" />
<glyph unicode="&#192;" horiz-adv-x="743" d="M5 55h57l267 646h79l272 -646h58v-55h-210v55h81l-74 173h-334l-73 -173h89v-55h-212zM511 291l-111 269q-3 7 -7.5 18q-4.5 11 -9 22.5q-4.5 11.5 -8.5 22.5q-4 11 -6 19l-3 0q-3 -8 -7 -19q-4 -11 -8.5 -22.5q-4.5 -11.5 -8.5 -22.5q-4 -11 -7 -18l-109 -269zM426 775l-18 -38l-190 85l23 53z" />
<glyph unicode="&#193;" horiz-adv-x="743" d="M5 55h57l267 646h79l272 -646h58v-55h-210v55h81l-74 173h-334l-73 -173h89v-55h-212zM511 291l-111 269q-3 7 -7.5 18q-4.5 11 -9 22.5q-4.5 11.5 -8.5 22.5q-4 11 -6 19l-3 0q-3 -8 -7 -19q-4 -11 -8.5 -22.5q-4.5 -11.5 -8.5 -22.5q-4 -11 -7 -18l-109 -269zM316 775l185 100l24 -53l-190 -85z" />
<glyph unicode="&#194;" horiz-adv-x="743" d="M5 55h57l267 646h79l272 -646h58v-55h-210v55h81l-74 173h-334l-73 -173h89v-55h-212zM511 291l-111 269q-3 7 -7.5 18q-4.5 11 -9 22.5q-4.5 11.5 -8.5 22.5q-4 11 -6 19l-3 0q-3 -8 -7 -19q-4 -11 -8.5 -22.5q-4.5 -11.5 -8.5 -22.5q-4 -11 -7 -18l-109 -269zM198 771l170 101h4l171 -100l-27 -36l-146 78l-148 -78z" />
<glyph unicode="&#195;" horiz-adv-x="743" d="M5 55h57l267 646h79l272 -646h58v-55h-210v55h81l-74 173h-334l-73 -173h89v-55h-212zM511 291l-111 269q-3 7 -7.5 18q-4.5 11 -9 22.5q-4.5 11.5 -8.5 22.5q-4 11 -6 19l-3 0q-3 -8 -7 -19q-4 -11 -8.5 -22.5q-4.5 -11.5 -8.5 -22.5q-4 -11 -7 -18l-109 -269zM540 798q-21 -26 -45 -37.5q-24 -11.5 -51 -11.5q-21 0 -40 6.5q-19 6.5 -38 15q-19 8.5 -38.5 15q-19.5 6.5 -40.5 6.5q-33 0 -66 -27l-21 39q21 21 46 32q25 11 48 11q22 0 41.5 -6.5q19.5 -6.5 37.5 -15q18 -8.5 36.5 -15q18.5 -6.5 38.5 -6.5q17 0 36 6.5q19 6.5 38 26.5z" />
<glyph unicode="&#196;" horiz-adv-x="743" d="M5 55h57l267 646h79l272 -646h58v-55h-210v55h81l-74 173h-334l-73 -173h89v-55h-212zM511 291l-111 269q-3 7 -7.5 18q-4.5 11 -9 22.5q-4.5 11.5 -8.5 22.5q-4 11 -6 19l-3 0q-3 -8 -7 -19q-4 -11 -8.5 -22.5q-4.5 -11.5 -8.5 -22.5q-4 -11 -7 -18l-109 -269zM261 758q-20 0 -35 11.5q-15 11.5 -15 32.5q0 20 15 31q15 11 35 11q18 0 33 -11q15 -11 15 -31q0 -21 -15 -32.5q-15 -11.5 -33 -11.5zt0 0zM484 758q-20 0 -35 11.5q-15 11.5 -15 32.5q0 20 15 31q15 11 35 11q18 0 32.5 -11q14.5 -11 14.5 -31q0 -21 -14.5 -32.5t-32.5 -11.5z" />
<glyph unicode="&#197;" horiz-adv-x="743" d="M5 55h57l267 646h79l272 -646h58v-55h-210v55h81l-74 173h-334l-73 -173h89v-55h-212zM511 291l-111 269q-3 7 -7.5 18q-4.5 11 -9 22.5q-4.5 11.5 -8.5 22.5q-4 11 -6 19l-3 0q-3 -8 -7 -19q-4 -11 -8.5 -22.5q-4.5 -11.5 -8.5 -22.5q-4 -11 -7 -18l-109 -269zM370 727q-48 0 -82 23.5q-34 23.5 -34 71.5q0 47 34 68.5q34 21.5 82 21.5q49 0 83.5 -21.5q34.5 -21.5 34.5 -68.5q0 -47 -34.5 -71q-34.5 -24 -83.5 -24zt0 0zM371 763q29 0 49 14.5q20 14.5 20 44.5q0 29 -20 41.5q-20 12.5 -49 12.5q-29 0 -49 -12.5q-20 -12.5 -20 -41.5q0 -30 20 -44.5t49 -14.5z" />
<glyph unicode="&#198;" horiz-adv-x="987" d="M4 55h60l361 590h-82v55h564v-185h-55v130h-288v-263h223v-55h-223v-272h305v146h55v-201h-511v55h84v175h-257l-110 -175h78v-55h-204zM497 293v351h-7q-11 -17 -18 -30q-7 -13 -17 -31l-180 -290z" />
<glyph unicode="&#199;" horiz-adv-x="688" d="M370 -9q-73 4 -132.5 31.5q-59.5 27.5 -101.5 74.5q-42 47 -64.5 111q-22.5 64 -22.5 142q0 75 24 141q24 66 68.5 114.5q44.5 48.5 108.5 76.5q64 28 144 28q55 0 102.5 -13.5q47.5 -13.5 82.5 -38.5l0 42h55v-185h-55v82q-36 27 -83 40.5q-47 13.5 -101 13.5q-61 0 -112 -22.5q-51 -22.5 -87.5 -63q-36.5 -40.5 -56.5 -95.5q-20 -55 -20 -120q0 -67 21 -122.5q21 -55.5 59 -95q38 -39.5 91 -61.5q53 -22 117 -22q48 0 94.5 15q46.5 15 83.5 43l0 93h55v-200h-55v46q-35 -25 -81 -39.5q-46 -14.5 -99 -16.5l0 -37q55 -3 79 -23q24 -20 24 -55q0 -35 -31 -57q-31 -22 -86 -22q-38 0 -63.5 10.5q-25.5 10.5 -44.5 21.5l21 34q16 -11 36 -18.5q20 -7.5 38 -7.5q28 0 46 11q18 11 18 31q0 20 -15 32q-15 12 -51 12l-6 0z" />
<glyph unicode="&#200;" horiz-adv-x="628" d="M54 55h84v590h-84v55h493v-185h-55v130h-288v-263h226v-55h-226v-272h306v146h55v-201h-511zM405 775l-18 -38l-190 85l23 53z" />
<glyph unicode="&#201;" horiz-adv-x="628" d="M54 55h84v590h-84v55h493v-185h-55v130h-288v-263h226v-55h-226v-272h306v146h55v-201h-511zM262 775l185 100l24 -53l-190 -85z" />
<glyph unicode="&#202;" horiz-adv-x="628" d="M54 55h84v590h-84v55h493v-185h-55v130h-288v-263h226v-55h-226v-272h306v146h55v-201h-511zM161 771l170 101h4l171 -100l-27 -36l-146 78l-148 -78z" />
<glyph unicode="&#203;" horiz-adv-x="628" d="M54 55h84v590h-84v55h493v-185h-55v130h-288v-263h226v-55h-226v-272h306v146h55v-201h-511zM226 758q-20 0 -35 11.5q-15 11.5 -15 32.5q0 20 15 31q15 11 35 11q18 0 33 -11q15 -11 15 -31q0 -21 -15 -32.5q-15 -11.5 -33 -11.5zt0 0zM449 758q-20 0 -35 11.5q-15 11.5 -15 32.5q0 20 15 31q15 11 35 11q18 0 32.5 -11q14.5 -11 14.5 -31q0 -21 -14.5 -32.5t-32.5 -11.5z" />
<glyph unicode="&#204;" horiz-adv-x="362" d="M64 55h84v590h-84v55h235v-55h-85v-590h85v-55h-235zM225 775l-18 -38l-190 85l23 53z" />
<glyph unicode="&#205;" horiz-adv-x="362" d="M64 55h84v590h-84v55h235v-55h-85v-590h85v-55h-235zM136 775l185 100l24 -53l-190 -85z" />
<glyph unicode="&#206;" horiz-adv-x="362" d="M64 55h84v590h-84v55h235v-55h-85v-590h85v-55h-235zM9 771l170 101h4l171 -100l-27 -36l-146 78l-148 -78z" />
<glyph unicode="&#207;" horiz-adv-x="362" d="M64 55h84v590h-84v55h235v-55h-85v-590h85v-55h-235zM71 758q-20 0 -35 11.5q-15 11.5 -15 32.5q0 20 15 31q15 11 35 11q18 0 33 -11q15 -11 15 -31q0 -21 -15 -32.5q-15 -11.5 -33 -11.5zt0 0zM294 758q-20 0 -35 11.5q-15 11.5 -15 32.5q0 20 15 31q15 11 35 11q18 0 32.5 -11q14.5 -11 14.5 -31q0 -21 -14.5 -32.5t-32.5 -11.5z" />
<glyph unicode="&#208;" horiz-adv-x="763" d="M138 55v275h-84v55h84v260h-84v55h96q36 0 81.5 1.5q45.5 1.5 90.5 1.5q105 0 179.5 -28q74.5 -28 122 -75.5q47.5 -47.5 69.5 -109.5q22 -62 22 -130q0 -75 -25 -141q-25 -66 -75.5 -115q-50.5 -49 -125.5 -77.5q-75 -28.5 -175 -28.5q-38 0 -80.5 1q-42.5 1 -85.5 1h-94v55zM399 385v-55h-195v-275q40 -1 65 -1.5q25 -0.5 37 -0.5q85 0 148.5 22q63.5 22 106 62.5q42.5 40.5 63.5 97q21 56.5 21 125.5q0 63 -20 116q-20 53 -61.5 91q-41.5 38 -106 59.5q-64.5 21.5 -152.5 21.5q-26 0 -49 -1q-23 -1 -52 -2l0 -260z" />
<glyph unicode="&#209;" horiz-adv-x="828" d="M54 55h84v590h-84v55h137l453 -584v529h-82v55h233v-55h-88v-645h-53l-453 583v-528h86v-55h-233zM600 798q-21 -26 -45 -37.5q-24 -11.5 -51 -11.5q-21 0 -40 6.5q-19 6.5 -38 15q-19 8.5 -38.5 15q-19.5 6.5 -40.5 6.5q-33 0 -66 -27l-21 39q21 21 46 32q25 11 48 11q22 0 41.5 -6.5q19.5 -6.5 37.5 -15q18 -8.5 36.5 -15q18.5 -6.5 38.5 -6.5q17 0 36 6.5q19 6.5 38 26.5z" />
<glyph unicode="&#210;" horiz-adv-x="804" d="M402 -10q-75 0 -139.5 26.5q-64.5 26.5 -112 74.5q-47.5 48 -74.5 114q-27 66 -27 145q0 76 26.5 142q26.5 66 73.5 114.5q47 48.5 111.5 76q64.5 27.5 141.5 27.5q75 0 140 -26.5q65 -26.5 112 -74.5q47 -48 74 -114q27 -66 27 -145q0 -78 -27 -144q-27 -66 -74 -114q-47 -48 -112 -75q-65 -27 -140 -27zt0 0zM402 49q63 0 115 22.5q52 22.5 89.5 62.5q37.5 40 58 95.5q20.5 55.5 20.5 120.5q0 68 -21.5 123.5q-21.5 55.5 -60 95q-38.5 39.5 -90 61q-51.5 21.5 -111.5 21.5q-60 0 -112 -21.5q-52 -21.5 -90 -61q-38 -39.5 -59.5 -95q-21.5 -55.5 -21.5 -123.5q0 -65 22 -120q22 -55 60 -95q38 -40 89.5 -63q51.5 -23 111.5 -23zt0 0zM492 775l-18 -38l-190 85l23 53z" />
<glyph unicode="&#211;" horiz-adv-x="804" d="M402 -10q-75 0 -139.5 26.5q-64.5 26.5 -112 74.5q-47.5 48 -74.5 114q-27 66 -27 145q0 76 26.5 142q26.5 66 73.5 114.5q47 48.5 111.5 76q64.5 27.5 141.5 27.5q75 0 140 -26.5q65 -26.5 112 -74.5q47 -48 74 -114q27 -66 27 -145q0 -78 -27 -144q-27 -66 -74 -114q-47 -48 -112 -75q-65 -27 -140 -27zt0 0zM402 49q63 0 115 22.5q52 22.5 89.5 62.5q37.5 40 58 95.5q20.5 55.5 20.5 120.5q0 68 -21.5 123.5q-21.5 55.5 -60 95q-38.5 39.5 -90 61q-51.5 21.5 -111.5 21.5q-60 0 -112 -21.5q-52 -21.5 -90 -61q-38 -39.5 -59.5 -95q-21.5 -55.5 -21.5 -123.5q0 -65 22 -120q22 -55 60 -95q38 -40 89.5 -63q51.5 -23 111.5 -23zt0 0zM336 775l185 100l24 -53l-190 -85z" />
<glyph unicode="&#212;" horiz-adv-x="804" d="M402 -10q-75 0 -139.5 26.5q-64.5 26.5 -112 74.5q-47.5 48 -74.5 114q-27 66 -27 145q0 76 26.5 142q26.5 66 73.5 114.5q47 48.5 111.5 76q64.5 27.5 141.5 27.5q75 0 140 -26.5q65 -26.5 112 -74.5q47 -48 74 -114q27 -66 27 -145q0 -78 -27 -144q-27 -66 -74 -114q-47 -48 -112 -75q-65 -27 -140 -27zt0 0zM402 49q63 0 115 22.5q52 22.5 89.5 62.5q37.5 40 58 95.5q20.5 55.5 20.5 120.5q0 68 -21.5 123.5q-21.5 55.5 -60 95q-38.5 39.5 -90 61q-51.5 21.5 -111.5 21.5q-60 0 -112 -21.5q-52 -21.5 -90 -61q-38 -39.5 -59.5 -95q-21.5 -55.5 -21.5 -123.5q0 -65 22 -120q22 -55 60 -95q38 -40 89.5 -63q51.5 -23 111.5 -23zt0 0zM233 771l170 101h4l171 -100l-27 -36l-146 78l-148 -78z" />
<glyph unicode="&#213;" horiz-adv-x="804" d="M402 -10q-75 0 -139.5 26.5q-64.5 26.5 -112 74.5q-47.5 48 -74.5 114q-27 66 -27 145q0 76 26.5 142q26.5 66 73.5 114.5q47 48.5 111.5 76q64.5 27.5 141.5 27.5q75 0 140 -26.5q65 -26.5 112 -74.5q47 -48 74 -114q27 -66 27 -145q0 -78 -27 -144q-27 -66 -74 -114q-47 -48 -112 -75q-65 -27 -140 -27zt0 0zM402 49q63 0 115 22.5q52 22.5 89.5 62.5q37.5 40 58 95.5q20.5 55.5 20.5 120.5q0 68 -21.5 123.5q-21.5 55.5 -60 95q-38.5 39.5 -90 61q-51.5 21.5 -111.5 21.5q-60 0 -112 -21.5q-52 -21.5 -90 -61q-38 -39.5 -59.5 -95q-21.5 -55.5 -21.5 -123.5q0 -65 22 -120q22 -55 60 -95q38 -40 89.5 -63q51.5 -23 111.5 -23zt0 0zM572 798q-21 -26 -45 -37.5q-24 -11.5 -51 -11.5q-21 0 -40 6.5q-19 6.5 -38 15q-19 8.5 -38.5 15q-19.5 6.5 -40.5 6.5q-33 0 -66 -27l-21 39q21 21 46 32q25 11 48 11q22 0 41.5 -6.5q19.5 -6.5 37.5 -15q18 -8.5 36.5 -15q18.5 -6.5 38.5 -6.5q17 0 36 6.5q19 6.5 38 26.5z" />
<glyph unicode="&#214;" horiz-adv-x="804" d="M402 -10q-75 0 -139.5 26.5q-64.5 26.5 -112 74.5q-47.5 48 -74.5 114q-27 66 -27 145q0 76 26.5 142q26.5 66 73.5 114.5q47 48.5 111.5 76q64.5 27.5 141.5 27.5q75 0 140 -26.5q65 -26.5 112 -74.5q47 -48 74 -114q27 -66 27 -145q0 -78 -27 -144q-27 -66 -74 -114q-47 -48 -112 -75q-65 -27 -140 -27zt0 0zM402 49q63 0 115 22.5q52 22.5 89.5 62.5q37.5 40 58 95.5q20.5 55.5 20.5 120.5q0 68 -21.5 123.5q-21.5 55.5 -60 95q-38.5 39.5 -90 61q-51.5 21.5 -111.5 21.5q-60 0 -112 -21.5q-52 -21.5 -90 -61q-38 -39.5 -59.5 -95q-21.5 -55.5 -21.5 -123.5q0 -65 22 -120q22 -55 60 -95q38 -40 89.5 -63q51.5 -23 111.5 -23zt0 0zM293 758q-20 0 -35 11.5q-15 11.5 -15 32.5q0 20 15 31q15 11 35 11q18 0 33 -11q15 -11 15 -31q0 -21 -15 -32.5q-15 -11.5 -33 -11.5zt0 0zM516 758q-20 0 -35 11.5q-15 11.5 -15 32.5q0 20 15 31q15 11 35 11q18 0 32.5 -11q14.5 -11 14.5 -31q0 -21 -14.5 -32.5t-32.5 -11.5z" />
<glyph unicode="&#215;" horiz-adv-x="590" d="M116 221l140 139l-139 139l40 39l138 -139l139 139l38 -39l-138 -139l140 -139l-39 -40l-140 140l-140 -140z" />
<glyph unicode="&#216;" horiz-adv-x="811" d="M127 122q-35 45 -54.5 103q-19.5 58 -19.5 125q0 76 26.5 142q26.5 66 73.5 114.5q47 48.5 111.5 76q64.5 27.5 141.5 27.5q69 0 129 -22.5q60 -22.5 106 -64.5l47 45l36 -36l-46 -45q38 -47 59.5 -106.5q21.5 -59.5 21.5 -130.5q0 -78 -27 -144q-27 -66 -74.5 -114q-47.5 -48 -112 -75q-64.5 -27 -139.5 -27q-72 0 -134 24.5q-62 24.5 -109 68.5l-46 -45l-38 38zM212 131q38 -37 87.5 -57.5q49.5 -20.5 106.5 -20.5q63 0 115 23q52 23 89.5 62.5q37.5 39.5 58 94q20.5 54.5 20.5 117.5q0 55 -16 102.5q-16 47.5 -45 85.5zM593 576q-37 34 -84.5 52.5q-47.5 18.5 -102.5 18.5q-60 0 -112 -22q-52 -22 -90 -62q-38 -40 -59.5 -94.5q-21.5 -54.5 -21.5 -118.5q0 -51 14.5 -96.5q14.5 -45.5 40.5 -82.5z" />
<glyph unicode="&#217;" horiz-adv-x="757" d="M589 645h-94v55h244v-55h-83v-352q0 -80 -22 -137q-22 -57 -59 -93.5q-37 -36.5 -85.5 -53.5q-48.5 -17 -101.5 -17q-62 0 -114 19.5q-52 19.5 -90.5 58q-38.5 38.5 -60 96q-21.5 57.5 -21.5 134.5v345h-83v55h242v-55h-93v-337q0 -123 59 -190q59 -67 161 -67q90 0 145.5 62q55.5 62 55.5 190zM456 775l-18 -38l-190 85l23 53z" />
<glyph unicode="&#218;" horiz-adv-x="757" d="M589 645h-94v55h244v-55h-83v-352q0 -80 -22 -137q-22 -57 -59 -93.5q-37 -36.5 -85.5 -53.5q-48.5 -17 -101.5 -17q-62 0 -114 19.5q-52 19.5 -90.5 58q-38.5 38.5 -60 96q-21.5 57.5 -21.5 134.5v345h-83v55h242v-55h-93v-337q0 -123 59 -190q59 -67 161 -67q90 0 145.5 62q55.5 62 55.5 190zM310 775l185 100l24 -53l-190 -85z" />
<glyph unicode="&#219;" horiz-adv-x="757" d="M589 645h-94v55h244v-55h-83v-352q0 -80 -22 -137q-22 -57 -59 -93.5q-37 -36.5 -85.5 -53.5q-48.5 -17 -101.5 -17q-62 0 -114 19.5q-52 19.5 -90.5 58q-38.5 38.5 -60 96q-21.5 57.5 -21.5 134.5v345h-83v55h242v-55h-93v-337q0 -123 59 -190q59 -67 161 -67q90 0 145.5 62q55.5 62 55.5 190zM205 771l170 101h4l171 -100l-27 -36l-146 78l-148 -78z" />
<glyph unicode="&#220;" horiz-adv-x="757" d="M589 645h-94v55h244v-55h-83v-352q0 -80 -22 -137q-22 -57 -59 -93.5q-37 -36.5 -85.5 -53.5q-48.5 -17 -101.5 -17q-62 0 -114 19.5q-52 19.5 -90.5 58q-38.5 38.5 -60 96q-21.5 57.5 -21.5 134.5v345h-83v55h242v-55h-93v-337q0 -123 59 -190q59 -67 161 -67q90 0 145.5 62q55.5 62 55.5 190zM266 758q-20 0 -35 11.5q-15 11.5 -15 32.5q0 20 15 31q15 11 35 11q18 0 33 -11q15 -11 15 -31q0 -21 -15 -32.5q-15 -11.5 -33 -11.5zt0 0zM489 758q-20 0 -35 11.5q-15 11.5 -15 32.5q0 20 15 31q15 11 35 11q18 0 32.5 -11q14.5 -11 14.5 -31q0 -21 -14.5 -32.5t-32.5 -11.5z" />
<glyph unicode="&#221;" horiz-adv-x="621" d="M182 55h94v249l-215 341h-56v55h206v-55h-77l178 -284l180 284h-82v55h207v-55h-58l-216 -341v-249h91v-55h-252zM246 775l185 100l24 -53l-190 -85z" />
<glyph unicode="&#222;" horiz-adv-x="610" d="M54 55h84v590h-84v55h235v-55h-85v-71q11 0 26.5 0.5q15.5 0.5 31 0.5q15.5 0 29 0.5q13.5 0.5 22.5 0.5q74 0 122.5 -17.5q48.5 -17.5 77.5 -46q29 -28.5 41 -65q12 -36.5 12 -74.5q0 -40 -14.5 -77q-14.5 -37 -45.5 -66q-31 -29 -78 -46.5q-47 -17.5 -112 -17.5q-23 0 -53 1.5q-30 1.5 -59 3.5l0 -116h112v-55h-262zM204 226q28 -2 54.5 -3.5q26.5 -1.5 55.5 -1.5q44 0 78 11.5q34 11.5 57 32q23 20.5 35 48.5q12 28 12 61q0 31 -10 57.5q-10 26.5 -31.5 46.5q-21.5 20 -55 31.5q-33.5 11.5 -79.5 11.5q-23 0 -57 -0.5q-34 -0.5 -59 -1.5z" />
<glyph unicode="&#223;" horiz-adv-x="524" d="M19 449h59v63q0 103 46.5 150.5q46.5 47.5 132.5 47.5q31 0 58 -9q27 -9 46.5 -25.5q19.5 -16.5 30.5 -39q11 -22.5 11 -48.5q0 -36 -16 -59q-16 -23 -34.5 -41q-18.5 -18 -34.5 -36.5q-16 -18.5 -16 -45.5q0 -27 14.5 -46q14.5 -19 35.5 -34.5q21 -15.5 46.5 -30q25.5 -14.5 46.5 -34q21 -19.5 35.5 -46q14.5 -26.5 14.5 -65.5q0 -34 -11.5 -63.5q-11.5 -29.5 -32 -51q-20.5 -21.5 -48 -33.5q-27.5 -12 -59.5 -12q-52 0 -88 21.5q-36 21.5 -54 47.5l23 43q15 -20 41 -38q26 -18 63 -18q19 0 37.5 7.5q18.5 7.5 32 21q13.5 13.5 22 33q8.5 19.5 8.5 43.5q0 29 -14.5 50.5q-14.5 21.5 -35.5 38.5q-21 17 -46.5 32q-25.5 15 -46.5 32q-21 17 -35.5 38.5q-14.5 21.5 -14.5 51.5q0 35 15.5 57.5q15.5 22.5 34.5 41.5q19 19 34.5 38q15.5 19 15.5 47q0 16 -7 30q-7 14 -19 24.5q-12 10.5 -28 16.5q-16 6 -33 6q-56 0 -82 -35.5q-26 -35.5 -26 -113.5v-506h-122v48h59v351l-59 0z" />
<glyph unicode="&#224;" horiz-adv-x="463" d="M331 65q-19 -27 -56 -49q-37 -22 -94 -22q-71 0 -110.5 37q-39.5 37 -39.5 97q0 34 13 60q13 26 36.5 43.5q23.5 17.5 55.5 26.5q32 9 70 9q29 0 64 -6.5q35 -6.5 61 -21.5q1 12 1 23.5q0 11.5 0 27.5q0 27 -5.5 49.5q-5.5 22.5 -18.5 38.5q-13 16 -34.5 25q-21.5 9 -53.5 9q-32 0 -55 -8.5q-23 -8.5 -35 -16.5q4 -3 7.5 -11q3.5 -8 3.5 -17q0 -16 -11 -26q-11 -10 -29 -10q-20 0 -30 12.5q-10 12.5 -10 28.5q0 21 13.5 39q13.5 18 36 30.5q22.5 12.5 51.5 19.5q29 7 61 7q91 0 129 -44.5q38 -44.5 38 -127.5q0 -26 -0.5 -47.5q-0.5 -21.5 -0.5 -43q0 -21.5 -0.5 -45q-0.5 -23.5 -0.5 -53.5q0 -8 0.5 -17.5q0.5 -9.5 3 -17.5q2.5 -8 8 -13.5q5.5 -5.5 15.5 -5.5q5 0 10.5 1q5.5 1 10.5 3q5 2 9 5l14 -39q-8 -8 -22.5 -14.5q-14.5 -6.5 -36.5 -6.5q-32 0 -50.5 19.5q-18.5 19.5 -18.5 51.5zt0 0zM98 131q0 -37 26 -61.5q26 -24.5 74 -24.5q26 0 46.5 7q20.5 7 37 17.5q16.5 10.5 28 23.5q11.5 13 19.5 25l0 72q-47 29 -112 29q-53 0 -86 -21q-33 -21 -33 -67zt0 0zM131 680l49 37l108 -152l-39 -27z" />
<glyph unicode="&#225;" horiz-adv-x="463" d="M331 65q-19 -27 -56 -49q-37 -22 -94 -22q-71 0 -110.5 37q-39.5 37 -39.5 97q0 34 13 60q13 26 36.5 43.5q23.5 17.5 55.5 26.5q32 9 70 9q29 0 64 -6.5q35 -6.5 61 -21.5q1 12 1 23.5q0 11.5 0 27.5q0 27 -5.5 49.5q-5.5 22.5 -18.5 38.5q-13 16 -34.5 25q-21.5 9 -53.5 9q-32 0 -55 -8.5q-23 -8.5 -35 -16.5q4 -3 7.5 -11q3.5 -8 3.5 -17q0 -16 -11 -26q-11 -10 -29 -10q-20 0 -30 12.5q-10 12.5 -10 28.5q0 21 13.5 39q13.5 18 36 30.5q22.5 12.5 51.5 19.5q29 7 61 7q91 0 129 -44.5q38 -44.5 38 -127.5q0 -26 -0.5 -47.5q-0.5 -21.5 -0.5 -43q0 -21.5 -0.5 -45q-0.5 -23.5 -0.5 -53.5q0 -8 0.5 -17.5q0.5 -9.5 3 -17.5q2.5 -8 8 -13.5q5.5 -5.5 15.5 -5.5q5 0 10.5 1q5.5 1 10.5 3q5 2 9 5l14 -39q-8 -8 -22.5 -14.5q-14.5 -6.5 -36.5 -6.5q-32 0 -50.5 19.5q-18.5 19.5 -18.5 51.5zt0 0zM98 131q0 -37 26 -61.5q26 -24.5 74 -24.5q26 0 46.5 7q20.5 7 37 17.5q16.5 10.5 28 23.5q11.5 13 19.5 25l0 72q-47 29 -112 29q-53 0 -86 -21q-33 -21 -33 -67zt0 0zM169 565l107 153l48 -37l-117 -143z" />
<glyph unicode="&#226;" horiz-adv-x="463" d="M331 65q-19 -27 -56 -49q-37 -22 -94 -22q-71 0 -110.5 37q-39.5 37 -39.5 97q0 34 13 60q13 26 36.5 43.5q23.5 17.5 55.5 26.5q32 9 70 9q29 0 64 -6.5q35 -6.5 61 -21.5q1 12 1 23.5q0 11.5 0 27.5q0 27 -5.5 49.5q-5.5 22.5 -18.5 38.5q-13 16 -34.5 25q-21.5 9 -53.5 9q-32 0 -55 -8.5q-23 -8.5 -35 -16.5q4 -3 7.5 -11q3.5 -8 3.5 -17q0 -16 -11 -26q-11 -10 -29 -10q-20 0 -30 12.5q-10 12.5 -10 28.5q0 21 13.5 39q13.5 18 36 30.5q22.5 12.5 51.5 19.5q29 7 61 7q91 0 129 -44.5q38 -44.5 38 -127.5q0 -26 -0.5 -47.5q-0.5 -21.5 -0.5 -43q0 -21.5 -0.5 -45q-0.5 -23.5 -0.5 -53.5q0 -8 0.5 -17.5q0.5 -9.5 3 -17.5q2.5 -8 8 -13.5q5.5 -5.5 15.5 -5.5q5 0 10.5 1q5.5 1 10.5 3q5 2 9 5l14 -39q-8 -8 -22.5 -14.5q-14.5 -6.5 -36.5 -6.5q-32 0 -50.5 19.5q-18.5 19.5 -18.5 51.5zt0 0zM98 131q0 -37 26 -61.5q26 -24.5 74 -24.5q26 0 46.5 7q20.5 7 37 17.5q16.5 10.5 28 23.5q11.5 13 19.5 25l0 72q-47 29 -112 29q-53 0 -86 -21q-33 -21 -33 -67zt0 0zM89 575l135 132h4l132 -132l-30 -38l-105 100l-105 -99z" />
<glyph unicode="&#227;" horiz-adv-x="463" d="M331 65q-19 -27 -56 -49q-37 -22 -94 -22q-71 0 -110.5 37q-39.5 37 -39.5 97q0 34 13 60q13 26 36.5 43.5q23.5 17.5 55.5 26.5q32 9 70 9q29 0 64 -6.5q35 -6.5 61 -21.5q1 12 1 23.5q0 11.5 0 27.5q0 27 -5.5 49.5q-5.5 22.5 -18.5 38.5q-13 16 -34.5 25q-21.5 9 -53.5 9q-32 0 -55 -8.5q-23 -8.5 -35 -16.5q4 -3 7.5 -11q3.5 -8 3.5 -17q0 -16 -11 -26q-11 -10 -29 -10q-20 0 -30 12.5q-10 12.5 -10 28.5q0 21 13.5 39q13.5 18 36 30.5q22.5 12.5 51.5 19.5q29 7 61 7q91 0 129 -44.5q38 -44.5 38 -127.5q0 -26 -0.5 -47.5q-0.5 -21.5 -0.5 -43q0 -21.5 -0.5 -45q-0.5 -23.5 -0.5 -53.5q0 -8 0.5 -17.5q0.5 -9.5 3 -17.5q2.5 -8 8 -13.5q5.5 -5.5 15.5 -5.5q5 0 10.5 1q5.5 1 10.5 3q5 2 9 5l14 -39q-8 -8 -22.5 -14.5q-14.5 -6.5 -36.5 -6.5q-32 0 -50.5 19.5q-18.5 19.5 -18.5 51.5zt0 0zM98 131q0 -37 26 -61.5q26 -24.5 74 -24.5q26 0 46.5 7q20.5 7 37 17.5q16.5 10.5 28 23.5q11.5 13 19.5 25l0 72q-47 29 -112 29q-53 0 -86 -21q-33 -21 -33 -67zt0 0zM379 611q-55 -56 -101 -56q-17 0 -30 7q-13 7 -25.5 15.5q-12.5 8.5 -26 15.5q-13.5 7 -30.5 7q-28 0 -72 -33l-26 29q29 30 55 43q26 13 49 13q18 0 31.5 -7q13.5 -7 26.5 -16q13 -9 26 -16q13 -7 28 -7q18 0 34 8.5q16 8.5 39 28.5z" />
<glyph unicode="&#228;" horiz-adv-x="463" d="M331 65q-19 -27 -56 -49q-37 -22 -94 -22q-71 0 -110.5 37q-39.5 37 -39.5 97q0 34 13 60q13 26 36.5 43.5q23.5 17.5 55.5 26.5q32 9 70 9q29 0 64 -6.5q35 -6.5 61 -21.5q1 12 1 23.5q0 11.5 0 27.5q0 27 -5.5 49.5q-5.5 22.5 -18.5 38.5q-13 16 -34.5 25q-21.5 9 -53.5 9q-32 0 -55 -8.5q-23 -8.5 -35 -16.5q4 -3 7.5 -11q3.5 -8 3.5 -17q0 -16 -11 -26q-11 -10 -29 -10q-20 0 -30 12.5q-10 12.5 -10 28.5q0 21 13.5 39q13.5 18 36 30.5q22.5 12.5 51.5 19.5q29 7 61 7q91 0 129 -44.5q38 -44.5 38 -127.5q0 -26 -0.5 -47.5q-0.5 -21.5 -0.5 -43q0 -21.5 -0.5 -45q-0.5 -23.5 -0.5 -53.5q0 -8 0.5 -17.5q0.5 -9.5 3 -17.5q2.5 -8 8 -13.5q5.5 -5.5 15.5 -5.5q5 0 10.5 1q5.5 1 10.5 3q5 2 9 5l14 -39q-8 -8 -22.5 -14.5q-14.5 -6.5 -36.5 -6.5q-32 0 -50.5 19.5q-18.5 19.5 -18.5 51.5zt0 0zM98 131q0 -37 26 -61.5q26 -24.5 74 -24.5q26 0 46.5 7q20.5 7 37 17.5q16.5 10.5 28 23.5q11.5 13 19.5 25l0 72q-47 29 -112 29q-53 0 -86 -21q-33 -21 -33 -67zt0 0zM125 599q-18 0 -32 12q-14 12 -14 34q0 20 14 32.5q14 12.5 32 12.5q17 0 30.5 -12.5q13.5 -12.5 13.5 -32.5q0 -22 -13.5 -34q-13.5 -12 -30.5 -12zt0 0zM325 599q-18 0 -32 12q-14 12 -14 34q0 20 14 32.5q14 12.5 32 12.5q17 0 30.5 -12.5q13.5 -12.5 13.5 -32.5q0 -22 -13.5 -34t-30.5 -12z" />
<glyph unicode="&#229;" horiz-adv-x="463" d="M331 65q-19 -27 -56 -49q-37 -22 -94 -22q-71 0 -110.5 37q-39.5 37 -39.5 97q0 34 13 60q13 26 36.5 43.5q23.5 17.5 55.5 26.5q32 9 70 9q29 0 64 -6.5q35 -6.5 61 -21.5q1 12 1 23.5q0 11.5 0 27.5q0 27 -5.5 49.5q-5.5 22.5 -18.5 38.5q-13 16 -34.5 25q-21.5 9 -53.5 9q-32 0 -55 -8.5q-23 -8.5 -35 -16.5q4 -3 7.5 -11q3.5 -8 3.5 -17q0 -16 -11 -26q-11 -10 -29 -10q-20 0 -30 12.5q-10 12.5 -10 28.5q0 21 13.5 39q13.5 18 36 30.5q22.5 12.5 51.5 19.5q29 7 61 7q91 0 129 -44.5q38 -44.5 38 -127.5q0 -26 -0.5 -47.5q-0.5 -21.5 -0.5 -43q0 -21.5 -0.5 -45q-0.5 -23.5 -0.5 -53.5q0 -8 0.5 -17.5q0.5 -9.5 3 -17.5q2.5 -8 8 -13.5q5.5 -5.5 15.5 -5.5q5 0 10.5 1q5.5 1 10.5 3q5 2 9 5l14 -39q-8 -8 -22.5 -14.5q-14.5 -6.5 -36.5 -6.5q-32 0 -50.5 19.5q-18.5 19.5 -18.5 51.5zt0 0zM98 131q0 -37 26 -61.5q26 -24.5 74 -24.5q26 0 46.5 7q20.5 7 37 17.5q16.5 10.5 28 23.5q11.5 13 19.5 25l0 72q-47 29 -112 29q-53 0 -86 -21q-33 -21 -33 -67zt0 0zM223 508q-23 0 -43 8.5q-20 8.5 -34.5 22.5q-14.5 14 -23 33.5q-8.5 19.5 -8.5 41.5q0 22 8.5 41q8.5 19 23 33.5q14.5 14.5 34.5 23q20 8.5 43 8.5q23 0 43 -8.5q20 -8.5 35 -23q15 -14.5 23.5 -33.5q8.5 -19 8.5 -41q0 -22 -8.5 -41.5q-8.5 -19.5 -23.5 -33.5q-15 -14 -35 -22.5q-20 -8.5 -43 -8.5zt0 0zM223 544q29 0 48.5 20.5q19.5 20.5 19.5 49.5q0 29 -19.5 49.5q-19.5 20.5 -48.5 20.5q-29 0 -48 -20.5q-19 -20.5 -19 -49.5q0 -29 19 -49.5t48 -20.5z" />
<glyph unicode="&#230;" horiz-adv-x="774" d="M710 53q-32 -32 -77.5 -47.5q-45.5 -15.5 -90.5 -15.5q-60 0 -106.5 20.5q-46.5 20.5 -78.5 57.5q-39 -39 -79.5 -56.5q-40.5 -17.5 -88.5 -17.5q-77 0 -117.5 37q-40.5 37 -40.5 97q0 34 13 60q13 26 37 43.5q24 17.5 56.5 26.5q32.5 9 71.5 9q13 0 30 -1q17 -1 33.5 -3.5q16.5 -2.5 32 -6.5q15.5 -4 26.5 -10q2 34 -0.5 64.5q-2.5 30.5 -15 53q-12.5 22.5 -36.5 35.5q-24 13 -64 13q-30 0 -52.5 -9q-22.5 -9 -27.5 -18q3 -3 5.5 -9q2.5 -6 2.5 -11q0 -17 -10 -28.5q-10 -11.5 -27 -11.5q-43 0 -43 41q0 22 13 39q13 17 35 29q22 12 50.5 18.5q28.5 6.5 58.5 7.5q57 2 91.5 -17q34.5 -19 51.5 -53q29 32 71 51q42 19 98 19q43 0 81 -14.5q38 -14.5 65.5 -41.5q27.5 -27 43.5 -65q16 -38 16 -84q0 -14 -1 -25.5q-1 -11.5 -3 -20.5l-345 0v-79q23 -38 62 -61q39 -23 96 -23q45 0 79 14q34 14 57 37zM674 256q-2 72 -41 110.5q-39 38.5 -105 38.5q-48 0 -86 -21.5q-38 -21.5 -56 -60.5q3 -20 3 -45v-22zM198 45q26 0 46.5 7q20.5 7 36 18q15.5 11 27.5 23.5q12 12.5 21 24.5l0 76q-50 25 -112 25q-53 0 -86 -21q-33 -21 -33 -67q0 -37 26 -61.5t74 -24.5z" />
<glyph unicode="&#231;" horiz-adv-x="477" d="M245 -8q-47 5 -85.5 23.5q-38.5 18.5 -66 48.5q-27.5 30 -42.5 71q-15 41 -15 90q0 49 17 92q17 43 47 74.5q30 31.5 71.5 50q41.5 18.5 90.5 18.5q39 0 72 -8q33 -8 57.5 -22q24.5 -14 38 -34q13.5 -20 13.5 -44q0 -20 -13.5 -33.5q-13.5 -13.5 -33.5 -13.5q-19 0 -32.5 13.5q-13.5 13.5 -13.5 32.5q0 12 8 22q-11 13 -33 22.5q-22 9.5 -50 9.5q-38 0 -69.5 -13.5q-31.5 -13.5 -54 -37.5q-22.5 -24 -35.5 -57q-13 -33 -13 -72q0 -41 13.5 -73.5q13.5 -32.5 37.5 -55q24 -22.5 56.5 -35q32.5 -12.5 69.5 -12.5q43 0 78 17q35 17 58 44l30 -45q-28 -36 -72.5 -54.5q-44.5 -18.5 -93.5 -20.5l0 -37q51 -3 75.5 -23q24.5 -20 24.5 -55q0 -35 -31.5 -57q-31.5 -22 -88.5 -22q-34 0 -56.5 9.5q-22.5 9.5 -41.5 21.5v31q36 -10 55 -16q19 -6 36 -6q28 0 46 11q18 11 18 31q0 20 -15 32q-15 12 -51 12l-6 0z" />
<glyph unicode="&#232;" horiz-adv-x="508" d="M103 209q1 -39 15 -69q14 -30 37.5 -51q23.5 -21 55 -32q31.5 -11 69.5 -11q45 0 79.5 14q34.5 14 57.5 37l26 -44q-32 -32 -77 -47.5q-45 -15.5 -90 -15.5q-54 0 -98.5 16.5q-44.5 16.5 -76 47.5q-31.5 31 -48.5 74.5q-17 43.5 -17 96.5q0 49 15 92q15 43 44 74.5q29 31.5 71.5 50q42.5 18.5 98.5 18.5q43 0 81 -14.5q38 -14.5 66 -41.5q28 -27 44 -65q16 -38 16 -84q0 -14 -1 -25.5q-1 -11.5 -3 -20.5zM407 256q-2 66 -38 107.5q-36 41.5 -108 41.5q-38 0 -67 -12q-29 -12 -49.5 -32.5q-20.5 -20.5 -31 -47.5q-10.5 -27 -10.5 -57zM158 680l49 37l108 -152l-39 -27z" />
<glyph unicode="&#233;" horiz-adv-x="508" d="M103 209q1 -39 15 -69q14 -30 37.5 -51q23.5 -21 55 -32q31.5 -11 69.5 -11q45 0 79.5 14q34.5 14 57.5 37l26 -44q-32 -32 -77 -47.5q-45 -15.5 -90 -15.5q-54 0 -98.5 16.5q-44.5 16.5 -76 47.5q-31.5 31 -48.5 74.5q-17 43.5 -17 96.5q0 49 15 92q15 43 44 74.5q29 31.5 71.5 50q42.5 18.5 98.5 18.5q43 0 81 -14.5q38 -14.5 66 -41.5q28 -27 44 -65q16 -38 16 -84q0 -14 -1 -25.5q-1 -11.5 -3 -20.5zM407 256q-2 66 -38 107.5q-36 41.5 -108 41.5q-38 0 -67 -12q-29 -12 -49.5 -32.5q-20.5 -20.5 -31 -47.5q-10.5 -27 -10.5 -57zM221 565l107 153l48 -37l-117 -143z" />
<glyph unicode="&#234;" horiz-adv-x="508" d="M103 209q1 -39 15 -69q14 -30 37.5 -51q23.5 -21 55 -32q31.5 -11 69.5 -11q45 0 79.5 14q34.5 14 57.5 37l26 -44q-32 -32 -77 -47.5q-45 -15.5 -90 -15.5q-54 0 -98.5 16.5q-44.5 16.5 -76 47.5q-31.5 31 -48.5 74.5q-17 43.5 -17 96.5q0 49 15 92q15 43 44 74.5q29 31.5 71.5 50q42.5 18.5 98.5 18.5q43 0 81 -14.5q38 -14.5 66 -41.5q28 -27 44 -65q16 -38 16 -84q0 -14 -1 -25.5q-1 -11.5 -3 -20.5zM407 256q-2 66 -38 107.5q-36 41.5 -108 41.5q-38 0 -67 -12q-29 -12 -49.5 -32.5q-20.5 -20.5 -31 -47.5q-10.5 -27 -10.5 -57zM125 575l135 132h4l132 -132l-30 -38l-105 100l-105 -99z" />
<glyph unicode="&#235;" horiz-adv-x="508" d="M103 209q1 -39 15 -69q14 -30 37.5 -51q23.5 -21 55 -32q31.5 -11 69.5 -11q45 0 79.5 14q34.5 14 57.5 37l26 -44q-32 -32 -77 -47.5q-45 -15.5 -90 -15.5q-54 0 -98.5 16.5q-44.5 16.5 -76 47.5q-31.5 31 -48.5 74.5q-17 43.5 -17 96.5q0 49 15 92q15 43 44 74.5q29 31.5 71.5 50q42.5 18.5 98.5 18.5q43 0 81 -14.5q38 -14.5 66 -41.5q28 -27 44 -65q16 -38 16 -84q0 -14 -1 -25.5q-1 -11.5 -3 -20.5zM407 256q-2 66 -38 107.5q-36 41.5 -108 41.5q-38 0 -67 -12q-29 -12 -49.5 -32.5q-20.5 -20.5 -31 -47.5q-10.5 -27 -10.5 -57zM158 599q-18 0 -32 12q-14 12 -14 34q0 20 14 32.5q14 12.5 32 12.5q17 0 30.5 -12.5q13.5 -12.5 13.5 -32.5q0 -22 -13.5 -34q-13.5 -12 -30.5 -12zt0 0zM358 599q-18 0 -32 12q-14 12 -14 34q0 20 14 32.5q14 12.5 32 12.5q17 0 30.5 -12.5q13.5 -12.5 13.5 -32.5q0 -22 -13.5 -34t-30.5 -12z" />
<glyph unicode="&#236;" horiz-adv-x="262" d="M41 48h60v355h-60v47h122v-402h63v-48h-185zM12 680l49 37l108 -152l-39 -27z" />
<glyph unicode="&#237;" horiz-adv-x="262" d="M41 48h60v355h-60v47h122v-402h63v-48h-185zM85 565l107 153l48 -37l-117 -143z" />
<glyph unicode="&#238;" horiz-adv-x="262" d="M41 48h60v355h-60v47h122v-402h63v-48h-185zM-3 575l135 132h4l132 -132l-30 -38l-105 100l-105 -99z" />
<glyph unicode="&#239;" horiz-adv-x="262" d="M41 48h60v355h-60v47h122v-402h63v-48h-185zM33 599q-18 0 -32 12q-14 12 -14 34q0 20 14 32.5q14 12.5 32 12.5q17 0 30.5 -12.5q13.5 -12.5 13.5 -32.5q0 -22 -13.5 -34q-13.5 -12 -30.5 -12zt0 0zM233 599q-18 0 -32 12q-14 12 -14 34q0 20 14 32.5q14 12.5 32 12.5q17 0 30.5 -12.5q13.5 -12.5 13.5 -32.5q0 -22 -13.5 -34t-30.5 -12z" />
<glyph unicode="&#240;" horiz-adv-x="566" d="M283 624q-53 46 -109 72l70 14q51 -25 95 -62l104 49l19 -55l-79 -37q66 -72 101.5 -163q35.5 -91 35.5 -183q0 -63 -17 -112.5q-17 -49.5 -48.5 -84.5q-31.5 -35 -75 -53.5q-43.5 -18.5 -96.5 -18.5q-56 0 -100.5 17.5q-44.5 17.5 -75 49q-30.5 31.5 -46.5 74.5q-16 43 -16 94q0 51 17 94q17 43 47.5 74.5q30.5 31.5 73 49q42.5 17.5 92.5 17.5q57 0 99 -25.5q42 -25.5 64 -70.5q-12 63 -41 117.5q-29 54.5 -71 98.5l-126 -58l-18 55zM283 46q39 0 71 15.5q32 15.5 54.5 43.5q22.5 28 34.5 68q12 40 11 90q-5 25 -18.5 50.5q-13.5 25.5 -35.5 46q-22 20.5 -51.5 33q-29.5 12.5 -65.5 12.5q-37 0 -68 -13.5q-31 -13.5 -54 -37.5q-23 -24 -36 -57q-13 -33 -13 -72q0 -39 12.5 -71.5q12.5 -32.5 35.5 -56.5q23 -24 54 -37.5t69 -13.5z" />
<glyph unicode="&#241;" horiz-adv-x="579" d="M41 48h60v355h-60v47h122v-60q25 28 67.5 48q42.5 20 88.5 20q91 0 139.5 -47q48.5 -47 48.5 -153v-210h56v-48h-175v48h57v202q0 78 -35 115.5q-35 37.5 -106 37.5q-44 0 -81.5 -19.5q-37.5 -19.5 -59.5 -45.5l0 -290h56v-48h-178zM452 611q-55 -56 -101 -56q-17 0 -30 7q-13 7 -25.5 15.5q-12.5 8.5 -26 15.5q-13.5 7 -30.5 7q-28 0 -72 -33l-26 29q29 30 55 43q26 13 49 13q18 0 31.5 -7q13.5 -7 26.5 -16q13 -9 26 -16q13 -7 28 -7q18 0 34 8.5q16 8.5 39 28.5z" />
<glyph unicode="&#242;" horiz-adv-x="547" d="M274 -10q-56 0 -100.5 17.5q-44.5 17.5 -75 49q-30.5 31.5 -46.5 74.5q-16 43 -16 94q0 51 17 94q17 43 48.5 74.5q31.5 31.5 75.5 49q44 17.5 97 17.5q55 0 98.5 -17.5q43.5 -17.5 74.5 -49q31 -31.5 47.5 -74.5q16.5 -43 16.5 -94q0 -51 -17 -94q-17 -43 -48.5 -74.5q-31.5 -31.5 -75 -49q-43.5 -17.5 -96.5 -17.5zt0 0zM274 46q37 0 68.5 12q31.5 12 54.5 35.5q23 23.5 35.5 56.5q12.5 33 12.5 75q0 42 -12.5 75q-12.5 33 -35.5 56.5q-23 23.5 -54.5 36q-31.5 12.5 -68.5 12.5q-37 0 -68 -12.5q-31 -12.5 -54 -36q-23 -23.5 -36 -56.5q-13 -33 -13 -75q0 -41 12.5 -74.5q12.5 -33.5 35.5 -56.5q23 -23 54 -35.5q31 -12.5 69 -12.5zt0 0zM167 680l49 37l108 -152l-39 -27z" />
<glyph unicode="&#243;" horiz-adv-x="547" d="M274 -10q-56 0 -100.5 17.5q-44.5 17.5 -75 49q-30.5 31.5 -46.5 74.5q-16 43 -16 94q0 51 17 94q17 43 48.5 74.5q31.5 31.5 75.5 49q44 17.5 97 17.5q55 0 98.5 -17.5q43.5 -17.5 74.5 -49q31 -31.5 47.5 -74.5q16.5 -43 16.5 -94q0 -51 -17 -94q-17 -43 -48.5 -74.5q-31.5 -31.5 -75 -49q-43.5 -17.5 -96.5 -17.5zt0 0zM274 46q37 0 68.5 12q31.5 12 54.5 35.5q23 23.5 35.5 56.5q12.5 33 12.5 75q0 42 -12.5 75q-12.5 33 -35.5 56.5q-23 23.5 -54.5 36q-31.5 12.5 -68.5 12.5q-37 0 -68 -12.5q-31 -12.5 -54 -36q-23 -23.5 -36 -56.5q-13 -33 -13 -75q0 -41 12.5 -74.5q12.5 -33.5 35.5 -56.5q23 -23 54 -35.5q31 -12.5 69 -12.5zt0 0zM224 565l107 153l48 -37l-117 -143z" />
<glyph unicode="&#244;" horiz-adv-x="547" d="M274 -10q-56 0 -100.5 17.5q-44.5 17.5 -75 49q-30.5 31.5 -46.5 74.5q-16 43 -16 94q0 51 17 94q17 43 48.5 74.5q31.5 31.5 75.5 49q44 17.5 97 17.5q55 0 98.5 -17.5q43.5 -17.5 74.5 -49q31 -31.5 47.5 -74.5q16.5 -43 16.5 -94q0 -51 -17 -94q-17 -43 -48.5 -74.5q-31.5 -31.5 -75 -49q-43.5 -17.5 -96.5 -17.5zt0 0zM274 46q37 0 68.5 12q31.5 12 54.5 35.5q23 23.5 35.5 56.5q12.5 33 12.5 75q0 42 -12.5 75q-12.5 33 -35.5 56.5q-23 23.5 -54.5 36q-31.5 12.5 -68.5 12.5q-37 0 -68 -12.5q-31 -12.5 -54 -36q-23 -23.5 -36 -56.5q-13 -33 -13 -75q0 -41 12.5 -74.5q12.5 -33.5 35.5 -56.5q23 -23 54 -35.5q31 -12.5 69 -12.5zt0 0zM137 575l135 132h4l132 -132l-30 -38l-105 100l-105 -99z" />
<glyph unicode="&#245;" horiz-adv-x="547" d="M274 -10q-56 0 -100.5 17.5q-44.5 17.5 -75 49q-30.5 31.5 -46.5 74.5q-16 43 -16 94q0 51 17 94q17 43 48.5 74.5q31.5 31.5 75.5 49q44 17.5 97 17.5q55 0 98.5 -17.5q43.5 -17.5 74.5 -49q31 -31.5 47.5 -74.5q16.5 -43 16.5 -94q0 -51 -17 -94q-17 -43 -48.5 -74.5q-31.5 -31.5 -75 -49q-43.5 -17.5 -96.5 -17.5zt0 0zM274 46q37 0 68.5 12q31.5 12 54.5 35.5q23 23.5 35.5 56.5q12.5 33 12.5 75q0 42 -12.5 75q-12.5 33 -35.5 56.5q-23 23.5 -54.5 36q-31.5 12.5 -68.5 12.5q-37 0 -68 -12.5q-31 -12.5 -54 -36q-23 -23.5 -36 -56.5q-13 -33 -13 -75q0 -41 12.5 -74.5q12.5 -33.5 35.5 -56.5q23 -23 54 -35.5q31 -12.5 69 -12.5zt0 0zM427 611q-55 -56 -101 -56q-17 0 -30 7q-13 7 -25.5 15.5q-12.5 8.5 -26 15.5q-13.5 7 -30.5 7q-28 0 -72 -33l-26 29q29 30 55 43q26 13 49 13q18 0 31.5 -7q13.5 -7 26.5 -16q13 -9 26 -16q13 -7 28 -7q18 0 34 8.5q16 8.5 39 28.5z" />
<glyph unicode="&#246;" horiz-adv-x="547" d="M274 -10q-56 0 -100.5 17.5q-44.5 17.5 -75 49q-30.5 31.5 -46.5 74.5q-16 43 -16 94q0 51 17 94q17 43 48.5 74.5q31.5 31.5 75.5 49q44 17.5 97 17.5q55 0 98.5 -17.5q43.5 -17.5 74.5 -49q31 -31.5 47.5 -74.5q16.5 -43 16.5 -94q0 -51 -17 -94q-17 -43 -48.5 -74.5q-31.5 -31.5 -75 -49q-43.5 -17.5 -96.5 -17.5zt0 0zM274 46q37 0 68.5 12q31.5 12 54.5 35.5q23 23.5 35.5 56.5q12.5 33 12.5 75q0 42 -12.5 75q-12.5 33 -35.5 56.5q-23 23.5 -54.5 36q-31.5 12.5 -68.5 12.5q-37 0 -68 -12.5q-31 -12.5 -54 -36q-23 -23.5 -36 -56.5q-13 -33 -13 -75q0 -41 12.5 -74.5q12.5 -33.5 35.5 -56.5q23 -23 54 -35.5q31 -12.5 69 -12.5zt0 0zM175 599q-18 0 -32 12q-14 12 -14 34q0 20 14 32.5q14 12.5 32 12.5q17 0 30.5 -12.5q13.5 -12.5 13.5 -32.5q0 -22 -13.5 -34q-13.5 -12 -30.5 -12zt0 0zM375 599q-18 0 -32 12q-14 12 -14 34q0 20 14 32.5q14 12.5 32 12.5q17 0 30.5 -12.5q13.5 -12.5 13.5 -32.5q0 -22 -13.5 -34t-30.5 -12z" />
<glyph unicode="&#247;" horiz-adv-x="590" d="M241 181q0 20 14.5 36.5q14.5 16.5 39.5 16.5q23 0 37.5 -16.5q14.5 -16.5 14.5 -36.5q0 -22 -14.5 -38q-14.5 -16 -37.5 -16q-25 0 -39.5 16q-14.5 16 -14.5 38zt0 0zM241 542q0 20 14.5 36q14.5 16 39.5 16q23 0 37.5 -16q14.5 -16 14.5 -36q0 -21 -14.5 -38q-14.5 -17 -37.5 -17q-25 0 -39.5 17q-14.5 17 -14.5 38zt0 0zM71 388h449v-55l-449 0z" />
<glyph unicode="&#248;" horiz-adv-x="547" d="M38 27l49 48q-24 29 -37.5 67q-13.5 38 -13.5 83q0 51 17 94q17 43 48.5 74.5q31.5 31.5 75.5 49q44 17.5 97 17.5q47 0 86.5 -14q39.5 -14 69.5 -40l49 48l35 -39l-48 -47q45 -59 45 -143q0 -51 -17 -94q-17 -43 -48.5 -74.5q-31.5 -31.5 -75 -49q-43.5 -17.5 -96.5 -17.5q-45 0 -82 12.5q-37 12.5 -66 34.5l-53 -51zM387 365q-23 19 -52 29.5q-29 10.5 -61 10.5q-39 0 -70.5 -13.5q-31.5 -13.5 -54 -37.5q-22.5 -24 -34.5 -57q-12 -33 -12 -72q0 -62 31 -105zM170 78q43 -32 104 -32q38 0 69.5 13.5q31.5 13.5 54 37q22.5 23.5 35 56.5q12.5 33 12.5 72q0 28 -7 52.5q-7 24.5 -20 44.5z" />
<glyph unicode="&#249;" horiz-adv-x="557" d="M26 450h122q0 -27 -0.5 -60q-0.5 -33 -1 -67q-0.5 -34 -1 -66.5q-0.5 -32.5 -0.5 -59.5q0 -74 30.5 -112.5q30.5 -38.5 99.5 -38.5q22 0 43.5 6.5q21.5 6.5 40.5 17q19 10.5 34 23.5q15 13 26 27l0 283h-59v47h121v-402h60v-48h-122v69q-25 -30 -69 -54.5q-44 -24.5 -98 -24.5q-80 0 -124.5 47.5q-44.5 47.5 -44.5 148.5q0 23 0 51q0 28 0.5 57q0.5 29 1 57q0.5 28 0.5 52l-59 0zM178 680l49 37l108 -152l-39 -27z" />
<glyph unicode="&#250;" horiz-adv-x="557" d="M26 450h122q0 -27 -0.5 -60q-0.5 -33 -1 -67q-0.5 -34 -1 -66.5q-0.5 -32.5 -0.5 -59.5q0 -74 30.5 -112.5q30.5 -38.5 99.5 -38.5q22 0 43.5 6.5q21.5 6.5 40.5 17q19 10.5 34 23.5q15 13 26 27l0 283h-59v47h121v-402h60v-48h-122v69q-25 -30 -69 -54.5q-44 -24.5 -98 -24.5q-80 0 -124.5 47.5q-44.5 47.5 -44.5 148.5q0 23 0 51q0 28 0.5 57q0.5 29 1 57q0.5 28 0.5 52l-59 0zM239 565l107 153l48 -37l-117 -143z" />
<glyph unicode="&#251;" horiz-adv-x="557" d="M26 450h122q0 -27 -0.5 -60q-0.5 -33 -1 -67q-0.5 -34 -1 -66.5q-0.5 -32.5 -0.5 -59.5q0 -74 30.5 -112.5q30.5 -38.5 99.5 -38.5q22 0 43.5 6.5q21.5 6.5 40.5 17q19 10.5 34 23.5q15 13 26 27l0 283h-59v47h121v-402h60v-48h-122v69q-25 -30 -69 -54.5q-44 -24.5 -98 -24.5q-80 0 -124.5 47.5q-44.5 47.5 -44.5 148.5q0 23 0 51q0 28 0.5 57q0.5 29 1 57q0.5 28 0.5 52l-59 0zM147 575l135 132h4l132 -132l-30 -38l-105 100l-105 -99z" />
<glyph unicode="&#252;" horiz-adv-x="557" d="M26 450h122q0 -27 -0.5 -60q-0.5 -33 -1 -67q-0.5 -34 -1 -66.5q-0.5 -32.5 -0.5 -59.5q0 -74 30.5 -112.5q30.5 -38.5 99.5 -38.5q22 0 43.5 6.5q21.5 6.5 40.5 17q19 10.5 34 23.5q15 13 26 27l0 283h-59v47h121v-402h60v-48h-122v69q-25 -30 -69 -54.5q-44 -24.5 -98 -24.5q-80 0 -124.5 47.5q-44.5 47.5 -44.5 148.5q0 23 0 51q0 28 0.5 57q0.5 29 1 57q0.5 28 0.5 52l-59 0zM188 599q-18 0 -32 12q-14 12 -14 34q0 20 14 32.5q14 12.5 32 12.5q17 0 30.5 -12.5q13.5 -12.5 13.5 -32.5q0 -22 -13.5 -34q-13.5 -12 -30.5 -12zt0 0zM388 599q-18 0 -32 12q-14 12 -14 34q0 20 14 32.5q14 12.5 32 12.5q17 0 30.5 -12.5q13.5 -12.5 13.5 -32.5q0 -22 -13.5 -34t-30.5 -12z" />
<glyph unicode="&#253;" horiz-adv-x="504" d="M44 403h-34v47h169v-47h-67l131 -274q8 -18 14.5 -34.5q6.5 -16.5 14.5 -34.5q6 18 11.5 34.5q5.5 16.5 12.5 35.5l105 273h-66v47h162v-47h-33l-163 -403q-25 -60 -46 -99q-21 -39 -41 -61.5q-20 -22.5 -40 -31q-20 -8.5 -44 -8.5q-33 0 -51.5 20q-18.5 20 -18.5 43q0 18 13 31q13 13 30 13q17 0 27 -9.5q10 -9.5 12 -22.5q0 -9 -6 -15q4 -3 10 -3q25 3 44 34q19 31 42 85l10 24zM201 565l107 153l48 -37l-117 -143z" />
<glyph unicode="&#254;" horiz-adv-x="564" d="M36 -153h60v806h-60v47h122v-307q25 29 68.5 48q43.5 19 91.5 19q49 0 88 -17q39 -17 66 -47q27 -30 41.5 -72q14.5 -42 14.5 -92q0 -51 -16.5 -95.5q-16.5 -44.5 -47 -77q-30.5 -32.5 -73.5 -51q-43 -18.5 -95 -18.5q-39 0 -75.5 9q-36.5 9 -62.5 27l0 -179h73v-47h-195zM158 85q33 -23 65.5 -31q32.5 -8 67.5 -8q78 0 124.5 49q46.5 49 46.5 134q0 82 -42 129q-42 47 -119 47q-45 0 -83.5 -20.5q-38.5 -20.5 -59.5 -47.5z" />
<glyph unicode="&#255;" horiz-adv-x="504" d="M44 403h-34v47h169v-47h-67l131 -274q8 -18 14.5 -34.5q6.5 -16.5 14.5 -34.5q6 18 11.5 34.5q5.5 16.5 12.5 35.5l105 273h-66v47h162v-47h-33l-163 -403q-25 -60 -46 -99q-21 -39 -41 -61.5q-20 -22.5 -40 -31q-20 -8.5 -44 -8.5q-33 0 -51.5 20q-18.5 20 -18.5 43q0 18 13 31q13 13 30 13q17 0 27 -9.5q10 -9.5 12 -22.5q0 -9 -6 -15q4 -3 10 -3q25 3 44 34q19 31 42 85l10 24zM157 599q-18 0 -32 12q-14 12 -14 34q0 20 14 32.5q14 12.5 32 12.5q17 0 30.5 -12.5q13.5 -12.5 13.5 -32.5q0 -22 -13.5 -34q-13.5 -12 -30.5 -12zt0 0zM357 599q-18 0 -32 12q-14 12 -14 34q0 20 14 32.5q14 12.5 32 12.5q17 0 30.5 -12.5q13.5 -12.5 13.5 -32.5q0 -22 -13.5 -34t-30.5 -12z" />
<glyph unicode="&#256;" horiz-adv-x="743" d="M5 55h57l267 646h79l272 -646h58v-55h-210v55h81l-74 173h-334l-73 -173h89v-55h-212zM511 291l-111 269q-3 7 -7.5 18q-4.5 11 -9 22.5q-4.5 11.5 -8.5 22.5q-4 11 -6 19l-3 0q-3 -8 -7 -19q-4 -11 -8.5 -22.5q-4.5 -11.5 -8.5 -22.5q-4 -11 -7 -18l-109 -269zM220 826h302v-51l-302 0z" />
<glyph unicode="&#257;" horiz-adv-x="463" d="M331 65q-19 -27 -56 -49q-37 -22 -94 -22q-71 0 -110.5 37q-39.5 37 -39.5 97q0 34 13 60q13 26 36.5 43.5q23.5 17.5 55.5 26.5q32 9 70 9q29 0 64 -6.5q35 -6.5 61 -21.5q1 12 1 23.5q0 11.5 0 27.5q0 27 -5.5 49.5q-5.5 22.5 -18.5 38.5q-13 16 -34.5 25q-21.5 9 -53.5 9q-32 0 -55 -8.5q-23 -8.5 -35 -16.5q4 -3 7.5 -11q3.5 -8 3.5 -17q0 -16 -11 -26q-11 -10 -29 -10q-20 0 -30 12.5q-10 12.5 -10 28.5q0 21 13.5 39q13.5 18 36 30.5q22.5 12.5 51.5 19.5q29 7 61 7q91 0 129 -44.5q38 -44.5 38 -127.5q0 -26 -0.5 -47.5q-0.5 -21.5 -0.5 -43q0 -21.5 -0.5 -45q-0.5 -23.5 -0.5 -53.5q0 -8 0.5 -17.5q0.5 -9.5 3 -17.5q2.5 -8 8 -13.5q5.5 -5.5 15.5 -5.5q5 0 10.5 1q5.5 1 10.5 3q5 2 9 5l14 -39q-8 -8 -22.5 -14.5q-14.5 -6.5 -36.5 -6.5q-32 0 -50.5 19.5q-18.5 19.5 -18.5 51.5zt0 0zM98 131q0 -37 26 -61.5q26 -24.5 74 -24.5q26 0 46.5 7q20.5 7 37 17.5q16.5 10.5 28 23.5q11.5 13 19.5 25l0 72q-47 29 -112 29q-53 0 -86 -21q-33 -21 -33 -67zt0 0zM99 646h257v-51l-257 0z" />
<glyph unicode="&#258;" horiz-adv-x="743" d="M5 55h57l267 646h79l272 -646h58v-55h-210v55h81l-74 173h-334l-73 -173h89v-55h-212zM511 291l-111 269q-3 7 -7.5 18q-4.5 11 -9 22.5q-4.5 11.5 -8.5 22.5q-4 11 -6 19l-3 0q-3 -8 -7 -19q-4 -11 -8.5 -22.5q-4.5 -11.5 -8.5 -22.5q-4 -11 -7 -18l-109 -269zM539 837q-23 -34 -65.5 -61q-42.5 -27 -99.5 -27q-33 0 -61 9q-28 9 -49.5 22q-21.5 13 -37 28.5q-15.5 15.5 -24.5 28.5l29 33q8 -10 21 -21.5q13 -11.5 30.5 -21.5q17.5 -10 40 -16.5q22.5 -6.5 51.5 -6.5q50 0 85 21q35 21 55 45z" />
<glyph unicode="&#259;" horiz-adv-x="463" d="M331 65q-19 -27 -56 -49q-37 -22 -94 -22q-71 0 -110.5 37q-39.5 37 -39.5 97q0 34 13 60q13 26 36.5 43.5q23.5 17.5 55.5 26.5q32 9 70 9q29 0 64 -6.5q35 -6.5 61 -21.5q1 12 1 23.5q0 11.5 0 27.5q0 27 -5.5 49.5q-5.5 22.5 -18.5 38.5q-13 16 -34.5 25q-21.5 9 -53.5 9q-32 0 -55 -8.5q-23 -8.5 -35 -16.5q4 -3 7.5 -11q3.5 -8 3.5 -17q0 -16 -11 -26q-11 -10 -29 -10q-20 0 -30 12.5q-10 12.5 -10 28.5q0 21 13.5 39q13.5 18 36 30.5q22.5 12.5 51.5 19.5q29 7 61 7q91 0 129 -44.5q38 -44.5 38 -127.5q0 -26 -0.5 -47.5q-0.5 -21.5 -0.5 -43q0 -21.5 -0.5 -45q-0.5 -23.5 -0.5 -53.5q0 -8 0.5 -17.5q0.5 -9.5 3 -17.5q2.5 -8 8 -13.5q5.5 -5.5 15.5 -5.5q5 0 10.5 1q5.5 1 10.5 3q5 2 9 5l14 -39q-8 -8 -22.5 -14.5q-14.5 -6.5 -36.5 -6.5q-32 0 -50.5 19.5q-18.5 19.5 -18.5 51.5zt0 0zM98 131q0 -37 26 -61.5q26 -24.5 74 -24.5q26 0 46.5 7q20.5 7 37 17.5q16.5 10.5 28 23.5q11.5 13 19.5 25l0 72q-47 29 -112 29q-53 0 -86 -21q-33 -21 -33 -67zt0 0zM366 649q-11 -14 -24 -29q-13 -15 -30 -27q-17 -12 -39 -19.5q-22 -7.5 -49 -7.5q-30 0 -54 9q-24 9 -41.5 22q-17.5 13 -29.5 27.5q-12 14.5 -19 24.5l30 32q7 -9 17.5 -20q10.5 -11 24.5 -20.5q14 -9.5 32.5 -16q18.5 -6.5 41.5 -6.5q40 0 68.5 19.5q28.5 19.5 47.5 42.5z" />
<glyph unicode="&#260;" horiz-adv-x="743" d="M5 55h57l267 646h79l272 -646h58v-55h-210v55h81l-74 173h-334l-73 -173h89v-55h-212zM511 291l-111 269q-3 7 -7.5 18q-4.5 11 -9 22.5q-4.5 11.5 -8.5 22.5q-4 11 -6 19l-3 0q-3 -8 -7 -19q-4 -11 -8.5 -22.5q-4.5 -11.5 -8.5 -22.5q-4 -11 -7 -18l-109 -269zM722 0q-24 0 -46 -7q-22 -7 -39.5 -19q-17.5 -12 -28 -28q-10.5 -16 -10.5 -35q0 -18 7 -29.5q7 -11.5 17.5 -18.5q10.5 -7 22 -9.5q11.5 -2.5 20.5 -2.5q11 0 21.5 1.5q10.5 1.5 23.5 7.5l19 -39q-13 -9 -34 -15q-21 -6 -43 -6q-20 0 -40.5 4.5q-20.5 4.5 -37.5 15q-17 10.5 -28 28q-11 17.5 -11 43.5q0 30 17 53.5q17 23.5 44 39q27 15.5 60 23.5q33 8 66 8z" />
<glyph unicode="&#261;" horiz-adv-x="463" d="M364 12q-10 3 -17 10q-6 6 -11 16q-5 10 -5 27q-11 -14 -25.5 -26.5q-14.5 -12.5 -33 -22.5q-18.5 -10 -42 -16q-23.5 -6 -53.5 -6q-68 0 -107 37q-39 37 -39 97q0 34 13 60q13 26 37 43.5q24 17.5 56.5 26.5q32.5 9 71.5 9q27 0 61.5 -5q34.5 -5 60.5 -23q1 35 -1 66.5q-2 31.5 -13.5 55q-11.5 23.5 -35.5 37.5q-24 14 -66 14q-30 0 -52.5 -9q-22.5 -9 -27.5 -18q3 -3 5.5 -9q2.5 -6 2.5 -11q0 -17 -10 -28.5q-10 -11.5 -27 -11.5q-43 0 -43 43q0 21 14.5 38q14.5 17 37 29q22.5 12 50.5 18.5q28 6.5 55 6.5q94 0 132 -46q38 -46 38 -133q0 -26 -0.5 -49q-0.5 -23 -0.5 -46.5q0 -23.5 -0.5 -49q-0.5 -25.5 -0.5 -55.5q0 -8 5 -20.5q5 -12.5 27 -12.5h27v-48q-24 0 -46 -7q-22 -7 -39.5 -19q-17.5 -12 -28 -28q-10.5 -16 -10.5 -35q0 -18 7 -29.5q7 -11.5 17.5 -18.5q10.5 -7 22.5 -9.5q12 -2.5 21 -2.5q10 0 21 1.5q11 1.5 24 7.5l19 -39q-13 -9 -34 -15q-21 -6 -44 -6q-20 0 -40.5 4.5q-20.5 4.5 -37.5 15q-17 10.5 -27.5 28q-10.5 17.5 -10.5 43.5q0 43 30 75q30 32 73 46zt0 0zM98 131q0 -37 26 -61.5q26 -24.5 74 -24.5q26 0 46.5 7q20.5 7 36 18q15.5 11 27.5 23.5q12 12.5 21 24.5l0 68q-47 33 -112 33q-53 0 -86 -21t-33 -67z" />
<glyph unicode="&#262;" horiz-adv-x="688" d="M585 200h55v-200h-55v46q-35 -25 -84 -40.5q-49 -15.5 -104 -15.5q-79 0 -143.5 25.5q-64.5 25.5 -110 72.5q-45.5 47 -70 113.5q-24.5 66.5 -24.5 148.5q0 75 24 141q24 66 68.5 114.5q44.5 48.5 108.5 76.5q64 28 144 28q55 0 102.5 -13.5q47.5 -13.5 82.5 -38.5l0 42h55v-185h-55v82q-36 27 -83 40.5q-47 13.5 -101 13.5q-61 0 -112 -22.5q-51 -22.5 -87.5 -63q-36.5 -40.5 -56.5 -95.5q-20 -55 -20 -120q0 -67 21 -122.5q21 -55.5 59 -95q38 -39.5 91 -61.5q53 -22 117 -22q48 0 94.5 15q46.5 15 83.5 43zM315 775l185 100l24 -53l-190 -85z" />
<glyph unicode="&#263;" horiz-adv-x="477" d="M36 225q0 49 17 92q17 43 47 74.5q30 31.5 71.5 50q41.5 18.5 90.5 18.5q39 0 72 -8q33 -8 57.5 -22q24.5 -14 38 -34q13.5 -20 13.5 -44q0 -20 -13.5 -33.5q-13.5 -13.5 -33.5 -13.5q-19 0 -32.5 13.5q-13.5 13.5 -13.5 32.5q0 13 9 22q-14 13 -35 22.5q-21 9.5 -49 9.5q-38 0 -69.5 -13.5q-31.5 -13.5 -54 -37.5q-22.5 -24 -35.5 -57q-13 -33 -13 -72q0 -41 13.5 -73.5q13.5 -32.5 37.5 -55q24 -22.5 56.5 -35q32.5 -12.5 69.5 -12.5q43 0 78 17q35 17 58 44l30 -45q-29 -37 -74.5 -56q-45.5 -19 -95.5 -19q-53 0 -97 16.5q-44 16.5 -76 47.5q-32 31 -49.5 74.5q-17.5 43.5 -17.5 96.5zt0 0zM214 565l107 153l48 -37l-117 -143z" />
<glyph unicode="&#264;" horiz-adv-x="688" d="M585 200h55v-200h-55v46q-35 -25 -84 -40.5q-49 -15.5 -104 -15.5q-79 0 -143.5 25.5q-64.5 25.5 -110 72.5q-45.5 47 -70 113.5q-24.5 66.5 -24.5 148.5q0 75 24 141q24 66 68.5 114.5q44.5 48.5 108.5 76.5q64 28 144 28q55 0 102.5 -13.5q47.5 -13.5 82.5 -38.5l0 42h55v-185h-55v82q-36 27 -83 40.5q-47 13.5 -101 13.5q-61 0 -112 -22.5q-51 -22.5 -87.5 -63q-36.5 -40.5 -56.5 -95.5q-20 -55 -20 -120q0 -67 21 -122.5q21 -55.5 59 -95q38 -39.5 91 -61.5q53 -22 117 -22q48 0 94.5 15q46.5 15 83.5 43zM215 771l170 101h4l171 -100l-27 -36l-146 78l-148 -78z" />
<glyph unicode="&#265;" horiz-adv-x="477" d="M36 225q0 49 17 92q17 43 47 74.5q30 31.5 71.5 50q41.5 18.5 90.5 18.5q39 0 72 -8q33 -8 57.5 -22q24.5 -14 38 -34q13.5 -20 13.5 -44q0 -20 -13.5 -33.5q-13.5 -13.5 -33.5 -13.5q-19 0 -32.5 13.5q-13.5 13.5 -13.5 32.5q0 13 9 22q-14 13 -35 22.5q-21 9.5 -49 9.5q-38 0 -69.5 -13.5q-31.5 -13.5 -54 -37.5q-22.5 -24 -35.5 -57q-13 -33 -13 -72q0 -41 13.5 -73.5q13.5 -32.5 37.5 -55q24 -22.5 56.5 -35q32.5 -12.5 69.5 -12.5q43 0 78 17q35 17 58 44l30 -45q-29 -37 -74.5 -56q-45.5 -19 -95.5 -19q-53 0 -97 16.5q-44 16.5 -76 47.5q-32 31 -49.5 74.5q-17.5 43.5 -17.5 96.5zt0 0zM131 575l135 132h4l132 -132l-30 -38l-105 100l-105 -99z" />
<glyph unicode="&#266;" horiz-adv-x="688" d="M585 200h55v-200h-55v46q-35 -25 -84 -40.5q-49 -15.5 -104 -15.5q-79 0 -143.5 25.5q-64.5 25.5 -110 72.5q-45.5 47 -70 113.5q-24.5 66.5 -24.5 148.5q0 75 24 141q24 66 68.5 114.5q44.5 48.5 108.5 76.5q64 28 144 28q55 0 102.5 -13.5q47.5 -13.5 82.5 -38.5l0 42h55v-185h-55v82q-36 27 -83 40.5q-47 13.5 -101 13.5q-61 0 -112 -22.5q-51 -22.5 -87.5 -63q-36.5 -40.5 -56.5 -95.5q-20 -55 -20 -120q0 -67 21 -122.5q21 -55.5 59 -95q38 -39.5 91 -61.5q53 -22 117 -22q48 0 94.5 15q46.5 15 83.5 43zM377 756q-20 0 -35.5 13q-15.5 13 -15.5 36q0 22 15.5 34.5q15.5 12.5 35.5 12.5q20 0 34.5 -12.5q14.5 -12.5 14.5 -34.5q0 -23 -14.5 -36t-34.5 -13z" />
<glyph unicode="&#267;" horiz-adv-x="477" d="M36 225q0 49 17 92q17 43 47 74.5q30 31.5 71.5 50q41.5 18.5 90.5 18.5q39 0 72 -8q33 -8 57.5 -22q24.5 -14 38 -34q13.5 -20 13.5 -44q0 -20 -13.5 -33.5q-13.5 -13.5 -33.5 -13.5q-19 0 -32.5 13.5q-13.5 13.5 -13.5 32.5q0 13 9 22q-14 13 -35 22.5q-21 9.5 -49 9.5q-38 0 -69.5 -13.5q-31.5 -13.5 -54 -37.5q-22.5 -24 -35.5 -57q-13 -33 -13 -72q0 -41 13.5 -73.5q13.5 -32.5 37.5 -55q24 -22.5 56.5 -35q32.5 -12.5 69.5 -12.5q43 0 78 17q35 17 58 44l30 -45q-29 -37 -74.5 -56q-45.5 -19 -95.5 -19q-53 0 -97 16.5q-44 16.5 -76 47.5q-32 31 -49.5 74.5q-17.5 43.5 -17.5 96.5zt0 0zM267 593q-20 0 -35 13q-15 13 -15 36q0 21 15 34q15 13 35 13q18 0 32.5 -13q14.5 -13 14.5 -34q0 -23 -14.5 -36t-32.5 -13z" />
<glyph unicode="&#268;" horiz-adv-x="688" d="M585 200h55v-200h-55v46q-35 -25 -84 -40.5q-49 -15.5 -104 -15.5q-79 0 -143.5 25.5q-64.5 25.5 -110 72.5q-45.5 47 -70 113.5q-24.5 66.5 -24.5 148.5q0 75 24 141q24 66 68.5 114.5q44.5 48.5 108.5 76.5q64 28 144 28q55 0 102.5 -13.5q47.5 -13.5 82.5 -38.5l0 42h55v-185h-55v82q-36 27 -83 40.5q-47 13.5 -101 13.5q-61 0 -112 -22.5q-51 -22.5 -87.5 -63q-36.5 -40.5 -56.5 -95.5q-20 -55 -20 -120q0 -67 21 -122.5q21 -55.5 59 -95q38 -39.5 91 -61.5q53 -22 117 -22q48 0 94.5 15q46.5 15 83.5 43zM390 793l146 82l25 -35l-169 -101h-4l-173 100l27 36z" />
<glyph unicode="&#269;" horiz-adv-x="477" d="M36 225q0 49 17 92q17 43 47 74.5q30 31.5 71.5 50q41.5 18.5 90.5 18.5q39 0 72 -8q33 -8 57.5 -22q24.5 -14 38 -34q13.5 -20 13.5 -44q0 -20 -13.5 -33.5q-13.5 -13.5 -33.5 -13.5q-19 0 -32.5 13.5q-13.5 13.5 -13.5 32.5q0 13 9 22q-14 13 -35 22.5q-21 9.5 -49 9.5q-38 0 -69.5 -13.5q-31.5 -13.5 -54 -37.5q-22.5 -24 -35.5 -57q-13 -33 -13 -72q0 -41 13.5 -73.5q13.5 -32.5 37.5 -55q24 -22.5 56.5 -35q32.5 -12.5 69.5 -12.5q43 0 78 17q35 17 58 44l30 -45q-29 -37 -74.5 -56q-45.5 -19 -95.5 -19q-53 0 -97 16.5q-44 16.5 -76 47.5q-32 31 -49.5 74.5q-17.5 43.5 -17.5 96.5zt0 0zM164 710l106 -109l105 108l29 -37l-133 -132h-4l-134 132z" />
<glyph unicode="&#270;" horiz-adv-x="763" d="M204 55q40 -1 65 -1.5q25 -0.5 37 -0.5q85 0 148.5 22q63.5 22 106 62.5q42.5 40.5 63.5 97q21 56.5 21 125.5q0 63 -20 116q-20 53 -61.5 91q-41.5 38 -106 59.5q-64.5 21.5 -152.5 21.5q-26 0 -49 -1q-23 -1 -52 -2zM138 55v590h-84v55h96q36 0 81.5 1.5q45.5 1.5 90.5 1.5q105 0 179.5 -28q74.5 -28 122 -75.5q47.5 -47.5 69.5 -109.5q22 -62 22 -130q0 -75 -25 -141q-25 -66 -75.5 -115q-50.5 -49 -125.5 -77.5q-75 -28.5 -175 -28.5q-38 0 -80.5 1q-42.5 1 -85.5 1h-94v55zM366 793l146 82l25 -35l-169 -101h-4l-173 100l27 36z" />
<glyph unicode="&#271;" horiz-adv-x="645" d="M527 48v-48h-121v62q-26 -29 -64.5 -49.5q-38.5 -20.5 -86.5 -20.5q-50 0 -90 16.5q-40 16.5 -69 46.5q-29 30 -44.5 72.5q-15.5 42.5 -15.5 95.5q0 52 18.5 95.5q18.5 43.5 51.5 75q33 31.5 78 49q45 17.5 98 17.5q38 0 68 -8.5q30 -8.5 56 -27.5l0 229h-70v47h132v-652zM267 47q21 0 41.5 6q20.5 6 38.5 15.5q18 9.5 33 21.5q15 12 26 24l0 252q-32 21 -62.5 30q-30.5 9 -59.5 9q-38 0 -70.5 -13q-32.5 -13 -57.5 -37q-25 -24 -39 -57.5q-14 -33.5 -14 -73.5q0 -41 12 -73.5q12 -32.5 34 -55.5q22 -23 52 -35.5q30 -12.5 66 -12.5zt0 0zM528 546q22 17 35 45q13 28 13 63q0 15 -3 26q-3 11 -8 20l61 0q9 -15 9 -39q0 -28 -7 -51q-7 -23 -18 -41q-11 -18 -25 -31q-14 -13 -29 -20z" />
<glyph unicode="&#272;" horiz-adv-x="763" d="M138 55v275h-84v55h84v260h-84v55h96q36 0 81.5 1.5q45.5 1.5 90.5 1.5q105 0 179.5 -28q74.5 -28 122 -75.5q47.5 -47.5 69.5 -109.5q22 -62 22 -130q0 -75 -25 -141q-25 -66 -75.5 -115q-50.5 -49 -125.5 -77.5q-75 -28.5 -175 -28.5q-38 0 -80.5 1q-42.5 1 -85.5 1h-94v55zM399 385v-55h-195v-275q40 -1 65 -1.5q25 -0.5 37 -0.5q85 0 148.5 22q63.5 22 106 62.5q42.5 40.5 63.5 97q21 56.5 21 125.5q0 63 -20 116q-20 53 -61.5 91q-41.5 38 -106 59.5q-64.5 21.5 -152.5 21.5q-26 0 -49 -1q-23 -1 -52 -2l0 -260z" />
<glyph unicode="&#273;" horiz-adv-x="548" d="M527 48v-48h-121v62q-26 -29 -64.5 -49.5q-38.5 -20.5 -86.5 -20.5q-50 0 -90 16.5q-40 16.5 -69 46.5q-29 30 -44.5 72.5q-15.5 42.5 -15.5 95.5q0 52 18.5 95.5q18.5 43.5 51.5 75q33 31.5 78 49q45 17.5 98 17.5q38 0 68 -8.5q30 -8.5 56 -27.5l0 102h-170v51h170v76h-70v47h132v-123h99v-51h-99v-478zM267 47q21 0 41.5 6q20.5 6 38.5 15.5q18 9.5 33 21.5q15 12 26 24l0 252q-32 21 -62.5 30q-30.5 9 -59.5 9q-38 0 -70.5 -13q-32.5 -13 -57.5 -37q-25 -24 -39 -57.5q-14 -33.5 -14 -73.5q0 -41 12 -73.5q12 -32.5 34 -55.5q22 -23 52 -35.5t66 -12.5z" />
<glyph unicode="&#274;" horiz-adv-x="628" d="M54 55h84v590h-84v55h493v-185h-55v130h-288v-263h226v-55h-226v-272h306v146h55v-201h-511zM181 826h302v-51l-302 0z" />
<glyph unicode="&#275;" horiz-adv-x="508" d="M103 209q1 -39 15 -69q14 -30 37.5 -51q23.5 -21 55 -32q31.5 -11 69.5 -11q45 0 79.5 14q34.5 14 57.5 37l26 -44q-32 -32 -77 -47.5q-45 -15.5 -90 -15.5q-54 0 -98.5 16.5q-44.5 16.5 -76 47.5q-31.5 31 -48.5 74.5q-17 43.5 -17 96.5q0 49 15 92q15 43 44 74.5q29 31.5 71.5 50q42.5 18.5 98.5 18.5q43 0 81 -14.5q38 -14.5 66 -41.5q28 -27 44 -65q16 -38 16 -84q0 -14 -1 -25.5q-1 -11.5 -3 -20.5zM407 256q-2 66 -38 107.5q-36 41.5 -108 41.5q-38 0 -67 -12q-29 -12 -49.5 -32.5q-20.5 -20.5 -31 -47.5q-10.5 -27 -10.5 -57zM127 646h257v-51l-257 0z" />
<glyph unicode="&#278;" horiz-adv-x="628" d="M54 55h84v590h-84v55h493v-185h-55v130h-288v-263h226v-55h-226v-272h306v146h55v-201h-511zM336 756q-20 0 -35.5 13q-15.5 13 -15.5 36q0 22 15.5 34.5q15.5 12.5 35.5 12.5q20 0 34.5 -12.5q14.5 -12.5 14.5 -34.5q0 -23 -14.5 -36t-34.5 -13z" />
<glyph unicode="&#279;" horiz-adv-x="508" d="M103 209q1 -39 15 -69q14 -30 37.5 -51q23.5 -21 55 -32q31.5 -11 69.5 -11q45 0 79.5 14q34.5 14 57.5 37l26 -44q-32 -32 -77 -47.5q-45 -15.5 -90 -15.5q-54 0 -98.5 16.5q-44.5 16.5 -76 47.5q-31.5 31 -48.5 74.5q-17 43.5 -17 96.5q0 49 15 92q15 43 44 74.5q29 31.5 71.5 50q42.5 18.5 98.5 18.5q43 0 81 -14.5q38 -14.5 66 -41.5q28 -27 44 -65q16 -38 16 -84q0 -14 -1 -25.5q-1 -11.5 -3 -20.5zM407 256q-2 66 -38 107.5q-36 41.5 -108 41.5q-38 0 -67 -12q-29 -12 -49.5 -32.5q-20.5 -20.5 -31 -47.5q-10.5 -27 -10.5 -57zM253 593q-20 0 -35 13q-15 13 -15 36q0 21 15 34q15 13 35 13q18 0 32.5 -13q14.5 -13 14.5 -34q0 -23 -14.5 -36t-32.5 -13z" />
</font>
</defs>
</svg>
