<?xml version="1.0" encoding="UTF-8" standalone="no"?>
<!DOCTYPE svg PUBLIC "-//W3C//DTD SVG 1.1//EN" "http://www.w3.org/Graphics/SVG/1.1/DTD/svg11.dtd" >
<svg xmlns="http://www.w3.org/2000/svg">
<metadata>
Generated by SVGconv.
Copyright   : Copyright (c) 2018 Paratype, Inc., ParaType Ltd. All rights reserved.
Designer    : A.Korolkova
Foundry     : ParaType Ltd
Foundry URL : http://www.paratype.com
</metadata>
<defs>
<font id="CirceSlabAWeb-ExtraLight" horiz-adv-x="583" >
<font-face units-per-em="1000" ascent="935" descent="320" >
<font-face-src>
<font-face-name/>
</font-face-src>
</font-face>
<missing-glyph horiz-adv-x="500" />
<glyph unicode="&#13;" horiz-adv-x="240" />
<glyph unicode="&#32;" horiz-adv-x="240" />
<glyph unicode="&#33;" horiz-adv-x="309" d="M131 700h48v-512h-48zM108 44q0 17 13 30.5q13 13.5 34 13.5q20 0 32 -13.5q12 -13.5 12 -30.5q0 -19 -12 -33q-12 -14 -32 -14q-21 0 -34 14t-13 33z" />
<glyph unicode="&#34;" horiz-adv-x="397" d="M103 700h45v-204h-45zM250 700h45v-204l-45 0z" />
<glyph unicode="&#35;" horiz-adv-x="684" d="M63 4l77 206h-100v40h114l75 200h-189v40h204l81 219l36 -13l-76 -206h216l82 219l36 -12l-77 -207h102v-40h-117l-74 -200h191v-40h-206l-81 -219l-36 13l76 206h-216l-81 -219zM412 250l74 200h-216l-74 -200z" />
<glyph unicode="&#36;" horiz-adv-x="562" d="M76 0v191h45v-75q29 -41 73 -62.5q44 -21.5 95 -21.5q30 0 58.5 9.5q28.5 9.5 51 27.5q22.5 18 36.5 44q14 26 14 60q0 51 -27.5 81.5q-27.5 30.5 -68.5 51q-41 20.5 -89 37q-48 16.5 -89 40q-41 23.5 -68.5 59q-27.5 35.5 -27.5 94.5q0 34 12.5 64q12.5 30 36 53q23.5 23 57.5 37.5q34 14.5 78 17.5l0 82h45v-82q35 -2 66 -16.5q31 -14.5 54 -37.5l0 46h45v-175h-45v79q-56 64 -142 64q-74 0 -116.5 -37q-42.5 -37 -42.5 -95q0 -50 27.5 -80q27.5 -30 68.5 -49.5q41 -19.5 88.5 -35.5q47.5 -16 88.5 -39.5q41 -23.5 68.5 -60q27.5 -36.5 27.5 -97.5q0 -39 -14.5 -71.5q-14.5 -32.5 -39.5 -55.5q-25 -23 -58.5 -37q-33.5 -14 -72.5 -17l-3 0v-93h-45v92q-44 3 -81.5 20.5q-37.5 17.5 -60.5 45.5l0 -58z" />
<glyph unicode="&#37;" horiz-adv-x="843" d="M672 709l27 -19l-522 -699l-28 20zM453 158q0 36 13 65.5q13 29.5 35.5 50.5q22.5 21 53.5 32.5q31 11.5 67 11.5q36 0 67 -11.5q31 -11.5 53.5 -32.5q22.5 -21 35.5 -50.5q13 -29.5 13 -65.5q0 -35 -13 -64.5q-13 -29.5 -35.5 -51q-22.5 -21.5 -53.5 -33.5q-31 -12 -67 -12q-36 0 -67 12q-31 12 -53.5 33.5q-22.5 21.5 -35.5 51q-13 29.5 -13 64.5zt0 0zM495 158q0 -28 10.5 -50.5q10.5 -22.5 28.5 -39q18 -16.5 41 -25.5q23 -9 47 -9q25 0 48 9q23 9 40 25.5q17 16.5 27.5 39q10.5 22.5 10.5 50.5q0 28 -10.5 50.5q-10.5 22.5 -28 38.5q-17.5 16 -40 25q-22.5 9 -47.5 9q-25 0 -48 -9q-23 -9 -40.5 -25q-17.5 -16 -28 -38.5q-10.5 -22.5 -10.5 -50.5zt0 0zM53 543q0 35 13 64.5q13 29.5 35.5 50.5q22.5 21 53.5 33q31 12 67 12q36 0 67 -12q31 -12 53.5 -33q22.5 -21 35.5 -50.5q13 -29.5 13 -64.5q0 -36 -13 -65.5q-13 -29.5 -35.5 -50.5q-22.5 -21 -53.5 -33q-31 -12 -67 -12q-36 0 -67 12q-31 12 -53.5 33q-22.5 21 -35.5 50.5q-13 29.5 -13 65.5zt0 0zM95 543q0 -28 10.5 -51q10.5 -23 28.5 -39q18 -16 41 -25q23 -9 47 -9q25 0 48 9q23 9 40 25q17 16 27.5 39q10.5 23 10.5 51q0 28 -10.5 50.5q-10.5 22.5 -28 38.5q-17.5 16 -40 25q-22.5 9 -47.5 9q-25 0 -48 -9q-23 -9 -40.5 -25q-17.5 -16 -28 -38.5t-10.5 -50.5z" />
<glyph unicode="&#38;" horiz-adv-x="745" d="M522 180q29 49 45.5 110q16.5 61 20.5 125l-63 0v35h160v-35h-52q-5 -75 -25.5 -145q-20.5 -70 -57.5 -127l85 -108h57v-35h-86l-87 111q-37 -53 -92 -86.5q-55 -33.5 -133 -33.5q-47 0 -86.5 15q-39.5 15 -68 41q-28.5 26 -45 62.5q-16.5 36.5 -16.5 80.5q0 44 15.5 80.5q15.5 36.5 40 66.5q24.5 30 55.5 54.5q31 24.5 62 44.5q-16 16 -31.5 34q-15.5 18 -28 37.5q-12.5 19.5 -20 40.5q-7.5 21 -7.5 44q0 51 35 84q35 33 105 33q57 0 91 -32q34 -32 34 -86q0 -29 -10 -51.5q-10 -22.5 -26.5 -41q-16.5 -18.5 -37 -34.5q-20.5 -16 -41.5 -32zM128 199q0 -38 13.5 -68q13.5 -30 37 -51q23.5 -21 53.5 -32.5q30 -11.5 63 -11.5q66 0 115 30.5q49 30.5 81 80.5l-215 259q-29 -21 -56 -43.5q-27 -22.5 -47.5 -47.5q-20.5 -25 -32.5 -53.5q-12 -28.5 -12 -62.5zt0 0zM287 461q18 12 35.5 25q17.5 13 32 28.5q14.5 15.5 23.5 34.5q9 19 9 42q0 39 -25.5 60q-25.5 21 -64.5 21q-43 0 -65.5 -24q-22.5 -24 -22.5 -56q0 -18 7 -35.5q7 -17.5 18 -34q11 -16.5 25 -32t28 -29.5z" />
<glyph unicode="&#39;" horiz-adv-x="250" d="M103 700h45v-204l-45 0z" />
<glyph unicode="&#40;" horiz-adv-x="271" d="M272 631q-52 -48 -87.5 -97q-35.5 -49 -57.5 -99q-22 -50 -32 -102.5q-10 -52.5 -10 -107.5q0 -111 45 -216q45 -105 142 -190l-30 -25q-57 49 -95.5 102q-38.5 53 -62.5 107.5q-24 54.5 -34 110.5q-10 56 -10 111q0 55 10 110q10 55 34 109q24 54 63 107q39 53 96 105z" />
<glyph unicode="&#41;" horiz-adv-x="271" d="M0 -181q97 85 142 190q45 105 45 216q0 110 -42 210q-42 100 -145 196l29 25q57 -52 96 -105q39 -53 63 -107q24 -54 34 -109q10 -55 10 -110q0 -55 -10 -111q-10 -56 -34 -110.5q-24 -54.5 -62.5 -107.5q-38.5 -53 -95.5 -102z" />
<glyph unicode="&#42;" horiz-adv-x="455" d="M86 610q0 14 9.5 23.5q9.5 9.5 22.5 9.5q14 0 23.5 -9.5q9.5 -9.5 9.5 -23.5q0 -13 -9.5 -22.5q-9.5 -9.5 -23.5 -9.5q-13 0 -22.5 9.5q-9.5 9.5 -9.5 22.5zt0 0zM86 490q0 14 9.5 23q9.5 9 22.5 9q14 0 23.5 -9q9.5 -9 9.5 -23q0 -14 -9.5 -23.5q-9.5 -9.5 -23.5 -9.5q-13 0 -22.5 9.5q-9.5 9.5 -9.5 23.5zt0 0zM194 419q0 14 10 23.5q10 9.5 23 9.5q13 0 22.5 -9.5q9.5 -9.5 9.5 -23.5q0 -13 -9.5 -22.5q-9.5 -9.5 -22.5 -9.5q-13 0 -23 9.5q-10 9.5 -10 22.5zt0 0zM196 676q0 14 9.5 23.5q9.5 9.5 22.5 9.5q14 0 23 -9.5q9 -9.5 9 -23.5q0 -14 -9 -22.5q-9 -8.5 -23 -8.5q-13 0 -22.5 8.5q-9.5 8.5 -9.5 22.5zt0 0zM305 610q0 14 9.5 23.5q9.5 9.5 22.5 9.5q14 0 23.5 -9.5q9.5 -9.5 9.5 -23.5q0 -13 -9.5 -22.5q-9.5 -9.5 -23.5 -9.5q-13 0 -22.5 9.5q-9.5 9.5 -9.5 22.5zt0 0zM305 490q0 14 9.5 23q9.5 9 22.5 9q14 0 23.5 -9q9.5 -9 9.5 -23q0 -14 -9.5 -23.5q-9.5 -9.5 -23.5 -9.5q-13 0 -22.5 9.5t-9.5 23.5z" />
<glyph unicode="&#43;" horiz-adv-x="588" d="M272 340h-200v40h200v201h42v-201h202v-40h-202v-203l-42 0z" />
<glyph unicode="&#44;" horiz-adv-x="219" d="M60 -123q11 3 23.5 11.5q12.5 8.5 23 20.5q10.5 12 17.5 27.5q7 15.5 7 32.5q0 17 -4 26.5q-4 9.5 -9 16.5q-2 -5 -7.5 -9q-5.5 -4 -13.5 -4q-14 0 -25 11.5q-11 11.5 -11 29.5q1 18 13.5 31.5q12.5 13.5 32.5 13.5q29 -1 47 -25.5q18 -24.5 18 -68.5q0 -57 -29 -92q-29 -35 -70 -46z" />
<glyph unicode="&#45;" horiz-adv-x="401" d="M88 293h226v-43l-226 0z" />
<glyph unicode="&#46;" horiz-adv-x="209" d="M60 45q0 17 13 30.5q13 13.5 34 13.5q20 0 32 -13.5q12 -13.5 12 -30.5q0 -19 -12 -33q-12 -14 -32 -14q-21 0 -34 14t-13 33z" />
<glyph unicode="&#47;" horiz-adv-x="312" d="M-30 -195l337 904l35 -13l-335 -904z" />
<glyph unicode="&#48;" horiz-adv-x="574" d="M289 -8q-58 0 -100 27q-42 27 -69 74.5q-27 47.5 -39.5 113q-12.5 65.5 -12.5 143.5q0 78 12.5 143.5q12.5 65.5 39 113q26.5 47.5 68 74.5q41.5 27 99.5 27q58 0 100 -27q42 -27 68.5 -74.5q26.5 -47.5 39 -113q12.5 -65.5 12.5 -143.5q0 -78 -12 -143.5q-12 -65.5 -38.5 -113q-26.5 -47.5 -68 -74.5q-41.5 -27 -99.5 -27zt0 0zM289 35q47 0 79.5 22.5q32.5 22.5 52.5 64q20 41.5 29 99.5q9 58 9 129q0 71 -9.5 129.5q-9.5 58.5 -30 100q-20.5 41.5 -53 64q-32.5 22.5 -79.5 22.5q-47 0 -79.5 -23q-32.5 -23 -53 -64.5q-20.5 -41.5 -30 -99.5q-9.5 -58 -9.5 -129q0 -71 10 -129q10 -58 31 -99.5q21 -41.5 54 -64t79 -22.5z" />
<glyph unicode="&#49;" horiz-adv-x="361" d="M78 40h107v580q-24 -20 -54 -36.5q-30 -16.5 -69 -30.5l-13 33q61 25 101 56.5q40 31.5 60 67.5l20 0v-670h85v-40l-237 0z" />
<glyph unicode="&#50;" horiz-adv-x="534" d="M53 38q28 28 64 64q36 36 73.5 77q37.5 41 73 85.5q35.5 44.5 63 89.5q27.5 45 44.5 89.5q17 44.5 17 85.5q0 25 -8.5 50q-8.5 25 -26 44q-17.5 19 -43.5 31q-26 12 -61 12q-21 0 -42 -6.5q-21 -6.5 -38.5 -17.5q-17.5 -11 -30.5 -26q-13 -15 -17 -32q8 -4 14 -11.5q6 -7.5 6 -17.5q0 -16 -11 -27q-11 -11 -27 -11q-15 0 -26 12q-11 12 -11 35q0 29 16 55.5q16 26.5 42.5 46q26.5 19.5 59.5 31q33 11.5 67 11.5q48 0 83 -15.5q35 -15.5 57.5 -39.5q22.5 -24 33.5 -54.5q11 -30.5 11 -60.5q0 -49 -20 -101q-20 -52 -51 -102.5q-31 -50.5 -69 -97.5q-38 -47 -74 -85.5q-36 -38.5 -66 -67q-30 -28.5 -44 -41.5l312 0v97h43v-140l-414 0z" />
<glyph unicode="&#51;" horiz-adv-x="525" d="M190 338v40h55q25 0 49 11.5q24 11.5 43 31.5q19 20 30.5 47.5q11.5 27.5 11.5 59.5q0 66 -38.5 102.5q-38.5 36.5 -103.5 36.5q-44 0 -79 -17q-35 -17 -44 -39q6 -3 11 -10q5 -7 5 -15q0 -16 -11.5 -27q-11.5 -11 -26.5 -11q-16 0 -27 11q-11 11 -11 27q0 26 15 48.5q15 22.5 40.5 39q25.5 16.5 59.5 26q34 9.5 71 9.5q88 0 137 -46.5q49 -46.5 49 -129.5q0 -54 -28 -100.5q-28 -46.5 -86 -68.5l0 -3q33 -5 59 -21q26 -16 44.5 -39q18.5 -23 28 -52q9.5 -29 9.5 -59q0 -46 -16 -82.5q-16 -36.5 -44.5 -62.5q-28.5 -26 -67.5 -40q-39 -14 -85 -14q-41 0 -78.5 11q-37.5 11 -66 29.5q-28.5 18.5 -45 44q-16.5 25.5 -16.5 55.5q0 15 11 26.5q11 11.5 26 11.5q16 0 27 -11.5q11 -11.5 11 -26.5q0 -8 -5 -16.5q-5 -8.5 -12 -12.5q7 -15 21 -27.5q14 -12.5 33.5 -21.5q19.5 -9 43.5 -14q24 -5 50 -5q39 0 69.5 12q30.5 12 52 33.5q21.5 21.5 33 50.5q11.5 29 11.5 62q0 32 -12 59q-12 27 -33 46.5q-21 19.5 -49 30q-28 10.5 -61 10.5z" />
<glyph unicode="&#52;" horiz-adv-x="535" d="M351 233v217h18h27v-217h104v-45h-104v-188h-45v188h-326v32q46 49 89.5 108q43.5 59 81 121.5q37.5 62.5 68.5 126.5q31 64 51 124l52 0q-19 -58 -49 -120.5q-30 -62.5 -67 -124q-37 -61.5 -79.5 -118.5q-42.5 -57 -85.5 -104z" />
<glyph unicode="&#53;" horiz-adv-x="516" d="M162 417q14 4 33 7q19 3 39 3q49 0 89.5 -15q40.5 -15 70 -42.5q29.5 -27.5 46 -66.5q16.5 -39 16.5 -87q0 -53 -17.5 -94.5q-17.5 -41.5 -47.5 -70.5q-30 -29 -70.5 -44.5q-40.5 -15.5 -85.5 -15.5q-35 0 -70 9.5q-35 9.5 -63 27.5q-28 18 -45.5 43q-17.5 25 -17.5 55q0 17 11.5 29.5q11.5 12.5 28.5 12.5q20 0 30.5 -12q10.5 -12 10.5 -29q0 -8 -6.5 -16.5q-6.5 -8.5 -15.5 -11.5q13 -26 50 -45.5q37 -19.5 92 -19.5q36 0 66.5 13.5q30.5 13.5 53 37.5q22.5 24 35.5 57q13 33 13 72q0 37 -13.5 68.5q-13.5 31.5 -38.5 54.5q-25 23 -60 36q-35 13 -78 13q-29 0 -57.5 -5q-28.5 -5 -47.5 -13l42 332h262l9 57h43l-16 -102l-259 0z" />
<glyph unicode="&#54;" horiz-adv-x="549" d="M291 -9q-59 0 -103 21q-44 21 -73.5 56q-29.5 35 -44.5 82q-15 47 -15 98q0 96 30.5 175.5q30.5 79.5 79 139q48.5 59.5 108.5 97q60 37.5 118 49.5l19 -34q-50 -12 -100 -41q-50 -29 -91.5 -74.5q-41.5 -45.5 -71.5 -108.5q-30 -63 -40 -142q10 24 27 46q17 22 40.5 38.5q23.5 16.5 53 26q29.5 9.5 65.5 9.5q46 0 83.5 -16q37.5 -16 64.5 -44.5q27 -28.5 41.5 -68q14.5 -39.5 14.5 -87.5q0 -48 -17.5 -89q-17.5 -41 -46 -70.5q-28.5 -29.5 -65.5 -46q-37 -16.5 -77 -16.5zt0 0zM289 36q33 0 62.5 14q29.5 14 51 37.5q21.5 23.5 34 55q12.5 31.5 12.5 66.5q0 37 -10.5 69q-10.5 32 -32 56q-21.5 24 -53.5 38q-32 14 -74 14q-38 0 -68 -13q-30 -13 -52 -33q-22 -20 -36 -44q-14 -24 -20 -47q0 -41 11.5 -79.5q11.5 -38.5 34.5 -68q23 -29.5 58 -47.5t82 -18z" />
<glyph unicode="&#55;" horiz-adv-x="481" d="M36 700h403v-30q-56 -101 -97.5 -188q-41.5 -87 -72 -167.5q-30.5 -80.5 -51 -157.5q-20.5 -77 -33.5 -157l-50 0q14 76 33.5 149q19.5 73 49 151q29.5 78 69.5 164.5q40 86.5 96 190.5l-304 0v-95l-43 0z" />
<glyph unicode="&#56;" horiz-adv-x="590" d="M371 359q32 -4 59 -18.5q27 -14.5 46.5 -37.5q19.5 -23 30.5 -53.5q11 -30.5 11 -65.5q0 -46 -18.5 -82q-18.5 -36 -49 -60.5q-30.5 -24.5 -71 -37.5q-40.5 -13 -83.5 -13q-44 0 -84 13q-40 13 -71 37.5q-31 24.5 -49.5 59.5q-18.5 35 -18.5 80q0 31 10 60q10 29 29 52.5q19 23.5 45.5 40q26.5 16.5 59.5 24.5l0 3q-26 7 -47.5 24q-21.5 17 -38 39.5q-16.5 22.5 -25.5 49q-9 26.5 -9 53.5q0 41 15.5 74.5q15.5 33.5 42.5 57.5q27 24 63 37q36 13 77 13q40 0 76 -13q36 -13 63 -37q27 -24 43 -57.5q16 -33.5 16 -74.5q0 -26 -8 -51q-8 -25 -24 -47q-16 -22 -38.5 -39.5q-22.5 -17.5 -51.5 -27.5zM120 189q0 -34 14 -62q14 -28 38 -48.5q24 -20.5 55.5 -31.5q31.5 -11 67.5 -11q36 0 68 10.5q32 10.5 56 30.5q24 20 37.5 48.5q13.5 28.5 13.5 63.5q0 35 -13 63q-13 28 -35 47q-22 19 -51 29q-29 10 -61 10h-27q-33 0 -62.5 -11.5q-29.5 -11.5 -52 -31.5q-22.5 -20 -35.5 -47q-13 -27 -13 -59zt0 0zM312 383q24 0 48 10.5q24 10.5 43 29q19 18.5 31 44.5q12 26 12 56q0 34 -13 60q-13 26 -34 44q-21 18 -48.5 27.5q-27.5 9.5 -56.5 9.5q-29 0 -56 -9.5q-27 -9.5 -47.5 -27.5q-20.5 -18 -33 -44.5q-12.5 -26.5 -12.5 -59.5q0 -30 12 -56q12 -26 31 -44.5q19 -18.5 43 -29q24 -10.5 48 -10.5z" />
<glyph unicode="&#57;" horiz-adv-x="547" d="M136 27q63 11 116 40.5q53 29.5 93 75.5q40 46 65 108q25 62 31 138q-20 -49 -67 -80.5q-47 -31.5 -116 -31.5q-47 0 -85.5 17q-38.5 17 -65.5 46q-27 29 -42 67.5q-15 38.5 -15 82.5q0 48 18.5 88.5q18.5 40.5 49 69.5q30.5 29 69 45q38.5 16 78.5 16q58 0 101 -20.5q43 -20.5 71.5 -56q28.5 -35.5 42 -82.5q13.5 -47 13.5 -100q0 -98 -26 -178q-26 -80 -72 -139q-46 -59 -108 -95.5q-62 -36.5 -135 -46.5zM269 319q38 0 68 11.5q30 11.5 52 30.5q22 19 36 42q14 23 20 46q0 41 -10.5 80q-10.5 39 -32 69q-21.5 30 -55.5 48q-34 18 -81 18q-33 0 -63.5 -13.5q-30.5 -13.5 -53.5 -36.5q-23 -23 -37 -54q-14 -31 -14 -66q0 -34 11 -65.5q11 -31.5 32.5 -56q21.5 -24.5 53.5 -39t74 -14.5z" />
<glyph unicode="&#58;" horiz-adv-x="232" d="M70 45q0 17 13 30.5q13 13.5 34 13.5q20 0 32 -13.5q12 -13.5 12 -30.5q0 -19 -12 -33q-12 -14 -32 -14q-21 0 -34 14q-13 14 -13 33zt0 0zM70 410q0 17 13 30.5q13 13.5 34 13.5q20 0 32 -13.5q12 -13.5 12 -30.5q0 -19 -12 -33q-12 -14 -32 -14q-21 0 -34 14t-13 33z" />
<glyph unicode="&#59;" horiz-adv-x="289" d="M116 410q0 17 13 30.5q13 13.5 34 13.5q20 0 32 -13.5q12 -13.5 12 -30.5q0 -19 -12 -33q-12 -14 -32 -14q-21 0 -34 14q-13 14 -13 33zt0 0zM111 -123q11 3 23.5 11.5q12.5 8.5 23 20.5q10.5 12 17.5 27.5q7 15.5 7 32.5q0 17 -4 26.5q-4 9.5 -9 16.5q-2 -5 -7.5 -9q-5.5 -4 -13.5 -4q-14 0 -25 11.5q-11 11.5 -11 29.5q1 18 13.5 31.5q12.5 13.5 32.5 13.5q29 -1 47 -25.5q18 -24.5 18 -68.5q0 -57 -29 -92q-29 -35 -70 -46z" />
<glyph unicode="&#60;" horiz-adv-x="588" d="M481 141v-49l-415 261v19l415 259v-50l-352 -219z" />
<glyph unicode="&#61;" horiz-adv-x="588" d="M72 295h444v-40h-444zM72 465h444v-40l-444 0z" />
<glyph unicode="&#62;" horiz-adv-x="588" d="M108 141l351 221l-351 219v50l414 -259v-19l-414 -261z" />
<glyph unicode="&#63;" horiz-adv-x="467" d="M188 187q-3 12 -4 22.5q-1 10.5 -1 20.5q0 38 14.5 64q14.5 26 36.5 46q22 20 48 37.5q26 17.5 48 38q22 20.5 37 47.5q15 27 15 67q0 28 -11 53q-11 25 -31 44q-20 19 -47.5 29.5q-27.5 10.5 -60.5 10.5q-47 0 -79 -19q-32 -19 -42 -44q13 -2 20.5 -11.5q7.5 -9.5 7.5 -23.5q0 -18 -13 -28.5q-13 -10.5 -31 -10.5q-17 0 -30 13q-13 13 -13 33q0 27 15.5 51q15.5 24 41 42q25.5 18 58.5 29q33 11 68 11q47 0 83.5 -13.5q36.5 -13.5 61 -37q24.5 -23.5 37.5 -54.5q13 -31 13 -65q0 -47 -15 -78.5q-15 -31.5 -38 -55q-23 -23.5 -49.5 -41.5q-26.5 -18 -49.5 -37.5q-23 -19.5 -38 -43.5q-15 -24 -15 -59q-1 -8 0 -16.5q1 -8.5 3 -18.5zM167 45q0 17 13 30.5q13 13.5 34 13.5q20 0 32 -13.5q12 -13.5 12 -30.5q0 -19 -12 -33q-12 -14 -32 -14q-21 0 -34 14t-13 33z" />
<glyph unicode="&#64;" horiz-adv-x="1016" d="M659 61q-26 -29 -67.5 -49.5q-41.5 -20.5 -88.5 -20.5q-51 0 -92 16.5q-41 16.5 -70.5 47q-29.5 30.5 -45.5 74q-16 43.5 -16 96.5q0 49 19 92q19 43 52 74.5q33 31.5 78.5 49.5q45.5 18 98.5 18q51 0 96.5 -13q45.5 -13 80.5 -35l0 -368h21q42 0 74.5 18.5q32.5 18.5 55 49.5q22.5 31 34.5 71.5q12 40.5 12 84.5q0 76 -28.5 140q-28.5 64 -79 111q-50.5 47 -121 73.5q-70.5 26.5 -154.5 26.5q-87 0 -160.5 -30q-73.5 -30 -127.5 -82.5q-54 -52.5 -84.5 -124.5q-30.5 -72 -30.5 -156q0 -83 30.5 -154.5q30.5 -71.5 84.5 -124.5q54 -53 127.5 -83.5q73.5 -30.5 160.5 -30.5q57 0 108 12l5 -42q-27 -6 -55.5 -9.5q-28.5 -3.5 -57.5 -3.5q-97 0 -178.5 33.5q-81.5 33.5 -141 92.5q-59.5 59 -92.5 138.5q-33 79.5 -33 171.5q0 91 33 170.5q33 79.5 92.5 138.5q59.5 59 141 93q81.5 34 178.5 34q91 0 169 -29q78 -29 135 -81q57 -52 89.5 -124q32.5 -72 32.5 -158q0 -50 -14 -98.5q-14 -48.5 -42.5 -86.5q-28.5 -38 -71.5 -61q-43 -23 -100 -23h-57zM510 34q24 0 46.5 7q22.5 7 42 17.5q19.5 10.5 35.5 23.5q16 13 25 25l0 274q-33 20 -67 28q-34 8 -66 8q-42 0 -78.5 -15q-36.5 -15 -63.5 -41.5q-27 -26.5 -42 -62q-15 -35.5 -15 -75.5q0 -88 50 -138.5t133 -50.5z" />
<glyph unicode="&#65;" horiz-adv-x="745" d="M5 40h58l279 662h56l282 -662h60v-40h-193v40h82l-88 205h-342l-88 -205h91v-40h-197zM524 290l-125 295q-3 6 -7 15.5q-4 9.5 -8 20.5q-4 11 -8 21q-4 10 -6 16l-2 0q-2 -6 -5.5 -16q-3.5 -10 -8 -21q-4.5 -11 -8.5 -20.5q-4 -9.5 -7 -15.5l-122 -295z" />
<glyph unicode="&#66;" horiz-adv-x="630" d="M143 40v620h-85v40h85q15 0 37 0.5q22 0.5 47 1q25 0.5 50.5 1q25.5 0.5 47.5 0.5q63 0 105 -13.5q42 -13.5 67.5 -36.5q25.5 -23 36.5 -55q11 -32 11 -68q0 -36 -11.5 -64q-11.5 -28 -30.5 -48q-19 -20 -44.5 -33q-25.5 -13 -53.5 -19l0 -2q79 -9 123.5 -52q44.5 -43 44.5 -117q0 -53 -19 -90.5q-19 -37.5 -52 -61.5q-33 -24 -78.5 -35q-45.5 -11 -98.5 -11q-22 0 -47 0.5q-25 0.5 -49.5 1q-24.5 0.5 -46.5 1q-22 0.5 -39 0.5h-85v40zM191 340v-299q22 -1 61.5 -2q39.5 -1 73.5 -1q94 0 146.5 40.5q52.5 40.5 52.5 119.5q0 67 -50.5 104.5q-50.5 37.5 -145.5 37.5zM333 377q34 0 64 10q30 10 52.5 29q22.5 19 35.5 45.5q13 26.5 13 59.5q0 67 -42 104.5q-42 37.5 -133 37.5q-34 0 -72 -1q-38 -1 -60 -2l0 -283z" />
<glyph unicode="&#67;" horiz-adv-x="686" d="M594 191h40v-191h-40v54q-37 -29 -88 -46q-51 -17 -106 -17q-78 0 -142 25.5q-64 25.5 -109.5 72.5q-45.5 47 -70.5 113q-25 66 -25 148q0 75 24 140.5q24 65.5 68 114q44 48.5 107.5 76.5q63.5 28 141.5 28q58 0 107.5 -14.5q49.5 -14.5 88.5 -44.5l0 50h40v-175h-40v80q-39 32 -88 47q-49 15 -107 15q-65 0 -119 -24q-54 -24 -92.5 -67q-38.5 -43 -59.5 -101q-21 -58 -21 -125q0 -71 22 -129q22 -58 62 -99.5q40 -41.5 96 -64.5q56 -23 123 -23q53 0 102 17.5q49 17.5 86 47.5z" />
<glyph unicode="&#68;" horiz-adv-x="764" d="M191 40q45 0 76 -1q31 -1 39 -1q89 0 156 24q67 24 111.5 67q44.5 43 66.5 102.5q22 59.5 22 129.5q0 64 -20.5 119.5q-20.5 55.5 -63.5 96q-43 40.5 -110 63.5q-67 23 -161 23q-33 0 -58.5 -1q-25.5 -1 -57.5 -2zM143 40v620h-85v40h96q38 0 78 1.5q40 1.5 87 1.5q105 0 179.5 -28q74.5 -28 122 -75q47.5 -47 69.5 -109q22 -62 22 -130q0 -75 -25 -141.5q-25 -66.5 -75.5 -115.5q-50.5 -49 -125.5 -77.5q-75 -28.5 -175 -28.5q-39 0 -78.5 1q-39.5 1 -81.5 1h-93l0 40z" />
<glyph unicode="&#69;" horiz-adv-x="625" d="M58 40h85v620h-85v40h485v-175h-40v135h-312v-284h237v-40h-237v-296h327v151h40v-191l-500 0z" />
<glyph unicode="&#70;" horiz-adv-x="595" d="M58 40h85v620h-85v40h490v-175h-40v135h-317v-308h257v-40h-257v-272h117v-40l-250 0z" />
<glyph unicode="&#71;" horiz-adv-x="727" d="M660 335v-335h-40v60q-45 -33 -106.5 -51q-61.5 -18 -120.5 -18q-76 0 -138.5 25.5q-62.5 25.5 -107.5 72.5q-45 47 -69.5 113q-24.5 66 -24.5 148q0 75 24.5 140.5q24.5 65.5 68.5 114q44 48.5 106.5 76.5q62.5 28 138.5 28q60 0 109.5 -14q49.5 -14 89.5 -45l0 45h40v-180h-40v86q-38 35 -87 50.5q-49 15.5 -106 15.5q-66 0 -120 -24q-54 -24 -93 -66.5q-39 -42.5 -60 -100.5q-21 -58 -21 -126q0 -71 21.5 -129.5q21.5 -58.5 61 -100q39.5 -41.5 94 -64q54.5 -22.5 120.5 -22.5q29 0 60.5 5q31.5 5 61 15q29.5 10 55 24q25.5 14 43.5 31l0 186h-214l0 40z" />
<glyph unicode="&#72;" horiz-adv-x="831" d="M58 40h85v620h-85v40h215v-40h-82v-283h450v283h-83v40h216v-40h-86v-620h86v-40h-216v40h83v297h-450v-297h82v-40l-215 0z" />
<glyph unicode="&#73;" horiz-adv-x="353" d="M68 40h85v620h-85v40h218v-40h-85v-620h85v-40l-218 0z" />
<glyph unicode="&#74;" horiz-adv-x="361" d="M190 660h-105v40h239v-40h-87v-507q0 -74 -30 -118q-30 -44 -107 -44q-30 0 -53.5 8q-23.5 8 -39.5 20l18 38q12 -9 31 -16q19 -7 39 -7q29 0 47.5 9.5q18.5 9.5 29 26q10.5 16.5 14.5 39q4 22.5 4 48.5z" />
<glyph unicode="&#75;" horiz-adv-x="691" d="M58 40h85v620h-85v40h205v-40h-72v-620h82v-40h-215zM228 362l297 298h-61v40h190v-40h-71l-298 -294l309 -326h80v-40l-107 0z" />
<glyph unicode="&#76;" horiz-adv-x="600" d="M58 40h85v620h-85v40h225v-40h-92v-620h342v145h40v-185l-515 0z" />
<glyph unicode="&#77;" horiz-adv-x="943" d="M58 40h85v620h-85v40h134l286 -390l276 390h132v-40h-86v-620h86v-40h-216v40h83v586l-274 -385h-8l-280 382v-583h82v-40l-215 0z" />
<glyph unicode="&#78;" horiz-adv-x="832" d="M58 40h85v620h-85v40h123l480 -617v577h-84v40h218v-40h-89v-660h-38l-480 615v-575h88v-40l-218 0z" />
<glyph unicode="&#79;" horiz-adv-x="804" d="M402 -9q-74 0 -138 27q-64 27 -111 74.5q-47 47.5 -73.5 113.5q-26.5 66 -26.5 144q0 76 26.5 141.5q26.5 65.5 73 114q46.5 48.5 110.5 76q64 27.5 139 27.5q74 0 138 -27q64 -27 111 -74.5q47 -47.5 74 -113.5q27 -66 27 -144q0 -77 -27 -142.5q-27 -65.5 -74 -113.5q-47 -48 -111 -75.5q-64 -27.5 -138 -27.5zt0 0zM402 34q65 0 120 24q55 24 95 66q40 42 62.5 100q22.5 58 22.5 126q0 70 -23 128.5q-23 58.5 -63.5 100.5q-40.5 42 -95.5 65q-55 23 -118 23q-64 0 -118.5 -23q-54.5 -23 -94.5 -65q-40 -42 -63 -100.5q-23 -58.5 -23 -128.5q0 -68 23 -126q23 -58 63 -100q40 -42 95 -66t118 -24z" />
<glyph unicode="&#80;" horiz-adv-x="605" d="M58 40h85v620h-85v40h85q15 0 37.5 0.5q22.5 0.5 46.5 0.5q24 0 46.5 0.5q22.5 0.5 37.5 0.5q72 0 120 -18q48 -18 76 -47.5q28 -29.5 39.5 -67q11.5 -37.5 11.5 -76.5q0 -41 -14 -79q-14 -38 -44.5 -68q-30.5 -30 -77.5 -48q-47 -18 -113 -18q-26 0 -57 1.5q-31 1.5 -61 3.5l0 -245h112v-40h-245zM191 325q30 -2 58 -3.5q28 -1.5 58 -1.5q50 0 88 13.5q38 13.5 63 37q25 23.5 37.5 55q12.5 31.5 12.5 68.5q0 35 -11 65.5q-11 30.5 -34 53.5q-23 23 -59.5 36q-36.5 13 -88.5 13q-12 0 -28 0q-16 0 -33.5 -0.5q-17.5 -0.5 -34 -1q-16.5 -0.5 -28.5 -0.5z" />
<glyph unicode="&#81;" horiz-adv-x="804" d="M851 -130q-28 -30 -67.5 -45q-39.5 -15 -76.5 -15q-48 0 -86 13.5q-38 13.5 -72.5 37.5q-34.5 24 -69.5 57.5q-35 33.5 -77 72.5q-77 0 -141.5 27q-64.5 27 -110.5 75q-46 48 -71.5 113.5q-25.5 65.5 -25.5 143.5q0 76 26.5 141.5q26.5 65.5 73 114q46.5 48.5 110.5 76q64 27.5 139 27.5q74 0 138 -27q64 -27 111 -74.5q47 -47.5 74 -113.5q27 -66 27 -144q0 -70 -21.5 -130.5q-21.5 -60.5 -60 -107q-38.5 -46.5 -92.5 -76.5q-54 -30 -119 -39q36 -33 66 -60.5q30 -27.5 58.5 -46.5q28.5 -19 57 -29.5q28.5 -10.5 62.5 -10.5q35 0 69.5 12.5q34.5 12.5 59.5 35.5zM405 34q64 0 118.5 23q54.5 23 94.5 65q40 42 62 100q22 58 22 128q0 70 -23 128.5q-23 58.5 -63.5 100.5q-40.5 42 -95.5 65q-55 23 -118 23q-64 0 -118.5 -23q-54.5 -23 -94.5 -65q-40 -42 -63 -100.5q-23 -58.5 -23 -128.5q0 -69 23 -127q23 -58 63.5 -100q40.5 -42 95.5 -65.5t120 -23.5z" />
<glyph unicode="&#82;" horiz-adv-x="668" d="M58 40h85v620h-85v40h85q15 0 39.5 0.5q24.5 0.5 49.5 0.5q25 0 45.5 0.5q20.5 0.5 28.5 0.5q72 0 119 -16.5q47 -16.5 74.5 -44q27.5 -27.5 39 -64q11.5 -36.5 11.5 -75.5q0 -37 -13 -69q-13 -32 -35.5 -57.5q-22.5 -25.5 -53.5 -43.5q-31 -18 -67 -25l216 -267h64v-40h-91l-238 298h-141v-258h82v-40h-215zM316 338q34 0 67 12.5q33 12.5 59 34q26 21.5 42 51.5q16 30 16 66q0 33 -10 62q-10 29 -33.5 51q-23.5 22 -61 34.5q-37.5 12.5 -92.5 12.5q-8 0 -22 0q-14 0 -29.5 -0.5q-15.5 -0.5 -32 -1q-16.5 -0.5 -28.5 -0.5l0 -322z" />
<glyph unicode="&#83;" horiz-adv-x="565" d="M78 0v191h40v-70q29 -42 75.5 -64.5q46.5 -22.5 102.5 -22.5q28 0 55.5 9q27.5 9 49 26.5q21.5 17.5 34.5 43.5q13 26 13 60q0 51 -27 81.5q-27 30.5 -68 51q-41 20.5 -88.5 37q-47.5 16.5 -88.5 40q-41 23.5 -68 59q-27 35.5 -27 94.5q0 36 13.5 68q13.5 32 39.5 55q26 23 64 36.5q38 13.5 87 13.5q45 0 83.5 -17q38.5 -17 65.5 -46l0 54h40v-175h-40v73q-58 69 -148 69q-72 0 -113.5 -36.5q-41.5 -36.5 -41.5 -94.5q0 -50 27 -80q27 -30 68 -49.5q41 -19.5 88.5 -35.5q47.5 -16 88.5 -39.5q41 -23.5 68 -60q27 -36.5 27 -97.5q0 -43 -16.5 -77q-16.5 -34 -44.5 -57.5q-28 -23.5 -64 -36q-36 -12.5 -76 -12.5q-59 0 -104.5 19.5q-45.5 19.5 -74.5 54.5l0 -65z" />
<glyph unicode="&#84;" horiz-adv-x="622" d="M193 40h95v620h-230v-135h-40v175h587v-175h-40v135h-230v-620h94v-40l-236 0z" />
<glyph unicode="&#85;" horiz-adv-x="760" d="M606 660h-99v40h231v-40h-85v-366q0 -80 -21.5 -137.5q-21.5 -57.5 -57.5 -94q-36 -36.5 -84 -53.5q-48 -17 -100 -17q-61 0 -112.5 19.5q-51.5 19.5 -89.5 58q-38 38.5 -59.5 96.5q-21.5 58 -21.5 135v359h-84v40h225v-40h-93v-354q0 -65 17 -115.5q17 -50.5 48 -85q31 -34.5 74 -52.5q43 -18 96 -18q46 0 86 16q40 16 68.5 48.5q28.5 32.5 45 82.5q16.5 50 16.5 119z" />
<glyph unicode="&#86;" horiz-adv-x="737" d="M70 660h-65v40h205v-40h-91l255 -598l248 598h-98v40h208v-40h-65l-278 -666l-33 0z" />
<glyph unicode="&#87;" horiz-adv-x="1021" d="M61 660h-56v40h195v-40h-90l176 -579l208 619h43l214 -619l165 579h-87v40h188v-40h-55l-193 -660h-40l-215 630l-210 -630l-41 0z" />
<glyph unicode="&#88;" horiz-adv-x="686" d="M13 40h61l243 317l-232 303h-63v40h203v-40h-87l207 -272l207 272h-91v40h203v-40h-59l-232 -304l241 -316h60v-40h-203v40h89l-216 286l-217 -286h89v-40l-203 0z" />
<glyph unicode="&#89;" horiz-adv-x="625" d="M192 40h96v268l-225 352h-58v40h189v-40h-78l197 -311l199 311h-82v40h191v-40h-59l-227 -352v-268h93v-40l-236 0z" />
<glyph unicode="&#90;" horiz-adv-x="644" d="M48 30l474 630h-417v-135h-40v175h520v-29l-476 -631h448v151h40v-191l-549 0z" />
<glyph unicode="&#91;" horiz-adv-x="290" d="M60 650h225v-40h-180v-770h180v-40l-225 0z" />
<glyph unicode="&#92;" horiz-adv-x="312" d="M-30 696l36 13l336 -904l-36 -13z" />
<glyph unicode="&#93;" horiz-adv-x="290" d="M5 -160h180v770h-180v40h225v-850l-225 0z" />
<glyph unicode="&#94;" horiz-adv-x="477" d="M225 708h29l173 -258h-49l-139 210l-139 -210l-50 0z" />
<glyph unicode="&#95;" horiz-adv-x="281" d="M0 -160h281v-40l-281 0z" />
<glyph unicode="&#96;" horiz-adv-x="263" d="M60 687l35 27l109 -149l-29 -20z" />
<glyph unicode="&#97;" horiz-adv-x="467" d="M386 295q0 -47 -1 -101.5q-1 -54.5 -1 -107.5q0 -25 5 -36q5 -11 13.5 -14.5q8.5 -3.5 13.5 -3.5q18 0 31 10l14 -29q-8 -9 -22.5 -14q-14.5 -5 -28.5 -5q-32 0 -50 20.5q-18 20.5 -18 57.5q-10 -14 -24.5 -28q-14.5 -14 -34 -25q-19.5 -11 -44 -18q-24.5 -7 -55.5 -7q-69 0 -107.5 36q-38.5 36 -38.5 96q0 34 13 59.5q13 25.5 36 42.5q23 17 54.5 26q31.5 9 69.5 9q29 0 66 -6.5q37 -6.5 66 -25.5l0 66q0 60 -26.5 93.5q-26.5 33.5 -90.5 33.5q-42 0 -70 -12q-28 -12 -39 -23q14 -7 14 -25q0 -14 -9.5 -21.5q-9.5 -7.5 -23.5 -7.5q-16 0 -24 9.5q-8 9.5 -8 23.5q0 19 13 35.5q13 16.5 35 29q22 12.5 51 19.5q29 7 60 7q88 0 124.5 -42.5q36.5 -42.5 36.5 -121.5zt0 0zM85 128q0 -43 29.5 -69.5q29.5 -26.5 80.5 -26.5q30 0 53.5 7.5q23.5 7.5 41 19.5q17.5 12 30.5 26q13 14 22 27l0 82q-52 34 -124 34q-27 0 -51.5 -6q-24.5 -6 -42.5 -18q-18 -12 -28.5 -31t-10.5 -45z" />
<glyph unicode="&#98;" horiz-adv-x="535" d="M3 700h115v-308q13 14 31.5 26q18.5 12 39.5 21q21 9 44 14.5q23 5.5 46 5.5q50 0 90 -17q40 -17 67.5 -47q27.5 -30 42 -71.5q14.5 -41.5 14.5 -91.5q0 -56 -17.5 -100.5q-17.5 -44.5 -50 -75.5q-32.5 -31 -77 -48q-44.5 -17 -98.5 -17q-53 0 -98.5 14q-45.5 14 -78.5 40l0 620h-70zM118 69q34 -22 66.5 -30q32.5 -8 67.5 -8q43 0 78.5 14q35.5 14 61 39.5q25.5 25.5 40 62q14.5 36.5 14.5 81.5q0 87 -47.5 139q-47.5 52 -128.5 52q-24 0 -47.5 -6q-23.5 -6 -43.5 -16q-20 -10 -36 -22.5q-16 -12.5 -25 -24.5z" />
<glyph unicode="&#99;" horiz-adv-x="485" d="M43 225q0 49 17 92q17 43 47 74.5q30 31.5 70.5 49.5q40.5 18 88.5 18q38 0 71 -8.5q33 -8.5 57 -23q24 -14.5 38 -34q14 -19.5 14 -42.5q0 -16 -11 -26.5q-11 -10.5 -26 -10.5q-16 0 -26.5 11q-10.5 11 -10.5 26q0 6 3.5 11.5q3.5 5.5 9.5 7.5q-13 19 -42.5 34q-29.5 15 -67.5 15q-39 0 -73 -14.5q-34 -14.5 -59 -40.5q-25 -26 -39 -61.5q-14 -35.5 -14 -77.5q0 -44 15 -79.5q15 -35.5 41 -60.5q26 -25 61 -38q35 -13 76 -13q45 0 82 17.5q37 17.5 61 44.5l22 -32q-29 -36 -74 -54.5q-45 -18.5 -94 -18.5q-52 0 -95.5 16.5q-43.5 16.5 -75 47q-31.5 30.5 -49 74t-17.5 96.5z" />
<glyph unicode="&#100;" horiz-adv-x="554" d="M527 35v-35h-106v67q-26 -30 -67 -52.5q-41 -22.5 -90 -22.5q-50 0 -91 16.5q-41 16.5 -70 46.5q-29 30 -44.5 73q-15.5 43 -15.5 96q0 52 18.5 95q18.5 43 51.5 74q33 31 77.5 48.5q44.5 17.5 96.5 17.5q41 0 73 -9.5q32 -9.5 61 -30.5l0 246h-70v35h115v-665zM271 32q24 0 46.5 7q22.5 7 42.5 18q20 11 35.5 24q15.5 13 25.5 26l0 270q-36 24 -68.5 33q-32.5 9 -64.5 9q-41 0 -77 -14q-36 -14 -63 -39.5q-27 -25.5 -42.5 -61.5q-15.5 -36 -15.5 -79q0 -44 13 -80q13 -36 37 -61q24 -25 57.5 -38.5t73.5 -13.5z" />
<glyph unicode="&#101;" horiz-adv-x="515" d="M90 218q1 -44 15.5 -78.5q14.5 -34.5 40 -58.5q25.5 -24 60.5 -37q35 -13 77 -13q46 0 83 16q37 16 61 41l19 -32q-31 -32 -76 -48.5q-45 -16.5 -90 -16.5q-53 0 -96.5 16.5q-43.5 16.5 -74.5 47q-31 30.5 -48.5 74q-17.5 43.5 -17.5 96.5q0 49 14.5 92q14.5 43 43 74.5q28.5 31.5 70.5 49.5q42 18 98 18q43 0 80.5 -14.5q37.5 -14.5 65 -41q27.5 -26.5 43 -64q15.5 -37.5 15.5 -83.5q0 -11 -1 -20.5q-1 -9.5 -2 -17.5zM426 253q-1 75 -42.5 120.5q-41.5 45.5 -118.5 45.5q-41 0 -73 -13q-32 -13 -54 -35.5q-22 -22.5 -34.5 -53q-12.5 -30.5 -13.5 -64.5z" />
<glyph unicode="&#102;" horiz-adv-x="334" d="M48 35h70v380h-70v35h70v73q0 186 161 186q24 0 45.5 -6.5q21.5 -6.5 37.5 -17.5q16 -11 25.5 -26.5q9.5 -15.5 9.5 -33.5q0 -16 -11 -26.5q-11 -10.5 -25 -10.5q-15 0 -24 9.5q-9 9.5 -9 21.5q0 7 4 14q4 7 10 9q-3 11 -21 21.5q-18 10.5 -42 10.5q-57 0 -86.5 -38q-29.5 -38 -29.5 -122v-64h163v-35h-163v-380h110v-35l-225 0z" />
<glyph unicode="&#103;" horiz-adv-x="484" d="M236 142q-24 0 -49 5q-7 -7 -10 -17.5q-3 -10.5 -3 -20.5q0 -23 15 -38q24 3 48 3q49 0 90 -9q41 -9 71 -27q30 -18 46.5 -44.5q16.5 -26.5 16.5 -61.5q0 -35 -16.5 -61q-16.5 -26 -46.5 -43.5q-30 -17.5 -71 -26.5q-41 -9 -90 -9q-49 0 -90 8.5q-41 8.5 -71 26q-30 17.5 -46.5 44q-16.5 26.5 -16.5 61.5q0 29 11 51.5q11 22.5 30.5 39q19.5 16.5 45.5 27q26 10.5 55 16.5q-7 8 -11.5 19.5q-4.5 11.5 -4.5 23.5q0 13 5 26q5 13 13 21q-44 18 -71 54.5q-27 36.5 -27 88.5q0 34 12.5 63q12.5 29 36 50.5q23.5 21.5 56 34q32.5 12.5 72.5 12.5q38 0 71 -12.5q33 -12.5 58 -35.5q23 4 35.5 12.5q12.5 8.5 17.5 19.5q-8 4 -12 11q-4 7 -4 15q0 14 10 24.5q10 10.5 24 10.5q14 0 24.5 -10q10.5 -10 10.5 -25q0 -15 -7 -28.5q-7 -13.5 -19 -24q-12 -10.5 -27.5 -19q-15.5 -8.5 -31.5 -12.5q12 -18 19 -39.5q7 -21.5 7 -46.5q0 -34 -12.5 -62.5q-12.5 -28.5 -36 -49.5q-23.5 -21 -56 -33q-32.5 -12 -71.5 -12zt0 0zM237 -171q40 0 73.5 6.5q33.5 6.5 57.5 19.5q24 13 37 32.5q13 19.5 13 44.5q0 49 -49.5 78q-49.5 29 -131.5 29q-82 0 -132 -29q-50 -29 -50 -78q0 -50 50.5 -76.5q50.5 -26.5 131.5 -26.5zt0 0zM236 177q59 0 96.5 34q37.5 34 37.5 88q0 26 -9.5 48.5q-9.5 22.5 -27.5 39q-18 16.5 -42.5 26q-24.5 9.5 -54.5 9.5q-30 0 -54.5 -9.5q-24.5 -9.5 -42.5 -26q-18 -16.5 -27.5 -39q-9.5 -22.5 -9.5 -48.5q0 -26 9.5 -48.5q9.5 -22.5 27.5 -39q18 -16.5 42.5 -25.5t54.5 -9z" />
<glyph unicode="&#104;" horiz-adv-x="577" d="M36 35h62v630h-70v35h115v-313q13 15 32 28q19 13 40.5 22.5q21.5 9.5 45.5 15q24 5.5 47 5.5q94 0 141.5 -48.5q47.5 -48.5 47.5 -154.5v-220h58v-35h-160v35h57v213q0 170 -153 170q-24 0 -47.5 -6q-23.5 -6 -44 -16q-20.5 -10 -37.5 -23q-17 -13 -27 -26l0 -312h53v-35l-160 0z" />
<glyph unicode="&#105;" horiz-adv-x="260" d="M48 35h60v380h-60v35h105v-415h65v-35h-170zM129 599q-16 0 -27.5 10.5q-11.5 10.5 -11.5 28.5q0 16 11.5 26q11.5 10 27.5 10q14 0 25.5 -10q11.5 -10 11.5 -26q0 -18 -11.5 -28.5t-25.5 -10.5z" />
<glyph unicode="&#106;" horiz-adv-x="232" d="M40 450h111v-483q0 -83 -32 -129q-32 -46 -99 -46q-18 0 -37.5 5.5q-19.5 5.5 -35.5 16q-16 10.5 -26.5 26q-10.5 15.5 -10.5 35.5q0 17 9.5 26.5q9.5 9.5 26.5 9.5q19 0 27.5 -10.5q8.5 -10.5 8.5 -21.5q0 -13 -12 -19q4 -10 19 -20.5q15 -10.5 36 -10.5q42 0 61.5 35q19.5 35 19.5 100v219v232h-66zM125 599q-16 0 -27.5 10.5q-11.5 10.5 -11.5 28.5q0 16 11.5 26q11.5 10 27.5 10q14 0 25.5 -10q11.5 -10 11.5 -26q0 -18 -11.5 -28.5t-25.5 -10.5z" />
<glyph unicode="&#107;" horiz-adv-x="494" d="M36 35h62v630h-70v35h115v-665h53v-35h-160zM177 234l185 181h-59v35h158v-35h-46l-184 -177l203 -203h46v-35l-77 0z" />
<glyph unicode="&#108;" horiz-adv-x="275" d="M273 24q-16 -12 -39.5 -21q-23.5 -9 -53.5 -9q-51 0 -74 30q-23 30 -23 92v549h-70v35h115v-564q0 -53 15 -78.5q15 -25.5 52 -25.5q20 0 37 7q17 7 29 15z" />
<glyph unicode="&#109;" horiz-adv-x="841" d="M48 35h60v380h-60v35h105v-64q26 32 68.5 52q42.5 20 88.5 20q54 0 90.5 -22q36.5 -22 49.5 -62q24 38 69 61q45 23 95 23q32 0 59 -8q27 -8 46.5 -27q19.5 -19 30.5 -50q11 -31 11 -77v-261h58v-35h-161v35h58v251q0 69 -30 100.5q-30 31.5 -88 31.5q-49 0 -86 -22q-37 -22 -57 -56q2 -6 2 -14.5q0 -8.5 0 -16.5v-274h58v-35h-162v35h59v275q0 48 -30 78q-30 30 -87 30q-48 0 -85 -22.5q-37 -22.5 -57 -50.5l0 -310h60v-35l-165 0z" />
<glyph unicode="&#110;" horiz-adv-x="587" d="M48 35h60v380h-60v35h105v-64q13 15 31.5 28q18.5 13 40.5 23q22 10 45.5 15.5q23.5 5.5 47.5 5.5q94 0 141.5 -48q47.5 -48 47.5 -154v-221h58v-35h-160v35h57v215q0 86 -38 127q-38 41 -116 41q-24 0 -47 -6q-23 -6 -43.5 -16.5q-20.5 -10.5 -37 -23.5q-16.5 -13 -27.5 -26l0 -311h58v-35l-163 0z" />
<glyph unicode="&#111;" horiz-adv-x="555" d="M278 -9q-54 0 -97.5 17.5q-43.5 17.5 -74 49q-30.5 31.5 -47 74q-16.5 42.5 -16.5 93.5q0 51 17 93.5q17 42.5 48 74q31 31.5 74.5 49q43.5 17.5 95.5 17.5q53 0 96.5 -17.5q43.5 -17.5 74 -49q30.5 -31.5 47.5 -74q17 -42.5 17 -93.5q0 -51 -17 -93.5q-17 -42.5 -48 -74q-31 -31.5 -74.5 -49q-43.5 -17.5 -95.5 -17.5zt0 0zM278 31q41 0 75.5 13.5q34.5 13.5 59.5 39q25 25.5 39 61.5q14 36 14 80q0 44 -14 79.5q-14 35.5 -39 61q-25 25.5 -59.5 39.5q-34.5 14 -75.5 14q-41 0 -75.5 -13.5q-34.5 -13.5 -59.5 -39q-25 -25.5 -39 -61.5q-14 -36 -14 -80q0 -44 14 -79.5q14 -35.5 39 -61q25 -25.5 59.5 -39.5t75.5 -14z" />
<glyph unicode="&#112;" horiz-adv-x="569" d="M43 -165h60v580h-60v35h105v-62q26 31 72 51q46 20 95 20q49 0 88.5 -17q39.5 -17 67 -47q27.5 -30 42 -71.5q14.5 -41.5 14.5 -91.5q0 -51 -16.5 -95.5q-16.5 -44.5 -47 -76.5q-30.5 -32 -73 -50.5q-42.5 -18.5 -94.5 -18.5q-42 0 -80.5 10q-38.5 10 -67.5 31l0 -197h75v-35h-180zM148 75q36 -26 72.5 -35q36.5 -9 72.5 -9q42 0 76.5 14q34.5 14 58.5 40q24 26 37.5 62.5q13.5 36.5 13.5 81.5q0 88 -45.5 139q-45.5 51 -129.5 51q-50 0 -92.5 -22q-42.5 -22 -63.5 -50z" />
<glyph unicode="&#113;" horiz-adv-x="537" d="M340 -165h82v219q-26 -26 -67.5 -44.5q-41.5 -18.5 -83.5 -18.5q-52 0 -94 16.5q-42 16.5 -72 47q-30 30.5 -46 74q-16 43.5 -16 96.5q0 49 19 92q19 43 52 74.5q33 31.5 78.5 49.5q45.5 18 98.5 18q51 0 96.5 -13q45.5 -13 79.5 -35l0 -576h53v-35h-180zM276 31q23 0 45 6q22 6 41.5 16q19.5 10 35 22.5q15.5 12.5 24.5 24.5l0 284q-32 20 -66 27.5q-34 7.5 -66 7.5q-43 0 -79.5 -14.5q-36.5 -14.5 -63.5 -41q-27 -26.5 -42 -62.5q-15 -36 -15 -78q0 -90 50.5 -141t135.5 -51z" />
<glyph unicode="&#114;" horiz-adv-x="375" d="M48 35h60v380h-60v35h105v-61q19 29 48.5 49q29.5 20 74.5 20q35 0 56 -14.5q21 -14.5 21 -40.5q0 -16 -11 -26q-11 -10 -25 -10q-15 0 -25 9.5q-10 9.5 -10 23.5q0 3 2 7q2 4 7 5q-9 9 -31 9q-21 -1 -38 -8.5q-17 -7.5 -29.5 -18.5q-12.5 -11 -22.5 -24q-10 -13 -17 -26l0 -309h85v-35l-190 0z" />
<glyph unicode="&#115;" horiz-adv-x="411" d="M75 84q9 -12 24.5 -22q15.5 -10 33.5 -17.5q18 -7.5 37 -11.5q19 -4 36 -4q48 0 80 22q32 22 32 66q0 30 -19 46q-19 16 -48 27q-29 11 -62 20q-33 9 -62 24q-29 15 -48 39.5q-19 24.5 -19 67.5q0 27 12 48.5q12 21.5 32.5 37q20.5 15.5 48 24q27.5 8.5 59.5 8.5q27 0 53 -7.5q26 -7.5 46.5 -20q20.5 -12.5 33 -29.5q12.5 -17 12.5 -35q0 -15 -10.5 -25q-10.5 -10 -24.5 -10q-14 0 -24 9.5q-10 9.5 -10 23.5q0 5 3 11q3 6 8 8q-7 13 -31.5 25.5q-24.5 12.5 -56.5 12.5q-48 0 -77 -23q-29 -23 -29 -56q0 -33 19 -51q19 -18 48 -30q29 -12 62 -21q33 -9 62 -23q29 -14 48 -37q19 -23 19 -62q0 -33 -13.5 -57q-13.5 -24 -35.5 -40q-22 -16 -51.5 -23.5q-29.5 -7.5 -60.5 -7.5q-23 0 -47 5.5q-24 5.5 -45 14.5q-21 9 -37.5 20.5q-16.5 11.5 -24.5 23.5z" />
<glyph unicode="&#116;" horiz-adv-x="354" d="M327 26q-16 -13 -41 -22.5q-25 -9.5 -57 -9.5q-75 0 -108 45q-33 45 -33 132v244h-60v35h60v125h45v-125h185v-35h-185v-238q0 -70 24.5 -106.5q24.5 -36.5 81.5 -36.5q23 0 41.5 8q18.5 8 30.5 17z" />
<glyph unicode="&#117;" horiz-adv-x="567" d="M439 415h-61v35h106v-415h60v-35h-105v74q-13 -16 -32 -31q-19 -15 -41.5 -26.5q-22.5 -11.5 -48 -18.5q-25.5 -7 -52.5 -7q-85 0 -129.5 48q-44.5 48 -44.5 151q0 21 0 50.5q0 29.5 0.5 61.5q0.5 32 1 62q0.5 30 0.5 51l-60 0v35h105q0 -23 -0.5 -57q-0.5 -34 -0.5 -69.5q0 -35.5 -0.5 -69q-0.5 -33.5 -0.5 -56.5q0 -83 34.5 -125q34.5 -42 110.5 -42q25 0 49 7.5q24 7.5 44.5 19q20.5 11.5 37 26q16.5 14.5 27.5 28.5z" />
<glyph unicode="&#118;" horiz-adv-x="514" d="M47 415h-45v35h158v-35h-65l95 -208q20 -42 36.5 -79.5q16.5 -37.5 35.5 -81.5q18 43 36 83q18 40 36 79l90 207h-74v35h163v-35h-46l-187 -421l-38 0z" />
<glyph unicode="&#119;" horiz-adv-x="734" d="M48 415h-43v35h154v-35h-67l73 -224q3 -9 9 -28q6 -19 13 -40.5q7 -21.5 13 -40.5q6 -19 9 -28q3 8 9.5 27q6.5 19 14 40.5q7.5 21.5 15 41.5q7.5 20 11.5 31l96 256h30l98 -256q3 -9 10 -28.5q7 -19.5 15.5 -42q8.5 -22.5 15.5 -42q7 -19.5 10 -28.5q3 9 9 28.5q6 19.5 12.5 41.5q6.5 22 13 41.5q6.5 19.5 9.5 28.5l69 222h-73v35h156v-35h-43l-135 -421h-37l-97 256q-3 8 -10 27.5q-7 19.5 -15 41q-8 21.5 -15 41q-7 19.5 -10 27.5q-3 -9 -10 -29q-7 -20 -14.5 -41.5q-7.5 -21.5 -15 -40.5q-7.5 -19 -10.5 -27l-95 -255l-34 0z" />
<glyph unicode="&#120;" horiz-adv-x="509" d="M388 35l-131 168l-137 -168h63v-35h-160v35h49l162 195l-148 185h-52v35h110v-35h-5l122 -155l127 155h-59v35h149v-35h-42l-152 -182l157 -198h46v-35h-100l0 35z" />
<glyph unicode="&#121;" horiz-adv-x="508" d="M46 415h-36v35h153v-35h-69l148 -301q9 -19 16.5 -35q7.5 -16 16.5 -36q7 20 12.5 36.5q5.5 16.5 13.5 36.5l118 299h-68v35h148v-35h-35l-169 -415q-25 -60 -46 -99q-21 -39 -40.5 -61.5q-19.5 -22.5 -39.5 -31q-20 -8.5 -43 -8.5q-29 0 -47 16.5q-18 16.5 -18 38.5q0 15 10 25q10 10 24 10q14 0 22 -8q8 -8 9 -19q0 -4 -2 -8.5q-2 -4.5 -7 -6.5q3 -4 9 -5.5q6 -1.5 10 -1.5q31 2 55 35.5q24 33.5 52 99.5l10 24z" />
<glyph unicode="&#122;" horiz-adv-x="465" d="M43 29l328 384h-279v-103h-37v140h373v-29l-330 -383h287v102h38v-140l-380 0z" />
<glyph unicode="&#123;" horiz-adv-x="307" d="M288 -160v-40h-59q-58 0 -88.5 29q-30.5 29 -30.5 95v183q0 30 -8.5 49q-8.5 19 -21.5 30.5q-13 11.5 -29 15.5q-16 4 -31 4l0 38q13 0 29 5q16 5 29.5 17.5q13.5 12.5 22.5 34q9 21.5 9 54.5v166q0 30 6 54q6 24 20 40.5q14 16.5 36.5 25.5q22.5 9 56.5 9h59v-40h-50q-45 0 -64 -23.5q-19 -23.5 -19 -76.5v-170q0 -49 -20.5 -79q-20.5 -30 -54.5 -35q32 -4 53.5 -30q21.5 -26 21.5 -84v-174q0 -53 22.5 -75.5q22.5 -22.5 66.5 -22.5z" />
<glyph unicode="&#124;" horiz-adv-x="320" d="M138 700h45v-700l-45 0z" />
<glyph unicode="&#125;" horiz-adv-x="307" d="M20 -160h44q44 0 66.5 22.5q22.5 22.5 22.5 75.5v174q0 58 21.5 84q21.5 26 53.5 30q-34 5 -54.5 35q-20.5 30 -20.5 79v170q0 53 -19 76.5q-19 23.5 -64 23.5h-50v40h59q67 0 93 -34q26 -34 26 -95v-166q0 -33 9 -54.5q9 -21.5 22.5 -34q13.5 -12.5 29 -17.5q15.5 -5 29.5 -5l0 -37q-15 0 -31 -4.5q-16 -4.5 -29 -15.5q-13 -11 -21.5 -30.5q-8.5 -19.5 -8.5 -49.5v-183q0 -66 -30.5 -95q-30.5 -29 -89.5 -29l-58 0z" />
<glyph unicode="&#126;" horiz-adv-x="588" d="M529 359q-58 -55 -115 -55q-30 0 -58.5 11.5q-28.5 11.5 -57 25.5q-28.5 14 -56.5 25.5q-28 11.5 -56 11.5q-27 0 -53.5 -14q-26.5 -14 -51.5 -38l-22 29q32 32 64 47.5q32 15.5 62 15.5q31 0 59.5 -11.5q28.5 -11.5 57 -25.5q28.5 -14 56.5 -25.5q28 -11.5 57 -11.5q46 0 94 46z" />
<glyph unicode="&#160;" horiz-adv-x="240" />
<glyph unicode="&#161;" horiz-adv-x="310" d="M178 -243h-48v512h48zM201 413q0 -17 -13 -30.5q-13 -13.5 -34 -13.5q-20 0 -32 13.5q-12 13.5 -12 30.5q0 19 12 33q12 14 32 14q21 0 34 -14t13 -33z" />
<glyph unicode="&#162;" horiz-adv-x="588" d="M295 -7q-45 5 -82.5 23.5q-37.5 18.5 -64 48.5q-26.5 30 -41.5 70.5q-15 40.5 -15 89.5q0 46 15.5 87q15.5 41 42.5 72q27 31 64 50.5q37 19.5 81 23.5l0 110h45v-110q33 0 62 -9.5q29 -9.5 50.5 -25q21.5 -15.5 33.5 -35q12 -19.5 12 -39.5q0 -16 -10.5 -26q-10.5 -10 -24.5 -10q-14 0 -24.5 10.5q-10.5 10.5 -10.5 24.5q0 5 3 11.5q3 6.5 8 9.5q-11 20 -43.5 35q-32.5 15 -73.5 15q-37 0 -70 -14.5q-33 -14.5 -58 -40.5q-25 -26 -39.5 -61.5q-14.5 -35.5 -14.5 -77.5q0 -44 14.5 -80q14.5 -36 40.5 -61q26 -25 61.5 -38.5q35.5 -13.5 76.5 -13.5q45 0 82 17.5q37 17.5 61 45.5l22 -31q-27 -33 -67.5 -51.5q-40.5 -18.5 -85.5 -20.5l-5 0v-112l-45 0z" />
<glyph unicode="&#163;" horiz-adv-x="588" d="M46 28q36 38 76 53q24 29 39 67q15 38 15 89q0 25 -5 48l-89 0v38h78q-8 21 -17.5 41q-9.5 20 -18 41.5q-8.5 21.5 -14 47.5q-5.5 26 -5.5 61q0 37 14 72q14 35 40.5 62q26.5 27 65 43.5q38.5 16.5 86.5 16.5q36 0 69.5 -8.5q33.5 -8.5 59 -24q25.5 -15.5 40.5 -36q15 -20.5 15 -44.5q0 -16 -11 -26.5q-11 -10.5 -25 -10.5q-15 0 -25.5 11q-10.5 11 -10.5 25q0 5 2.5 11.5q2.5 6.5 8.5 9.5q-5 10 -17.5 19.5q-12.5 9.5 -29 16.5q-16.5 7 -36.5 11q-20 4 -41 4q-36 0 -64.5 -13q-28.5 -13 -48.5 -35q-20 -22 -31 -49.5q-11 -27.5 -11 -56.5q0 -33 6 -58q6 -25 15 -46.5q9 -21.5 18.5 -41.5q9.5 -20 17.5 -43l174 0v-38h-167q2 -11 3.5 -22q1.5 -11 1.5 -25q0 -51 -15.5 -86.5q-15.5 -35.5 -37.5 -62.5q11 4 24 4q29 0 56.5 -8q27.5 -8 54.5 -18q27 -10 53.5 -18q26.5 -8 53.5 -8q28 0 55 10q27 10 56 38l21 -34q-32 -32 -66 -45.5q-34 -13.5 -68 -13.5q-29 0 -57.5 8q-28.5 8 -56.5 18q-28 10 -56.5 18q-28.5 8 -57.5 8q-60 0 -116 -55z" />
<glyph unicode="&#164;" horiz-adv-x="588" d="M23 104l97 99q-24 29 -36.5 66.5q-12.5 37.5 -12.5 78.5q0 82 49 145l-91 92l29 29l91 -92q28 24 64.5 38.5q36.5 14.5 81.5 14.5q45 0 81 -14.5q36 -14.5 64 -38.5l97 97l29 -29l-97 -97q23 -30 36 -67.5q13 -37.5 13 -77.5q0 -41 -13 -78.5q-13 -37.5 -36 -66.5l93 -94l-28 -28l-93 93q-28 -25 -64.5 -39q-36.5 -14 -81.5 -14q-45 0 -81.5 14q-36.5 14 -64.5 38l-98 -97zM295 161q43 0 76.5 15q33.5 15 56.5 41q23 26 35.5 59.5q12.5 33.5 12.5 71.5q0 38 -12.5 72q-12.5 34 -35.5 59.5q-23 25.5 -57 40.5q-34 15 -76 15q-42 0 -76 -15q-34 -15 -57 -41q-23 -26 -35.5 -60q-12.5 -34 -12.5 -71q0 -38 12.5 -71.5q12.5 -33.5 35.5 -59.5q23 -26 57 -41t76 -15z" />
<glyph unicode="&#165;" horiz-adv-x="612" d="M186 40h95v117h-198v37h198v113h-198v37h176l-197 316h-63v40h189v-40h-71l190 -307l190 307h-73v40h191v-40h-66l-198 -316h176v-37h-198v-113h198v-37h-198v-117h92v-40l-235 0z" />
<glyph unicode="&#166;" horiz-adv-x="320" d="M138 260h45v-260h-45zM138 700h45v-260l-45 0z" />
<glyph unicode="&#167;" horiz-adv-x="524" d="M107 -108q0 16 11 27q11 11 25 11q15 0 26 -11.5q11 -11.5 11 -25.5q0 -11 -10 -16q5 -11 27 -23q22 -12 52 -12q45 0 75 27q30 27 31 72q0 35 -20.5 57.5q-20.5 22.5 -52 39.5q-31.5 17 -68 33q-36.5 16 -68 38.5q-31.5 22.5 -52.5 55.5q-21 33 -21 84q0 34 12.5 63.5q12.5 29.5 33 52.5q20.5 23 47 38.5q26.5 15.5 54.5 23.5q-17 9 -34.5 20.5q-17.5 11.5 -31.5 27.5q-14 16 -22.5 37q-8.5 21 -8.5 49q0 30 10.5 55.5q10.5 25.5 30.5 44q20 18.5 47.5 29q27.5 10.5 62.5 10.5q30 0 55.5 -7.5q25.5 -7.5 44 -20.5q18.5 -13 28.5 -30.5q10 -17.5 10 -36.5q0 -16 -11 -26.5q-11 -10.5 -26 -10.5q-15 0 -25.5 11q-10.5 11 -10.5 26q0 5 3 10q3 5 8 7q-7 11 -24 23.5q-17 12.5 -52 12.5q-50 0 -78 -27.5q-28 -27.5 -28 -69.5q0 -39 21 -63q21 -24 52.5 -41q31.5 -17 68.5 -32.5q37 -15.5 68.5 -37q31.5 -21.5 52.5 -54q21 -32.5 21 -84.5q0 -34 -12 -62.5q-12 -28.5 -32 -51.5q-20 -23 -46.5 -39.5q-26.5 -16.5 -54.5 -25.5q15 -9 31.5 -20q16.5 -11 30 -26.5q13.5 -15.5 22.5 -36.5q9 -21 9 -48q0 -30 -10.5 -55.5q-10.5 -25.5 -30.5 -44q-20 -18.5 -48 -29q-28 -10.5 -62 -10.5q-27 0 -53 7.5q-26 7.5 -45.5 20q-19.5 12.5 -31.5 29.5q-12 17 -12 35zt0 0zM272 93q26 6 50.5 20q24.5 14 43 34.5q18.5 20.5 30 46q11.5 25.5 11.5 55.5q0 30 -12 54q-12 24 -32.5 42.5q-20.5 18.5 -49 32.5q-28.5 14 -61.5 25q-28 -7 -52.5 -21q-24.5 -14 -42.5 -33.5q-18 -19.5 -28.5 -44.5q-10.5 -25 -10.5 -55q0 -30 11.5 -54q11.5 -24 32 -42.5q20.5 -18.5 48.5 -33t62 -26.5z" />
<glyph unicode="&#168;" horiz-adv-x="387" d="M93 603q-14 0 -25.5 9.5q-11.5 9.5 -11.5 26.5q0 15 11.5 25q11.5 10 25.5 10q13 0 24 -10q11 -10 11 -25q0 -17 -11 -26.5q-11 -9.5 -24 -9.5zt0 0zM297 603q-14 0 -25 9.5q-11 9.5 -11 26.5q0 15 11 25q11 10 25 10q14 0 24.5 -10q10.5 -10 10.5 -25q0 -17 -10.5 -26.5t-24.5 -9.5z" />
<glyph unicode="&#169;" horiz-adv-x="1018" d="M509 -211q-93 0 -171.5 33.5q-78.5 33.5 -136.5 92q-58 58.5 -90.5 137.5q-32.5 79 -32.5 169q0 90 32.5 168.5q32.5 78.5 90.5 137q58 58.5 136.5 92.5q78.5 34 171.5 34q93 0 172 -34q79 -34 136.5 -92.5q57.5 -58.5 90.5 -137q33 -78.5 33 -168.5q0 -90 -33 -169q-33 -79 -90.5 -137.5q-57.5 -58.5 -136.5 -92q-79 -33.5 -172 -33.5zt0 0zM509 -171q84 0 156 31q72 31 124.5 84q52.5 53 82 124.5q29.5 71.5 29.5 152.5q0 81 -29.5 152.5q-29.5 71.5 -82 124.5q-52.5 53 -124.5 84q-72 31 -156 31q-84 0 -156 -31q-72 -31 -124 -84q-52 -53 -81.5 -124.5q-29.5 -71.5 -29.5 -152.5q0 -81 29.5 -152.5q29.5 -71.5 81.5 -124.5q52 -53 124 -84q72 -31 156 -31zt0 0zM280 225q0 49 17 92q17 43 47 74.5q30 31.5 70.5 49.5q40.5 18 88.5 18q38 0 71 -8.5q33 -8.5 57 -23q24 -14.5 38 -34q14 -19.5 14 -42.5q0 -16 -11 -26.5q-11 -10.5 -26 -10.5q-16 0 -26.5 11q-10.5 11 -10.5 26q0 5 3 11q3 6 9 9q-10 18 -40.5 33q-30.5 15 -68.5 15q-39 0 -73 -14.5q-34 -14.5 -59 -40.5q-25 -26 -39 -61.5q-14 -35.5 -14 -77.5q0 -44 15 -79.5q15 -35.5 41 -60.5q26 -25 61 -38q35 -13 76 -13q45 0 82 17.5q37 17.5 61 44.5l22 -32q-29 -36 -74 -54.5q-45 -18.5 -94 -18.5q-52 0 -95.5 16.5q-43.5 16.5 -75 47q-31.5 30.5 -49 74t-17.5 96.5z" />
<glyph unicode="&#170;" horiz-adv-x="395" d="M370 383v-28h-91v50q-12 -20 -40 -37.5q-28 -17.5 -76 -17.5q-56 0 -85.5 24.5q-29.5 24.5 -29.5 63.5q0 37 30.5 60q30.5 23 99.5 23q31 0 56.5 -4q25.5 -4 45.5 -12q1 5 1 16.5q0 11.5 0 16.5q0 45 -22 70q-22 25 -70 25q-23 0 -44 -8.5q-21 -8.5 -26 -20.5q6 -2 9.5 -8q3.5 -6 3.5 -12q0 -11 -7.5 -19q-7.5 -8 -21.5 -8q-12 0 -20 7.5q-8 7.5 -8 21.5q0 18 10.5 32.5q10.5 14.5 27.5 24q17 9.5 37.5 14.5q20.5 5 41.5 5q69 0 99 -30q30 -30 30 -86q0 -15 -0.5 -35.5q-0.5 -20.5 -0.5 -42.5q0 -22 -0.5 -44.5q-0.5 -22.5 -0.5 -40.5zM90 439q0 -28 23 -44q23 -16 61 -16q42 0 66.5 15q24.5 15 39.5 34l0 52q-40 17 -95 17q-48 0 -71.5 -15.5t-23.5 -42.5z" />
<glyph unicode="&#171;" horiz-adv-x="499" d="M53 248v4l180 207l29 -26l-158 -183l157 -183l-30 -28zM223 248v4l180 207l29 -26l-158 -183l157 -183l-30 -28z" />
<glyph unicode="&#172;" horiz-adv-x="588" d="M521 380v-171h-40v131h-414l0 40z" />
<glyph unicode="&#173;" horiz-adv-x="401" d="M88 293h226v-43l-226 0z" />
<glyph unicode="&#174;" horiz-adv-x="573" d="M287 264q-48 0 -90.5 18.5q-42.5 18.5 -74 50q-31.5 31.5 -49.5 74q-18 42.5 -18 90.5q0 48 18 90q18 42 49.5 73.5q31.5 31.5 74 49.5q42.5 18 90.5 18q48 0 90 -18q42 -18 73.5 -49.5q31.5 -31.5 49.5 -73.5q18 -42 18 -90q0 -48 -18 -90.5q-18 -42.5 -49.5 -74q-31.5 -31.5 -73.5 -50q-42 -18.5 -90 -18.5zt0 0zM287 302q40 0 75.5 15.5q35.5 15.5 61.5 41.5q26 26 41.5 61.5q15.5 35.5 15.5 75.5q0 40 -15.5 75.5q-15.5 35.5 -41.5 61.5q-26 26 -61.5 41.5q-35.5 15.5 -75.5 15.5q-40 0 -75.5 -15.5q-35.5 -15.5 -61.5 -41.5q-26 -26 -41.5 -61.5q-15.5 -35.5 -15.5 -75.5q0 -40 15.5 -75.5q15.5 -35.5 41.5 -61.5q26 -26 61.5 -41.5q35.5 -15.5 75.5 -15.5zt0 0zM201 640h80q29 0 48.5 -6.5q19.5 -6.5 31 -18q11.5 -11.5 16.5 -26q5 -14.5 5 -30.5q0 -28 -18 -50q-18 -22 -49 -30l90 -119h-40l-84 114h-47v-114h-33zM283 499q25 0 46 16q21 16 21 43q0 26 -19 41.5q-19 15.5 -54 15.5h-43l0 -116z" />
<glyph unicode="&#175;" horiz-adv-x="369" d="M60 648h249v-38l-249 0z" />
<glyph unicode="&#176;" horiz-adv-x="395" d="M197 428q-29 0 -55 11q-26 11 -45.5 30q-19.5 19 -30.5 45q-11 26 -11 56q0 30 11 56q11 26 30.5 45.5q19.5 19.5 45.5 30.5q26 11 55 11q30 0 56 -11q26 -11 45.5 -30q19.5 -19 30.5 -45q11 -26 11 -56q0 -30 -11 -56q-11 -26 -30.5 -45.5q-19.5 -19.5 -45.5 -30.5q-26 -11 -56 -11zt0 0zM198 468q21 0 39.5 8q18.5 8 32.5 22q14 14 22 32.5q8 18.5 8 39.5q0 21 -8 39.5q-8 18.5 -22 33q-14 14.5 -32.5 22.5q-18.5 8 -39.5 8q-21 0 -40 -8q-19 -8 -33 -22.5q-14 -14.5 -22 -33q-8 -18.5 -8 -39.5q0 -21 8 -39.5q8 -18.5 22 -32.5q14 -14 33 -22t40 -8z" />
<glyph unicode="&#177;" horiz-adv-x="588" d="M272 458v201h42v-201h202v-40h-202v-143h-42v143h-200v40zM72 215h444v-40l-444 0z" />
<glyph unicode="&#178;" horiz-adv-x="348" d="M35 379q31 17 69 41q38 24 71 52.5q33 28.5 55 60.5q22 32 22 65q0 30 -20 50.5q-20 20.5 -62 20.5q-25 0 -45 -10.5q-20 -10.5 -31 -30.5q9 -4 14.5 -12.5q5.5 -8.5 5.5 -16.5q0 -14 -9 -23q-9 -9 -25 -9q-15 0 -24.5 9.5q-9.5 9.5 -9.5 26.5q0 18 9 36q9 18 25.5 32.5q16.5 14.5 39.5 23.5q23 9 52 9q32 0 55 -8q23 -8 38 -21.5q15 -13.5 22 -32q7 -18.5 7 -38.5q0 -39 -24.5 -74.5q-24.5 -35.5 -57 -64.5q-32.5 -29 -65 -50q-32.5 -21 -48.5 -30l182 0v54h33v-89l-279 0z" />
<glyph unicode="&#179;" horiz-adv-x="352" d="M167 542q38 0 60.5 20q22.5 20 22.5 49q0 29 -21 46q-21 17 -63 17q-23 0 -46 -9.5q-23 -9.5 -31 -26.5q5 -2 10.5 -9q5.5 -7 5.5 -14q0 -13 -8 -21.5q-8 -8.5 -22 -8.5q-14 0 -24 8.5q-10 8.5 -10 24.5q0 18 10 34q10 16 28 28q18 12 41.5 19q23.5 7 50.5 7q60 0 90.5 -23q30.5 -23 30.5 -65q0 -28 -17 -50.5q-17 -22.5 -51 -33.5l0 -2q44 -5 64 -30q20 -25 20 -55q0 -48 -37.5 -75.5q-37.5 -27.5 -104.5 -27.5q-30 0 -55 8.5q-25 8.5 -43 22q-18 13.5 -28 30.5q-10 17 -10 34q0 14 10.5 24q10.5 10 25.5 10q15 0 24 -9.5q9 -9.5 9 -22.5q0 -8 -5.5 -15q-5.5 -7 -13.5 -9q11 -18 34 -29.5q23 -11.5 57 -11.5q49 0 72 21q23 21 23 51q0 29 -22.5 48q-22.5 19 -67.5 19h-42l0 27z" />
<glyph unicode="&#180;" horiz-adv-x="262" d="M60 565l108 149l35 -27l-115 -142z" />
<glyph unicode="&#181;" horiz-adv-x="568" d="M95 415h-60v35h105v-244q0 -93 35 -134q35 -41 108 -41q25 0 49 7.5q24 7.5 44.5 19q20.5 11.5 37 26q16.5 14.5 27.5 28.5l0 303h-60v35h105v-415h61v-35h-106v74q-13 -16 -32 -31q-19 -15 -41.5 -26.5q-22.5 -11.5 -48 -18.5q-25.5 -7 -52.5 -7q-94 0 -127 68l0 -259l-45 0z" />
<glyph unicode="&#182;" horiz-adv-x="431" d="M257 263q-43 0 -80 15q-37 15 -64.5 43q-27.5 28 -43.5 68.5q-16 40.5 -16 91.5q0 103 55 161q55 58 151 58h137v-42h-94v-691q0 -81 -31.5 -128q-31.5 -47 -111.5 -47q-29 0 -55 9.5q-26 9.5 -42 23.5l20 33q12 -9 31.5 -16.5q19.5 -7.5 42.5 -7.5q32 0 51.5 10.5q19.5 10.5 30.5 29q11 18.5 15 43q4 24.5 4 51.5z" />
<glyph unicode="&#183;" horiz-adv-x="185" d="M50 336q0 17 13 30.5q13 13.5 34 13.5q20 0 32 -13.5q12 -13.5 12 -30.5q0 -19 -12 -33q-12 -14 -32 -14q-21 0 -34 14t-13 33z" />
<glyph unicode="&#184;" horiz-adv-x="324" d="M140 0h26v-52q52 -2 75.5 -22q23.5 -20 23.5 -53q0 -33 -29.5 -54.5q-29.5 -21.5 -83.5 -21.5q-29 0 -50.5 8q-21.5 8 -41.5 19l14 24q18 -10 37 -15.5q19 -5.5 36 -5.5q32 0 52.5 12.5q20.5 12.5 20.5 35.5q0 23 -16.5 36.5q-16.5 13.5 -57.5 13.5l-6 0z" />
<glyph unicode="&#185;" horiz-adv-x="261" d="M47 383h76v258q-17 -13 -37 -21.5q-20 -8.5 -43 -15.5l-9 27q35 13 63.5 31q28.5 18 46.5 45l19 0v-324h71v-33l-187 0z" />
<glyph unicode="&#186;" horiz-adv-x="428" d="M214 350q-36 0 -66 11q-30 11 -52 31.5q-22 20.5 -34 49q-12 28.5 -12 64.5q0 35 12 64q12 29 34 49.5q22 20.5 52 31.5q30 11 66 11q36 0 66 -11q30 -11 52 -31.5q22 -20.5 34 -49.5q12 -29 12 -64q0 -36 -12 -64.5q-12 -28.5 -34 -49q-22 -20.5 -52 -31.5q-30 -11 -66 -11zt0 0zM214 380q51 0 86.5 33q35.5 33 35.5 93q0 29 -9.5 52.5q-9.5 23.5 -26 40q-16.5 16.5 -39 25q-22.5 8.5 -47.5 8.5q-25 0 -47 -9q-22 -9 -38.5 -25.5q-16.5 -16.5 -26 -40q-9.5 -23.5 -9.5 -51.5q0 -30 10 -53.5q10 -23.5 26.5 -39.5q16.5 -16 38.5 -24.5t46 -8.5z" />
<glyph unicode="&#187;" horiz-adv-x="499" d="M69 67l157 183l-158 183l29 26l180 -207v-4l-178 -209zM239 67l157 183l-158 183l29 26l180 -207v-4l-178 -209z" />
<glyph unicode="&#188;" horiz-adv-x="665" d="M52 383h76v258q-17 -13 -37 -21.5q-20 -8.5 -43 -15.5l-9 27q35 13 63.5 31q28.5 18 46.5 45l19 0v-324h71v-33h-187zM534 121v104h27h11v-104h62v-32h-62v-89h-38v89h-195v26q56 57 96 116.5q40 59.5 61 118.5l39 0q-9 -27 -24.5 -57.5q-15.5 -30.5 -35.5 -61q-20 -30.5 -43.5 -59q-23.5 -28.5 -47.5 -51.5zM71 11l523 698l27 -19l-522 -699z" />
<glyph unicode="&#189;" horiz-adv-x="696" d="M52 383h76v258q-17 -13 -37 -21.5q-20 -8.5 -43 -15.5l-9 27q35 13 63.5 31q28.5 18 46.5 45l19 0v-324h71v-33h-187zM384 29q31 17 69 41q38 24 71 52.5q33 28.5 55 60.5q22 32 22 65q0 30 -20 50.5q-20 20.5 -62 20.5q-25 0 -45 -10.5q-20 -10.5 -31 -30.5q9 -4 14.5 -12.5q5.5 -8.5 5.5 -16.5q0 -14 -9 -23q-9 -9 -25 -9q-15 0 -24.5 9.5q-9.5 9.5 -9.5 26.5q0 18 9 36q9 18 25.5 32.5q16.5 14.5 39.5 23.5q23 9 52 9q32 0 55 -8q23 -8 38 -21.5q15 -13.5 22 -32q7 -18.5 7 -38.5q0 -39 -24.5 -74.5q-24.5 -35.5 -57 -64.5q-32.5 -29 -65 -50q-32.5 -21 -48.5 -30l182 0v54h33v-89h-279zM51 11l523 698l27 -19l-522 -699z" />
<glyph unicode="&#190;" horiz-adv-x="698" d="M167 542q38 0 60.5 20q22.5 20 22.5 49q0 29 -21 46q-21 17 -63 17q-23 0 -46 -9.5q-23 -9.5 -31 -26.5q5 -2 10.5 -9q5.5 -7 5.5 -14q0 -13 -8 -21.5q-8 -8.5 -22 -8.5q-14 0 -24 8.5q-10 8.5 -10 24.5q0 18 10 34q10 16 28 28q18 12 41.5 19q23.5 7 50.5 7q60 0 90.5 -23q30.5 -23 30.5 -65q0 -28 -17 -50.5q-17 -22.5 -51 -33.5l0 -2q44 -5 64 -30q20 -25 20 -55q0 -48 -37.5 -75.5q-37.5 -27.5 -104.5 -27.5q-30 0 -55 8.5q-25 8.5 -43 22q-18 13.5 -28 30.5q-10 17 -10 34q0 14 10.5 24q10.5 10 25.5 10q15 0 24 -9.5q9 -9.5 9 -22.5q0 -8 -5.5 -15q-5.5 -7 -13.5 -9q11 -18 34 -29.5q23 -11.5 57 -11.5q49 0 72 21q23 21 23 51q0 29 -22.5 48q-22.5 19 -67.5 19h-42v27zM577 121v104h27h11v-104h62v-32h-62v-89h-38v89h-195v26q56 57 96 116.5q40 59.5 61 118.5l39 0q-9 -27 -24.5 -57.5q-15.5 -30.5 -35.5 -61q-20 -30.5 -43.5 -59q-23.5 -28.5 -47.5 -51.5zM114 11l523 698l27 -19l-522 -699z" />
<glyph unicode="&#191;" horiz-adv-x="467" d="M280 271q3 -12 4 -22.5q1 -10.5 1 -20.5q0 -38 -14.5 -64q-14.5 -26 -36.5 -46q-22 -20 -48 -37.5q-26 -17.5 -48 -38q-22 -20.5 -37 -48q-15 -27.5 -15 -66.5q0 -29 11 -53.5q11 -24.5 31 -43.5q20 -19 47.5 -29.5q27.5 -10.5 60.5 -10.5q47 0 79 19q32 19 42 44q-13 2 -20.5 11.5q-7.5 9.5 -7.5 23.5q0 18 13 28.5q13 10.5 31 10.5q17 0 30 -13q13 -13 13 -33q0 -27 -15.5 -51q-15.5 -24 -41 -42q-25.5 -18 -58.5 -29q-33 -11 -68 -11q-47 0 -83.5 13.5q-36.5 13.5 -61 37q-24.5 23.5 -37.5 54q-13 30.5 -13 65.5q0 46 15 78q15 32 38 55.5q23 23.5 49.5 41.5q26.5 18 49.5 37.5q23 19.5 38 43.5q15 24 15 59q1 8 0 16.5q-1 8.5 -3 18.5zM301 413q0 -17 -13 -30.5q-13 -13.5 -34 -13.5q-20 0 -32 13.5q-12 13.5 -12 30.5q0 19 12 33q12 14 32 14q21 0 34 -14t13 -33z" />
<glyph unicode="&#192;" horiz-adv-x="745" d="M5 40h58l279 662h56l282 -662h60v-40h-193v40h82l-88 205h-342l-88 -205h91v-40h-197zM524 290l-125 295q-3 6 -7 15.5q-4 9.5 -8 20.5q-4 11 -8 21q-4 10 -6 16l-2 0q-2 -6 -5.5 -16q-3.5 -10 -8 -21q-4.5 -11 -8.5 -20.5q-4 -9.5 -7 -15.5l-122 -295zM418 766l-14 -27l-178 87l17 38z" />
<glyph unicode="&#193;" horiz-adv-x="745" d="M5 40h58l279 662h56l282 -662h60v-40h-193v40h82l-88 205h-342l-88 -205h91v-40h-197zM524 290l-125 295q-3 6 -7 15.5q-4 9.5 -8 20.5q-4 11 -8 21q-4 10 -6 16l-2 0q-2 -6 -5.5 -16q-3.5 -10 -8 -21q-4.5 -11 -8.5 -20.5q-4 -9.5 -7 -15.5l-122 -295zM328 766l175 98l17 -38l-178 -87z" />
<glyph unicode="&#194;" horiz-adv-x="745" d="M5 40h58l279 662h56l282 -662h60v-40h-193v40h82l-88 205h-342l-88 -205h91v-40h-197zM524 290l-125 295q-3 6 -7 15.5q-4 9.5 -8 20.5q-4 11 -8 21q-4 10 -6 16l-2 0q-2 -6 -5.5 -16q-3.5 -10 -8 -21q-4.5 -11 -8.5 -20.5q-4 -9.5 -7 -15.5l-122 -295zM201 764l168 97h4l169 -96l-20 -27l-151 82l-152 -82z" />
<glyph unicode="&#195;" horiz-adv-x="745" d="M5 40h58l279 662h56l282 -662h60v-40h-193v40h82l-88 205h-342l-88 -205h91v-40h-197zM524 290l-125 295q-3 6 -7 15.5q-4 9.5 -8 20.5q-4 11 -8 21q-4 10 -6 16l-2 0q-2 -6 -5.5 -16q-3.5 -10 -8 -21q-4.5 -11 -8.5 -20.5q-4 -9.5 -7 -15.5l-122 -295zM538 796q-21 -25 -43.5 -35q-22.5 -10 -46.5 -10q-21 0 -41 7q-20 7 -39.5 15.5q-19.5 8.5 -39.5 15.5q-20 7 -41 7q-33 0 -66 -27l-16 28q42 39 88 39q22 0 42 -7q20 -7 38.5 -15.5q18.5 -8.5 37.5 -15.5q19 -7 39 -7q17 0 36 6.5q19 6.5 38 26.5z" />
<glyph unicode="&#196;" horiz-adv-x="745" d="M5 40h58l279 662h56l282 -662h60v-40h-193v40h82l-88 205h-342l-88 -205h91v-40h-197zM524 290l-125 295q-3 6 -7 15.5q-4 9.5 -8 20.5q-4 11 -8 21q-4 10 -6 16l-2 0q-2 -6 -5.5 -16q-3.5 -10 -8 -21q-4.5 -11 -8.5 -20.5q-4 -9.5 -7 -15.5l-122 -295zM260 762q-16 0 -27.5 9q-11.5 9 -11.5 26q0 15 11.5 24q11.5 9 27.5 9q14 0 25.5 -9q11.5 -9 11.5 -24q0 -17 -11.5 -26q-11.5 -9 -25.5 -9zt0 0zM486 762q-16 0 -27.5 9q-11.5 9 -11.5 26q0 15 11.5 24q11.5 9 27.5 9q14 0 26 -9q12 -9 12 -24q0 -17 -12 -26t-26 -9z" />
<glyph unicode="&#197;" horiz-adv-x="745" d="M5 40h58l279 662h56l282 -662h60v-40h-193v40h82l-88 205h-342l-88 -205h91v-40h-197zM524 290l-125 295q-3 6 -7 15.5q-4 9.5 -8 20.5q-4 11 -8 21q-4 10 -6 16l-2 0q-2 -6 -5.5 -16q-3.5 -10 -8 -21q-4.5 -11 -8.5 -20.5q-4 -9.5 -7 -15.5l-122 -295zM371 727q-22 0 -41.5 5.5q-19.5 5.5 -34.5 17q-15 11.5 -23.5 28q-8.5 16.5 -8.5 38.5q0 22 8.5 38.5q8.5 16.5 23.5 27q15 10.5 34.5 15.5q19.5 5 41.5 5q46 0 78 -21q32 -21 32 -65q0 -44 -32 -66.5q-32 -22.5 -78 -22.5zt0 0zM372 755q31 0 52.5 15q21.5 15 21.5 46q0 31 -21.5 44.5q-21.5 13.5 -52.5 13.5q-32 0 -53 -13.5q-21 -13.5 -21 -44.5q0 -31 21 -46t53 -15z" />
<glyph unicode="&#198;" horiz-adv-x="999" d="M3 40h61l402 620h-82v40h533v-175h-40v135h-312v-284h232v-40h-232v-296h327v151h40v-191h-500v40h86v209h-267l-138 -209h78v-40h-188zM518 294v364h-6q-7 -12 -12 -21q-5 -9 -12 -21l-211 -322z" />
<glyph unicode="&#199;" horiz-adv-x="686" d="M377 -9q-74 4 -133.5 31q-59.5 27 -102 73.5q-42.5 46.5 -65.5 111q-23 64.5 -23 143.5q0 75 24 140.5q24 65.5 68 114q44 48.5 107.5 76.5q63.5 28 141.5 28q58 0 107.5 -14.5q49.5 -14.5 88.5 -44.5l0 50h40v-175h-40v80q-39 32 -88 47q-49 15 -107 15q-65 0 -119 -24q-54 -24 -92.5 -67q-38.5 -43 -59.5 -101q-21 -58 -21 -125q0 -71 22 -129q22 -58 62 -99.5q40 -41.5 96 -64.5q56 -23 123 -23q53 0 102 17.5q49 17.5 86 47.5l0 92h40v-191h-40v54q-36 -29 -86 -45q-50 -16 -104 -18l0 -43q54 -2 77.5 -22q23.5 -20 23.5 -53q0 -33 -30 -54.5q-30 -21.5 -82 -21.5q-32 0 -55 8.5q-23 8.5 -43 19.5l15 26q18 -11 37.5 -17.5q19.5 -6.5 36.5 -6.5q32 0 52.5 12.5q20.5 12.5 20.5 35.5q0 23 -16.5 36.5q-16.5 13.5 -57.5 13.5l-6 0z" />
<glyph unicode="&#200;" horiz-adv-x="625" d="M58 40h85v620h-85v40h485v-175h-40v135h-312v-284h237v-40h-237v-296h327v151h40v-191h-500zM401 766l-14 -27l-178 87l17 38z" />
<glyph unicode="&#201;" horiz-adv-x="625" d="M58 40h85v620h-85v40h485v-175h-40v135h-312v-284h237v-40h-237v-296h327v151h40v-191h-500zM269 766l175 98l17 -38l-178 -87z" />
<glyph unicode="&#202;" horiz-adv-x="625" d="M58 40h85v620h-85v40h485v-175h-40v135h-312v-284h237v-40h-237v-296h327v151h40v-191h-500zM166 764l168 97h4l169 -96l-20 -27l-151 82l-152 -82z" />
<glyph unicode="&#203;" horiz-adv-x="625" d="M58 40h85v620h-85v40h485v-175h-40v135h-312v-284h237v-40h-237v-296h327v151h40v-191h-500zM226 762q-16 0 -27.5 9q-11.5 9 -11.5 26q0 15 11.5 24q11.5 9 27.5 9q14 0 25.5 -9q11.5 -9 11.5 -24q0 -17 -11.5 -26q-11.5 -9 -25.5 -9zt0 0zM452 762q-16 0 -27.5 9q-11.5 9 -11.5 26q0 15 11.5 24q11.5 9 27.5 9q14 0 26 -9q12 -9 12 -24q0 -17 -12 -26t-26 -9z" />
<glyph unicode="&#204;" horiz-adv-x="353" d="M68 40h85v620h-85v40h218v-40h-85v-620h85v-40h-218zM211 766l-14 -27l-178 87l17 38z" />
<glyph unicode="&#205;" horiz-adv-x="353" d="M68 40h85v620h-85v40h218v-40h-85v-620h85v-40h-218zM142 766l175 98l17 -38l-178 -87z" />
<glyph unicode="&#206;" horiz-adv-x="353" d="M68 40h85v620h-85v40h218v-40h-85v-620h85v-40h-218zM7 764l168 97h4l169 -96l-20 -27l-151 82l-152 -82z" />
<glyph unicode="&#207;" horiz-adv-x="353" d="M68 40h85v620h-85v40h218v-40h-85v-620h85v-40h-218zM65 762q-16 0 -27.5 9q-11.5 9 -11.5 26q0 15 11.5 24q11.5 9 27.5 9q14 0 25.5 -9q11.5 -9 11.5 -24q0 -17 -11.5 -26q-11.5 -9 -25.5 -9zt0 0zM291 762q-16 0 -27.5 9q-11.5 9 -11.5 26q0 15 11.5 24q11.5 9 27.5 9q14 0 26 -9q12 -9 12 -24q0 -17 -12 -26t-26 -9z" />
<glyph unicode="&#208;" horiz-adv-x="764" d="M143 40v299h-85v40h85v281h-85v40h96q38 0 78 1.5q40 1.5 87 1.5q105 0 179.5 -28q74.5 -28 122 -75q47.5 -47 69.5 -109q22 -62 22 -130q0 -75 -25 -141.5q-25 -66.5 -75.5 -115.5q-50.5 -49 -125.5 -77.5q-75 -28.5 -175 -28.5q-39 0 -78.5 1q-39.5 1 -81.5 1h-93v40zM391 379v-40h-200v-299q45 0 76 -1q31 -1 39 -1q89 0 156 24q67 24 111.5 67q44.5 43 66.5 102.5q22 59.5 22 129.5q0 64 -20.5 119.5q-20.5 55.5 -63.5 96q-43 40.5 -110 63.5q-67 23 -161 23q-33 0 -58.5 -1q-25.5 -1 -57.5 -2l0 -281z" />
<glyph unicode="&#209;" horiz-adv-x="832" d="M58 40h85v620h-85v40h123l480 -617v577h-84v40h218v-40h-89v-660h-38l-480 615v-575h88v-40h-218zM596 796q-21 -25 -43.5 -35q-22.5 -10 -46.5 -10q-21 0 -41 7q-20 7 -39.5 15.5q-19.5 8.5 -39.5 15.5q-20 7 -41 7q-33 0 -66 -27l-16 28q42 39 88 39q22 0 42 -7q20 -7 38.5 -15.5q18.5 -8.5 37.5 -15.5q19 -7 39 -7q17 0 36 6.5q19 6.5 38 26.5z" />
<glyph unicode="&#210;" horiz-adv-x="804" d="M402 -9q-74 0 -138 27q-64 27 -111 74.5q-47 47.5 -73.5 113.5q-26.5 66 -26.5 144q0 76 26.5 141.5q26.5 65.5 73 114q46.5 48.5 110.5 76q64 27.5 139 27.5q74 0 138 -27q64 -27 111 -74.5q47 -47.5 74 -113.5q27 -66 27 -144q0 -77 -27 -142.5q-27 -65.5 -74 -113.5q-47 -48 -111 -75.5q-64 -27.5 -138 -27.5zt0 0zM402 34q65 0 120 24q55 24 95 66q40 42 62.5 100q22.5 58 22.5 126q0 70 -23 128.5q-23 58.5 -63.5 100.5q-40.5 42 -95.5 65q-55 23 -118 23q-64 0 -118.5 -23q-54.5 -23 -94.5 -65q-40 -42 -63 -100.5q-23 -58.5 -23 -128.5q0 -68 23 -126q23 -58 63 -100q40 -42 95 -66q55 -24 118 -24zt0 0zM488 766l-14 -27l-178 87l17 38z" />
<glyph unicode="&#211;" horiz-adv-x="804" d="M402 -9q-74 0 -138 27q-64 27 -111 74.5q-47 47.5 -73.5 113.5q-26.5 66 -26.5 144q0 76 26.5 141.5q26.5 65.5 73 114q46.5 48.5 110.5 76q64 27.5 139 27.5q74 0 138 -27q64 -27 111 -74.5q47 -47.5 74 -113.5q27 -66 27 -144q0 -77 -27 -142.5q-27 -65.5 -74 -113.5q-47 -48 -111 -75.5q-64 -27.5 -138 -27.5zt0 0zM402 34q65 0 120 24q55 24 95 66q40 42 62.5 100q22.5 58 22.5 126q0 70 -23 128.5q-23 58.5 -63.5 100.5q-40.5 42 -95.5 65q-55 23 -118 23q-64 0 -118.5 -23q-54.5 -23 -94.5 -65q-40 -42 -63 -100.5q-23 -58.5 -23 -128.5q0 -68 23 -126q23 -58 63 -100q40 -42 95 -66q55 -24 118 -24zt0 0zM341 766l175 98l17 -38l-178 -87z" />
<glyph unicode="&#212;" horiz-adv-x="804" d="M402 -9q-74 0 -138 27q-64 27 -111 74.5q-47 47.5 -73.5 113.5q-26.5 66 -26.5 144q0 76 26.5 141.5q26.5 65.5 73 114q46.5 48.5 110.5 76q64 27.5 139 27.5q74 0 138 -27q64 -27 111 -74.5q47 -47.5 74 -113.5q27 -66 27 -144q0 -77 -27 -142.5q-27 -65.5 -74 -113.5q-47 -48 -111 -75.5q-64 -27.5 -138 -27.5zt0 0zM402 34q65 0 120 24q55 24 95 66q40 42 62.5 100q22.5 58 22.5 126q0 70 -23 128.5q-23 58.5 -63.5 100.5q-40.5 42 -95.5 65q-55 23 -118 23q-64 0 -118.5 -23q-54.5 -23 -94.5 -65q-40 -42 -63 -100.5q-23 -58.5 -23 -128.5q0 -68 23 -126q23 -58 63 -100q40 -42 95 -66q55 -24 118 -24zt0 0zM235 764l168 97h4l169 -96l-20 -27l-151 82l-152 -82z" />
<glyph unicode="&#213;" horiz-adv-x="804" d="M402 -9q-74 0 -138 27q-64 27 -111 74.5q-47 47.5 -73.5 113.5q-26.5 66 -26.5 144q0 76 26.5 141.5q26.5 65.5 73 114q46.5 48.5 110.5 76q64 27.5 139 27.5q74 0 138 -27q64 -27 111 -74.5q47 -47.5 74 -113.5q27 -66 27 -144q0 -77 -27 -142.5q-27 -65.5 -74 -113.5q-47 -48 -111 -75.5q-64 -27.5 -138 -27.5zt0 0zM402 34q65 0 120 24q55 24 95 66q40 42 62.5 100q22.5 58 22.5 126q0 70 -23 128.5q-23 58.5 -63.5 100.5q-40.5 42 -95.5 65q-55 23 -118 23q-64 0 -118.5 -23q-54.5 -23 -94.5 -65q-40 -42 -63 -100.5q-23 -58.5 -23 -128.5q0 -68 23 -126q23 -58 63 -100q40 -42 95 -66q55 -24 118 -24zt0 0zM570 796q-21 -25 -43.5 -35q-22.5 -10 -46.5 -10q-21 0 -41 7q-20 7 -39.5 15.5q-19.5 8.5 -39.5 15.5q-20 7 -41 7q-33 0 -66 -27l-16 28q42 39 88 39q22 0 42 -7q20 -7 38.5 -15.5q18.5 -8.5 37.5 -15.5q19 -7 39 -7q17 0 36 6.5q19 6.5 38 26.5z" />
<glyph unicode="&#214;" horiz-adv-x="804" d="M402 -9q-74 0 -138 27q-64 27 -111 74.5q-47 47.5 -73.5 113.5q-26.5 66 -26.5 144q0 76 26.5 141.5q26.5 65.5 73 114q46.5 48.5 110.5 76q64 27.5 139 27.5q74 0 138 -27q64 -27 111 -74.5q47 -47.5 74 -113.5q27 -66 27 -144q0 -77 -27 -142.5q-27 -65.5 -74 -113.5q-47 -48 -111 -75.5q-64 -27.5 -138 -27.5zt0 0zM402 34q65 0 120 24q55 24 95 66q40 42 62.5 100q22.5 58 22.5 126q0 70 -23 128.5q-23 58.5 -63.5 100.5q-40.5 42 -95.5 65q-55 23 -118 23q-64 0 -118.5 -23q-54.5 -23 -94.5 -65q-40 -42 -63 -100.5q-23 -58.5 -23 -128.5q0 -68 23 -126q23 -58 63 -100q40 -42 95 -66q55 -24 118 -24zt0 0zM291 762q-16 0 -27.5 9q-11.5 9 -11.5 26q0 15 11.5 24q11.5 9 27.5 9q14 0 25.5 -9q11.5 -9 11.5 -24q0 -17 -11.5 -26q-11.5 -9 -25.5 -9zt0 0zM517 762q-16 0 -27.5 9q-11.5 9 -11.5 26q0 15 11.5 24q11.5 9 27.5 9q14 0 26 -9q12 -9 12 -24q0 -17 -12 -26t-26 -9z" />
<glyph unicode="&#215;" horiz-adv-x="588" d="M122 217l144 143l-142 143l28 28l142 -143l142 143l28 -28l-142 -143l144 -143l-28 -28l-144 143l-144 -143z" />
<glyph unicode="&#216;" horiz-adv-x="809" d="M133 118q-37 46 -57.5 104.5q-20.5 58.5 -20.5 127.5q0 76 26.5 141.5q26.5 65.5 73 114q46.5 48.5 111 76q64.5 27.5 139.5 27.5q71 0 132 -24.5q61 -24.5 107 -68.5l49 48l27 -27l-50 -48q40 -47 62 -107q22 -60 22 -132q0 -77 -26.5 -142.5q-26.5 -65.5 -73.5 -113.5q-47 -48 -111 -75.5q-64 -27.5 -138 -27.5q-73 0 -135.5 26q-62.5 26 -109.5 73l-49 -48l-27 28zM194 124q41 -42 94.5 -65q53.5 -23 116.5 -23q65 0 120 24q55 24 94.5 66q39.5 42 62 99.5q22.5 57.5 22.5 124.5q0 60 -18.5 111.5q-18.5 51.5 -50.5 92.5zM609 582q-39 39 -91.5 60.5q-52.5 21.5 -112.5 21.5q-64 0 -118.5 -23.5q-54.5 -23.5 -95 -65.5q-40.5 -42 -63.5 -99.5q-23 -57.5 -23 -125.5q0 -57 17 -107q17 -50 47 -90z" />
<glyph unicode="&#217;" horiz-adv-x="760" d="M606 660h-99v40h231v-40h-85v-366q0 -80 -21.5 -137.5q-21.5 -57.5 -57.5 -94q-36 -36.5 -84 -53.5q-48 -17 -100 -17q-61 0 -112.5 19.5q-51.5 19.5 -89.5 58q-38 38.5 -59.5 96.5q-21.5 58 -21.5 135v359h-84v40h225v-40h-93v-354q0 -65 17 -115.5q17 -50.5 48 -85q31 -34.5 74 -52.5q43 -18 96 -18q46 0 86 16q40 16 68.5 48.5q28.5 32.5 45 82.5q16.5 50 16.5 119zM453 766l-14 -27l-178 87l17 38z" />
<glyph unicode="&#218;" horiz-adv-x="760" d="M606 660h-99v40h231v-40h-85v-366q0 -80 -21.5 -137.5q-21.5 -57.5 -57.5 -94q-36 -36.5 -84 -53.5q-48 -17 -100 -17q-61 0 -112.5 19.5q-51.5 19.5 -89.5 58q-38 38.5 -59.5 96.5q-21.5 58 -21.5 135v359h-84v40h225v-40h-93v-354q0 -65 17 -115.5q17 -50.5 48 -85q31 -34.5 74 -52.5q43 -18 96 -18q46 0 86 16q40 16 68.5 48.5q28.5 32.5 45 82.5q16.5 50 16.5 119zM316 766l175 98l17 -38l-178 -87z" />
<glyph unicode="&#219;" horiz-adv-x="760" d="M606 660h-99v40h231v-40h-85v-366q0 -80 -21.5 -137.5q-21.5 -57.5 -57.5 -94q-36 -36.5 -84 -53.5q-48 -17 -100 -17q-61 0 -112.5 19.5q-51.5 19.5 -89.5 58q-38 38.5 -59.5 96.5q-21.5 58 -21.5 135v359h-84v40h225v-40h-93v-354q0 -65 17 -115.5q17 -50.5 48 -85q31 -34.5 74 -52.5q43 -18 96 -18q46 0 86 16q40 16 68.5 48.5q28.5 32.5 45 82.5q16.5 50 16.5 119zM209 764l168 97h4l169 -96l-20 -27l-151 82l-152 -82z" />
<glyph unicode="&#220;" horiz-adv-x="760" d="M606 660h-99v40h231v-40h-85v-366q0 -80 -21.5 -137.5q-21.5 -57.5 -57.5 -94q-36 -36.5 -84 -53.5q-48 -17 -100 -17q-61 0 -112.5 19.5q-51.5 19.5 -89.5 58q-38 38.5 -59.5 96.5q-21.5 58 -21.5 135v359h-84v40h225v-40h-93v-354q0 -65 17 -115.5q17 -50.5 48 -85q31 -34.5 74 -52.5q43 -18 96 -18q46 0 86 16q40 16 68.5 48.5q28.5 32.5 45 82.5q16.5 50 16.5 119zM265 762q-16 0 -27.5 9q-11.5 9 -11.5 26q0 15 11.5 24q11.5 9 27.5 9q14 0 25.5 -9q11.5 -9 11.5 -24q0 -17 -11.5 -26q-11.5 -9 -25.5 -9zt0 0zM491 762q-16 0 -27.5 9q-11.5 9 -11.5 26q0 15 11.5 24q11.5 9 27.5 9q14 0 26 -9q12 -9 12 -24q0 -17 -12 -26t-26 -9z" />
<glyph unicode="&#221;" horiz-adv-x="625" d="M192 40h96v268l-225 352h-58v40h189v-40h-78l197 -311l199 311h-82v40h191v-40h-59l-227 -352v-268h93v-40h-236zM254 766l175 98l17 -38l-178 -87z" />
<glyph unicode="&#222;" horiz-adv-x="605" d="M58 40h85v620h-85v40h218v-40h-85v-87q12 0 29 0.5q17 0.5 34 0.5q17 0 32 0.5q15 0.5 25 0.5q72 0 120 -17.5q48 -17.5 76 -46q28 -28.5 39.5 -64q11.5 -35.5 11.5 -72.5q0 -39 -14 -75q-14 -36 -44.5 -64.5q-30.5 -28.5 -77.5 -45.5q-47 -17 -113 -17q-26 0 -57 1q-31 1 -61 3l0 -137h112v-40h-245zM191 218q30 -2 58 -3.5q28 -1.5 58 -1.5q50 0 88 12.5q38 12.5 63 34.5q25 22 37.5 51.5q12.5 29.5 12.5 64.5q0 33 -11 62q-11 29 -34 50.5q-23 21.5 -59.5 34q-36.5 12.5 -88.5 12.5q-12 0 -28 0q-16 0 -33.5 -0.5q-17.5 -0.5 -34 -1q-16.5 -0.5 -28.5 -0.5z" />
<glyph unicode="&#223;" horiz-adv-x="519" d="M23 450h60v66q0 100 43.5 146.5q43.5 46.5 126.5 46.5q29 0 54 -8.5q25 -8.5 43.5 -24q18.5 -15.5 29 -36.5q10.5 -21 10.5 -46q0 -36 -16.5 -59.5q-16.5 -23.5 -36.5 -42q-20 -18.5 -36.5 -37.5q-16.5 -19 -16.5 -47q0 -28 15 -47.5q15 -19.5 37.5 -35.5q22.5 -16 49 -31.5q26.5 -15.5 49 -35q22.5 -19.5 37.5 -46q15 -26.5 15 -65.5q0 -34 -11.5 -62.5q-11.5 -28.5 -32 -49.5q-20.5 -21 -47.5 -32.5q-27 -11.5 -58 -11.5q-52 0 -87.5 23q-35.5 23 -52.5 49l18 31q7 -10 17.5 -21q10.5 -11 25 -20.5q14.5 -9.5 31.5 -15.5q17 -6 38 -6q21 0 41 8.5q20 8.5 35.5 23.5q15.5 15 25 36.5q9.5 21.5 9.5 48.5q0 32 -15 54.5q-15 22.5 -37.5 40q-22.5 17.5 -49 33q-26.5 15.5 -49 33q-22.5 17.5 -37.5 39q-15 21.5 -15 52.5q0 34 16.5 56.5q16.5 22.5 37 41.5q20.5 19 37 39q16.5 20 16.5 50q0 18 -8 33q-8 15 -21.5 26q-13.5 11 -30.5 17q-17 6 -36 6q-60 0 -89.5 -37.5q-29.5 -37.5 -29.5 -122.5v-509h-105v35h60v378l-60 0z" />
<glyph unicode="&#224;" horiz-adv-x="467" d="M386 295q0 -47 -1 -101.5q-1 -54.5 -1 -107.5q0 -25 5 -36q5 -11 13.5 -14.5q8.5 -3.5 13.5 -3.5q18 0 31 10l14 -29q-8 -9 -22.5 -14q-14.5 -5 -28.5 -5q-32 0 -50 20.5q-18 20.5 -18 57.5q-10 -14 -24.5 -28q-14.5 -14 -34 -25q-19.5 -11 -44 -18q-24.5 -7 -55.5 -7q-69 0 -107.5 36q-38.5 36 -38.5 96q0 34 13 59.5q13 25.5 36 42.5q23 17 54.5 26q31.5 9 69.5 9q29 0 66 -6.5q37 -6.5 66 -25.5l0 66q0 60 -26.5 93.5q-26.5 33.5 -90.5 33.5q-42 0 -70 -12q-28 -12 -39 -23q14 -7 14 -25q0 -14 -9.5 -21.5q-9.5 -7.5 -23.5 -7.5q-16 0 -24 9.5q-8 9.5 -8 23.5q0 19 13 35.5q13 16.5 35 29q22 12.5 51 19.5q29 7 60 7q88 0 124.5 -42.5q36.5 -42.5 36.5 -121.5zt0 0zM85 128q0 -43 29.5 -69.5q29.5 -26.5 80.5 -26.5q30 0 53.5 7.5q23.5 7.5 41 19.5q17.5 12 30.5 26q13 14 22 27l0 82q-52 34 -124 34q-27 0 -51.5 -6q-24.5 -6 -42.5 -18q-18 -12 -28.5 -31q-10.5 -19 -10.5 -45zt0 0zM137 687l35 27l109 -149l-29 -20z" />
<glyph unicode="&#225;" horiz-adv-x="467" d="M386 295q0 -47 -1 -101.5q-1 -54.5 -1 -107.5q0 -25 5 -36q5 -11 13.5 -14.5q8.5 -3.5 13.5 -3.5q18 0 31 10l14 -29q-8 -9 -22.5 -14q-14.5 -5 -28.5 -5q-32 0 -50 20.5q-18 20.5 -18 57.5q-10 -14 -24.5 -28q-14.5 -14 -34 -25q-19.5 -11 -44 -18q-24.5 -7 -55.5 -7q-69 0 -107.5 36q-38.5 36 -38.5 96q0 34 13 59.5q13 25.5 36 42.5q23 17 54.5 26q31.5 9 69.5 9q29 0 66 -6.5q37 -6.5 66 -25.5l0 66q0 60 -26.5 93.5q-26.5 33.5 -90.5 33.5q-42 0 -70 -12q-28 -12 -39 -23q14 -7 14 -25q0 -14 -9.5 -21.5q-9.5 -7.5 -23.5 -7.5q-16 0 -24 9.5q-8 9.5 -8 23.5q0 19 13 35.5q13 16.5 35 29q22 12.5 51 19.5q29 7 60 7q88 0 124.5 -42.5q36.5 -42.5 36.5 -121.5zt0 0zM85 128q0 -43 29.5 -69.5q29.5 -26.5 80.5 -26.5q30 0 53.5 7.5q23.5 7.5 41 19.5q17.5 12 30.5 26q13 14 22 27l0 82q-52 34 -124 34q-27 0 -51.5 -6q-24.5 -6 -42.5 -18q-18 -12 -28.5 -31q-10.5 -19 -10.5 -45zt0 0zM176 565l108 149l35 -27l-115 -142z" />
<glyph unicode="&#226;" horiz-adv-x="467" d="M386 295q0 -47 -1 -101.5q-1 -54.5 -1 -107.5q0 -25 5 -36q5 -11 13.5 -14.5q8.5 -3.5 13.5 -3.5q18 0 31 10l14 -29q-8 -9 -22.5 -14q-14.5 -5 -28.5 -5q-32 0 -50 20.5q-18 20.5 -18 57.5q-10 -14 -24.5 -28q-14.5 -14 -34 -25q-19.5 -11 -44 -18q-24.5 -7 -55.5 -7q-69 0 -107.5 36q-38.5 36 -38.5 96q0 34 13 59.5q13 25.5 36 42.5q23 17 54.5 26q31.5 9 69.5 9q29 0 66 -6.5q37 -6.5 66 -25.5l0 66q0 60 -26.5 93.5q-26.5 33.5 -90.5 33.5q-42 0 -70 -12q-28 -12 -39 -23q14 -7 14 -25q0 -14 -9.5 -21.5q-9.5 -7.5 -23.5 -7.5q-16 0 -24 9.5q-8 9.5 -8 23.5q0 19 13 35.5q13 16.5 35 29q22 12.5 51 19.5q29 7 60 7q88 0 124.5 -42.5q36.5 -42.5 36.5 -121.5zt0 0zM85 128q0 -43 29.5 -69.5q29.5 -26.5 80.5 -26.5q30 0 53.5 7.5q23.5 7.5 41 19.5q17.5 12 30.5 26q13 14 22 27l0 82q-52 34 -124 34q-27 0 -51.5 -6q-24.5 -6 -42.5 -18q-18 -12 -28.5 -31q-10.5 -19 -10.5 -45zt0 0zM96 576l129 132h4l126 -132l-23 -27l-106 107l-107 -107z" />
<glyph unicode="&#227;" horiz-adv-x="467" d="M386 295q0 -47 -1 -101.5q-1 -54.5 -1 -107.5q0 -25 5 -36q5 -11 13.5 -14.5q8.5 -3.5 13.5 -3.5q18 0 31 10l14 -29q-8 -9 -22.5 -14q-14.5 -5 -28.5 -5q-32 0 -50 20.5q-18 20.5 -18 57.5q-10 -14 -24.5 -28q-14.5 -14 -34 -25q-19.5 -11 -44 -18q-24.5 -7 -55.5 -7q-69 0 -107.5 36q-38.5 36 -38.5 96q0 34 13 59.5q13 25.5 36 42.5q23 17 54.5 26q31.5 9 69.5 9q29 0 66 -6.5q37 -6.5 66 -25.5l0 66q0 60 -26.5 93.5q-26.5 33.5 -90.5 33.5q-42 0 -70 -12q-28 -12 -39 -23q14 -7 14 -25q0 -14 -9.5 -21.5q-9.5 -7.5 -23.5 -7.5q-16 0 -24 9.5q-8 9.5 -8 23.5q0 19 13 35.5q13 16.5 35 29q22 12.5 51 19.5q29 7 60 7q88 0 124.5 -42.5q36.5 -42.5 36.5 -121.5zt0 0zM85 128q0 -43 29.5 -69.5q29.5 -26.5 80.5 -26.5q30 0 53.5 7.5q23.5 7.5 41 19.5q17.5 12 30.5 26q13 14 22 27l0 82q-52 34 -124 34q-27 0 -51.5 -6q-24.5 -6 -42.5 -18q-18 -12 -28.5 -31q-10.5 -19 -10.5 -45zt0 0zM376 618q-29 -28 -52.5 -40.5q-23.5 -12.5 -43.5 -12.5q-17 0 -30 7.5q-13 7.5 -25.5 16q-12.5 8.5 -26 16q-13.5 7.5 -30.5 7.5q-29 0 -73 -35l-20 22q29 28 53.5 39q24.5 11 45.5 11q18 0 31.5 -7q13.5 -7 26 -16q12.5 -9 25 -16q12.5 -7 27.5 -7q17 0 34 9q17 9 40 30z" />
<glyph unicode="&#228;" horiz-adv-x="467" d="M386 295q0 -47 -1 -101.5q-1 -54.5 -1 -107.5q0 -25 5 -36q5 -11 13.5 -14.5q8.5 -3.5 13.5 -3.5q18 0 31 10l14 -29q-8 -9 -22.5 -14q-14.5 -5 -28.5 -5q-32 0 -50 20.5q-18 20.5 -18 57.5q-10 -14 -24.5 -28q-14.5 -14 -34 -25q-19.5 -11 -44 -18q-24.5 -7 -55.5 -7q-69 0 -107.5 36q-38.5 36 -38.5 96q0 34 13 59.5q13 25.5 36 42.5q23 17 54.5 26q31.5 9 69.5 9q29 0 66 -6.5q37 -6.5 66 -25.5l0 66q0 60 -26.5 93.5q-26.5 33.5 -90.5 33.5q-42 0 -70 -12q-28 -12 -39 -23q14 -7 14 -25q0 -14 -9.5 -21.5q-9.5 -7.5 -23.5 -7.5q-16 0 -24 9.5q-8 9.5 -8 23.5q0 19 13 35.5q13 16.5 35 29q22 12.5 51 19.5q29 7 60 7q88 0 124.5 -42.5q36.5 -42.5 36.5 -121.5zt0 0zM85 128q0 -43 29.5 -69.5q29.5 -26.5 80.5 -26.5q30 0 53.5 7.5q23.5 7.5 41 19.5q17.5 12 30.5 26q13 14 22 27l0 82q-52 34 -124 34q-27 0 -51.5 -6q-24.5 -6 -42.5 -18q-18 -12 -28.5 -31q-10.5 -19 -10.5 -45zt0 0zM122 603q-14 0 -25.5 9.5q-11.5 9.5 -11.5 26.5q0 15 11.5 25q11.5 10 25.5 10q13 0 24 -10q11 -10 11 -25q0 -17 -11 -26.5q-11 -9.5 -24 -9.5zt0 0zM326 603q-14 0 -25 9.5q-11 9.5 -11 26.5q0 15 11 25q11 10 25 10q14 0 24.5 -10q10.5 -10 10.5 -25q0 -17 -10.5 -26.5t-24.5 -9.5z" />
<glyph unicode="&#229;" horiz-adv-x="467" d="M386 295q0 -47 -1 -101.5q-1 -54.5 -1 -107.5q0 -25 5 -36q5 -11 13.5 -14.5q8.5 -3.5 13.5 -3.5q18 0 31 10l14 -29q-8 -9 -22.5 -14q-14.5 -5 -28.5 -5q-32 0 -50 20.5q-18 20.5 -18 57.5q-10 -14 -24.5 -28q-14.5 -14 -34 -25q-19.5 -11 -44 -18q-24.5 -7 -55.5 -7q-69 0 -107.5 36q-38.5 36 -38.5 96q0 34 13 59.5q13 25.5 36 42.5q23 17 54.5 26q31.5 9 69.5 9q29 0 66 -6.5q37 -6.5 66 -25.5l0 66q0 60 -26.5 93.5q-26.5 33.5 -90.5 33.5q-42 0 -70 -12q-28 -12 -39 -23q14 -7 14 -25q0 -14 -9.5 -21.5q-9.5 -7.5 -23.5 -7.5q-16 0 -24 9.5q-8 9.5 -8 23.5q0 19 13 35.5q13 16.5 35 29q22 12.5 51 19.5q29 7 60 7q88 0 124.5 -42.5q36.5 -42.5 36.5 -121.5zt0 0zM85 128q0 -43 29.5 -69.5q29.5 -26.5 80.5 -26.5q30 0 53.5 7.5q23.5 7.5 41 19.5q17.5 12 30.5 26q13 14 22 27l0 82q-52 34 -124 34q-27 0 -51.5 -6q-24.5 -6 -42.5 -18q-18 -12 -28.5 -31q-10.5 -19 -10.5 -45zt0 0zM221 513q-22 0 -40.5 8q-18.5 8 -32.5 21.5q-14 13.5 -22 32q-8 18.5 -8 39.5q0 21 8 39.5q8 18.5 22 32.5q14 14 32.5 22q18.5 8 40.5 8q22 0 41 -8q19 -8 33.5 -22q14.5 -14 22.5 -32.5q8 -18.5 8 -39.5q0 -21 -8 -39.5q-8 -18.5 -22.5 -32q-14.5 -13.5 -33.5 -21.5q-19 -8 -41 -8zt0 0zM222 541q31 0 52 21q21 21 21 53q0 31 -21 52.5q-21 21.5 -52 21.5q-31 0 -52 -21.5q-21 -21.5 -21 -52.5q0 -32 21 -53t52 -21z" />
<glyph unicode="&#230;" horiz-adv-x="786" d="M717 56q-31 -32 -76 -48.5q-45 -16.5 -90 -16.5q-61 0 -109.5 22q-48.5 22 -79.5 63q-36 -39 -77 -60.5q-41 -21.5 -95 -21.5q-73 0 -112.5 36q-39.5 36 -39.5 96q0 34 13 59.5q13 25.5 36 42.5q23 17 55.5 26q32.5 9 70.5 9q14 0 32 -1q18 -1 36 -3q18 -2 34.5 -5.5q16.5 -3.5 27.5 -7.5q3 39 -1 72q-4 33 -18 56.5q-14 23.5 -40 36.5q-26 13 -68 13q-37 0 -63.5 -13q-26.5 -13 -31.5 -26q5 -2 8 -8q3 -6 3 -11q0 -14 -8 -23.5q-8 -9.5 -22 -9.5q-34 0 -34 34q0 20 13 37q13 17 34 29q21 12 48 19q27 7 56 7q60 2 94.5 -19.5q34.5 -21.5 51.5 -59.5q28 36 71.5 57.5q43.5 21.5 103.5 21.5q43 0 80.5 -14.5q37.5 -14.5 65 -41q27.5 -26.5 43 -64q15.5 -37.5 15.5 -83.5q0 -11 -1 -20.5q-1 -9.5 -3 -17.5l-355 0v-97q24 -42 66.5 -66q42.5 -24 102.5 -24q46 0 83 16q37 16 61 41zM697 253q-1 78 -44.5 122q-43.5 44 -116.5 44q-54 0 -94.5 -23q-40.5 -23 -60.5 -65q2 -12 3 -25q1 -13 1 -27v-26zM195 32q30 0 53 7.5q23 7.5 40.5 19.5q17.5 12 30.5 26q13 14 23 27l0 96q-30 10 -59.5 15q-29.5 5 -64.5 5q-27 0 -51.5 -6q-24.5 -6 -42.5 -18q-18 -12 -28.5 -31q-10.5 -19 -10.5 -45q0 -43 29.5 -69.5t80.5 -26.5z" />
<glyph unicode="&#231;" horiz-adv-x="485" d="M257 -8q-48 4 -87.5 22.5q-39.5 18.5 -67.5 48.5q-28 30 -43.5 71q-15.5 41 -15.5 91q0 49 17 92q17 43 47 74.5q30 31.5 70.5 49.5q40.5 18 88.5 18q38 0 71 -8.5q33 -8.5 57 -23q24 -14.5 38 -34q14 -19.5 14 -42.5q0 -16 -11 -26.5q-11 -10.5 -26 -10.5q-16 0 -26.5 11q-10.5 11 -10.5 26q0 5 3 11q3 6 9 9q-10 18 -40.5 33q-30.5 15 -68.5 15q-39 0 -73 -14.5q-34 -14.5 -59 -40.5q-25 -26 -39 -61.5q-14 -35.5 -14 -77.5q0 -44 15 -79.5q15 -35.5 41 -60.5q26 -25 61 -38q35 -13 76 -13q45 0 82 17.5q37 17.5 61 44.5l22 -32q-28 -35 -72.5 -53.5q-44.5 -18.5 -92.5 -19.5l0 -43q52 -2 75.5 -22q23.5 -20 23.5 -53q0 -33 -29.5 -54.5q-29.5 -21.5 -83.5 -21.5q-29 0 -50.5 8q-21.5 8 -41.5 19l14 24q18 -10 37 -15.5q19 -5.5 36 -5.5q32 0 52.5 12.5q20.5 12.5 20.5 35.5q0 23 -16.5 36.5q-16.5 13.5 -57.5 13.5l-6 0z" />
<glyph unicode="&#232;" horiz-adv-x="515" d="M90 218q1 -44 15.5 -78.5q14.5 -34.5 40 -58.5q25.5 -24 60.5 -37q35 -13 77 -13q46 0 83 16q37 16 61 41l19 -32q-31 -32 -76 -48.5q-45 -16.5 -90 -16.5q-53 0 -96.5 16.5q-43.5 16.5 -74.5 47q-31 30.5 -48.5 74q-17.5 43.5 -17.5 96.5q0 49 14.5 92q14.5 43 43 74.5q28.5 31.5 70.5 49.5q42 18 98 18q43 0 80.5 -14.5q37.5 -14.5 65 -41q27.5 -26.5 43 -64q15.5 -37.5 15.5 -83.5q0 -11 -1 -20.5q-1 -9.5 -2 -17.5zM426 253q-1 75 -42.5 120.5q-41.5 45.5 -118.5 45.5q-41 0 -73 -13q-32 -13 -54 -35.5q-22 -22.5 -34.5 -53q-12.5 -30.5 -13.5 -64.5zM164 687l35 27l109 -149l-29 -20z" />
<glyph unicode="&#233;" horiz-adv-x="515" d="M90 218q1 -44 15.5 -78.5q14.5 -34.5 40 -58.5q25.5 -24 60.5 -37q35 -13 77 -13q46 0 83 16q37 16 61 41l19 -32q-31 -32 -76 -48.5q-45 -16.5 -90 -16.5q-53 0 -96.5 16.5q-43.5 16.5 -74.5 47q-31 30.5 -48.5 74q-17.5 43.5 -17.5 96.5q0 49 14.5 92q14.5 43 43 74.5q28.5 31.5 70.5 49.5q42 18 98 18q43 0 80.5 -14.5q37.5 -14.5 65 -41q27.5 -26.5 43 -64q15.5 -37.5 15.5 -83.5q0 -11 -1 -20.5q-1 -9.5 -2 -17.5zM426 253q-1 75 -42.5 120.5q-41.5 45.5 -118.5 45.5q-41 0 -73 -13q-32 -13 -54 -35.5q-22 -22.5 -34.5 -53q-12.5 -30.5 -13.5 -64.5zM233 565l108 149l35 -27l-115 -142z" />
<glyph unicode="&#234;" horiz-adv-x="515" d="M90 218q1 -44 15.5 -78.5q14.5 -34.5 40 -58.5q25.5 -24 60.5 -37q35 -13 77 -13q46 0 83 16q37 16 61 41l19 -32q-31 -32 -76 -48.5q-45 -16.5 -90 -16.5q-53 0 -96.5 16.5q-43.5 16.5 -74.5 47q-31 30.5 -48.5 74q-17.5 43.5 -17.5 96.5q0 49 14.5 92q14.5 43 43 74.5q28.5 31.5 70.5 49.5q42 18 98 18q43 0 80.5 -14.5q37.5 -14.5 65 -41q27.5 -26.5 43 -64q15.5 -37.5 15.5 -83.5q0 -11 -1 -20.5q-1 -9.5 -2 -17.5zM426 253q-1 75 -42.5 120.5q-41.5 45.5 -118.5 45.5q-41 0 -73 -13q-32 -13 -54 -35.5q-22 -22.5 -34.5 -53q-12.5 -30.5 -13.5 -64.5zM136 576l129 132h4l126 -132l-23 -27l-106 107l-107 -107z" />
<glyph unicode="&#235;" horiz-adv-x="515" d="M90 218q1 -44 15.5 -78.5q14.5 -34.5 40 -58.5q25.5 -24 60.5 -37q35 -13 77 -13q46 0 83 16q37 16 61 41l19 -32q-31 -32 -76 -48.5q-45 -16.5 -90 -16.5q-53 0 -96.5 16.5q-43.5 16.5 -74.5 47q-31 30.5 -48.5 74q-17.5 43.5 -17.5 96.5q0 49 14.5 92q14.5 43 43 74.5q28.5 31.5 70.5 49.5q42 18 98 18q43 0 80.5 -14.5q37.5 -14.5 65 -41q27.5 -26.5 43 -64q15.5 -37.5 15.5 -83.5q0 -11 -1 -20.5q-1 -9.5 -2 -17.5zM426 253q-1 75 -42.5 120.5q-41.5 45.5 -118.5 45.5q-41 0 -73 -13q-32 -13 -54 -35.5q-22 -22.5 -34.5 -53q-12.5 -30.5 -13.5 -64.5zM158 603q-14 0 -25.5 9.5q-11.5 9.5 -11.5 26.5q0 15 11.5 25q11.5 10 25.5 10q13 0 24 -10q11 -10 11 -25q0 -17 -11 -26.5q-11 -9.5 -24 -9.5zt0 0zM362 603q-14 0 -25 9.5q-11 9.5 -11 26.5q0 15 11 25q11 10 25 10q14 0 24.5 -10q10.5 -10 10.5 -25q0 -17 -10.5 -26.5t-24.5 -9.5z" />
<glyph unicode="&#236;" horiz-adv-x="260" d="M48 35h60v380h-60v35h105v-415h65v-35h-170zM18 687l35 27l109 -149l-29 -20z" />
<glyph unicode="&#237;" horiz-adv-x="260" d="M48 35h60v380h-60v35h105v-415h65v-35h-170zM93 565l108 149l35 -27l-115 -142z" />
<glyph unicode="&#238;" horiz-adv-x="260" d="M48 35h60v380h-60v35h105v-415h65v-35h-170zM2 576l129 132h4l126 -132l-23 -27l-106 107l-107 -107z" />
<glyph unicode="&#239;" horiz-adv-x="260" d="M48 35h60v380h-60v35h105v-415h65v-35h-170zM30 603q-14 0 -25.5 9.5q-11.5 9.5 -11.5 26.5q0 15 11.5 25q11.5 10 25.5 10q13 0 24 -10q11 -10 11 -25q0 -17 -11 -26.5q-11 -9.5 -24 -9.5zt0 0zM234 603q-14 0 -25 9.5q-11 9.5 -11 26.5q0 15 11 25q11 10 25 10q14 0 24.5 -10q10.5 -10 10.5 -25q0 -17 -10.5 -26.5t-24.5 -9.5z" />
<glyph unicode="&#240;" horiz-adv-x="567" d="M297 626q-53 44 -115 72l51 11q58 -26 104 -66l104 53l14 -40l-86 -44q72 -71 111 -164q39 -93 39 -191q0 -62 -17 -111q-17 -49 -48 -83.5q-31 -34.5 -74.5 -53q-43.5 -18.5 -95.5 -18.5q-54 0 -97.5 17.5q-43.5 17.5 -74 49q-30.5 31.5 -47 74q-16.5 42.5 -16.5 93.5q0 51 17 93.5q17 42.5 47.5 74q30.5 31.5 73 49q42.5 17.5 92.5 17.5q63 0 109 -30q46 -30 71 -82q-12 74 -46.5 136.5q-34.5 62.5 -84.5 110.5l-124 -62l-14 40zM284 31q42 0 76.5 16q34.5 16 59.5 46q25 30 38.5 72.5q13.5 42.5 12.5 95.5q-5 28 -19.5 56.5q-14.5 28.5 -38.5 51q-24 22.5 -56.5 36.5q-32.5 14 -72.5 14q-41 0 -75.5 -14.5q-34.5 -14.5 -59.5 -40q-25 -25.5 -39 -61.5q-14 -36 -14 -78q0 -42 14 -77.5q14 -35.5 39 -61.5q25 -26 59.5 -40.5t75.5 -14.5z" />
<glyph unicode="&#241;" horiz-adv-x="587" d="M48 35h60v380h-60v35h105v-64q13 15 31.5 28q18.5 13 40.5 23q22 10 45.5 15.5q23.5 5.5 47.5 5.5q94 0 141.5 -48q47.5 -48 47.5 -154v-221h58v-35h-160v35h57v215q0 86 -38 127q-38 41 -116 41q-24 0 -47 -6q-23 -6 -43.5 -16.5q-20.5 -10.5 -37 -23.5q-16.5 -13 -27.5 -26l0 -311h58v-35h-163zM452 618q-29 -28 -52.5 -40.5q-23.5 -12.5 -43.5 -12.5q-17 0 -30 7.5q-13 7.5 -25.5 16q-12.5 8.5 -26 16q-13.5 7.5 -30.5 7.5q-29 0 -73 -35l-20 22q29 28 53.5 39q24.5 11 45.5 11q18 0 31.5 -7q13.5 -7 26 -16q12.5 -9 25 -16q12.5 -7 27.5 -7q17 0 34 9q17 9 40 30z" />
<glyph unicode="&#242;" horiz-adv-x="555" d="M278 -9q-54 0 -97.5 17.5q-43.5 17.5 -74 49q-30.5 31.5 -47 74q-16.5 42.5 -16.5 93.5q0 51 17 93.5q17 42.5 48 74q31 31.5 74.5 49q43.5 17.5 95.5 17.5q53 0 96.5 -17.5q43.5 -17.5 74 -49q30.5 -31.5 47.5 -74q17 -42.5 17 -93.5q0 -51 -17 -93.5q-17 -42.5 -48 -74q-31 -31.5 -74.5 -49q-43.5 -17.5 -95.5 -17.5zt0 0zM278 31q41 0 75.5 13.5q34.5 13.5 59.5 39q25 25.5 39 61.5q14 36 14 80q0 44 -14 79.5q-14 35.5 -39 61q-25 25.5 -59.5 39.5q-34.5 14 -75.5 14q-41 0 -75.5 -13.5q-34.5 -13.5 -59.5 -39q-25 -25.5 -39 -61.5q-14 -36 -14 -80q0 -44 14 -79.5q14 -35.5 39 -61q25 -25.5 59.5 -39.5q34.5 -14 75.5 -14zt0 0zM177 687l35 27l109 -149l-29 -20z" />
<glyph unicode="&#243;" horiz-adv-x="555" d="M278 -9q-54 0 -97.5 17.5q-43.5 17.5 -74 49q-30.5 31.5 -47 74q-16.5 42.5 -16.5 93.5q0 51 17 93.5q17 42.5 48 74q31 31.5 74.5 49q43.5 17.5 95.5 17.5q53 0 96.5 -17.5q43.5 -17.5 74 -49q30.5 -31.5 47.5 -74q17 -42.5 17 -93.5q0 -51 -17 -93.5q-17 -42.5 -48 -74q-31 -31.5 -74.5 -49q-43.5 -17.5 -95.5 -17.5zt0 0zM278 31q41 0 75.5 13.5q34.5 13.5 59.5 39q25 25.5 39 61.5q14 36 14 80q0 44 -14 79.5q-14 35.5 -39 61q-25 25.5 -59.5 39.5q-34.5 14 -75.5 14q-41 0 -75.5 -13.5q-34.5 -13.5 -59.5 -39q-25 -25.5 -39 -61.5q-14 -36 -14 -80q0 -44 14 -79.5q14 -35.5 39 -61q25 -25.5 59.5 -39.5q34.5 -14 75.5 -14zt0 0zM235 565l108 149l35 -27l-115 -142z" />
<glyph unicode="&#244;" horiz-adv-x="555" d="M278 -9q-54 0 -97.5 17.5q-43.5 17.5 -74 49q-30.5 31.5 -47 74q-16.5 42.5 -16.5 93.5q0 51 17 93.5q17 42.5 48 74q31 31.5 74.5 49q43.5 17.5 95.5 17.5q53 0 96.5 -17.5q43.5 -17.5 74 -49q30.5 -31.5 47.5 -74q17 -42.5 17 -93.5q0 -51 -17 -93.5q-17 -42.5 -48 -74q-31 -31.5 -74.5 -49q-43.5 -17.5 -95.5 -17.5zt0 0zM278 31q41 0 75.5 13.5q34.5 13.5 59.5 39q25 25.5 39 61.5q14 36 14 80q0 44 -14 79.5q-14 35.5 -39 61q-25 25.5 -59.5 39.5q-34.5 14 -75.5 14q-41 0 -75.5 -13.5q-34.5 -13.5 -59.5 -39q-25 -25.5 -39 -61.5q-14 -36 -14 -80q0 -44 14 -79.5q14 -35.5 39 -61q25 -25.5 59.5 -39.5q34.5 -14 75.5 -14zt0 0zM147 576l129 132h4l126 -132l-23 -27l-106 107l-107 -107z" />
<glyph unicode="&#245;" horiz-adv-x="555" d="M278 -9q-54 0 -97.5 17.5q-43.5 17.5 -74 49q-30.5 31.5 -47 74q-16.5 42.5 -16.5 93.5q0 51 17 93.5q17 42.5 48 74q31 31.5 74.5 49q43.5 17.5 95.5 17.5q53 0 96.5 -17.5q43.5 -17.5 74 -49q30.5 -31.5 47.5 -74q17 -42.5 17 -93.5q0 -51 -17 -93.5q-17 -42.5 -48 -74q-31 -31.5 -74.5 -49q-43.5 -17.5 -95.5 -17.5zt0 0zM278 31q41 0 75.5 13.5q34.5 13.5 59.5 39q25 25.5 39 61.5q14 36 14 80q0 44 -14 79.5q-14 35.5 -39 61q-25 25.5 -59.5 39.5q-34.5 14 -75.5 14q-41 0 -75.5 -13.5q-34.5 -13.5 -59.5 -39q-25 -25.5 -39 -61.5q-14 -36 -14 -80q0 -44 14 -79.5q14 -35.5 39 -61q25 -25.5 59.5 -39.5q34.5 -14 75.5 -14zt0 0zM427 618q-29 -28 -52.5 -40.5q-23.5 -12.5 -43.5 -12.5q-17 0 -30 7.5q-13 7.5 -25.5 16q-12.5 8.5 -26 16q-13.5 7.5 -30.5 7.5q-29 0 -73 -35l-20 22q29 28 53.5 39q24.5 11 45.5 11q18 0 31.5 -7q13.5 -7 26 -16q12.5 -9 25 -16q12.5 -7 27.5 -7q17 0 34 9q17 9 40 30z" />
<glyph unicode="&#246;" horiz-adv-x="555" d="M278 -9q-54 0 -97.5 17.5q-43.5 17.5 -74 49q-30.5 31.5 -47 74q-16.5 42.5 -16.5 93.5q0 51 17 93.5q17 42.5 48 74q31 31.5 74.5 49q43.5 17.5 95.5 17.5q53 0 96.5 -17.5q43.5 -17.5 74 -49q30.5 -31.5 47.5 -74q17 -42.5 17 -93.5q0 -51 -17 -93.5q-17 -42.5 -48 -74q-31 -31.5 -74.5 -49q-43.5 -17.5 -95.5 -17.5zt0 0zM278 31q41 0 75.5 13.5q34.5 13.5 59.5 39q25 25.5 39 61.5q14 36 14 80q0 44 -14 79.5q-14 35.5 -39 61q-25 25.5 -59.5 39.5q-34.5 14 -75.5 14q-41 0 -75.5 -13.5q-34.5 -13.5 -59.5 -39q-25 -25.5 -39 -61.5q-14 -36 -14 -80q0 -44 14 -79.5q14 -35.5 39 -61q25 -25.5 59.5 -39.5q34.5 -14 75.5 -14zt0 0zM177 603q-14 0 -25.5 9.5q-11.5 9.5 -11.5 26.5q0 15 11.5 25q11.5 10 25.5 10q13 0 24 -10q11 -10 11 -25q0 -17 -11 -26.5q-11 -9.5 -24 -9.5zt0 0zM381 603q-14 0 -25 9.5q-11 9.5 -11 26.5q0 15 11 25q11 10 25 10q14 0 24.5 -10q10.5 -10 10.5 -25q0 -17 -10.5 -26.5t-24.5 -9.5z" />
<glyph unicode="&#247;" horiz-adv-x="588" d="M253 188q0 16 11 28.5q11 12.5 31 12.5q18 0 29 -12.5q11 -12.5 11 -28.5q0 -17 -11 -29.5q-11 -12.5 -29 -12.5q-20 0 -31 12.5q-11 12.5 -11 29.5zt0 0zM253 534q0 16 11 28q11 12 31 12q18 0 29 -12q11 -12 11 -28q0 -17 -11 -30q-11 -13 -29 -13q-20 0 -31 13q-11 13 -11 30zt0 0zM72 380h444v-40l-444 0z" />
<glyph unicode="&#248;" horiz-adv-x="555" d="M47 16l52 52q-56 62 -56 157q0 51 17 93.5q17 42.5 48 74q31 31.5 74.5 49q43.5 17.5 95.5 17.5q48 0 88.5 -15.5q40.5 -15.5 70.5 -42.5l53 52l25 -28l-52 -52q24 -29 37 -66.5q13 -37.5 13 -81.5q0 -51 -17 -93.5q-17 -42.5 -48 -74q-31 -31.5 -74.5 -49q-43.5 -17.5 -95.5 -17.5q-89 0 -151 50l-54 -55zM406 372q-24 22 -57 34.5q-33 12.5 -71 12.5q-42 0 -76.5 -14.5q-34.5 -14.5 -59.5 -40q-25 -25.5 -38.5 -61.5q-13.5 -36 -13.5 -78q0 -38 11.5 -69.5q11.5 -31.5 31.5 -54.5zM159 70q48 -39 119 -39q42 0 76.5 14.5q34.5 14.5 59 40q24.5 25.5 38.5 61.5q14 36 14 78q0 34 -10 63q-10 29 -27 52z" />
<glyph unicode="&#249;" horiz-adv-x="567" d="M439 415h-61v35h106v-415h60v-35h-105v74q-13 -16 -32 -31q-19 -15 -41.5 -26.5q-22.5 -11.5 -48 -18.5q-25.5 -7 -52.5 -7q-85 0 -129.5 48q-44.5 48 -44.5 151q0 21 0 50.5q0 29.5 0.5 61.5q0.5 32 1 62q0.5 30 0.5 51l-60 0v35h105q0 -23 -0.5 -57q-0.5 -34 -0.5 -69.5q0 -35.5 -0.5 -69q-0.5 -33.5 -0.5 -56.5q0 -83 34.5 -125q34.5 -42 110.5 -42q25 0 49 7.5q24 7.5 44.5 19q20.5 11.5 37 26q16.5 14.5 27.5 28.5zM190 687l35 27l109 -149l-29 -20z" />
<glyph unicode="&#250;" horiz-adv-x="567" d="M439 415h-61v35h106v-415h60v-35h-105v74q-13 -16 -32 -31q-19 -15 -41.5 -26.5q-22.5 -11.5 -48 -18.5q-25.5 -7 -52.5 -7q-85 0 -129.5 48q-44.5 48 -44.5 151q0 21 0 50.5q0 29.5 0.5 61.5q0.5 32 1 62q0.5 30 0.5 51l-60 0v35h105q0 -23 -0.5 -57q-0.5 -34 -0.5 -69.5q0 -35.5 -0.5 -69q-0.5 -33.5 -0.5 -56.5q0 -83 34.5 -125q34.5 -42 110.5 -42q25 0 49 7.5q24 7.5 44.5 19q20.5 11.5 37 26q16.5 14.5 27.5 28.5zM251 565l108 149l35 -27l-115 -142z" />
<glyph unicode="&#251;" horiz-adv-x="567" d="M439 415h-61v35h106v-415h60v-35h-105v74q-13 -16 -32 -31q-19 -15 -41.5 -26.5q-22.5 -11.5 -48 -18.5q-25.5 -7 -52.5 -7q-85 0 -129.5 48q-44.5 48 -44.5 151q0 21 0 50.5q0 29.5 0.5 61.5q0.5 32 1 62q0.5 30 0.5 51l-60 0v35h105q0 -23 -0.5 -57q-0.5 -34 -0.5 -69.5q0 -35.5 -0.5 -69q-0.5 -33.5 -0.5 -56.5q0 -83 34.5 -125q34.5 -42 110.5 -42q25 0 49 7.5q24 7.5 44.5 19q20.5 11.5 37 26q16.5 14.5 27.5 28.5zM158 576l129 132h4l126 -132l-23 -27l-106 107l-107 -107z" />
<glyph unicode="&#252;" horiz-adv-x="567" d="M439 415h-61v35h106v-415h60v-35h-105v74q-13 -16 -32 -31q-19 -15 -41.5 -26.5q-22.5 -11.5 -48 -18.5q-25.5 -7 -52.5 -7q-85 0 -129.5 48q-44.5 48 -44.5 151q0 21 0 50.5q0 29.5 0.5 61.5q0.5 32 1 62q0.5 30 0.5 51l-60 0v35h105q0 -23 -0.5 -57q-0.5 -34 -0.5 -69.5q0 -35.5 -0.5 -69q-0.5 -33.5 -0.5 -56.5q0 -83 34.5 -125q34.5 -42 110.5 -42q25 0 49 7.5q24 7.5 44.5 19q20.5 11.5 37 26q16.5 14.5 27.5 28.5zM191 603q-14 0 -25.5 9.5q-11.5 9.5 -11.5 26.5q0 15 11.5 25q11.5 10 25.5 10q13 0 24 -10q11 -10 11 -25q0 -17 -11 -26.5q-11 -9.5 -24 -9.5zt0 0zM395 603q-14 0 -25 9.5q-11 9.5 -11 26.5q0 15 11 25q11 10 25 10q14 0 24.5 -10q10.5 -10 10.5 -25q0 -17 -10.5 -26.5t-24.5 -9.5z" />
<glyph unicode="&#253;" horiz-adv-x="508" d="M46 415h-36v35h153v-35h-69l148 -301q9 -19 16.5 -35q7.5 -16 16.5 -36q7 20 12.5 36.5q5.5 16.5 13.5 36.5l118 299h-68v35h148v-35h-35l-169 -415q-25 -60 -46 -99q-21 -39 -40.5 -61.5q-19.5 -22.5 -39.5 -31q-20 -8.5 -43 -8.5q-29 0 -47 16.5q-18 16.5 -18 38.5q0 15 10 25q10 10 24 10q14 0 22 -8q8 -8 9 -19q0 -4 -2 -8.5q-2 -4.5 -7 -6.5q3 -4 9 -5.5q6 -1.5 10 -1.5q31 2 55 35.5q24 33.5 52 99.5l10 24zM210 565l108 149l35 -27l-115 -142z" />
<glyph unicode="&#254;" horiz-adv-x="569" d="M43 -165h60v830h-60v35h105v-312q26 31 72 51q46 20 95 20q49 0 88.5 -17q39.5 -17 67 -47q27.5 -30 42 -71.5q14.5 -41.5 14.5 -91.5q0 -51 -16.5 -95.5q-16.5 -44.5 -47 -76.5q-30.5 -32 -73 -50.5q-42.5 -18.5 -94.5 -18.5q-42 0 -80.5 10q-38.5 10 -67.5 31l0 -197h75v-35h-180zM148 75q36 -26 72.5 -35q36.5 -9 72.5 -9q42 0 76.5 14q34.5 14 58.5 40q24 26 37.5 62.5q13.5 36.5 13.5 81.5q0 88 -45.5 139q-45.5 51 -129.5 51q-50 0 -92.5 -22q-42.5 -22 -63.5 -50z" />
<glyph unicode="&#255;" horiz-adv-x="508" d="M46 415h-36v35h153v-35h-69l148 -301q9 -19 16.5 -35q7.5 -16 16.5 -36q7 20 12.5 36.5q5.5 16.5 13.5 36.5l118 299h-68v35h148v-35h-35l-169 -415q-25 -60 -46 -99q-21 -39 -40.5 -61.5q-19.5 -22.5 -39.5 -31q-20 -8.5 -43 -8.5q-29 0 -47 16.5q-18 16.5 -18 38.5q0 15 10 25q10 10 24 10q14 0 22 -8q8 -8 9 -19q0 -4 -2 -8.5q-2 -4.5 -7 -6.5q3 -4 9 -5.5q6 -1.5 10 -1.5q31 2 55 35.5q24 33.5 52 99.5l10 24zM155 603q-14 0 -25.5 9.5q-11.5 9.5 -11.5 26.5q0 15 11.5 25q11.5 10 25.5 10q13 0 24 -10q11 -10 11 -25q0 -17 -11 -26.5q-11 -9.5 -24 -9.5zt0 0zM359 603q-14 0 -25 9.5q-11 9.5 -11 26.5q0 15 11 25q11 10 25 10q14 0 24.5 -10q10.5 -10 10.5 -25q0 -17 -10.5 -26.5t-24.5 -9.5z" />
<glyph unicode="&#256;" horiz-adv-x="745" d="M5 40h58l279 662h56l282 -662h60v-40h-193v40h82l-88 205h-342l-88 -205h91v-40h-197zM524 290l-125 295q-3 6 -7 15.5q-4 9.5 -8 20.5q-4 11 -8 21q-4 10 -6 16l-2 0q-2 -6 -5.5 -16q-3.5 -10 -8 -21q-4.5 -11 -8.5 -20.5q-4 -9.5 -7 -15.5l-122 -295zM222 818h299v-38l-299 0z" />
<glyph unicode="&#257;" horiz-adv-x="467" d="M386 295q0 -47 -1 -101.5q-1 -54.5 -1 -107.5q0 -25 5 -36q5 -11 13.5 -14.5q8.5 -3.5 13.5 -3.5q18 0 31 10l14 -29q-8 -9 -22.5 -14q-14.5 -5 -28.5 -5q-32 0 -50 20.5q-18 20.5 -18 57.5q-10 -14 -24.5 -28q-14.5 -14 -34 -25q-19.5 -11 -44 -18q-24.5 -7 -55.5 -7q-69 0 -107.5 36q-38.5 36 -38.5 96q0 34 13 59.5q13 25.5 36 42.5q23 17 54.5 26q31.5 9 69.5 9q29 0 66 -6.5q37 -6.5 66 -25.5l0 66q0 60 -26.5 93.5q-26.5 33.5 -90.5 33.5q-42 0 -70 -12q-28 -12 -39 -23q14 -7 14 -25q0 -14 -9.5 -21.5q-9.5 -7.5 -23.5 -7.5q-16 0 -24 9.5q-8 9.5 -8 23.5q0 19 13 35.5q13 16.5 35 29q22 12.5 51 19.5q29 7 60 7q88 0 124.5 -42.5q36.5 -42.5 36.5 -121.5zt0 0zM85 128q0 -43 29.5 -69.5q29.5 -26.5 80.5 -26.5q30 0 53.5 7.5q23.5 7.5 41 19.5q17.5 12 30.5 26q13 14 22 27l0 82q-52 34 -124 34q-27 0 -51.5 -6q-24.5 -6 -42.5 -18q-18 -12 -28.5 -31q-10.5 -19 -10.5 -45zt0 0zM103 648h249v-38l-249 0z" />
<glyph unicode="&#258;" horiz-adv-x="745" d="M5 40h58l279 662h56l282 -662h60v-40h-193v40h82l-88 205h-342l-88 -205h91v-40h-197zM524 290l-125 295q-3 6 -7 15.5q-4 9.5 -8 20.5q-4 11 -8 21q-4 10 -6 16l-2 0q-2 -6 -5.5 -16q-3.5 -10 -8 -21q-4.5 -11 -8.5 -20.5q-4 -9.5 -7 -15.5l-122 -295zM534 836q-22 -32 -62.5 -57.5q-40.5 -25.5 -96.5 -25.5q-32 0 -59 8.5q-27 8.5 -48 21.5q-21 13 -35.5 27q-14.5 14 -22.5 26l22 24q8 -9 20.5 -21q12.5 -12 30.5 -22q18 -10 40.5 -17q22.5 -7 51.5 -7q50 0 85 21q35 21 55 46z" />
<glyph unicode="&#259;" horiz-adv-x="467" d="M386 295q0 -47 -1 -101.5q-1 -54.5 -1 -107.5q0 -25 5 -36q5 -11 13.5 -14.5q8.5 -3.5 13.5 -3.5q18 0 31 10l14 -29q-8 -9 -22.5 -14q-14.5 -5 -28.5 -5q-32 0 -50 20.5q-18 20.5 -18 57.5q-10 -14 -24.5 -28q-14.5 -14 -34 -25q-19.5 -11 -44 -18q-24.5 -7 -55.5 -7q-69 0 -107.5 36q-38.5 36 -38.5 96q0 34 13 59.5q13 25.5 36 42.5q23 17 54.5 26q31.5 9 69.5 9q29 0 66 -6.5q37 -6.5 66 -25.5l0 66q0 60 -26.5 93.5q-26.5 33.5 -90.5 33.5q-42 0 -70 -12q-28 -12 -39 -23q14 -7 14 -25q0 -14 -9.5 -21.5q-9.5 -7.5 -23.5 -7.5q-16 0 -24 9.5q-8 9.5 -8 23.5q0 19 13 35.5q13 16.5 35 29q22 12.5 51 19.5q29 7 60 7q88 0 124.5 -42.5q36.5 -42.5 36.5 -121.5zt0 0zM85 128q0 -43 29.5 -69.5q29.5 -26.5 80.5 -26.5q30 0 53.5 7.5q23.5 7.5 41 19.5q17.5 12 30.5 26q13 14 22 27l0 82q-52 34 -124 34q-27 0 -51.5 -6q-24.5 -6 -42.5 -18q-18 -12 -28.5 -31q-10.5 -19 -10.5 -45zt0 0zM363 658q-10 -14 -23 -28.5q-13 -14.5 -29.5 -26q-16.5 -11.5 -37.5 -18.5q-21 -7 -47 -7q-29 0 -52 8.5q-23 8.5 -40.5 21q-17.5 12.5 -29 26q-11.5 13.5 -17.5 23.5l22 24q7 -9 18 -20.5q11 -11.5 25.5 -21.5q14.5 -10 33 -17q18.5 -7 42.5 -7q41 0 69.5 21q28.5 21 47.5 44z" />
<glyph unicode="&#260;" horiz-adv-x="745" d="M5 40h58l279 662h56l282 -662h60v-40h-193v40h82l-88 205h-342l-88 -205h91v-40h-197zM524 290l-125 295q-3 6 -7 15.5q-4 9.5 -8 20.5q-4 11 -8 21q-4 10 -6 16l-2 0q-2 -6 -5.5 -16q-3.5 -10 -8 -21q-4.5 -11 -8.5 -20.5q-4 -9.5 -7 -15.5l-122 -295zM724 0q-24 0 -47 -7.5q-23 -7.5 -41.5 -20q-18.5 -12.5 -29.5 -30q-11 -17.5 -11 -38.5q0 -20 8 -33q8 -13 20 -20.5q12 -7.5 25 -10.5q13 -3 23 -3q9 0 21 1.5q12 1.5 25 7.5l13 -29q-13 -8 -31.5 -12.5q-18.5 -4.5 -37.5 -4.5q-18 0 -37.5 4q-19.5 4 -36 14.5q-16.5 10.5 -27 28q-10.5 17.5 -10.5 44.5q0 29 15.5 51.5q15.5 22.5 40.5 38.5q25 16 56 24q31 8 62 8z" />
<glyph unicode="&#261;" horiz-adv-x="467" d="M342 72q-11 -15 -25.5 -29q-14.5 -14 -34 -25q-19.5 -11 -44.5 -17.5q-25 -6.5 -56 -6.5q-67 0 -105.5 36q-38.5 36 -38.5 96q0 34 13 59.5q13 25.5 36 42.5q23 17 55.5 26q32.5 9 70.5 9q28 0 64.5 -5.5q36.5 -5.5 65.5 -26.5q1 41 -1.5 76q-2.5 35 -15 61q-12.5 26 -38.5 41q-26 15 -72 15q-37 0 -63.5 -13q-26.5 -13 -31.5 -26q5 -2 8 -8q3 -6 3 -11q0 -14 -8 -23.5q-8 -9.5 -22 -9.5q-34 0 -34 35q0 20 13.5 36.5q13.5 16.5 35.5 28.5q22 12 48.5 19q26.5 7 53.5 7q46 0 78 -12q32 -12 52 -34.5q20 -22.5 28.5 -55.5q8.5 -33 8.5 -76q0 -45 -1 -96q-1 -51 -1 -102q0 -48 39 -48h22v-35q-24 0 -47 -7.5q-23 -7.5 -41.5 -20q-18.5 -12.5 -29.5 -30q-11 -17.5 -11 -38.5q0 -20 8 -33q8 -13 19.5 -20.5q11.5 -7.5 24.5 -10.5q13 -3 23 -3q10 0 21.5 1.5q11.5 1.5 24.5 7.5l14 -29q-13 -8 -32 -12.5q-19 -4.5 -37 -4.5q-18 0 -37.5 4q-19.5 4 -36 14.5q-16.5 10.5 -27 28q-10.5 17.5 -10.5 44.5q0 44 30 76q30 32 74 45q-10 3 -17 9q-6 5 -11 15q-5 10 -5 27zM85 128q0 -43 29.5 -69.5q29.5 -26.5 80.5 -26.5q30 0 53 7.5q23 7.5 40.5 19.5q17.5 12 30.5 26q13 14 23 27l0 80q-53 36 -124 36q-27 0 -51.5 -6q-24.5 -6 -42.5 -18q-18 -12 -28.5 -31t-10.5 -45z" />
<glyph unicode="&#262;" horiz-adv-x="686" d="M594 191h40v-191h-40v54q-37 -29 -88 -46q-51 -17 -106 -17q-78 0 -142 25.5q-64 25.5 -109.5 72.5q-45.5 47 -70.5 113q-25 66 -25 148q0 75 24 140.5q24 65.5 68 114q44 48.5 107.5 76.5q63.5 28 141.5 28q58 0 107.5 -14.5q49.5 -14.5 88.5 -44.5l0 50h40v-175h-40v80q-39 32 -88 47q-49 15 -107 15q-65 0 -119 -24q-54 -24 -92.5 -67q-38.5 -43 -59.5 -101q-21 -58 -21 -125q0 -71 22 -129q22 -58 62 -99.5q40 -41.5 96 -64.5q56 -23 123 -23q53 0 102 17.5q49 17.5 86 47.5zM324 766l175 98l17 -38l-178 -87z" />
<glyph unicode="&#263;" horiz-adv-x="485" d="M43 225q0 49 17 92q17 43 47 74.5q30 31.5 70.5 49.5q40.5 18 88.5 18q38 0 71 -8.5q33 -8.5 57 -23q24 -14.5 38 -34q14 -19.5 14 -42.5q0 -16 -11 -26.5q-11 -10.5 -26 -10.5q-16 0 -26.5 11q-10.5 11 -10.5 26q0 6 3.5 11.5q3.5 5.5 9.5 7.5q-13 19 -42.5 34q-29.5 15 -67.5 15q-39 0 -73 -14.5q-34 -14.5 -59 -40.5q-25 -26 -39 -61.5q-14 -35.5 -14 -77.5q0 -44 15 -79.5q15 -35.5 41 -60.5q26 -25 61 -38q35 -13 76 -13q45 0 82 17.5q37 17.5 61 44.5l22 -32q-29 -36 -74 -54.5q-45 -18.5 -94 -18.5q-52 0 -95.5 16.5q-43.5 16.5 -75 47q-31.5 30.5 -49 74q-17.5 43.5 -17.5 96.5zt0 0zM226 565l108 149l35 -27l-115 -142z" />
<glyph unicode="&#264;" horiz-adv-x="686" d="M594 191h40v-191h-40v54q-37 -29 -88 -46q-51 -17 -106 -17q-78 0 -142 25.5q-64 25.5 -109.5 72.5q-45.5 47 -70.5 113q-25 66 -25 148q0 75 24 140.5q24 65.5 68 114q44 48.5 107.5 76.5q63.5 28 141.5 28q58 0 107.5 -14.5q49.5 -14.5 88.5 -44.5l0 50h40v-175h-40v80q-39 32 -88 47q-49 15 -107 15q-65 0 -119 -24q-54 -24 -92.5 -67q-38.5 -43 -59.5 -101q-21 -58 -21 -125q0 -71 22 -129q22 -58 62 -99.5q40 -41.5 96 -64.5q56 -23 123 -23q53 0 102 17.5q49 17.5 86 47.5zM220 764l168 97h4l169 -96l-20 -27l-151 82l-152 -82z" />
<glyph unicode="&#265;" horiz-adv-x="485" d="M43 225q0 49 17 92q17 43 47 74.5q30 31.5 70.5 49.5q40.5 18 88.5 18q38 0 71 -8.5q33 -8.5 57 -23q24 -14.5 38 -34q14 -19.5 14 -42.5q0 -16 -11 -26.5q-11 -10.5 -26 -10.5q-16 0 -26.5 11q-10.5 11 -10.5 26q0 6 3.5 11.5q3.5 5.5 9.5 7.5q-13 19 -42.5 34q-29.5 15 -67.5 15q-39 0 -73 -14.5q-34 -14.5 -59 -40.5q-25 -26 -39 -61.5q-14 -35.5 -14 -77.5q0 -44 15 -79.5q15 -35.5 41 -60.5q26 -25 61 -38q35 -13 76 -13q45 0 82 17.5q37 17.5 61 44.5l22 -32q-29 -36 -74 -54.5q-45 -18.5 -94 -18.5q-52 0 -95.5 16.5q-43.5 16.5 -75 47q-31.5 30.5 -49 74q-17.5 43.5 -17.5 96.5zt0 0zM141 576l129 132h4l126 -132l-23 -27l-106 107l-107 -107z" />
<glyph unicode="&#266;" horiz-adv-x="686" d="M594 191h40v-191h-40v54q-37 -29 -88 -46q-51 -17 -106 -17q-78 0 -142 25.5q-64 25.5 -109.5 72.5q-45.5 47 -70.5 113q-25 66 -25 148q0 75 24 140.5q24 65.5 68 114q44 48.5 107.5 76.5q63.5 28 141.5 28q58 0 107.5 -14.5q49.5 -14.5 88.5 -44.5l0 50h40v-175h-40v80q-39 32 -88 47q-49 15 -107 15q-65 0 -119 -24q-54 -24 -92.5 -67q-38.5 -43 -59.5 -101q-21 -58 -21 -125q0 -71 22 -129q22 -58 62 -99.5q40 -41.5 96 -64.5q56 -23 123 -23q53 0 102 17.5q49 17.5 86 47.5zM378 760q-16 0 -28 10.5q-12 10.5 -12 28.5q0 17 12 26.5q12 9.5 28 9.5q15 0 27 -9.5q12 -9.5 12 -26.5q0 -18 -12 -28.5t-27 -10.5z" />
<glyph unicode="&#267;" horiz-adv-x="485" d="M43 225q0 49 17 92q17 43 47 74.5q30 31.5 70.5 49.5q40.5 18 88.5 18q38 0 71 -8.5q33 -8.5 57 -23q24 -14.5 38 -34q14 -19.5 14 -42.5q0 -16 -11 -26.5q-11 -10.5 -26 -10.5q-16 0 -26.5 11q-10.5 11 -10.5 26q0 6 3.5 11.5q3.5 5.5 9.5 7.5q-13 19 -42.5 34q-29.5 15 -67.5 15q-39 0 -73 -14.5q-34 -14.5 -59 -40.5q-25 -26 -39 -61.5q-14 -35.5 -14 -77.5q0 -44 15 -79.5q15 -35.5 41 -60.5q26 -25 61 -38q35 -13 76 -13q45 0 82 17.5q37 17.5 61 44.5l22 -32q-29 -36 -74 -54.5q-45 -18.5 -94 -18.5q-52 0 -95.5 16.5q-43.5 16.5 -75 47q-31.5 30.5 -49 74q-17.5 43.5 -17.5 96.5zt0 0zM273 599q-16 0 -27.5 10.5q-11.5 10.5 -11.5 28.5q0 16 11.5 26q11.5 10 27.5 10q14 0 25.5 -10q11.5 -10 11.5 -26q0 -18 -11.5 -28.5t-25.5 -10.5z" />
<glyph unicode="&#268;" horiz-adv-x="686" d="M594 191h40v-191h-40v54q-37 -29 -88 -46q-51 -17 -106 -17q-78 0 -142 25.5q-64 25.5 -109.5 72.5q-45.5 47 -70.5 113q-25 66 -25 148q0 75 24 140.5q24 65.5 68 114q44 48.5 107.5 76.5q63.5 28 141.5 28q58 0 107.5 -14.5q49.5 -14.5 88.5 -44.5l0 50h40v-175h-40v80q-39 32 -88 47q-49 15 -107 15q-65 0 -119 -24q-54 -24 -92.5 -67q-38.5 -43 -59.5 -101q-21 -58 -21 -125q0 -71 22 -129q22 -58 62 -99.5q40 -41.5 96 -64.5q56 -23 123 -23q53 0 102 17.5q49 17.5 86 47.5zM392 780l151 84l19 -26l-168 -97h-4l-170 96l20 27z" />
<glyph unicode="&#269;" horiz-adv-x="485" d="M43 225q0 49 17 92q17 43 47 74.5q30 31.5 70.5 49.5q40.5 18 88.5 18q38 0 71 -8.5q33 -8.5 57 -23q24 -14.5 38 -34q14 -19.5 14 -42.5q0 -16 -11 -26.5q-11 -10.5 -26 -10.5q-16 0 -26.5 11q-10.5 11 -10.5 26q0 6 3.5 11.5q3.5 5.5 9.5 7.5q-13 19 -42.5 34q-29.5 15 -67.5 15q-39 0 -73 -14.5q-34 -14.5 -59 -40.5q-25 -26 -39 -61.5q-14 -35.5 -14 -77.5q0 -44 15 -79.5q15 -35.5 41 -60.5q26 -25 61 -38q35 -13 76 -13q45 0 82 17.5q37 17.5 61 44.5l22 -32q-29 -36 -74 -54.5q-45 -18.5 -94 -18.5q-52 0 -95.5 16.5q-43.5 16.5 -75 47q-31.5 30.5 -49 74q-17.5 43.5 -17.5 96.5zt0 0zM146 682l23 27l107 -113l106 113l23 -27l-127 -132l-4 0z" />
<glyph unicode="&#270;" horiz-adv-x="764" d="M191 40q45 0 76 -1q31 -1 39 -1q89 0 156 24q67 24 111.5 67q44.5 43 66.5 102.5q22 59.5 22 129.5q0 64 -20.5 119.5q-20.5 55.5 -63.5 96q-43 40.5 -110 63.5q-67 23 -161 23q-33 0 -58.5 -1q-25.5 -1 -57.5 -2zM143 40v620h-85v40h96q38 0 78 1.5q40 1.5 87 1.5q105 0 179.5 -28q74.5 -28 122 -75q47.5 -47 69.5 -109q22 -62 22 -130q0 -75 -25 -141.5q-25 -66.5 -75.5 -115.5q-50.5 -49 -125.5 -77.5q-75 -28.5 -175 -28.5q-39 0 -78.5 1q-39.5 1 -81.5 1h-93v40zM367 780l151 84l19 -26l-168 -97h-4l-170 96l20 27z" />
<glyph unicode="&#271;" horiz-adv-x="636" d="M527 35v-35h-106v67q-26 -30 -67 -52.5q-41 -22.5 -90 -22.5q-50 0 -91 16.5q-41 16.5 -70 46.5q-29 30 -44.5 73q-15.5 43 -15.5 96q0 52 18.5 95q18.5 43 51.5 74q33 31 77.5 48.5q44.5 17.5 96.5 17.5q41 0 73 -9.5q32 -9.5 61 -30.5l0 246h-70v35h115v-665zM271 32q24 0 46.5 7q22.5 7 42.5 18q20 11 35.5 24q15.5 13 25.5 26l0 270q-36 24 -68.5 33q-32.5 9 -64.5 9q-41 0 -77 -14q-36 -14 -63 -39.5q-27 -25.5 -42.5 -61.5q-15.5 -36 -15.5 -79q0 -44 13 -80q13 -36 37 -61q24 -25 57.5 -38.5q33.5 -13.5 73.5 -13.5zt0 0zM534 548q22 16 35.5 44q13.5 28 13.5 63q0 27 -10 45l44 0q4 -8 6.5 -17.5q2.5 -9.5 2.5 -22.5q0 -52 -22 -85.5q-22 -33.5 -50 -47.5z" />
<glyph unicode="&#272;" horiz-adv-x="764" d="M143 40v299h-85v40h85v281h-85v40h96q38 0 78 1.5q40 1.5 87 1.5q105 0 179.5 -28q74.5 -28 122 -75q47.5 -47 69.5 -109q22 -62 22 -130q0 -75 -25 -141.5q-25 -66.5 -75.5 -115.5q-50.5 -49 -125.5 -77.5q-75 -28.5 -175 -28.5q-39 0 -78.5 1q-39.5 1 -81.5 1h-93v40zM391 379v-40h-200v-299q45 0 76 -1q31 -1 39 -1q89 0 156 24q67 24 111.5 67q44.5 43 66.5 102.5q22 59.5 22 129.5q0 64 -20.5 119.5q-20.5 55.5 -63.5 96q-43 40.5 -110 63.5q-67 23 -161 23q-33 0 -58.5 -1q-25.5 -1 -57.5 -2l0 -281z" />
<glyph unicode="&#273;" horiz-adv-x="554" d="M527 35v-35h-106v67q-26 -30 -67 -52.5q-41 -22.5 -90 -22.5q-50 0 -91 16.5q-41 16.5 -70 46.5q-29 30 -44.5 73q-15.5 43 -15.5 96q0 52 18.5 95q18.5 43 51.5 74q33 31 77.5 48.5q44.5 17.5 96.5 17.5q41 0 73 -9.5q32 -9.5 61 -30.5l0 119h-183v37h183v90h-70v35h115v-125h106v-37h-106v-503zM271 32q24 0 46.5 7q22.5 7 42.5 18q20 11 35.5 24q15.5 13 25.5 26l0 270q-36 24 -68.5 33q-32.5 9 -64.5 9q-41 0 -77 -14q-36 -14 -63 -39.5q-27 -25.5 -42.5 -61.5q-15.5 -36 -15.5 -79q0 -44 13 -80q13 -36 37 -61q24 -25 57.5 -38.5t73.5 -13.5z" />
<glyph unicode="&#274;" horiz-adv-x="625" d="M58 40h85v620h-85v40h485v-175h-40v135h-312v-284h237v-40h-237v-296h327v151h40v-191h-500zM185 818h299v-38l-299 0z" />
<glyph unicode="&#275;" horiz-adv-x="515" d="M90 218q1 -44 15.5 -78.5q14.5 -34.5 40 -58.5q25.5 -24 60.5 -37q35 -13 77 -13q46 0 83 16q37 16 61 41l19 -32q-31 -32 -76 -48.5q-45 -16.5 -90 -16.5q-53 0 -96.5 16.5q-43.5 16.5 -74.5 47q-31 30.5 -48.5 74q-17.5 43.5 -17.5 96.5q0 49 14.5 92q14.5 43 43 74.5q28.5 31.5 70.5 49.5q42 18 98 18q43 0 80.5 -14.5q37.5 -14.5 65 -41q27.5 -26.5 43 -64q15.5 -37.5 15.5 -83.5q0 -11 -1 -20.5q-1 -9.5 -2 -17.5zM426 253q-1 75 -42.5 120.5q-41.5 45.5 -118.5 45.5q-41 0 -73 -13q-32 -13 -54 -35.5q-22 -22.5 -34.5 -53q-12.5 -30.5 -13.5 -64.5zM134 648h249v-38l-249 0z" />
<glyph unicode="&#278;" horiz-adv-x="625" d="M58 40h85v620h-85v40h485v-175h-40v135h-312v-284h237v-40h-237v-296h327v151h40v-191h-500zM338 760q-16 0 -28 10.5q-12 10.5 -12 28.5q0 17 12 26.5q12 9.5 28 9.5q15 0 27 -9.5q12 -9.5 12 -26.5q0 -18 -12 -28.5t-27 -10.5z" />
</font>
</defs>
</svg>
