<?xml version="1.0" encoding="UTF-8" standalone="no"?>
<!DOCTYPE svg PUBLIC "-//W3C//DTD SVG 1.1//EN" "http://www.w3.org/Graphics/SVG/1.1/DTD/svg11.dtd" >
<svg xmlns="http://www.w3.org/2000/svg">
<metadata>
Generated by SVGconv.
Copyright   : Copyright (c) 2018 ParaType, Inc., ParaType Ltd. All rights reserved.
Designer    : A.Korolkova
Foundry     : ParaType Ltd
Foundry URL : http://www.paratype.com
</metadata>
<defs>
<font id="CirceSlabCWeb-Bold" horiz-adv-x="632" >
<font-face units-per-em="1000" ascent="935" descent="320" >
<font-face-src>
<font-face-name/>
</font-face-src>
</font-face>
<missing-glyph horiz-adv-x="500" />
<glyph unicode="&#13;" horiz-adv-x="240" />
<glyph unicode="&#32;" horiz-adv-x="240" />
<glyph unicode="&#33;" horiz-adv-x="310" d="M73 700h164l-43 -456h-78zM69 79q0 15 6 29.5q6 14.5 17 26.5q11 12 27.5 19q16.5 7 36.5 7q18 0 32.5 -7q14.5 -7 25.5 -18.5q11 -11.5 17 -26q6 -14.5 6 -30.5q0 -34 -22.5 -60.5q-22.5 -26.5 -59.5 -26.5q-41 0 -63.5 26t-22.5 61z" />
<glyph unicode="&#34;" horiz-adv-x="450" d="M75 700h114l-22 -243h-70zM258 700h114l-22 -243l-70 0z" />
<glyph unicode="&#35;" horiz-adv-x="744" d="M81 15l61 173h-102v85h131l55 157h-186v85h216l69 196l76 -26l-60 -170h158l69 196l75 -26l-60 -170h102v-85h-132l-55 -157h187v-85h-216l-70 -199l-76 26l61 173h-158l-70 -199zM414 273l55 157h-158l-55 -157z" />
<glyph unicode="&#36;" horiz-adv-x="560" d="M43 0v231h81l2 -72q19 -38 55 -62q36 -24 84 -24q46 0 74.5 20.5q28.5 20.5 28.5 60.5q0 42 -23 68.5q-23 26.5 -57.5 47.5q-34.5 21 -75 41q-40.5 20 -75 48q-34.5 28 -57.5 68.5q-23 40.5 -23 103.5q0 32 10.5 62.5q10.5 30.5 32.5 55q22 24.5 55 41q33 16.5 77 20.5l0 80h78v-87q31 -6 60 -20q29 -14 52 -37l0 54h80v-212h-80l-3 63q-15 36 -46 56q-31 20 -76 20q-42 0 -66 -22q-24 -22 -24 -57q0 -37 23.5 -62.5q23.5 -25.5 59 -47q35.5 -21.5 76.5 -43.5q41 -22 76.5 -51.5q35.5 -29.5 59 -70q23.5 -40.5 23.5 -99.5q0 -40 -15 -73q-15 -33 -42 -57.5q-27 -24.5 -63.5 -39q-36.5 -14.5 -79.5 -15.5l-15 0v-89h-79v97q-34 7 -60.5 21.5q-26.5 14.5 -46.5 34.5l0 -53z" />
<glyph unicode="&#37;" horiz-adv-x="909" d="M749 711l46 -48l-636 -674l-47 46zM451 150q0 39 14.5 70q14.5 31 41 52.5q26.5 21.5 63 33q36.5 11.5 80.5 11.5q43 0 80 -11.5q37 -11.5 63 -33q26 -21.5 41 -52q15 -30.5 15 -67.5q0 -39 -15 -69.5q-15 -30.5 -41.5 -52q-26.5 -21.5 -63 -32.5q-36.5 -11 -79.5 -11q-44 0 -80.5 11q-36.5 11 -62.5 32q-26 21 -41 51q-15 30 -15 68zt0 0zM562 150q0 -48 25 -73.5q25 -25.5 63 -25.5q39 0 63.5 25.5q24.5 25.5 24.5 73.5q0 54 -25 79q-25 25 -63 25q-38 0 -63 -25.5q-25 -25.5 -25 -78.5zt0 0zM56 543q0 39 14.5 70q14.5 31 41 52.5q26.5 21.5 63 33q36.5 11.5 80.5 11.5q43 0 80 -11.5q37 -11.5 63 -33q26 -21.5 41 -52q15 -30.5 15 -67.5q0 -39 -15 -69.5q-15 -30.5 -41.5 -52q-26.5 -21.5 -63 -32.5q-36.5 -11 -79.5 -11q-44 0 -80.5 11q-36.5 11 -63 32q-26.5 21 -41 51q-14.5 30 -14.5 68zt0 0zM167 543q0 -48 25 -73.5q25 -25.5 63 -25.5q38 0 62.5 25.5q24.5 25.5 24.5 73.5q0 54 -24.5 79q-24.5 25 -62.5 25q-39 0 -63.5 -25.5t-24.5 -78.5z" />
<glyph unicode="&#38;" horiz-adv-x="762" d="M498 75q-15 -16 -35.5 -31.5q-20.5 -15.5 -46.5 -27.5q-26 -12 -56.5 -19.5q-30.5 -7.5 -65.5 -7.5q-60 0 -106.5 15q-46.5 15 -79 42q-32.5 27 -49 63.5q-16.5 36.5 -16.5 80.5q0 44 18 80q18 36 45.5 66q27.5 30 61 55q33.5 25 65.5 47q-12 13 -24.5 29q-12.5 16 -23 34q-10.5 18 -17 38q-6.5 20 -6.5 41q0 60 39.5 95.5q39.5 35.5 125.5 35.5q72 0 112.5 -35.5q40.5 -35.5 40.5 -94.5q0 -29 -10 -51q-10 -22 -25.5 -40q-15.5 -18 -34 -33q-18.5 -15 -35.5 -30l154 -205q17 28 28.5 66.5q11.5 38.5 16.5 82.5l-64 0v79h199v-79h-44q-8 -63 -29.5 -117q-21.5 -54 -53.5 -99l60 -76h73v-79h-157zM323 68q44 0 76 23.5q32 23.5 52 51.5l-162 214q-42 -32 -68.5 -70q-26.5 -38 -26.5 -87q0 -63 36 -97.5q36 -34.5 93 -34.5zt0 0zM317 483q23 18 38.5 39.5q15.5 21.5 15.5 52.5q0 26 -14.5 41.5q-14.5 15.5 -36.5 15.5q-26 0 -38 -15q-12 -15 -12 -33q0 -29 15 -55t32 -46z" />
<glyph unicode="&#39;" horiz-adv-x="250" d="M68 700h114l-22 -243l-70 0z" />
<glyph unicode="&#40;" horiz-adv-x="338" d="M310 600q-41 -41 -68.5 -83.5q-27.5 -42.5 -44.5 -89q-17 -46.5 -24.5 -97q-7.5 -50.5 -7.5 -105.5q0 -55 10 -108.5q10 -53.5 28.5 -102q18.5 -48.5 45.5 -91q27 -42.5 61 -75.5l-53 -44q-58 46 -98.5 96.5q-40.5 50.5 -66 104.5q-25.5 54 -37 109.5q-11.5 55.5 -11.5 110.5q0 55 11 109.5q11 54.5 36 107.5q25 53 66 104q41 51 101 99z" />
<glyph unicode="&#41;" horiz-adv-x="338" d="M29 -152q34 33 60.5 75.5q26.5 42.5 45.5 91q19 48.5 29 102q10 53.5 10 108.5q0 55 -7.5 105.5q-7.5 50.5 -24.5 97q-17 46.5 -44.5 89q-27.5 42.5 -68.5 83.5l52 45q60 -48 101 -99q41 -51 66 -104q25 -53 36 -107.5q11 -54.5 11 -109.5q0 -55 -11.5 -110.5q-11.5 -55.5 -37 -109.5q-25.5 -54 -66.5 -104.5q-41 -50.5 -99 -96.5z" />
<glyph unicode="&#42;" horiz-adv-x="496" d="M190 343q0 24 17 41q17 17 41 17q24 0 41 -17q17 -17 17 -41q0 -25 -17 -41.5q-17 -16.5 -41 -16.5q-24 0 -41 16.5q-17 16.5 -17 41.5zt0 0zM55 575q0 24 16.5 41q16.5 17 40.5 17q25 0 42 -17q17 -17 17 -41q0 -24 -17 -41q-17 -17 -42 -17q-24 0 -40.5 17q-16.5 17 -16.5 41zt0 0zM55 421q0 24 16.5 41q16.5 17 40.5 17q25 0 42 -17q17 -17 17 -41q0 -25 -17 -41.5q-17 -16.5 -42 -16.5q-24 0 -40.5 16.5q-16.5 16.5 -16.5 41.5zt0 0zM190 653q0 24 16.5 41q16.5 17 40.5 17q25 0 42 -17q17 -17 17 -41q0 -24 -17 -41q-17 -17 -42 -17q-24 0 -40.5 17q-16.5 17 -16.5 41zt0 0zM325 575q0 24 17 41q17 17 41 17q24 0 41 -17q17 -17 17 -41q0 -24 -17 -41q-17 -17 -41 -17q-24 0 -41 17q-17 17 -17 41zt0 0zM325 421q0 24 17 41q17 17 41 17q24 0 41 -17q17 -17 17 -41q0 -25 -17 -41.5q-17 -16.5 -41 -16.5q-24 0 -41 16.5t-17 41.5z" />
<glyph unicode="&#43;" horiz-adv-x="600" d="M250 317h-184v86h184v188h94v-188h186v-86h-186v-190l-94 0z" />
<glyph unicode="&#44;" horiz-adv-x="281" d="M54 -90q12 3 25.5 10.5q13.5 7.5 25.5 18q12 10.5 20 24.5q8 14 8 31q0 7 -2 10q-7 -5 -22 -5q-30 0 -48 20.5q-18 20.5 -18 52.5q0 35 21.5 57.5q21.5 22.5 61.5 22.5q42 0 67.5 -29q25.5 -29 25.5 -82q0 -35 -12 -65q-12 -30 -31.5 -53q-19.5 -23 -45 -38q-25.5 -15 -52.5 -20z" />
<glyph unicode="&#45;" horiz-adv-x="360" d="M54 313h252v-86l-252 0z" />
<glyph unicode="&#46;" horiz-adv-x="256" d="M44 79q0 15 6 29.5q6 14.5 17 26.5q11 12 27.5 19q16.5 7 36.5 7q18 0 32.5 -7q14.5 -7 25.5 -18.5q11 -11.5 17 -26q6 -14.5 6 -30.5q0 -34 -22.5 -60.5q-22.5 -26.5 -59.5 -26.5q-41 0 -63.5 26t-22.5 61z" />
<glyph unicode="&#47;" horiz-adv-x="382" d="M-15 -182l315 893l75 -26l-314 -893z" />
<glyph unicode="&#48;" horiz-adv-x="639" d="M321 -8q-66 0 -117 26q-51 26 -86 73q-35 47 -53 113q-18 66 -18 146q0 80 17.5 146q17.5 66 52 113q34.5 47 85.5 73q51 26 117 26q69 0 120.5 -26q51.5 -26 85.5 -73q34 -47 50.5 -113q16.5 -66 16.5 -146q0 -80 -18 -146q-18 -66 -52.5 -113q-34.5 -47 -85 -73q-50.5 -26 -115.5 -26zt0 0zM321 63q28 0 46.5 16q18.5 16 29 50.5q10.5 34.5 14.5 89q4 54.5 4 131.5q0 74 -4 128q-4 54 -15 89.5q-11 35.5 -29.5 52.5q-18.5 17 -47.5 17q-28 0 -46 -16q-18 -16 -29 -50.5q-11 -34.5 -15.5 -89q-4.5 -54.5 -4.5 -131.5q0 -77 4.5 -131.5q4.5 -54.5 16 -89q11.5 -34.5 30 -50.5t46.5 -16z" />
<glyph unicode="&#49;" horiz-adv-x="475" d="M58 79h109v454q-6 -3 -20.5 -7.5q-14.5 -4.5 -31.5 -9q-17 -4.5 -34 -8.5q-17 -4 -27 -6l-13 60q31 7 65.5 21.5q34.5 14.5 68 33.5q33.5 19 62 41q28.5 22 47.5 46l45 0v-625h90v-79l-361 0z" />
<glyph unicode="&#50;" horiz-adv-x="581" d="M40 74q45 38 99 86q54 48 100.5 102q46.5 54 78 112.5q31.5 58.5 31.5 117.5q0 59 -31.5 95.5q-31.5 36.5 -88.5 36.5q-35 0 -64 -16.5q-29 -16.5 -40 -39.5q38 0 62 -21.5q24 -21.5 24 -59.5q0 -35 -24 -60q-24 -25 -66 -25q-38 0 -64 26.5q-26 26.5 -26 67.5q0 37 15.5 75.5q15.5 38.5 46.5 69q31 30.5 78.5 50q47.5 19.5 111.5 19.5q61 0 106.5 -16q45.5 -16 76 -43.5q30.5 -27.5 45.5 -64q15 -36.5 15 -77.5q0 -48 -18 -91q-18 -43 -47 -81q-29 -38 -66 -70q-37 -32 -74.5 -57q-37.5 -25 -72.5 -43q-35 -18 -60 -27l269 0v69h78v-209l-495 0z" />
<glyph unicode="&#51;" horiz-adv-x="579" d="M187 319v78h32q53 0 86.5 31.5q33.5 31.5 33.5 91.5q0 54 -33 86q-33 32 -86 32q-22 0 -43 -7.5q-21 -7.5 -34 -20.5q26 -8 40 -28q14 -20 14 -47q0 -32 -23.5 -55.5q-23.5 -23.5 -57.5 -23.5q-33 0 -56.5 23.5q-23.5 23.5 -23.5 59.5q0 35 18.5 66.5q18.5 31.5 51 55q32.5 23.5 76.5 37q44 13.5 95 13.5q52 0 96.5 -12q44.5 -12 76 -34.5q31.5 -22.5 49.5 -55.5q18 -33 18 -76q0 -30 -11 -57q-11 -27 -31.5 -48.5q-20.5 -21.5 -50.5 -37.5q-30 -16 -68 -23l0 -3q46 -2 81.5 -16.5q35.5 -14.5 59 -37.5q23.5 -23 35.5 -52.5q12 -29.5 12 -60.5q0 -50 -21 -88.5q-21 -38.5 -57.5 -65q-36.5 -26.5 -85.5 -40.5q-49 -14 -105 -14q-55 0 -101.5 13.5q-46.5 13.5 -80 37q-33.5 23.5 -52.5 56q-19 32.5 -19 71.5q0 35 24.5 60.5q24.5 25.5 59.5 25.5q38 0 61.5 -25q23.5 -25 23.5 -58q0 -25 -12.5 -46q-12.5 -21 -38.5 -31q15 -14 38 -22.5q23 -8.5 50 -8.5q32 0 57.5 10q25.5 10 43.5 27q18 17 27.5 39.5q9.5 22.5 9.5 46.5q0 60 -36.5 97q-36.5 37 -108.5 37z" />
<glyph unicode="&#52;" horiz-adv-x="622" d="M337 248v141l133 61h29v-202h90v-86h-90v-162h-162v162h-320v56q49 45 90.5 103q41.5 58 73.5 121.5q32 63.5 53 129.5q21 66 27 128l202 0q-18 -62 -56 -129.5q-38 -67.5 -84.5 -129q-46.5 -61.5 -96 -112.5q-49.5 -51 -89.5 -81z" />
<glyph unicode="&#53;" horiz-adv-x="585" d="M173 431q17 7 42.5 11.5q25.5 4.5 63.5 4.5q53 0 99.5 -15q46.5 -15 81 -43q34.5 -28 54 -68.5q19.5 -40.5 19.5 -92.5q0 -55 -19.5 -99.5q-19.5 -44.5 -54.5 -75.5q-35 -31 -83 -47.5q-48 -16.5 -104 -16.5q-55 0 -100.5 13q-45.5 13 -78.5 36q-33 23 -51 54.5q-18 31.5 -18 69.5q0 38 25 63.5q25 25.5 63 25.5q35 0 59.5 -25q24.5 -25 24.5 -60q0 -25 -14 -46q-14 -21 -37 -31q14 -12 36.5 -19.5q22.5 -7.5 47.5 -7.5q58 0 92 39q34 39 34 101q0 34 -11.5 62.5q-11.5 28.5 -32.5 49.5q-21 21 -50.5 32.5q-29.5 11.5 -65.5 11.5q-39 0 -66.5 -9q-27.5 -9 -44.5 -20l46 371h327l10 73h78l-23 -220l-333 0z" />
<glyph unicode="&#54;" horiz-adv-x="644" d="M38 285q0 55 14 109.5q14 54.5 41 104q27 49.5 66.5 91q39.5 41.5 91 70q51.5 28.5 114 41.5q62.5 13 136.5 6l-5 -76q-60 -4 -108.5 -25.5q-48.5 -21.5 -84 -57.5q-35.5 -36 -57 -85q-21.5 -49 -25.5 -106q23 46 67.5 70q44.5 24 97.5 24q53 0 94 -15.5q41 -15.5 69 -44q28 -28.5 42.5 -68q14.5 -39.5 14.5 -87.5q0 -53 -20.5 -98.5q-20.5 -45.5 -56 -78.5q-35.5 -33 -84 -51.5q-48.5 -18.5 -105.5 -18.5q-65 0 -120 19q-55 19 -95.5 56q-40.5 37 -63.5 92.5q-23 55.5 -23 128.5zt0 0zM330 68q44 0 71.5 41q27.5 41 27.5 112q0 66 -28.5 101q-28.5 35 -72.5 35q-48 0 -75 -24q-27 -24 -38 -59q0 -46 6.5 -84q6.5 -38 21 -65q14.5 -27 36 -42t51.5 -15z" />
<glyph unicode="&#55;" horiz-adv-x="544" d="M38 700h490v-57q-56 -83 -98 -163q-42 -80 -70.5 -159q-28.5 -79 -42.5 -158.5q-14 -79.5 -14 -162.5l-166 0q3 67 24 131.5q21 64.5 54.5 130.5q33.5 66 78 135.5q44.5 69.5 94.5 147.5l-272 0v-84l-78 0z" />
<glyph unicode="&#56;" horiz-adv-x="661" d="M446 359q75 -12 120 -55.5q45 -43.5 45 -112.5q0 -48 -20.5 -86q-20.5 -38 -57.5 -63.5q-37 -25.5 -88.5 -39q-51.5 -13.5 -114.5 -13.5q-63 0 -115 13.5q-52 13.5 -89 38q-37 24.5 -57 60q-20 35.5 -20 80.5q0 69 41.5 115q41.5 46 115.5 62l0 3q-60 17 -99 60.5q-39 43.5 -39 105.5q0 43 19.5 77.5q19.5 34.5 54.5 58q35 23.5 82.5 36q47.5 12.5 104.5 12.5q58 0 106.5 -12q48.5 -12 83 -35.5q34.5 -23.5 53.5 -57.5q19 -34 19 -79q0 -26 -9 -51.5q-9 -25.5 -27.5 -47.5q-18.5 -22 -45.5 -39.5q-27 -17.5 -63 -26.5zM331 68q49 0 76 36.5q27 36.5 26 99.5q0 24 -6.5 46q-6.5 22 -18.5 38.5q-12 16.5 -29.5 26.5q-17.5 10 -39.5 10h-16q-22 0 -40 -10.5q-18 -10.5 -30.5 -27.5q-12.5 -17 -19.5 -40q-7 -23 -7 -47q0 -60 29.5 -96q29.5 -36 75.5 -36zt0 0zM340 395q16 0 30.5 9q14.5 9 25.5 24q11 15 18 35.5q7 20.5 7 43.5q0 58 -25.5 91.5q-25.5 33.5 -66.5 33.5q-41 0 -66 -33.5q-25 -33.5 -25 -91.5q0 -24 7 -44.5q7 -20.5 18.5 -35.5q11.5 -15 26.5 -23.5q15 -8.5 31 -8.5z" />
<glyph unicode="&#57;" horiz-adv-x="644" d="M141 69q62 4 111.5 24.5q49.5 20.5 84.5 54.5q35 34 56.5 80.5q21.5 46.5 28.5 102.5q-23 -46 -65.5 -68q-42.5 -22 -93.5 -22q-53 0 -96 17.5q-43 17.5 -73.5 48q-30.5 30.5 -47 71.5q-16.5 41 -16.5 88q0 53 21 98q21 45 59 78q38 33 90 51.5q52 18.5 115 18.5q61 0 113 -20q52 -20 90 -58.5q38 -38.5 59.5 -93.5q21.5 -55 21.5 -125q0 -93 -30 -174.5q-30 -81.5 -88.5 -140q-58.5 -58.5 -145.5 -88q-87 -29.5 -200 -18.5zM319 327q39 0 65 23q26 23 37 58q2 41 -3.5 80.5q-5.5 39.5 -19 70q-13.5 30.5 -36 49q-22.5 18.5 -53.5 18.5q-44 0 -72.5 -40q-28.5 -40 -28.5 -105q0 -32 7.5 -60q7.5 -28 22 -49q14.5 -21 35 -33t46.5 -12z" />
<glyph unicode="&#58;" horiz-adv-x="316" d="M74 79q0 15 6 29.5q6 14.5 17 26.5q11 12 27.5 19q16.5 7 36.5 7q18 0 32.5 -7q14.5 -7 25.5 -18.5q11 -11.5 17 -26q6 -14.5 6 -30.5q0 -34 -22.5 -60.5q-22.5 -26.5 -59.5 -26.5q-41 0 -63.5 26q-22.5 26 -22.5 61zt0 0zM74 375q0 15 6 29.5q6 14.5 17 26.5q11 12 27.5 19q16.5 7 36.5 7q18 0 32.5 -7q14.5 -7 25.5 -18.5q11 -11.5 17 -26q6 -14.5 6 -30.5q0 -34 -22.5 -60.5q-22.5 -26.5 -59.5 -26.5q-41 0 -63.5 26t-22.5 61z" />
<glyph unicode="&#59;" horiz-adv-x="283" d="M65 -90q12 3 25.5 10.5q13.5 7.5 25.5 18q12 10.5 20 24.5q8 14 8 31q0 7 -2 10q-7 -5 -22 -5q-30 0 -48 20.5q-18 20.5 -18 52.5q0 35 21.5 57.5q21.5 22.5 61.5 22.5q42 0 67.5 -29q25.5 -29 25.5 -82q0 -35 -12 -65q-12 -30 -31.5 -53q-19.5 -23 -45 -38q-25.5 -15 -52.5 -20zM55 375q0 15 6 29.5q6 14.5 17 26.5q11 12 27.5 19q16.5 7 36.5 7q18 0 32.5 -7q14.5 -7 25.5 -18.5q11 -11.5 17 -26q6 -14.5 6 -30.5q0 -34 -22.5 -60.5q-22.5 -26.5 -59.5 -26.5q-41 0 -63.5 26t-22.5 61z" />
<glyph unicode="&#60;" horiz-adv-x="600" d="M514 169v-103l-428 271v50l428 269v-103l-305 -191z" />
<glyph unicode="&#61;" horiz-adv-x="600" d="M66 308h464v-86h-464zM66 498h464v-86l-464 0z" />
<glyph unicode="&#62;" horiz-adv-x="600" d="M82 169l305 193l-305 191v103l428 -269v-50l-428 -271z" />
<glyph unicode="&#63;" horiz-adv-x="510" d="M177 279q0 29 11 51q11 22 27.5 41.5q16.5 19.5 35 37.5q18.5 18 35 37.5q16.5 19.5 27 42q10.5 22.5 10.5 50.5q0 39 -25.5 66q-25.5 27 -73.5 27q-26 0 -44.5 -8.5q-18.5 -8.5 -29.5 -22.5q35 -18 35 -59q0 -31 -21.5 -52.5q-21.5 -21.5 -52.5 -21.5q-30 0 -51.5 22q-21.5 22 -21.5 53q0 39 18 70q18 31 48.5 52.5q30.5 21.5 69.5 33.5q39 12 81 12q50 0 91 -12.5q41 -12.5 69.5 -35q28.5 -22.5 44 -54q15.5 -31.5 15.5 -70.5q0 -45 -16 -77.5q-16 -32.5 -40 -57q-24 -24.5 -52.5 -43.5q-28.5 -19 -52.5 -36.5q-24 -17.5 -40.5 -36.5q-16.5 -19 -16.5 -43q0 -14 4 -27l-71 0q-13 32 -13 61zt0 0zM148 79q0 15 6 29.5q6 14.5 17 26.5q11 12 27.5 19q16.5 7 36.5 7q18 0 32.5 -7q14.5 -7 25.5 -18.5q11 -11.5 17 -26q6 -14.5 6 -30.5q0 -34 -22.5 -60.5q-22.5 -26.5 -59.5 -26.5q-41 0 -63.5 26t-22.5 61z" />
<glyph unicode="&#64;" horiz-adv-x="1006" d="M599 71q-8 -12 -21 -24q-13 -12 -31 -22q-18 -10 -40.5 -16.5q-22.5 -6.5 -49.5 -6.5q-41 0 -77 14q-36 14 -62 41q-26 27 -41 66.5q-15 39.5 -15 90.5q0 52 18.5 96q18.5 44 53 76q34.5 32 83.5 49.5q49 17.5 111 17.5q63 0 115 -15.5q52 -15.5 87 -38.5l0 -312h12q29 3 54 18.5q25 15.5 43.5 41q18.5 25.5 29 59.5q10.5 34 10.5 73q0 61 -22 117q-22 56 -66.5 98.5q-44.5 42.5 -113 67.5q-68.5 25 -161.5 25q-77 0 -145.5 -26q-68.5 -26 -119.5 -73q-51 -47 -81 -114q-30 -67 -30 -149q0 -82 30 -149q30 -67 81.5 -114q51.5 -47 121.5 -73q70 -26 151 -26q23 0 52 3q29 3 55 9l5 -78q-27 -6 -59 -9.5q-32 -3.5 -61 -3.5q-100 0 -185 33q-85 33 -146.5 91.5q-61.5 58.5 -96.5 139.5q-35 81 -35 177q0 93 35 173.5q35 80.5 96.5 140q61.5 59.5 146.5 93.5q85 34 185 34q98 0 180.5 -27.5q82.5 -27.5 142 -77q59.5 -49.5 93 -119.5q33.5 -70 33.5 -155q0 -54 -16.5 -104.5q-16.5 -50.5 -51.5 -89q-35 -38.5 -89.5 -62q-54.5 -23.5 -129.5 -23.5h-79zM511 85q28 0 48 11.5q20 11.5 32 25.5l0 239q-30 13 -68 13q-25 0 -47 -9.5q-22 -9.5 -38.5 -28.5q-16.5 -19 -26 -46q-9.5 -27 -9.5 -63q0 -71 32 -106.5t77 -35.5z" />
<glyph unicode="&#65;" horiz-adv-x="763" d="M5 82h51l234 618h185l237 -618h48v-82h-292v82h75l-55 148h-267l-54 -148h77v-82h-239zM459 308l-63 168q-10 29 -21.5 62.5q-11.5 33.5 -18.5 54.5l-5 0q-7 -22 -19.5 -55q-12.5 -33 -22.5 -62l-61 -168z" />
<glyph unicode="&#66;" horiz-adv-x="700" d="M42 0v82h74v536h-74v82h74q15 0 51.5 0.5q36.5 0.5 80 1.5q43.5 1 86 1.5q42.5 0.5 68.5 0.5q63 0 108 -13.5q45 -13.5 74 -37q29 -23.5 42.5 -55.5q13.5 -32 13.5 -68q0 -30 -11 -56.5q-11 -26.5 -30.5 -47.5q-19.5 -21 -46 -35q-26.5 -14 -56.5 -19l0 -2q35 -4 65.5 -17q30.5 -13 53 -34q22.5 -21 35.5 -49.5q13 -28.5 13 -62.5q0 -54 -19.5 -94q-19.5 -40 -54.5 -66q-35 -26 -84.5 -38.5q-49.5 -12.5 -109.5 -12.5q-24 0 -65 0.5q-41 0.5 -83.5 1.5q-42.5 1 -79 1.5q-36.5 0.5 -51.5 0.5zM279 316v-233q12 -2 36.5 -3.5q24.5 -1.5 50.5 -1.5q61 0 92 33.5q31 33.5 31 91.5q0 22 -7.5 42.5q-7.5 20.5 -23 36.5q-15.5 16 -40 25q-24.5 9 -58.5 9zM355 394q56 0 83.5 34q27.5 34 27.5 84q0 23 -6 43q-6 20 -19 35q-13 15 -35 23.5q-22 8.5 -53 8.5q-20 0 -39 0q-19 0 -35 -2l0 -226z" />
<glyph unicode="&#67;" horiz-adv-x="738" d="M602 231h86v-231h-86v53q-36 -29 -86 -46.5q-50 -17.5 -107 -17.5q-81 0 -149 24.5q-68 24.5 -117 71q-49 46.5 -76 113.5q-27 67 -27 152q0 75 25 141q25 66 72.5 115q47.5 49 114.5 77q67 28 151 28q63 0 109 -16.5q46 -16.5 81 -45.5l0 51h87v-227h-87l-2 85q-24 26 -60 43.5q-36 17.5 -88 17.5q-48 0 -88 -19q-40 -19 -69 -54q-29 -35 -45 -85q-16 -50 -16 -111q0 -59 16 -108.5q16 -49.5 45.5 -85q29.5 -35.5 70 -55.5q40.5 -20 90.5 -20q48 0 86.5 16q38.5 16 66.5 45z" />
<glyph unicode="&#68;" horiz-adv-x="823" d="M286 82q25 -2 41 -2q16 0 30 0q61 0 106 21q45 21 75 58q30 37 45 87.5q15 50.5 15 110.5q0 58 -14.5 106.5q-14.5 48.5 -44 83.5q-29.5 35 -74.5 54.5q-45 19.5 -106 19.5q-22 0 -37 -0.5q-15 -0.5 -36 -2.5zM124 82v536h-82v82h95q15 0 46 0.5q31 0.5 67 1q36 0.5 71 1q35 0.5 58 0.5q111 0 188 -28q77 -28 125.5 -75.5q48.5 -47.5 70 -110.5q21.5 -63 21.5 -132q0 -74 -23.5 -139.5q-23.5 -65.5 -74.5 -114q-51 -48.5 -131.5 -77q-80.5 -28.5 -194.5 -28.5q-15 0 -43 0.5q-28 0.5 -60 0.5q-32 0 -63.5 0.5q-31.5 0.5 -55.5 0.5h-96l0 82z" />
<glyph unicode="&#69;" horiz-adv-x="659" d="M42 82h82v536h-82v82h562v-227h-87l-4 145h-215v-226h172v-78h-172v-232h225l4 146h87v-228l-572 0z" />
<glyph unicode="&#70;" horiz-adv-x="618" d="M42 82h74v536h-74v82h556v-227h-87l-4 145h-217v-249h197v-79h-197v-208h120v-82l-368 0z" />
<glyph unicode="&#71;" horiz-adv-x="754" d="M701 356v-356h-90v53q-40 -30 -90.5 -47q-50.5 -17 -101.5 -17q-93 0 -164 25.5q-71 25.5 -118.5 73q-47.5 47.5 -72 114q-24.5 66.5 -24.5 148.5q0 77 26 143q26 66 73.5 114.5q47.5 48.5 113.5 76q66 27.5 147 27.5q65 0 113.5 -17q48.5 -17 85.5 -49l0 53h86v-223h-86l-2 87q-26 23 -61.5 40q-35.5 17 -83.5 17q-52 0 -94 -19.5q-42 -19.5 -71.5 -54.5q-29.5 -35 -45.5 -85q-16 -50 -16 -110q0 -57 15 -106.5q15 -49.5 44 -85.5q29 -36 72.5 -56.5q43.5 -20.5 99.5 -20.5q23 0 46.5 5.5q23.5 5.5 44.5 14.5q21 9 38 21q17 12 26 24l0 127l-176 4l0 79z" />
<glyph unicode="&#72;" horiz-adv-x="866" d="M42 82h74v536h-74v82h310v-82h-73v-226h309v226h-74v82h310v-82h-74v-536h74v-82h-310v82h74v232h-309v-232h73v-82l-310 0z" />
<glyph unicode="&#73;" horiz-adv-x="414" d="M44 82h82v536h-82v82h326v-82h-81v-536h81v-82l-326 0z" />
<glyph unicode="&#74;" horiz-adv-x="420" d="M146 618h-94v82h343v-82h-75v-434q0 -99 -45 -147q-45 -48 -152 -48q-20 0 -40.5 3q-20.5 3 -38.5 7.5q-18 4.5 -32.5 10.5q-14.5 6 -23.5 13l30 71q8 -6 21 -11q13 -5 30 -5q77 0 77 94z" />
<glyph unicode="&#75;" horiz-adv-x="776" d="M42 82h74v536h-74v82h292v-82h-55v-536h65v-82h-302zM303 355l230 263h-72v82h279v-82h-53l-226 -232l253 -304h52v-82l-194 0z" />
<glyph unicode="&#76;" horiz-adv-x="636" d="M42 82h74v536h-74v82h347v-82h-99v-536h231l4 147h87v-229l-570 0z" />
<glyph unicode="&#77;" horiz-adv-x="968" d="M42 82h82v536h-82v82h243l211 -308l206 308h224v-82h-74v-536h74v-82h-318v82h82v448l-220 -338h-19l-230 335v-445h79v-82l-258 0z" />
<glyph unicode="&#78;" horiz-adv-x="835" d="M42 82h74v536h-74v82h225l363 -484v402h-74v82h248v-82h-75v-618h-136l-379 505v-423h83v-82l-255 0z" />
<glyph unicode="&#79;" horiz-adv-x="839" d="M419 -15q-83 0 -152.5 25q-69.5 25 -119.5 72.5q-50 47.5 -78.5 115q-28.5 67.5 -28.5 152.5q0 79 27.5 146q27.5 67 77 115.5q49.5 48.5 119.5 76q70 27.5 155 27.5q86 0 156 -25q70 -25 120 -72.5q50 -47.5 77.5 -115q27.5 -67.5 27.5 -152.5q0 -82 -27 -149q-27 -67 -77 -115q-50 -48 -120.5 -74.5q-70.5 -26.5 -156.5 -26.5zt0 0zM424 72q49 0 84.5 21q35.5 21 59 58.5q23.5 37.5 35 88.5q11.5 51 11.5 110q0 62 -13.5 113q-13.5 51 -39 88q-25.5 37 -61.5 57q-36 20 -81 20q-45 0 -81 -20q-36 -20 -61 -57q-25 -37 -38.5 -88q-13.5 -51 -13.5 -113q0 -60 15 -110.5q15 -50.5 41.5 -88q26.5 -37.5 63 -58.5t79.5 -21z" />
<glyph unicode="&#80;" horiz-adv-x="699" d="M42 82h82v536h-82v82h82q15 0 48.5 0.5q33.5 0.5 72 0.5q38.5 0 74.5 0.5q36 0.5 55 0.5q79 0 134 -17q55 -17 89.5 -47.5q34.5 -30.5 50 -71.5q15.5 -41 15.5 -89q0 -49 -19 -89.5q-19 -40.5 -54 -69.5q-35 -29 -85 -45q-50 -16 -113 -16q-8 0 -21.5 0q-13.5 0 -28.5 0.5q-15 0.5 -30 1.5q-15 1 -26 2l0 -179h103v-82h-347zM286 340q21 -3 36.5 -4q15.5 -1 31.5 -1q36 0 61.5 11q25.5 11 41 31q15.5 20 22.5 46.5q7 26.5 7 58.5q0 64 -32 101q-32 37 -97 37q-14 0 -34 -0.5q-20 -0.5 -37 -1.5z" />
<glyph unicode="&#81;" horiz-adv-x="839" d="M864 -135q-31 -37 -74.5 -54q-43.5 -17 -86.5 -17q-39 0 -73 12.5q-34 12.5 -71 37.5q-37 25 -81 60.5q-44 35.5 -101 82.5q-74 6 -136 33.5q-62 27.5 -106.5 74q-44.5 46.5 -69.5 111q-25 64.5 -25 144.5q0 79 27.5 146q27.5 67 77 115.5q49.5 48.5 119.5 76q70 27.5 155 27.5q86 0 156 -25q70 -25 120 -72.5q50 -47.5 77.5 -115q27.5 -67.5 27.5 -152.5q0 -68 -19.5 -126.5q-19.5 -58.5 -57 -104.5q-37.5 -46 -92 -78q-54.5 -32 -124.5 -47q86 -55 140 -79q54 -24 90 -23q33 0 56 8q23 8 42 22zM424 72q49 0 84.5 21q35.5 21 59 58.5q23.5 37.5 35 88.5q11.5 51 11.5 110q0 62 -13.5 113q-13.5 51 -39 88q-25.5 37 -61.5 57q-36 20 -81 20q-45 0 -81 -20q-36 -20 -61 -57q-25 -37 -38.5 -88q-13.5 -51 -13.5 -113q0 -60 15 -110.5q15 -50.5 41.5 -88q26.5 -37.5 63 -58.5t79.5 -21z" />
<glyph unicode="&#82;" horiz-adv-x="726" d="M42 82h82v536h-82v82h82q10 0 32 0q22 0 50 0.5q28 0.5 58.5 0.5q30.5 0 57 0.5q26.5 0.5 45.5 0.5q19 0 24 0q72 0 123 -16.5q51 -16.5 83.5 -46q32.5 -29.5 48 -69q15.5 -39.5 15.5 -84.5q0 -42 -15 -74.5q-15 -32.5 -38.5 -56q-23.5 -23.5 -51 -38.5q-27.5 -15 -52.5 -23l163 -212h52v-82h-187l-169 269h-77v-187h58v-82h-302zM356 348q30 0 53.5 10.5q23.5 10.5 40 29q16.5 18.5 25 43q8.5 24.5 8.5 53.5q0 61 -30.5 98.5q-30.5 37.5 -101.5 37.5q-14 0 -29.5 -0.5q-15.5 -0.5 -35.5 -1.5l0 -270z" />
<glyph unicode="&#83;" horiz-adv-x="577" d="M43 0v231h81l2 -72q19 -38 55 -62q36 -24 84 -24q46 0 74.5 20.5q28.5 20.5 28.5 60.5q0 42 -23 68.5q-23 26.5 -57.5 47.5q-34.5 21 -75 40q-40.5 19 -75 45.5q-34.5 26.5 -57.5 65q-23 38.5 -23 97.5q0 39 13.5 74.5q13.5 35.5 40.5 61.5q27 26 68 41.5q41 15.5 96 15.5q42 0 87 -16q45 -16 77 -49l0 54h81v-212h-81l-2 63q-15 36 -46.5 56q-31.5 20 -76.5 20q-42 0 -65.5 -22q-23.5 -22 -23.5 -57q0 -37 23.5 -61q23.5 -24 58.5 -44.5q35 -20.5 76.5 -40q41.5 -19.5 76.5 -48q35 -28.5 58.5 -68.5q23.5 -40 23.5 -101q0 -45 -17 -81.5q-17 -36.5 -46.5 -62q-29.5 -25.5 -69 -39q-39.5 -13.5 -84.5 -13.5q-66 0 -117 19q-51 19 -84 51l0 -59z" />
<glyph unicode="&#84;" horiz-adv-x="671" d="M157 82h92v536h-137l-4 -145h-87v227h629v-227h-87l-4 145h-137v-536h92v-82l-357 0z" />
<glyph unicode="&#85;" horiz-adv-x="777" d="M26 700h324v-82h-76v-303q0 -48 9 -88q9 -40 28.5 -68.5q19.5 -28.5 49.5 -44.5q30 -16 72 -16q79 0 116.5 54q37.5 54 37.5 156v310h-78v82h242v-82h-66v-317q0 -84 -20 -143.5q-20 -59.5 -57 -97q-37 -37.5 -89 -54.5q-52 -17 -115 -17q-143 0 -223.5 77q-80.5 77 -80.5 231v321l-74 0z" />
<glyph unicode="&#86;" horiz-adv-x="734" d="M50 618h-53v82h300v-82h-64l181 -441l167 441h-83v82h233v-82h-46l-253 -620l-117 0z" />
<glyph unicode="&#87;" horiz-adv-x="1036" d="M51 618h-48v82h289v-82h-64l106 -393l172 475h93l175 -485l114 403h-90v82h236v-82h-51l-184 -618h-110l-178 476l-174 -476l-102 0z" />
<glyph unicode="&#88;" horiz-adv-x="721" d="M14 82h48l213 265l-214 271h-45v82h291v-82h-50l129 -185l133 185h-73v82h241v-82h-46l-201 -244l222 -292h46v-82h-291v82h50l-138 197l-145 -197h76v-82l-246 0z" />
<glyph unicode="&#89;" horiz-adv-x="706" d="M181 82h92v210l-219 326h-49v82h296v-82h-68l152 -243l152 243h-83v82h251v-82h-56l-214 -326v-210h91v-82l-345 0z" />
<glyph unicode="&#90;" horiz-adv-x="653" d="M21 59l395 559h-281l-4 -145h-87v227h579v-59l-395 -559h297l5 150h86v-232l-595 0z" />
<glyph unicode="&#91;" horiz-adv-x="405" d="M60 650h295v-79h-140v-692h140v-79l-295 0z" />
<glyph unicode="&#92;" horiz-adv-x="342" d="M-30 685l75 26l315 -893l-76 -26z" />
<glyph unicode="&#93;" horiz-adv-x="405" d="M15 -121h141v692h-141v79h295v-850l-295 0z" />
<glyph unicode="&#94;" horiz-adv-x="522" d="M223 708h64l191 -258h-111l-112 161l-114 -161l-111 0z" />
<glyph unicode="&#95;" horiz-adv-x="385" d="M0 -118h353v-82l-353 0z" />
<glyph unicode="&#96;" horiz-adv-x="342" d="M152 729l94 -171l-48 -33l-140 132z" />
<glyph unicode="&#97;" horiz-adv-x="510" d="M312 290q0 49 -20.5 76q-20.5 27 -65.5 27q-23 0 -40 -5.5q-17 -5.5 -30 -13.5q9 -4 17.5 -14.5q8.5 -10.5 8.5 -25.5q0 -24 -16.5 -39.5q-16.5 -15.5 -43.5 -15.5q-28 0 -44 19q-16 19 -16 42q0 27 15.5 49.5q15.5 22.5 41.5 38q26 15.5 60.5 24.5q34.5 9 73.5 9q95 0 143.5 -46.5q48.5 -46.5 48.5 -134.5q0 -12 -0.5 -33q-0.5 -21 -1 -45.5q-0.5 -24.5 -1 -49q-0.5 -24.5 -0.5 -44.5q0 -9 2.5 -22q2.5 -13 19.5 -13q12 0 23 5l19 -58q-11 -9 -26 -15q-13 -5 -31 -9.5q-18 -4.5 -41 -4.5q-25 0 -41.5 7q-16.5 7 -27 18q-10.5 11 -15.5 24.5q-5 13.5 -7 26.5q-15 -29 -49.5 -52.5q-34.5 -23.5 -92.5 -23.5q-33 0 -60.5 8.5q-27.5 8.5 -48 25q-20.5 16.5 -32 41q-11.5 24.5 -11.5 57.5q0 66 49.5 101q49.5 35 135.5 35q30 0 60 -5q30 -5 43 -11q1 11 1 22q0 11 0 25zt0 0zM228 73q32 0 53 14q21 14 29 28l1 73q-15 8 -34.5 11.5q-19.5 3.5 -39.5 3.5q-32 0 -52.5 -18q-20.5 -18 -20.5 -47q0 -29 18.5 -47t45.5 -18z" />
<glyph unicode="&#98;" horiz-adv-x="572" d="M8 700h191v-277q22 16 54 27q32 11 74 11q52 0 93 -17q41 -17 69.5 -47.5q28.5 -30.5 43 -72.5q14.5 -42 14.5 -92q0 -52 -18 -96.5q-18 -44.5 -52.5 -77q-34.5 -32.5 -85.5 -51q-51 -18.5 -117 -18.5q-75 0 -127.5 17.5q-52.5 17.5 -82.5 45.5l0 569h-56zM199 97q19 -12 38.5 -17q19.5 -5 42.5 -5q54 0 86 40q32 40 32 115q0 70 -27.5 107.5q-27.5 37.5 -79.5 37.5q-30 0 -54 -10q-24 -10 -38 -26z" />
<glyph unicode="&#99;" horiz-adv-x="492" d="M25 225q0 49 17.5 92q17.5 43 50.5 75q33 32 80.5 50.5q47.5 18.5 107.5 18.5q38 0 72.5 -8.5q34.5 -8.5 60 -25.5q25.5 -17 40.5 -42q15 -25 15 -58q0 -31 -18 -50.5q-18 -19.5 -47 -19.5q-28 0 -47 16.5q-19 16.5 -19 41.5q0 33 24 47q-10 8 -25 14q-15 6 -38 6q-54 0 -89.5 -39q-35.5 -39 -35.5 -111q0 -37 11 -66q11 -29 30.5 -49.5q19.5 -20.5 45.5 -31q26 -10.5 56 -10.5q29 0 60 16q31 16 49 46l51 -42q-30 -56 -81 -81q-51 -25 -117 -25q-59 0 -106 17q-47 17 -80 48q-33 31 -50.5 74.5t-17.5 96.5z" />
<glyph unicode="&#100;" horiz-adv-x="582" d="M566 79v-79h-186v62q-17 -28 -54.5 -49q-37.5 -21 -91.5 -21q-45 0 -83.5 16.5q-38.5 16.5 -66 46.5q-27.5 30 -43.5 72q-16 42 -16 93q0 56 18 101q18 45 50.5 76q32.5 31 78.5 47.5q46 16.5 102 16.5q38 0 62.5 -7.5q24.5 -7.5 43.5 -18.5l0 186h-59v79h191v-621zM286 78q33 0 55 11q22 11 39 29l0 238q-20 16 -40.5 21q-20.5 5 -43.5 5q-56 0 -89 -42.5q-33 -42.5 -33 -115.5q0 -63 29.5 -104.5t82.5 -41.5z" />
<glyph unicode="&#101;" horiz-adv-x="542" d="M177 189q4 -52 38.5 -83q34.5 -31 94.5 -31q52 0 86.5 15.5q34.5 15.5 53.5 34.5l42 -55q-29 -35 -81 -58q-52 -23 -122 -23q-66 0 -115.5 17q-49.5 17 -82.5 48q-33 31 -49.5 75.5q-16.5 44.5 -16.5 98.5q0 48 16.5 90.5q16.5 42.5 49 74q32.5 31.5 80.5 50q48 18.5 111 18.5q54 0 97.5 -15q43.5 -15 73.5 -42.5q30 -27.5 46 -66q16 -38.5 16 -85.5q0 -22 -1.5 -36q-1.5 -14 -5.5 -27zM377 260q1 24 -3.5 46q-4.5 22 -15.5 39q-11 17 -29.5 27q-18.5 10 -45.5 10q-27 0 -46.5 -10q-19.5 -10 -33 -27q-13.5 -17 -20.5 -39q-7 -22 -8 -46z" />
<glyph unicode="&#102;" horiz-adv-x="341" d="M32 79h55v292h-55v79h55v61q0 103 48.5 151.5q48.5 48.5 135.5 48.5q33 0 60 -8.5q27 -8.5 46.5 -24q19.5 -15.5 30 -37q10.5 -21.5 10.5 -46.5q0 -31 -19 -49q-19 -18 -47 -18q-28 0 -46.5 15q-18.5 15 -18.5 42q0 13 6.5 25.5q6.5 12.5 17.5 18.5q-5 5 -14 8q-9 3 -20 3q-35 0 -53 -29q-18 -29 -18 -81q0 -10 1 -22q1 -12 3 -23.5q2 -11.5 4 -21q2 -9.5 4 -13.5l105 0v-79h-103v-292h80v-79l-268 0z" />
<glyph unicode="&#103;" horiz-adv-x="523" d="M261 133q-5 0 -9.5 0q-4.5 0 -9.5 1q-6 -12 -6 -24q0 -6 2 -14q2 -8 7 -15q5 0 10 0.5q5 0.5 10 0.5q55 -1 100 -10q45 -9 77 -27q32 -18 49.5 -44.5q17.5 -26.5 17.5 -63.5q0 -72 -67.5 -108.5q-67.5 -36.5 -182.5 -36.5q-118 0 -183.5 36.5q-65.5 36.5 -65.5 108.5q0 53 40 89.5q40 36.5 129 49.5q-9 15 -9 36q0 17 7 31q-36 9 -61.5 25q-25.5 16 -41.5 35.5q-16 19.5 -23 42q-7 22.5 -7 46.5q0 34 13 64.5q13 30.5 39 53.5q26 23 66.5 37q40.5 14 95.5 14q30 0 61 -6.5q31 -6.5 59 -20.5q19 4 31.5 11.5q12.5 7.5 19.5 17.5q-20 6 -31.5 22.5q-11.5 16.5 -11.5 36.5q0 25 16.5 42q16.5 17 47.5 17q26 0 43.5 -18q17.5 -18 17.5 -52q0 -29 -22 -60q-22 -31 -69 -45q24 -21 38.5 -49.5q14.5 -28.5 14.5 -64.5q0 -69 -52 -111.5q-52 -42.5 -160 -47.5zt0 0zM259 -145q51 0 80 22q29 22 29 60q0 35 -28 58.5q-28 23.5 -81 23.5q-47 0 -78 -20q-31 -20 -31 -62q0 -38 30 -60q30 -22 79 -22zt0 0zM258 204q36 0 59 23q23 23 23 65q0 43 -20.5 70.5q-20.5 27.5 -61.5 27.5q-38 0 -60 -26.5q-22 -26.5 -22 -71.5q0 -40 22 -64t60 -24z" />
<glyph unicode="&#104;" horiz-adv-x="601" d="M24 79h53v542h-55v79h190v-314q10 14 25.5 27q15.5 13 35 23q19.5 10 41 16q21.5 6 42.5 6q84 0 129.5 -45.5q45.5 -45.5 45.5 -151.5v-182h49v-79h-229v79h45v182q0 51 -20 77q-20 26 -67 26q-29 0 -54.5 -11.5q-25.5 -11.5 -42.5 -30.5l0 -243h44v-79l-232 0z" />
<glyph unicode="&#105;" horiz-adv-x="302" d="M36 79h56v292h-56v79h187v-371h57v-79h-244zM151 543q-32 0 -54.5 20q-22.5 20 -22.5 58q0 34 22.5 53.5q22.5 19.5 54.5 19.5q28 0 51 -19.5q23 -19.5 23 -53.5q0 -38 -23 -58t-51 -20z" />
<glyph unicode="&#106;" horiz-adv-x="281" d="M29 450h188v-483q0 -83 -44 -129q-44 -46 -116 -46q-29 0 -56.5 8q-27.5 8 -48.5 23q-21 15 -34 36q-13 21 -13 47q0 30 17 49q17 19 48 19q31 0 45.5 -18q14.5 -18 14.5 -43q0 -11 -5.5 -22q-5.5 -11 -15.5 -16q4 -5 12.5 -8.5q8.5 -3.5 19.5 -3.5q29 0 42.5 23.5q13.5 23.5 13.5 57.5q0 13 -2 26.5q-2 13.5 -4 28.5q-2 15 -4 32.5q-2 17.5 -2 39.5v300h-56zM152 543q-32 0 -54.5 20q-22.5 20 -22.5 58q0 34 22.5 53.5q22.5 19.5 54.5 19.5q28 0 51 -19.5q23 -19.5 23 -53.5q0 -38 -23 -58t-51 -20z" />
<glyph unicode="&#107;" horiz-adv-x="542" d="M16 79h56v542h-56v79h191v-621h17v-79h-208zM216 225l144 146h-62v79h224v-79h-43l-129 -122l131 -170h48v-79l-161 0z" />
<glyph unicode="&#108;" horiz-adv-x="303" d="M304 27q-40 -37 -119 -37q-59 0 -89.5 32.5q-30.5 32.5 -30.5 102.5v496h-56v79h191v-551q0 -73 44 -73q10 0 21.5 3.5q11.5 3.5 21.5 8.5z" />
<glyph unicode="&#109;" horiz-adv-x="860" d="M32 79h56v292h-56v79h188v-64q10 15 25 28.5q15 13.5 34 23q19 9.5 40 15q21 5.5 42 5.5q49 0 87.5 -21.5q38.5 -21.5 53.5 -69.5q15 37 54 64q39 27 92 27q29 0 55.5 -8.5q26.5 -8.5 47 -27.5q20.5 -19 32.5 -50.5q12 -31.5 12 -77.5v-215h53v-79h-223v79h38v200q0 85 -72 85q-32 0 -52 -14q-20 -14 -31 -37l0 -7v-227h37v-79h-207v79h37v208q0 35 -18 56q-18 21 -51 21q-30 0 -50.5 -12.5q-20.5 -12.5 -35.5 -35.5l0 -237h38v-79l-226 0z" />
<glyph unicode="&#110;" horiz-adv-x="611" d="M32 78h57v294h-57v78h192v-67q10 16 27 30q17 14 38.5 24q21.5 10 46 15.5q24.5 5.5 49.5 5.5q72 0 115 -41q43 -41 43 -128v-211h53v-78h-233v78h44v181q0 54 -20.5 79.5q-20.5 25.5 -69.5 25.5q-29 0 -52.5 -12q-23.5 -12 -40.5 -32l0 -242h44v-78l-236 0z" />
<glyph unicode="&#111;" horiz-adv-x="570" d="M285 -13q-68 0 -117 18q-49 18 -80.5 50q-31.5 32 -47 75.5q-15.5 43.5 -15.5 94.5q0 51 16.5 94.5q16.5 43.5 49 75.5q32.5 32 81 50q48.5 18 113.5 18q64 0 113 -18q49 -18 81.5 -50q32.5 -32 49 -75.5q16.5 -43.5 16.5 -94.5q0 -51 -16.5 -94.5q-16.5 -43.5 -49 -75.5q-32.5 -32 -81.5 -50q-49 -18 -113 -18zt0 0zM285 65q56 0 84 41.5q28 41.5 28 118.5q0 72 -28.5 116q-28.5 44 -83.5 44q-54 0 -83 -43.5q-29 -43.5 -29 -116.5q0 -71 28.5 -115.5t83.5 -44.5z" />
<glyph unicode="&#112;" horiz-adv-x="588" d="M24 -121h53v492h-53v79h186v-66q21 37 59.5 57q38.5 20 88.5 20q49 0 87.5 -17q38.5 -17 64.5 -47.5q26 -30.5 39.5 -72.5q13.5 -42 13.5 -92q0 -54 -16 -98.5q-16 -44.5 -47.5 -77q-31.5 -32.5 -77.5 -50q-46 -17.5 -106 -17.5q-29 0 -56.5 6q-27.5 6 -47.5 17l0 -133h72v-79h-260zM212 97q23 -15 43.5 -20.5q20.5 -5.5 43.5 -5.5q33 0 55 12q22 12 36 33.5q14 21.5 20 50.5q6 29 6 62q0 64 -26 101q-26 37 -83 37q-31 0 -54.5 -11q-23.5 -11 -40.5 -31z" />
<glyph unicode="&#113;" horiz-adv-x="567" d="M302 -121h74v160q-18 -23 -53.5 -36.5q-35.5 -13.5 -83.5 -13.5q-45 0 -84.5 15q-39.5 15 -68 44q-28.5 29 -45 71.5q-16.5 42.5 -16.5 98.5q0 54 19 99q19 45 55 77.5q36 32.5 87 50.5q51 18 116 18q63 0 118.5 -12q55.5 -12 91.5 -35l0 -537h51v-79h-261zM282 75q27 0 54 10.5q27 10.5 40 25.5l0 244q-20 11 -40.5 14.5q-20.5 3.5 -37.5 3.5q-57 0 -91.5 -40q-34.5 -40 -34.5 -112q0 -69 28.5 -107.5t81.5 -38.5z" />
<glyph unicode="&#114;" horiz-adv-x="443" d="M32 79h56v292h-56v79h192v-59q17 28 45 47.5q28 19.5 73 19.5q40 0 66.5 -25.5q26.5 -25.5 26.5 -68.5q0 -39 -22.5 -55.5q-22.5 -16.5 -49.5 -16.5q-29 0 -46.5 14.5q-17.5 14.5 -17.5 43.5q0 8 2.5 14.5q2.5 6.5 5.5 11.5q-2 3 -12 3q-25 1 -43.5 -18q-18.5 -19 -27.5 -42l0 -240h81v-79l-273 0z" />
<glyph unicode="&#115;" horiz-adv-x="444" d="M62 129q19 -25 57.5 -46.5q38.5 -21.5 89.5 -21.5q69 0 69 48q0 19 -18 31q-18 12 -44.5 22q-26.5 10 -58 21.5q-31.5 11.5 -58 29q-26.5 17.5 -44.5 44q-18 26.5 -18 67.5q0 66 52 103q52 37 138 37q39 0 73.5 -8q34.5 -8 59.5 -22.5q25 -14.5 39.5 -35q14.5 -20.5 14.5 -45.5q0 -26 -17.5 -43.5q-17.5 -17.5 -42.5 -17.5q-29 0 -44 15.5q-15 15.5 -15 36.5q0 14 6.5 23.5q6.5 9.5 13.5 14.5q-9 6 -29 12q-20 6 -40 6q-34 0 -55 -14q-21 -14 -21 -37q0 -25 18 -40.5q18 -15.5 45.5 -27q27.5 -11.5 59.5 -23q32 -11.5 59.5 -28q27.5 -16.5 45.5 -41q18 -24.5 18 -62.5q0 -33 -14.5 -59.5q-14.5 -26.5 -40.5 -44.5q-26 -18 -62.5 -27.5q-36.5 -9.5 -81.5 -9.5q-39 0 -71 8.5q-32 8.5 -56.5 22.5q-24.5 14 -42.5 31.5q-18 17.5 -29 35.5z" />
<glyph unicode="&#116;" horiz-adv-x="370" d="M361 35q-17 -20 -52 -32.5q-35 -12.5 -79 -12.5q-41 0 -69.5 10.5q-28.5 10.5 -46 30.5q-17.5 20 -25 49.5q-7.5 29.5 -7.5 68.5v222h-71v79h71v102h136v-102h132v-79h-132v-215q0 -36 13.5 -58q13.5 -22 51.5 -22q15 0 30 4.5q15 4.5 26 11.5z" />
<glyph unicode="&#117;" horiz-adv-x="576" d="M370 372h-51v78h187v-377h53v-73h-186v71q-19 -32 -60 -57q-41 -25 -94 -25q-73 0 -116.5 44.5q-43.5 44.5 -42.5 141.5q0 4 0 19q0 15 0.5 35.5q0.5 20.5 0.5 43.5q0 23 0.5 43.5q0.5 20.5 0.5 36q0 15.5 0 19.5l-46 0v78h184q0 -6 -0.5 -27q-0.5 -21 -1 -49.5q-0.5 -28.5 -0.5 -61q0 -32.5 -0.5 -60.5q-0.5 -28 -1 -49q-0.5 -21 -0.5 -26q0 -45 17.5 -73.5q17.5 -28.5 61.5 -28.5q29 0 53.5 12.5q24.5 12.5 41.5 33.5z" />
<glyph unicode="&#118;" horiz-adv-x="528" d="M43 371h-41v79h232v-79h-48l40 -98q8 -21 18.5 -46q10.5 -25 20 -48q9.5 -23 16.5 -42.5q7 -19.5 9 -29.5q2 10 8.5 29q6.5 19 15.5 42.5q9 23.5 19.5 48.5q10.5 25 19.5 47l42 97h-55v79h187v-79h-39l-163 -373l-117 0z" />
<glyph unicode="&#119;" horiz-adv-x="749" d="M37 371h-34v79h212v-79h-52l38 -145q11 -33 18 -64q7 -31 12 -52q6 21 17 53q11 32 22 64l77 223h97l77 -223q11 -32 22 -65q11 -33 16 -53q2 10 6 24.5q4 14.5 9 30.5q5 16 10 32.5q5 16.5 9 30.5l37 144h-55v79h173v-79h-35l-105 -373h-119l-79 220q-11 32 -19.5 59q-8.5 27 -13.5 43q-3 -16 -12.5 -44q-9.5 -28 -20.5 -57l-80 -221l-115 0z" />
<glyph unicode="&#120;" horiz-adv-x="503" d="M55 79l121 146l-117 146h-41v79h178v-49l84 -117l64 87h-46v79h189v-79h-39l-114 -138l125 -154h38v-79h-169v44l-99 129l-73 -94h53v-79h-200l0 79z" />
<glyph unicode="&#121;" horiz-adv-x="531" d="M42 371h-37v79h238v-79h-48l80 -175q8 -16 16.5 -38q8.5 -22 10.5 -34q4 14 10.5 33q6.5 19 14.5 39l67 175h-53v79h189v-79h-37l-161 -382q-23 -56 -46 -92.5q-23 -36.5 -45.5 -58q-22.5 -21.5 -46 -30q-23.5 -8.5 -48.5 -8.5q-42 0 -71.5 23.5q-29.5 23.5 -29.5 62.5q0 32 19 49.5q19 17.5 48 17.5q27 0 41.5 -15.5q14.5 -15.5 13.5 -35.5q0 -8 -3 -14.5q-3 -6.5 -7 -9.5l6 0q19 0 38 21q19 21 37 68l8 24z" />
<glyph unicode="&#122;" horiz-adv-x="470" d="M25 61l258 310h-166l-4 -83h-81v162h408v-61l-257 -310h177l4 99h81v-178l-420 0z" />
<glyph unicode="&#123;" horiz-adv-x="400" d="M351 -121v-79h-81q-88 0 -124 37.5q-36 37.5 -36 115.5v130q0 32 -9 53q-9 21 -22.5 33q-13.5 12 -29 16.5q-15.5 4.5 -29.5 4.5l0 70q13 0 29 4.5q16 4.5 29.5 17q13.5 12.5 22.5 34q9 21.5 9 54.5v126q0 39 8 67.5q8 28.5 26.5 48q18.5 19.5 49 29q30.5 9.5 74.5 9.5h83v-79h-27q-40 0 -55.5 -17q-15.5 -17 -15.5 -64v-127q0 -26 -6 -50q-6 -24 -16.5 -42.5q-10.5 -18.5 -26 -30.5q-15.5 -12 -33.5 -15q18 -2 33.5 -13.5q15.5 -11.5 26 -30q10.5 -18.5 16.5 -42.5q6 -24 6 -51v-129q0 -47 17 -63.5q17 -16.5 55 -16.5z" />
<glyph unicode="&#124;" horiz-adv-x="310" d="M112 700h86v-700l-86 0z" />
<glyph unicode="&#125;" horiz-adv-x="400" d="M20 -121h26q39 0 55.5 16.5q16.5 16.5 16.5 63.5v129q0 27 6 51q6 24 17 42.5q11 18.5 26.5 30q15.5 11.5 33.5 13.5q-19 3 -34 15q-15 12 -26 30.5q-11 18.5 -17 42.5q-6 24 -6 50v127q0 47 -15.5 64q-15.5 17 -54.5 17h-28v79h83q88 0 123 -38.5q35 -38.5 35 -115.5v-126q0 -33 9 -54.5q9 -21.5 22.5 -34q13.5 -12.5 29 -17q15.5 -4.5 29.5 -4.5l0 -70q-14 0 -29.5 -4.5q-15.5 -4.5 -29 -16.5q-13.5 -12 -22.5 -33q-9 -21 -9 -53v-130q0 -78 -35.5 -115.5q-35.5 -37.5 -123.5 -37.5l-82 0z" />
<glyph unicode="&#126;" horiz-adv-x="600" d="M546 348q-23 -27 -54 -47q-31 -20 -72 -20q-30 0 -60 10.5q-30 10.5 -59.5 23.5q-29.5 13 -58 23.5q-28.5 10.5 -54.5 10.5q-35 0 -61 -18q-26 -18 -45 -36l-41 59q32 36 70.5 58.5q38.5 22.5 76.5 22.5q31 0 60 -10.5q29 -10.5 58 -23.5q29 -13 57.5 -23.5q28.5 -10.5 57.5 -10.5q23 0 47 13.5q24 13.5 41 31.5z" />
<glyph unicode="&#160;" horiz-adv-x="212" />
<glyph unicode="&#161;" horiz-adv-x="310" d="M71 375q0 34 22 60q22 26 59 26q40 0 63.5 -26q23.5 -26 23.5 -60q0 -32 -23.5 -57q-23.5 -25 -62.5 -25q-37 0 -59.5 25.5q-22.5 25.5 -22.5 56.5zt0 0zM116 210h78l43 -457l-164 0z" />
<glyph unicode="&#162;" horiz-adv-x="511" d="M242 -8q-50 5 -89 24q-39 19 -66 49.5q-27 30.5 -41.5 71q-14.5 40.5 -14.5 88.5q0 45 14.5 84.5q14.5 39.5 41.5 70.5q27 31 66 51.5q39 20.5 89 26.5l0 106h79v-104q32 -4 60 -14.5q28 -10.5 48.5 -27q20.5 -16.5 32.5 -39.5q12 -23 12 -52q0 -31 -18 -50.5q-18 -19.5 -46 -19.5q-29 0 -47.5 16.5q-18.5 16.5 -18.5 41.5q0 18 7.5 31q7.5 13 17.5 16q-9 8 -25.5 14q-16.5 6 -39.5 6q-54 0 -89.5 -39q-35.5 -39 -35.5 -111q0 -37 11 -66q11 -29 30.5 -49.5q19.5 -20.5 45.5 -31q26 -10.5 56 -10.5q29 0 60 16q31 16 50 46l51 -42q-26 -48 -68 -73q-42 -25 -94 -31l0 -111l-79 0z" />
<glyph unicode="&#163;" horiz-adv-x="600" d="M30 76q2 2 12.5 14q10.5 12 27 27q16.5 15 39.5 29q23 14 51 19q14 16 23 37.5q9 21.5 10 52.5q0 5 0 9q0 4 -2 8l-123 0v79h91q-13 18 -27 37q-14 19 -25.5 39.5q-11.5 20.5 -19 44q-7.5 23.5 -7.5 51.5q0 39 16.5 73q16.5 34 46.5 59.5q30 25.5 72 40.5q42 15 93 15q50 0 92 -11q42 -11 72 -32q30 -21 46.5 -50q16.5 -29 16.5 -65q0 -32 -22 -54q-22 -22 -53 -22q-32 0 -53.5 21.5q-21.5 21.5 -21.5 52.5q0 20 9.5 36.5q9.5 16.5 26.5 23.5q-8 9 -25.5 15q-17.5 6 -37.5 6q-54 0 -84 -34q-30 -34 -30 -88q0 -24 4.5 -44.5q4.5 -20.5 11.5 -39q7 -18.5 14.5 -36.5q7.5 -18 12.5 -39l169 0v-79h-168q1 -3 1 -9q-4 -29 -17.5 -55.5q-13.5 -26.5 -36.5 -45.5q8 2 12 2q24 -5 45 -13q21 -8 41 -15.5q20 -7.5 40 -13.5q20 -6 41 -6q21 0 37 5.5q16 5.5 28 12.5q12 7 19.5 14.5q7.5 7.5 10.5 10.5l54 -84q-4 -3 -15 -16q-11 -13 -30 -27q-19 -14 -45.5 -25q-26.5 -11 -60.5 -11q-29 0 -56.5 8q-27.5 8 -54.5 18q-27 10 -54 18q-27 8 -56 8q-20 0 -39 -7q-19 -7 -34 -16.5q-15 -9.5 -25.5 -18.5q-10.5 -9 -14.5 -13z" />
<glyph unicode="&#164;" horiz-adv-x="588" d="M28 132l75 77q-40 55 -40 134q0 38 10 72q10 34 30 61l-73 75l61 61l76 -78q26 17 58 26.5q32 9.5 69 9.5q37 0 69 -9.5q32 -9.5 58 -26.5l77 80l61 -61l-75 -77q20 -27 30 -61q10 -34 10 -72q0 -79 -40 -134l74 -75l-61 -62l-77 78q-53 -34 -126 -34q-73 0 -127 34l-78 -79zM294 194q69 0 106.5 42.5q37.5 42.5 37.5 106.5q0 31 -9.5 58.5q-9.5 27.5 -28 47q-18.5 19.5 -45.5 31q-27 11.5 -61 11.5q-34 0 -61 -11.5q-27 -11.5 -45.5 -31q-18.5 -19.5 -28.5 -47q-10 -27.5 -10 -58.5q0 -64 38 -106.5t107 -42.5z" />
<glyph unicode="&#165;" horiz-adv-x="734" d="M204 83h69v64h-170v83h170v62h-170v82h114l-163 244h-49v82h296v-82h-68l152 -243l152 243h-83v82h251v-82h-56l-160 -244h115v-82h-169v-62h169v-83h-169v-64h69v-83l-300 0z" />
<glyph unicode="&#166;" horiz-adv-x="310" d="M112 260h86v-260h-86zM112 700h86v-260l-86 0z" />
<glyph unicode="&#167;" horiz-adv-x="564" d="M108 -74q0 29 18.5 50.5q18.5 21.5 54.5 21.5q35 0 51 -18.5q16 -18.5 16 -46.5q0 -16 -9 -29.5q-9 -13.5 -27 -18.5q8 -9 22.5 -16q14.5 -7 34.5 -7q35 0 55.5 19.5q20.5 19.5 20.5 49.5q0 34 -23 56.5q-23 22.5 -57.5 39.5q-34.5 17 -75 33q-40.5 16 -75 39q-34.5 23 -57.5 56.5q-23 33.5 -23 85.5q0 33 13.5 62q13.5 29 36 52q22.5 23 53 40.5q30.5 17.5 63.5 26.5q-43 24 -67.5 58q-24.5 34 -24.5 82q0 27 11.5 51.5q11.5 24.5 33.5 44q22 19.5 54 31q32 11.5 73 11.5q36 0 66 -9q30 -9 52 -25.5q22 -16.5 34.5 -39q12.5 -22.5 12.5 -49.5q0 -27 -17.5 -48q-17.5 -21 -52.5 -21q-34 0 -49.5 18.5q-15.5 18.5 -15.5 44.5q0 15 9.5 27.5q9.5 12.5 22.5 17.5q-6 8 -21 14.5q-15 6.5 -36 6.5q-35 0 -55.5 -18q-20.5 -18 -20.5 -47q0 -35 23 -57.5q23 -22.5 57.5 -40.5q34.5 -18 75 -34.5q40.5 -16.5 75 -40q34.5 -23.5 57.5 -57q23 -33.5 23 -84.5q0 -35 -12.5 -64q-12.5 -29 -34.5 -52q-22 -23 -51.5 -39.5q-29.5 -16.5 -63.5 -25.5q38 -20 63 -54q25 -34 25 -81q0 -29 -11.5 -55q-11.5 -26 -33.5 -46q-22 -20 -54 -31.5q-32 -11.5 -73 -11.5q-33 0 -63 9.5q-30 9.5 -53 26q-23 16.5 -36.5 40q-13.5 23.5 -13.5 52.5zt0 0zM302 131q26 11 44.5 41.5q18.5 30.5 18.5 69.5q0 47 -28.5 75q-28.5 28 -76.5 50q-13 -5 -25.5 -15.5q-12.5 -10.5 -22.5 -25q-10 -14.5 -16.5 -32.5q-6.5 -18 -6.5 -37q0 -47 31 -78t82 -48z" />
<glyph unicode="&#168;" horiz-adv-x="471" d="M126 536q-29 0 -49.5 19q-20.5 19 -20.5 54q0 32 20.5 50.5q20.5 18.5 49.5 18.5q24 0 44.5 -18.5q20.5 -18.5 20.5 -50.5q0 -35 -20.5 -54q-20.5 -19 -44.5 -19zt0 0zM322 536q-29 0 -49.5 19q-20.5 19 -20.5 54q0 32 20.5 50.5q20.5 18.5 49.5 18.5q24 0 44 -18.5q20 -18.5 20 -50.5q0 -35 -20 -54t-44 -19z" />
<glyph unicode="&#169;" horiz-adv-x="1018" d="M509 -216q-93 0 -172.5 34q-79.5 34 -138 93q-58.5 59 -92 138.5q-33.5 79.5 -33.5 171.5q0 92 33.5 171.5q33.5 79.5 92 138.5q58.5 59 138 93q79.5 34 172.5 34q93 0 172.5 -34q79.5 -34 138.5 -93q59 -59 92.5 -138.5q33.5 -79.5 33.5 -171.5q0 -92 -33.5 -171.5q-33.5 -79.5 -92.5 -138.5q-59 -59 -138.5 -93q-79.5 -34 -172.5 -34zt0 0zM510 -133q75 0 138.5 28q63.5 28 110.5 76q47 48 73.5 112.5q26.5 64.5 26.5 136.5q0 73 -26.5 137.5q-26.5 64.5 -73.5 113q-47 48.5 -110.5 76.5q-63.5 28 -138.5 28q-75 0 -139.5 -28q-64.5 -28 -111.5 -76.5q-47 -48.5 -73.5 -113q-26.5 -64.5 -26.5 -137.5q0 -72 26.5 -136.5q26.5 -64.5 73.5 -112.5q47 -48 111.5 -76q64.5 -28 139.5 -28zt0 0zM274 225q0 49 17.5 92q17.5 43 49 75q31.5 32 76.5 50.5q45 18.5 100 18.5q42 0 77 -10q35 -10 60.5 -27.5q25.5 -17.5 39.5 -41q14 -23.5 14 -50.5q0 -31 -18 -50.5q-18 -19.5 -47 -19.5q-26 0 -45 16q-19 16 -19 44q0 13 7 27q7 14 21 19q-10 7 -28 13.5q-18 6.5 -40 6.5q-26 0 -51.5 -10.5q-25.5 -10.5 -45 -30.5q-19.5 -20 -31.5 -50.5q-12 -30.5 -12 -69.5q0 -39 12.5 -69q12.5 -30 33 -49.5q20.5 -19.5 47 -29.5q26.5 -10 53.5 -10q23 0 42.5 6.5q19.5 6.5 34.5 15.5q15 9 25 18.5q10 9.5 14 15.5l52 -48q-6 -10 -21.5 -25q-15.5 -15 -39.5 -29q-24 -14 -55.5 -24q-31.5 -10 -70.5 -10q-58 0 -104.5 17q-46.5 17 -79.5 48q-33 31 -50.5 74.5t-17.5 96.5z" />
<glyph unicode="&#170;" horiz-adv-x="465" d="M433 407v-57h-152v49q-11 -20 -38.5 -37q-27.5 -17 -76.5 -17q-61 0 -95 24.5q-34 24.5 -34 69.5q0 47 40 71.5q40 24.5 114 24.5q28 0 50 -2.5q22 -2.5 34 -7.5l0 12q-2 81 -77 81q-19 0 -29.5 -4.5q-10.5 -4.5 -13.5 -6.5q10 -8 10 -24q0 -15 -13.5 -25.5q-13.5 -10.5 -35.5 -10.5q-26 0 -35.5 13.5q-9.5 13.5 -9.5 27.5q0 22 14 38q14 16 36 26.5q22 10.5 49 15.5q27 5 53 5q83 0 125 -34.5q42 -34.5 42 -98.5q0 -11 -0.5 -29q-0.5 -18 -1 -37.5q-0.5 -19.5 -1 -37.5q-0.5 -18 -0.5 -29zM156 451q0 -20 14.5 -33q14.5 -13 37.5 -13q33 0 48 11.5q15 11.5 19 16.5l0 51q-5 2 -22 6q-17 4 -37 4q-29 0 -44.5 -12t-15.5 -31z" />
<glyph unicode="&#171;" horiz-adv-x="562" d="M37 248v4l197 226l53 -45l-107 -183l107 -185l-57 -44zM247 248v4l197 226l53 -45l-107 -183l107 -185l-57 -44z" />
<glyph unicode="&#172;" horiz-adv-x="600" d="M546 411v-233h-94v139h-401l0 94z" />
<glyph unicode="&#173;" horiz-adv-x="360" d="M54 313h252v-86l-252 0z" />
<glyph unicode="&#174;" horiz-adv-x="708" d="M334 207q-61 0 -113.5 22.5q-52.5 22.5 -91.5 62q-39 39.5 -61.5 92.5q-22.5 53 -22.5 114q0 59 22.5 111q22.5 52 61.5 91q39 39 91.5 61.5q52.5 22.5 113.5 22.5q59 0 111.5 -22.5q52.5 -22.5 91.5 -61.5q39 -39 61.5 -91q22.5 -52 22.5 -111q0 -61 -22.5 -114q-22.5 -53 -61.5 -92.5q-39 -39.5 -91.5 -62q-52.5 -22.5 -111.5 -22.5zt0 0zM333 286q46 0 84 16q38 16 66 44q28 28 43.5 66.5q15.5 38.5 15.5 83.5q0 45 -15.5 83.5q-15.5 38.5 -43.5 66q-28 27.5 -66 43.5q-38 16 -84 16q-46 0 -84.5 -16q-38.5 -16 -66.5 -43.5q-28 -27.5 -43.5 -66q-15.5 -38.5 -15.5 -83.5q0 -45 15.5 -83.5q15.5 -38.5 43.5 -66.5q28 -28 66.5 -44q38.5 -16 84.5 -16zt0 0zM206 640h132q35 0 59.5 -8q24.5 -8 39.5 -21q15 -13 22 -30.5q7 -17.5 7 -36.5q0 -32 -17 -51q-17 -19 -40 -27l73 -106h-101l-50 99h-36v-99h-89zM327 497q18 0 32 12q14 12 14 34q0 23 -12 36.5q-12 13.5 -35 13.5h-31l0 -96z" />
<glyph unicode="&#175;" horiz-adv-x="414" d="M60 635h280v-71l-280 0z" />
<glyph unicode="&#176;" horiz-adv-x="456" d="M228 405q-37 0 -69 11.5q-32 11.5 -55 33q-23 21.5 -36.5 51.5q-13.5 30 -13.5 66q0 37 13.5 67q13.5 30 37 51q23.5 21 55.5 32.5q32 11.5 68 11.5q37 0 69 -11.5q32 -11.5 55 -33q23 -21.5 36.5 -51.5q13.5 -30 13.5 -66q0 -36 -13.5 -66q-13.5 -30 -36.5 -51.5q-23 -21.5 -55 -33q-32 -11.5 -69 -11.5zt0 0zM228 478q37 0 59 23.5q22 23.5 22 65.5q0 38 -21.5 63.5q-21.5 25.5 -59.5 25.5q-38 0 -59.5 -24.5q-21.5 -24.5 -21.5 -63.5q0 -40 22 -65t59 -25z" />
<glyph unicode="&#177;" horiz-adv-x="600" d="M250 410h-184v86h184v188h94v-188h186v-86h-186v-118h-94zM66 249h464v-86l-464 0z" />
<glyph unicode="&#178;" horiz-adv-x="398" d="M37 388q33 19 69 42.5q36 23.5 66 49q30 25.5 50 52.5q20 27 20 54q0 26 -17 43.5q-17 17.5 -51 17.5q-29 0 -48 -12q-19 -12 -28 -28q25 0 40 -13q15 -13 15 -36q0 -17 -13.5 -31.5q-13.5 -14.5 -48.5 -14.5q-26 0 -43.5 18q-17.5 18 -17.5 48q0 20 10.5 42.5q10.5 22.5 31.5 41.5q21 19 54 31.5q33 12.5 78 12.5q43 0 73.5 -8.5q30.5 -8.5 50.5 -23.5q20 -15 29.5 -34.5q9.5 -19.5 9.5 -41.5q0 -35 -23 -64.5q-23 -29.5 -57 -53.5q-34 -24 -72 -40.5q-38 -16.5 -69 -23.5l174 0v45h56v-111l-339 0z" />
<glyph unicode="&#179;" horiz-adv-x="412" d="M153 509v40h21q35 0 50.5 14.5q15.5 14.5 15.5 39.5q0 28 -17.5 43.5q-17.5 15.5 -48.5 15.5q-19 0 -32.5 -5.5q-13.5 -5.5 -21.5 -13.5q14 -8 19.5 -19.5q5.5 -11.5 5.5 -23.5q0 -21 -15.5 -35q-15.5 -14 -39.5 -14q-22 0 -37 14q-15 14 -15 36q0 26 15 45.5q15 19.5 38.5 33q23.5 13.5 53.5 20q30 6.5 60 6.5q72 0 115.5 -23q43.5 -23 43.5 -67q0 -29 -20 -52q-20 -23 -65 -31l0 -1q54 -2 79 -24q25 -22 25 -54q0 -51 -48 -81.5q-48 -30.5 -130 -30.5q-35 0 -66.5 6.5q-31.5 6.5 -55.5 19.5q-24 13 -38.5 31q-14.5 18 -14.5 42q0 23 16.5 38q16.5 15 40.5 15q25 0 41 -15.5q16 -15.5 16 -36.5q0 -26 -23 -39q9 -6 23.5 -11q14.5 -5 34.5 -5q34 0 56.5 16.5q22.5 16.5 22.5 45.5q0 27 -19 43.5q-19 16.5 -63 16.5z" />
<glyph unicode="&#180;" horiz-adv-x="340" d="M70 557l95 174l93 -72l-142 -134z" />
<glyph unicode="&#181;" horiz-adv-x="592" d="M74 371h-49v79h185v-288q1 -37 19.5 -62q18.5 -25 60.5 -25q30 0 57 12.5q27 12.5 44 34.5l0 249h-49v79h185v-379h53v-71h-186v69q-9 -14 -23.5 -28q-14.5 -14 -33.5 -25q-19 -11 -40.5 -18q-21.5 -7 -45.5 -8q-29 0 -41 15l0 -205l-136 0z" />
<glyph unicode="&#182;" horiz-adv-x="546" d="M257 263q-43 0 -82.5 15q-39.5 15 -70 43q-30.5 28 -49 68.5q-18.5 40.5 -18.5 91.5q0 51 17 91.5q17 40.5 49.5 69q32.5 28.5 78.5 43.5q46 15 103 15h202v-79h-94v-610q0 -110 -47.5 -164.5q-47.5 -54.5 -132.5 -54.5q-55 0 -100 24q-45 24 -61 69l41 39q14 -14 32.5 -24.5q18.5 -10.5 45.5 -10.5q43 0 64.5 28q21.5 28 21.5 92z" />
<glyph unicode="&#183;" horiz-adv-x="212" d="M22 339q0 15 6 29.5q6 14.5 17 26.5q11 12 27.5 19q16.5 7 36.5 7q18 0 32.5 -7q14.5 -7 25.5 -18.5q11 -11.5 17 -26q6 -14.5 6 -30.5q0 -34 -22.5 -60.5q-22.5 -26.5 -59.5 -26.5q-41 0 -63.5 26t-22.5 61z" />
<glyph unicode="&#184;" horiz-adv-x="404" d="M156 0h59v-34q104 -8 104 -85q0 -39 -33.5 -64q-33.5 -25 -96.5 -25q-24 0 -43.5 5.5q-19.5 5.5 -34.5 13q-15 7.5 -26.5 16.5q-11.5 9 -18.5 16l28 39q14 -11 32.5 -18.5q18.5 -7.5 37.5 -7.5q20 0 29 8.5q9 8.5 9 19.5q0 14 -9 22.5q-9 8.5 -31 8.5l-6 0z" />
<glyph unicode="&#185;" horiz-adv-x="331" d="M41 406h76v185q-5 -2 -14.5 -4q-9.5 -2 -20.5 -4q-11 -2 -22 -4q-11 -2 -18 -3l-10 55q22 4 45.5 10q23.5 6 46 15q22.5 9 42 21.5q19.5 12.5 33.5 27.5l33 0v-299h65v-56l-256 0z" />
<glyph unicode="&#186;" horiz-adv-x="522" d="M250 345q-44 0 -80.5 11q-36.5 11 -62.5 32q-26 21 -41 51q-15 30 -15 68q0 39 14.5 69.5q14.5 30.5 41 52q26.5 21.5 63 33q36.5 11.5 80.5 11.5q43 0 80 -11.5q37 -11.5 63 -32.5q26 -21 41 -51.5q15 -30.5 15 -68.5q0 -39 -15 -69.5q-15 -30.5 -41.5 -51.5q-26.5 -21 -63 -32q-36.5 -11 -79.5 -11zt0 0zM250 408q39 0 63.5 25q24.5 25 24.5 74q0 54 -25 78.5q-25 24.5 -63 24.5q-38 0 -63 -25.5q-25 -25.5 -25 -77.5q0 -49 25 -74t63 -25z" />
<glyph unicode="&#187;" horiz-adv-x="562" d="M43 65l106 185l-107 183l53 45l197 -226v-4l-193 -227zM253 65l106 185l-107 183l53 45l197 -226v-4l-193 -227z" />
<glyph unicode="&#188;" horiz-adv-x="819" d="M53 406h76v185q-5 -2 -14.5 -4q-9.5 -2 -20.5 -4q-11 -2 -22 -4q-11 -2 -18 -3l-10 55q22 4 45.5 10q23.5 6 46 15q22.5 9 42 21.5q19.5 12.5 33.5 27.5l33 0v-299h65v-56h-256zM556 125v47l92 53h22v-100h59v-60h-59v-65h-114v65h-217v45q65 46 108 110.5q43 64.5 54 129.5l143 0q-13 -32 -38 -65.5q-25 -33.5 -55 -64.5q-30 -31 -61.5 -56q-31.5 -25 -57.5 -39zM53 35l637 676l46 -48l-636 -674z" />
<glyph unicode="&#189;" horiz-adv-x="853" d="M53 406h76v185q-5 -2 -14.5 -4q-9.5 -2 -20.5 -4q-11 -2 -22 -4q-11 -2 -18 -3l-10 55q22 4 45.5 10q23.5 6 46 15q22.5 9 42 21.5q19.5 12.5 33.5 27.5l33 0v-299h65v-56h-256zM426 38q33 19 69 42.5q36 23.5 66 49q30 25.5 50 52.5q20 27 20 54q0 26 -17 43.5q-17 17.5 -51 17.5q-29 0 -48 -12q-19 -12 -28 -28q25 0 40 -13q15 -13 15 -36q0 -17 -13.5 -31.5q-13.5 -14.5 -48.5 -14.5q-26 0 -43.5 18q-17.5 18 -17.5 48q0 20 10.5 42.5q10.5 22.5 31.5 41.5q21 19 54 31.5q33 12.5 78 12.5q43 0 73.5 -8.5q30.5 -8.5 50.5 -23.5q20 -15 29.5 -34.5q9.5 -19.5 9.5 -41.5q0 -35 -23 -64.5q-23 -29.5 -57 -53.5q-34 -24 -72 -40.5q-38 -16.5 -69 -23.5l174 0v45h56v-111h-339zM47 35l637 676l46 -48l-636 -674z" />
<glyph unicode="&#190;" horiz-adv-x="882" d="M166 509v40h21q35 0 50.5 14.5q15.5 14.5 15.5 39.5q0 28 -17.5 43.5q-17.5 15.5 -48.5 15.5q-19 0 -32.5 -5.5q-13.5 -5.5 -21.5 -13.5q14 -8 19.5 -19.5q5.5 -11.5 5.5 -23.5q0 -21 -15.5 -35q-15.5 -14 -39.5 -14q-22 0 -37 14q-15 14 -15 36q0 26 15 45.5q15 19.5 38.5 33q23.5 13.5 53.5 20q30 6.5 60 6.5q72 0 115.5 -23q43.5 -23 43.5 -67q0 -29 -20 -52q-20 -23 -65 -31l0 -1q54 -2 79 -24q25 -22 25 -54q0 -51 -48 -81.5q-48 -30.5 -130 -30.5q-35 0 -66.5 6.5q-31.5 6.5 -55.5 19.5q-24 13 -38.5 31q-14.5 18 -14.5 42q0 23 16.5 38q16.5 15 40.5 15q25 0 41 -15.5q16 -15.5 16 -36.5q0 -26 -23 -39q9 -6 23.5 -11q14.5 -5 34.5 -5q34 0 56.5 16.5q22.5 16.5 22.5 45.5q0 27 -19 43.5q-19 16.5 -63 16.5zM621 125v47l92 53h22v-100h59v-60h-59v-65h-114v65h-217v45q65 46 108 110.5q43 64.5 54 129.5l143 0q-13 -32 -38 -65.5q-25 -33.5 -55 -64.5q-30 -31 -61.5 -56q-31.5 -25 -57.5 -39zM109 35l637 676l46 -48l-636 -674z" />
<glyph unicode="&#191;" horiz-adv-x="481" d="M302 174q0 -29 -11 -51q-11 -22 -27.5 -41.5q-16.5 -19.5 -35 -37.5q-18.5 -18 -35 -37.5q-16.5 -19.5 -27 -42q-10.5 -22.5 -10.5 -50.5q0 -39 25.5 -66q25.5 -27 73.5 -27q26 0 44.5 8.5q18.5 8.5 29.5 22.5q-35 18 -35 59q0 31 21.5 52.5q21.5 21.5 52.5 21.5q30 0 51.5 -22q21.5 -22 21.5 -53q0 -39 -18 -70q-18 -31 -48.5 -52.5q-30.5 -21.5 -69.5 -33.5q-39 -12 -81 -12q-50 0 -91 12.5q-41 12.5 -69.5 35q-28.5 22.5 -44 54q-15.5 31.5 -15.5 70.5q0 45 16 77.5q16 32.5 40 57q24 24.5 52.5 43.5q28.5 19 52.5 36.5q24 17.5 40.5 36.5q16.5 19 16.5 43q0 14 -4 27l71 0q13 -32 13 -61zt0 0zM331 374q0 -15 -6 -29.5q-6 -14.5 -17 -26.5q-11 -12 -27.5 -19q-16.5 -7 -36.5 -7q-18 0 -32.5 7q-14.5 7 -25.5 18.5q-11 11.5 -17 26q-6 14.5 -6 30.5q0 34 22.5 60.5q22.5 26.5 59.5 26.5q41 0 63.5 -26t22.5 -61z" />
<glyph unicode="&#192;" horiz-adv-x="763" d="M5 82h51l234 618h185l237 -618h48v-82h-292v82h75l-55 148h-267l-54 -148h77v-82h-239zM459 308l-63 168q-10 29 -21.5 62.5q-11.5 33.5 -18.5 54.5l-5 0q-7 -22 -19.5 -55q-12.5 -33 -22.5 -62l-61 -168zM469 785l-22 -48l-233 72l48 104z" />
<glyph unicode="&#193;" horiz-adv-x="763" d="M5 82h51l234 618h185l237 -618h48v-82h-292v82h75l-55 148h-267l-54 -148h77v-82h-239zM459 308l-63 168q-10 29 -21.5 62.5q-11.5 33.5 -18.5 54.5l-5 0q-7 -22 -19.5 -55q-12.5 -33 -22.5 -62l-61 -168zM276 779l200 138l52 -106l-231 -74z" />
<glyph unicode="&#194;" horiz-adv-x="763" d="M5 82h51l234 618h185l237 -618h48v-82h-292v82h75l-55 148h-267l-54 -148h77v-82h-239zM459 308l-63 168q-10 29 -21.5 62.5q-11.5 33.5 -18.5 54.5l-5 0q-7 -22 -19.5 -55q-12.5 -33 -22.5 -62l-61 -168zM207 770l167 143h4l172 -142l-31 -35l-143 58l-143 -58z" />
<glyph unicode="&#195;" horiz-adv-x="763" d="M5 82h51l234 618h185l237 -618h48v-82h-292v82h75l-55 148h-267l-54 -148h77v-82h-239zM459 308l-63 168q-10 29 -21.5 62.5q-11.5 33.5 -18.5 54.5l-5 0q-7 -22 -19.5 -55q-12.5 -33 -22.5 -62l-61 -168zM563 829q-17 -33 -48 -58q-31 -25 -67 -25q-19 0 -36 5.5q-17 5.5 -34 11.5q-17 6 -35.5 11.5q-18.5 5.5 -39.5 5.5q-16 0 -33.5 -4q-17.5 -4 -34.5 -18l-32 43q8 15 21 29.5q13 14.5 28 26q15 11.5 31 18.5q16 7 31 7q22 0 41 -5.5q19 -5.5 36 -12q17 -6.5 33.5 -12q16.5 -5.5 35.5 -5.5q14 0 33 4q19 4 39 19z" />
<glyph unicode="&#196;" horiz-adv-x="763" d="M5 82h51l234 618h185l237 -618h48v-82h-292v82h75l-55 148h-267l-54 -148h77v-82h-239zM459 308l-63 168q-10 29 -21.5 62.5q-11.5 33.5 -18.5 54.5l-5 0q-7 -22 -19.5 -55q-12.5 -33 -22.5 -62l-61 -168zM275 752q-35 0 -59.5 19.5q-24.5 19.5 -24.5 54.5q0 32 24.5 50.5q24.5 18.5 59.5 18.5q15 0 29 -4.5q14 -4.5 25 -13.5q11 -9 17.5 -22q6.5 -13 6.5 -29q0 -18 -6.5 -31.5q-6.5 -13.5 -17.5 -23q-11 -9.5 -25 -14.5q-14 -5 -29 -5zt0 0zM493 753q-35 0 -59.5 19q-24.5 19 -24.5 55q0 32 24.5 50.5q24.5 18.5 59.5 18.5q15 0 29 -5q14 -5 25 -14q11 -9 17.5 -21.5q6.5 -12.5 6.5 -28.5q0 -36 -24.5 -55t-53.5 -19z" />
<glyph unicode="&#197;" horiz-adv-x="763" d="M5 82h51l234 618h185l237 -618h48v-82h-292v82h75l-55 148h-267l-54 -148h77v-82h-239zM459 308l-63 168q-10 29 -21.5 62.5q-11.5 33.5 -18.5 54.5l-5 0q-7 -22 -19.5 -55q-12.5 -33 -22.5 -62l-61 -168zM375 728q-29 0 -54.5 6q-25.5 6 -44.5 17.5q-19 11.5 -30 29.5q-11 18 -11 42q0 22 11 39.5q11 17.5 30 29.5q19 12 44.5 18q25.5 6 54.5 6q30 0 56 -5q26 -5 45.5 -16.5q19.5 -11.5 31 -29q11.5 -17.5 11.5 -42.5q0 -23 -11.5 -41q-11.5 -18 -31 -30q-19.5 -12 -45.5 -18q-26 -6 -56 -6zt0 0zM377 776q24 0 39 12q15 12 15 35q0 23 -15.5 34q-15.5 11 -38.5 11q-24 0 -39 -11q-15 -11 -15 -34q0 -23 15 -35t39 -12z" />
<glyph unicode="&#198;" horiz-adv-x="1003" d="M2 83h57l340 535h-74v82h624v-197h-86l-4 115h-222v-226h177v-78h-177v-231h231l4 118h87v-201h-559v83h82v149h-219l-94 -149h80v-83h-247zM482 310v282h-5q-8 -19 -27 -53q-19 -34 -40 -72l-103 -157z" />
<glyph unicode="&#199;" horiz-adv-x="738" d="M355 -8q-70 7 -128 35q-58 28 -99.5 74q-41.5 46 -64.5 108.5q-23 62.5 -23 140.5q0 75 25 141q25 66 72.5 115q47.5 49 114.5 77q67 28 151 28q63 0 109 -17.5q46 -17.5 81 -46.5l0 53h87v-227h-87v85q-23 26 -60.5 42.5q-37.5 16.5 -88.5 16.5q-48 0 -88.5 -18.5q-40.5 -18.5 -69.5 -53.5q-29 -35 -45 -84.5q-16 -49.5 -16 -110.5q0 -59 16 -108.5q16 -49.5 45.5 -84.5q29.5 -35 70 -54.5q40.5 -19.5 90.5 -19.5q98 0 155 59l0 89h86v-231h-86v54q-32 -27 -78 -44q-46 -17 -109 -21l0 -23q58 -4 84.5 -25.5q26.5 -21.5 26.5 -59.5q0 -39 -35 -64q-35 -25 -99 -25q-26 0 -47.5 5.5q-21.5 5.5 -38.5 13q-17 7.5 -29.5 16.5q-12.5 9 -19.5 16l29 40q13 -11 32 -19q19 -8 40 -8q20 0 32 8.5q12 8.5 12 22.5q0 14 -9 21q-9 7 -32 7l-6 0z" />
<glyph unicode="&#200;" horiz-adv-x="659" d="M42 82h82v536h-82v82h562v-227h-87l-4 145h-215v-226h172v-78h-172v-232h225l4 146h87v-228h-572zM456 785l-22 -48l-233 72l48 104z" />
<glyph unicode="&#201;" horiz-adv-x="659" d="M42 82h82v536h-82v82h562v-227h-87l-4 145h-215v-226h172v-78h-172v-232h225l4 146h87v-228h-572zM249 779l200 138l52 -106l-231 -74z" />
<glyph unicode="&#202;" horiz-adv-x="659" d="M42 82h82v536h-82v82h562v-227h-87l-4 145h-215v-226h172v-78h-172v-232h225l4 146h87v-228h-572zM172 770l167 143h4l172 -142l-31 -35l-143 58l-143 -58z" />
<glyph unicode="&#203;" horiz-adv-x="659" d="M42 82h82v536h-82v82h562v-227h-87l-4 145h-215v-226h172v-78h-172v-232h225l4 146h87v-228h-572zM233 752q-35 0 -59.5 19.5q-24.5 19.5 -24.5 54.5q0 32 24.5 50.5q24.5 18.5 59.5 18.5q15 0 29 -4.5q14 -4.5 25 -13.5q11 -9 17.5 -22q6.5 -13 6.5 -29q0 -18 -6.5 -31.5q-6.5 -13.5 -17.5 -23q-11 -9.5 -25 -14.5q-14 -5 -29 -5zt0 0zM451 753q-35 0 -59.5 19q-24.5 19 -24.5 55q0 32 24.5 50.5q24.5 18.5 59.5 18.5q15 0 29 -5q14 -5 25 -14q11 -9 17.5 -21.5q6.5 -12.5 6.5 -28.5q0 -36 -24.5 -55t-53.5 -19z" />
<glyph unicode="&#204;" horiz-adv-x="414" d="M44 82h82v536h-82v82h326v-82h-81v-536h81v-82h-326zM316 785l-22 -48l-233 72l48 104z" />
<glyph unicode="&#205;" horiz-adv-x="414" d="M44 82h82v536h-82v82h326v-82h-81v-536h81v-82h-326zM98 779l200 138l52 -106l-231 -74z" />
<glyph unicode="&#206;" horiz-adv-x="414" d="M44 82h82v536h-82v82h326v-82h-81v-536h81v-82h-326zM36 770l167 143h4l172 -142l-31 -35l-143 58l-143 -58z" />
<glyph unicode="&#207;" horiz-adv-x="414" d="M44 82h82v536h-82v82h326v-82h-81v-536h81v-82h-326zM100 752q-35 0 -59.5 19.5q-24.5 19.5 -24.5 54.5q0 32 24.5 50.5q24.5 18.5 59.5 18.5q15 0 29 -4.5q14 -4.5 25 -13.5q11 -9 17.5 -22q6.5 -13 6.5 -29q0 -18 -6.5 -31.5q-6.5 -13.5 -17.5 -23q-11 -9.5 -25 -14.5q-14 -5 -29 -5zt0 0zM318 753q-35 0 -59.5 19q-24.5 19 -24.5 55q0 32 24.5 50.5q24.5 18.5 59.5 18.5q15 0 29 -5q14 -5 25 -14q11 -9 17.5 -21.5q6.5 -12.5 6.5 -28.5q0 -36 -24.5 -55t-53.5 -19z" />
<glyph unicode="&#208;" horiz-adv-x="823" d="M124 82v234h-82v90h82v212h-82v82h95q16 0 47 0.5q31 0.5 67 1q36 0.5 70.5 1q34.5 0.5 57.5 0.5q111 0 188 -28q77 -28 125.5 -75.5q48.5 -47.5 70 -110.5q21.5 -63 21.5 -132q0 -74 -23.5 -139.5q-23.5 -65.5 -74.5 -114q-51 -48.5 -131.5 -77q-80.5 -28.5 -193.5 -28.5q-16 0 -43.5 0.5q-27.5 0.5 -59.5 0.5q-32 0 -64 0.5q-32 0.5 -56 0.5h-96v82zM286 316v-234q25 -2 41 -2q16 0 29 0q61 0 106.5 21q45.5 21 75.5 58q30 37 45 87.5q15 50.5 15 110.5q0 58 -14.5 106.5q-14.5 48.5 -44.5 83.5q-30 35 -75 54.5q-45 19.5 -106 19.5q-22 0 -36.5 -0.5q-14.5 -0.5 -35.5 -2.5l0 -212h112l0 -90z" />
<glyph unicode="&#209;" horiz-adv-x="835" d="M42 82h74v536h-74v82h225l363 -484v402h-74v82h248v-82h-75v-618h-136l-379 505v-423h83v-82h-255zM612 829q-17 -33 -48 -58q-31 -25 -67 -25q-19 0 -36 5.5q-17 5.5 -34 11.5q-17 6 -35.5 11.5q-18.5 5.5 -39.5 5.5q-16 0 -33.5 -4q-17.5 -4 -34.5 -18l-32 43q8 15 21 29.5q13 14.5 28 26q15 11.5 31 18.5q16 7 31 7q22 0 41 -5.5q19 -5.5 36 -12q17 -6.5 33.5 -12q16.5 -5.5 35.5 -5.5q14 0 33 4q19 4 39 19z" />
<glyph unicode="&#210;" horiz-adv-x="839" d="M419 -15q-83 0 -152.5 25q-69.5 25 -119.5 72.5q-50 47.5 -78.5 115q-28.5 67.5 -28.5 152.5q0 79 27.5 146q27.5 67 77 115.5q49.5 48.5 119.5 76q70 27.5 155 27.5q86 0 156 -25q70 -25 120 -72.5q50 -47.5 77.5 -115q27.5 -67.5 27.5 -152.5q0 -82 -27 -149q-27 -67 -77 -115q-50 -48 -120.5 -74.5q-70.5 -26.5 -156.5 -26.5zt0 0zM424 72q49 0 84.5 21q35.5 21 59 58.5q23.5 37.5 35 88.5q11.5 51 11.5 110q0 62 -13.5 113q-13.5 51 -39 88q-25.5 37 -61.5 57q-36 20 -81 20q-45 0 -81 -20q-36 -20 -61 -57q-25 -37 -38.5 -88q-13.5 -51 -13.5 -113q0 -60 15 -110.5q15 -50.5 41.5 -88q26.5 -37.5 63 -58.5q36.5 -21 79.5 -21zt0 0zM517 785l-22 -48l-233 72l48 104z" />
<glyph unicode="&#211;" horiz-adv-x="839" d="M419 -15q-83 0 -152.5 25q-69.5 25 -119.5 72.5q-50 47.5 -78.5 115q-28.5 67.5 -28.5 152.5q0 79 27.5 146q27.5 67 77 115.5q49.5 48.5 119.5 76q70 27.5 155 27.5q86 0 156 -25q70 -25 120 -72.5q50 -47.5 77.5 -115q27.5 -67.5 27.5 -152.5q0 -82 -27 -149q-27 -67 -77 -115q-50 -48 -120.5 -74.5q-70.5 -26.5 -156.5 -26.5zt0 0zM424 72q49 0 84.5 21q35.5 21 59 58.5q23.5 37.5 35 88.5q11.5 51 11.5 110q0 62 -13.5 113q-13.5 51 -39 88q-25.5 37 -61.5 57q-36 20 -81 20q-45 0 -81 -20q-36 -20 -61 -57q-25 -37 -38.5 -88q-13.5 -51 -13.5 -113q0 -60 15 -110.5q15 -50.5 41.5 -88q26.5 -37.5 63 -58.5q36.5 -21 79.5 -21zt0 0zM352 779l200 138l52 -106l-231 -74z" />
<glyph unicode="&#212;" horiz-adv-x="839" d="M419 -15q-83 0 -152.5 25q-69.5 25 -119.5 72.5q-50 47.5 -78.5 115q-28.5 67.5 -28.5 152.5q0 79 27.5 146q27.5 67 77 115.5q49.5 48.5 119.5 76q70 27.5 155 27.5q86 0 156 -25q70 -25 120 -72.5q50 -47.5 77.5 -115q27.5 -67.5 27.5 -152.5q0 -82 -27 -149q-27 -67 -77 -115q-50 -48 -120.5 -74.5q-70.5 -26.5 -156.5 -26.5zt0 0zM424 72q49 0 84.5 21q35.5 21 59 58.5q23.5 37.5 35 88.5q11.5 51 11.5 110q0 62 -13.5 113q-13.5 51 -39 88q-25.5 37 -61.5 57q-36 20 -81 20q-45 0 -81 -20q-36 -20 -61 -57q-25 -37 -38.5 -88q-13.5 -51 -13.5 -113q0 -60 15 -110.5q15 -50.5 41.5 -88q26.5 -37.5 63 -58.5q36.5 -21 79.5 -21zt0 0zM252 770l167 143h4l172 -142l-31 -35l-143 58l-143 -58z" />
<glyph unicode="&#213;" horiz-adv-x="839" d="M419 -15q-83 0 -152.5 25q-69.5 25 -119.5 72.5q-50 47.5 -78.5 115q-28.5 67.5 -28.5 152.5q0 79 27.5 146q27.5 67 77 115.5q49.5 48.5 119.5 76q70 27.5 155 27.5q86 0 156 -25q70 -25 120 -72.5q50 -47.5 77.5 -115q27.5 -67.5 27.5 -152.5q0 -82 -27 -149q-27 -67 -77 -115q-50 -48 -120.5 -74.5q-70.5 -26.5 -156.5 -26.5zt0 0zM424 72q49 0 84.5 21q35.5 21 59 58.5q23.5 37.5 35 88.5q11.5 51 11.5 110q0 62 -13.5 113q-13.5 51 -39 88q-25.5 37 -61.5 57q-36 20 -81 20q-45 0 -81 -20q-36 -20 -61 -57q-25 -37 -38.5 -88q-13.5 -51 -13.5 -113q0 -60 15 -110.5q15 -50.5 41.5 -88q26.5 -37.5 63 -58.5q36.5 -21 79.5 -21zt0 0zM595 829q-17 -33 -48 -58q-31 -25 -67 -25q-19 0 -36 5.5q-17 5.5 -34 11.5q-17 6 -35.5 11.5q-18.5 5.5 -39.5 5.5q-16 0 -33.5 -4q-17.5 -4 -34.5 -18l-32 43q8 15 21 29.5q13 14.5 28 26q15 11.5 31 18.5q16 7 31 7q22 0 41 -5.5q19 -5.5 36 -12q17 -6.5 33.5 -12q16.5 -5.5 35.5 -5.5q14 0 33 4q19 4 39 19z" />
<glyph unicode="&#214;" horiz-adv-x="839" d="M419 -15q-83 0 -152.5 25q-69.5 25 -119.5 72.5q-50 47.5 -78.5 115q-28.5 67.5 -28.5 152.5q0 79 27.5 146q27.5 67 77 115.5q49.5 48.5 119.5 76q70 27.5 155 27.5q86 0 156 -25q70 -25 120 -72.5q50 -47.5 77.5 -115q27.5 -67.5 27.5 -152.5q0 -82 -27 -149q-27 -67 -77 -115q-50 -48 -120.5 -74.5q-70.5 -26.5 -156.5 -26.5zt0 0zM424 72q49 0 84.5 21q35.5 21 59 58.5q23.5 37.5 35 88.5q11.5 51 11.5 110q0 62 -13.5 113q-13.5 51 -39 88q-25.5 37 -61.5 57q-36 20 -81 20q-45 0 -81 -20q-36 -20 -61 -57q-25 -37 -38.5 -88q-13.5 -51 -13.5 -113q0 -60 15 -110.5q15 -50.5 41.5 -88q26.5 -37.5 63 -58.5q36.5 -21 79.5 -21zt0 0zM314 752q-35 0 -59.5 19.5q-24.5 19.5 -24.5 54.5q0 32 24.5 50.5q24.5 18.5 59.5 18.5q15 0 29 -4.5q14 -4.5 25 -13.5q11 -9 17.5 -22q6.5 -13 6.5 -29q0 -18 -6.5 -31.5q-6.5 -13.5 -17.5 -23q-11 -9.5 -25 -14.5q-14 -5 -29 -5zt0 0zM532 753q-35 0 -59.5 19q-24.5 19 -24.5 55q0 32 24.5 50.5q24.5 18.5 59.5 18.5q15 0 29 -5q14 -5 25 -14q11 -9 17.5 -21.5q6.5 -12.5 6.5 -28.5q0 -36 -24.5 -55t-53.5 -19z" />
<glyph unicode="&#215;" horiz-adv-x="598" d="M97 226l134 133l-133 133l66 64l133 -133l133 133l67 -64l-133 -133l133 -133l-66 -63l-134 133l-133 -133z" />
<glyph unicode="&#216;" horiz-adv-x="822" d="M99 128q-31 44 -48 99.5q-17 55.5 -17 122.5q0 81 27.5 148.5q27.5 67.5 77 115.5q49.5 48 119 74.5q69.5 26.5 153.5 26.5q78 0 142.5 -21q64.5 -21 114.5 -61l51 46l52 -61l-48 -43q32 -44 48.5 -100q16.5 -56 16.5 -125q0 -84 -27 -151.5q-27 -67.5 -76 -115q-49 -47.5 -119 -73q-70 -25.5 -155 -25.5q-77 0 -142 21q-65 21 -114 63l-57 -49l-52 61zM264 167q26 -45 64.5 -70q38.5 -25 86.5 -25q49 0 84.5 21q35.5 21 58.5 58.5q23 37.5 34 88.5q11 51 11 110q0 29 -4.5 55.5q-4.5 26.5 -12.5 48.5zM559 538q-25 43 -62.5 66.5q-37.5 23.5 -85.5 23.5q-45 0 -80.5 -20q-35.5 -20 -60 -57q-24.5 -37 -37.5 -88q-13 -51 -13 -113q0 -58 16 -102z" />
<glyph unicode="&#217;" horiz-adv-x="777" d="M26 700h324v-82h-76v-303q0 -48 9 -88q9 -40 28.5 -68.5q19.5 -28.5 49.5 -44.5q30 -16 72 -16q79 0 116.5 54q37.5 54 37.5 156v310h-78v82h242v-82h-66v-317q0 -84 -20 -143.5q-20 -59.5 -57 -97q-37 -37.5 -89 -54.5q-52 -17 -115 -17q-143 0 -223.5 77q-80.5 77 -80.5 231v321h-74zM507 785l-22 -48l-233 72l48 104z" />
<glyph unicode="&#218;" horiz-adv-x="777" d="M26 700h324v-82h-76v-303q0 -48 9 -88q9 -40 28.5 -68.5q19.5 -28.5 49.5 -44.5q30 -16 72 -16q79 0 116.5 54q37.5 54 37.5 156v310h-78v82h242v-82h-66v-317q0 -84 -20 -143.5q-20 -59.5 -57 -97q-37 -37.5 -89 -54.5q-52 -17 -115 -17q-143 0 -223.5 77q-80.5 77 -80.5 231v321h-74zM351 779l200 138l52 -106l-231 -74z" />
<glyph unicode="&#219;" horiz-adv-x="777" d="M26 700h324v-82h-76v-303q0 -48 9 -88q9 -40 28.5 -68.5q19.5 -28.5 49.5 -44.5q30 -16 72 -16q79 0 116.5 54q37.5 54 37.5 156v310h-78v82h242v-82h-66v-317q0 -84 -20 -143.5q-20 -59.5 -57 -97q-37 -37.5 -89 -54.5q-52 -17 -115 -17q-143 0 -223.5 77q-80.5 77 -80.5 231v321h-74zM250 770l167 143h4l172 -142l-31 -35l-143 58l-143 -58z" />
<glyph unicode="&#220;" horiz-adv-x="777" d="M26 700h324v-82h-76v-303q0 -48 9 -88q9 -40 28.5 -68.5q19.5 -28.5 49.5 -44.5q30 -16 72 -16q79 0 116.5 54q37.5 54 37.5 156v310h-78v82h242v-82h-66v-317q0 -84 -20 -143.5q-20 -59.5 -57 -97q-37 -37.5 -89 -54.5q-52 -17 -115 -17q-143 0 -223.5 77q-80.5 77 -80.5 231v321h-74zM304 752q-35 0 -59.5 19.5q-24.5 19.5 -24.5 54.5q0 32 24.5 50.5q24.5 18.5 59.5 18.5q15 0 29 -4.5q14 -4.5 25 -13.5q11 -9 17.5 -22q6.5 -13 6.5 -29q0 -18 -6.5 -31.5q-6.5 -13.5 -17.5 -23q-11 -9.5 -25 -14.5q-14 -5 -29 -5zt0 0zM522 753q-35 0 -59.5 19q-24.5 19 -24.5 55q0 32 24.5 50.5q24.5 18.5 59.5 18.5q15 0 29 -5q14 -5 25 -14q11 -9 17.5 -21.5q6.5 -12.5 6.5 -28.5q0 -36 -24.5 -55t-53.5 -19z" />
<glyph unicode="&#221;" horiz-adv-x="706" d="M181 82h92v210l-219 326h-49v82h296v-82h-68l152 -243l152 243h-83v82h251v-82h-56l-214 -326v-210h91v-82h-345zM303 779l200 138l52 -106l-231 -74z" />
<glyph unicode="&#222;" horiz-adv-x="688" d="M43 83h82v535h-82v82h341v-82h-97v-54q6 0 19.5 0q13.5 0 28 0.5q14.5 0.5 26.5 0.5q12 0 17 0q75 0 126.5 -16q51.5 -16 83.5 -43.5q32 -27.5 46.5 -65.5q14.5 -38 14.5 -83q0 -45 -17.5 -82.5q-17.5 -37.5 -50.5 -64q-33 -26.5 -80.5 -41q-47.5 -14.5 -107.5 -14.5q-8 0 -21.5 0q-13.5 0 -28.5 0.5q-15 0.5 -30 1q-15 0.5 -26 1.5l0 -75h104v-83h-348zM287 238q22 -3 37 -4q15 -1 31 -1q33 0 55.5 9.5q22.5 9.5 36 27q13.5 17.5 19 41q5.5 23.5 5.5 51.5q0 57 -25 88.5q-25 31.5 -85 31.5q-14 0 -35.5 -0.5q-21.5 -0.5 -38.5 -1.5z" />
<glyph unicode="&#223;" horiz-adv-x="614" d="M32 450h53v50q0 106 55.5 158.5q55.5 52.5 159.5 52.5q37 0 69.5 -11q32.5 -11 57 -29.5q24.5 -18.5 38.5 -44q14 -25.5 14 -53.5q0 -32 -12.5 -51q-12.5 -19 -28 -34q-15.5 -15 -28 -31.5q-12.5 -16.5 -12.5 -42.5q0 -24 14.5 -42.5q14.5 -18.5 37 -35.5q22.5 -17 48 -34.5q25.5 -17.5 48 -39.5q22.5 -22 37 -50.5q14.5 -28.5 14.5 -67.5q0 -34 -14 -62.5q-14 -28.5 -40 -49q-26 -20.5 -62 -32q-36 -11.5 -81 -11.5q-29 0 -52 5q-23 5 -40 11.5q-17 6.5 -27 13.5q-10 7 -11 10l29 65q1 -2 8.5 -7q7.5 -5 19.5 -10q12 -5 26.5 -9q14.5 -4 31.5 -4q34 0 53 19q19 19 19 45q0 22 -13.5 40.5q-13.5 18.5 -34 36q-20.5 17.5 -44.5 35q-24 17.5 -44.5 37.5q-20.5 20 -34 44q-13.5 24 -13.5 54q0 33 15 54.5q15 21.5 33 40.5q18 19 33 40.5q15 21.5 15 55.5q0 37 -21.5 55.5q-21.5 18.5 -49.5 18.5q-39 0 -60 -27q-21 -27 -21 -85v-528h-185v79h53v292l-53 0z" />
<glyph unicode="&#224;" horiz-adv-x="510" d="M312 290q0 49 -20.5 76q-20.5 27 -65.5 27q-23 0 -40 -5.5q-17 -5.5 -30 -13.5q9 -4 17.5 -14.5q8.5 -10.5 8.5 -25.5q0 -24 -16.5 -39.5q-16.5 -15.5 -43.5 -15.5q-28 0 -44 19q-16 19 -16 42q0 27 15.5 49.5q15.5 22.5 41.5 38q26 15.5 60.5 24.5q34.5 9 73.5 9q95 0 143.5 -46.5q48.5 -46.5 48.5 -134.5q0 -12 -0.5 -33q-0.5 -21 -1 -45.5q-0.5 -24.5 -1 -49q-0.5 -24.5 -0.5 -44.5q0 -9 2.5 -22q2.5 -13 19.5 -13q12 0 23 5l19 -58q-11 -9 -26 -15q-13 -5 -31 -9.5q-18 -4.5 -41 -4.5q-25 0 -41.5 7q-16.5 7 -27 18q-10.5 11 -15.5 24.5q-5 13.5 -7 26.5q-15 -29 -49.5 -52.5q-34.5 -23.5 -92.5 -23.5q-33 0 -60.5 8.5q-27.5 8.5 -48 25q-20.5 16.5 -32 41q-11.5 24.5 -11.5 57.5q0 66 49.5 101q49.5 35 135.5 35q30 0 60 -5q30 -5 43 -11q1 11 1 22q0 11 0 25zt0 0zM228 73q32 0 53 14q21 14 29 28l1 73q-15 8 -34.5 11.5q-19.5 3.5 -39.5 3.5q-32 0 -52.5 -18q-20.5 -18 -20.5 -47q0 -29 18.5 -47q18.5 -18 45.5 -18zt0 0zM221 729l94 -171l-48 -33l-140 132z" />
<glyph unicode="&#225;" horiz-adv-x="510" d="M312 290q0 49 -20.5 76q-20.5 27 -65.5 27q-23 0 -40 -5.5q-17 -5.5 -30 -13.5q9 -4 17.5 -14.5q8.5 -10.5 8.5 -25.5q0 -24 -16.5 -39.5q-16.5 -15.5 -43.5 -15.5q-28 0 -44 19q-16 19 -16 42q0 27 15.5 49.5q15.5 22.5 41.5 38q26 15.5 60.5 24.5q34.5 9 73.5 9q95 0 143.5 -46.5q48.5 -46.5 48.5 -134.5q0 -12 -0.5 -33q-0.5 -21 -1 -45.5q-0.5 -24.5 -1 -49q-0.5 -24.5 -0.5 -44.5q0 -9 2.5 -22q2.5 -13 19.5 -13q12 0 23 5l19 -58q-11 -9 -26 -15q-13 -5 -31 -9.5q-18 -4.5 -41 -4.5q-25 0 -41.5 7q-16.5 7 -27 18q-10.5 11 -15.5 24.5q-5 13.5 -7 26.5q-15 -29 -49.5 -52.5q-34.5 -23.5 -92.5 -23.5q-33 0 -60.5 8.5q-27.5 8.5 -48 25q-20.5 16.5 -32 41q-11.5 24.5 -11.5 57.5q0 66 49.5 101q49.5 35 135.5 35q30 0 60 -5q30 -5 43 -11q1 11 1 22q0 11 0 25zt0 0zM228 73q32 0 53 14q21 14 29 28l1 73q-15 8 -34.5 11.5q-19.5 3.5 -39.5 3.5q-32 0 -52.5 -18q-20.5 -18 -20.5 -47q0 -29 18.5 -47q18.5 -18 45.5 -18zt0 0zM174 557l95 174l93 -72l-142 -134z" />
<glyph unicode="&#226;" horiz-adv-x="510" d="M312 290q0 49 -20.5 76q-20.5 27 -65.5 27q-23 0 -40 -5.5q-17 -5.5 -30 -13.5q9 -4 17.5 -14.5q8.5 -10.5 8.5 -25.5q0 -24 -16.5 -39.5q-16.5 -15.5 -43.5 -15.5q-28 0 -44 19q-16 19 -16 42q0 27 15.5 49.5q15.5 22.5 41.5 38q26 15.5 60.5 24.5q34.5 9 73.5 9q95 0 143.5 -46.5q48.5 -46.5 48.5 -134.5q0 -12 -0.5 -33q-0.5 -21 -1 -45.5q-0.5 -24.5 -1 -49q-0.5 -24.5 -0.5 -44.5q0 -9 2.5 -22q2.5 -13 19.5 -13q12 0 23 5l19 -58q-11 -9 -26 -15q-13 -5 -31 -9.5q-18 -4.5 -41 -4.5q-25 0 -41.5 7q-16.5 7 -27 18q-10.5 11 -15.5 24.5q-5 13.5 -7 26.5q-15 -29 -49.5 -52.5q-34.5 -23.5 -92.5 -23.5q-33 0 -60.5 8.5q-27.5 8.5 -48 25q-20.5 16.5 -32 41q-11.5 24.5 -11.5 57.5q0 66 49.5 101q49.5 35 135.5 35q30 0 60 -5q30 -5 43 -11q1 11 1 22q0 11 0 25zt0 0zM228 73q32 0 53 14q21 14 29 28l1 73q-15 8 -34.5 11.5q-19.5 3.5 -39.5 3.5q-32 0 -52.5 -18q-20.5 -18 -20.5 -47q0 -29 18.5 -47q18.5 -18 45.5 -18zt0 0zM84 550l154 164h4l153 -165l-40 -38l-116 87l-117 -86z" />
<glyph unicode="&#227;" horiz-adv-x="510" d="M312 290q0 49 -20.5 76q-20.5 27 -65.5 27q-23 0 -40 -5.5q-17 -5.5 -30 -13.5q9 -4 17.5 -14.5q8.5 -10.5 8.5 -25.5q0 -24 -16.5 -39.5q-16.5 -15.5 -43.5 -15.5q-28 0 -44 19q-16 19 -16 42q0 27 15.5 49.5q15.5 22.5 41.5 38q26 15.5 60.5 24.5q34.5 9 73.5 9q95 0 143.5 -46.5q48.5 -46.5 48.5 -134.5q0 -12 -0.5 -33q-0.5 -21 -1 -45.5q-0.5 -24.5 -1 -49q-0.5 -24.5 -0.5 -44.5q0 -9 2.5 -22q2.5 -13 19.5 -13q12 0 23 5l19 -58q-11 -9 -26 -15q-13 -5 -31 -9.5q-18 -4.5 -41 -4.5q-25 0 -41.5 7q-16.5 7 -27 18q-10.5 11 -15.5 24.5q-5 13.5 -7 26.5q-15 -29 -49.5 -52.5q-34.5 -23.5 -92.5 -23.5q-33 0 -60.5 8.5q-27.5 8.5 -48 25q-20.5 16.5 -32 41q-11.5 24.5 -11.5 57.5q0 66 49.5 101q49.5 35 135.5 35q30 0 60 -5q30 -5 43 -11q1 11 1 22q0 11 0 25zt0 0zM228 73q32 0 53 14q21 14 29 28l1 73q-15 8 -34.5 11.5q-19.5 3.5 -39.5 3.5q-32 0 -52.5 -18q-20.5 -18 -20.5 -47q0 -29 18.5 -47q18.5 -18 45.5 -18zt0 0zM411 609q-17 -39 -46.5 -62q-29.5 -23 -58.5 -23q-17 0 -30.5 6.5q-13.5 6.5 -27 14q-13.5 7.5 -27.5 14q-14 6.5 -31 6.5q-15 0 -33 -6.5q-18 -6.5 -34 -16.5l-27 31q17 41 46 63.5q29 22.5 58 22.5q18 0 32.5 -6.5q14.5 -6.5 28 -14q13.5 -7.5 27 -14q13.5 -6.5 28.5 -6.5q23 0 37.5 5.5q14.5 5.5 34.5 19.5z" />
<glyph unicode="&#228;" horiz-adv-x="510" d="M312 290q0 49 -20.5 76q-20.5 27 -65.5 27q-23 0 -40 -5.5q-17 -5.5 -30 -13.5q9 -4 17.5 -14.5q8.5 -10.5 8.5 -25.5q0 -24 -16.5 -39.5q-16.5 -15.5 -43.5 -15.5q-28 0 -44 19q-16 19 -16 42q0 27 15.5 49.5q15.5 22.5 41.5 38q26 15.5 60.5 24.5q34.5 9 73.5 9q95 0 143.5 -46.5q48.5 -46.5 48.5 -134.5q0 -12 -0.5 -33q-0.5 -21 -1 -45.5q-0.5 -24.5 -1 -49q-0.5 -24.5 -0.5 -44.5q0 -9 2.5 -22q2.5 -13 19.5 -13q12 0 23 5l19 -58q-11 -9 -26 -15q-13 -5 -31 -9.5q-18 -4.5 -41 -4.5q-25 0 -41.5 7q-16.5 7 -27 18q-10.5 11 -15.5 24.5q-5 13.5 -7 26.5q-15 -29 -49.5 -52.5q-34.5 -23.5 -92.5 -23.5q-33 0 -60.5 8.5q-27.5 8.5 -48 25q-20.5 16.5 -32 41q-11.5 24.5 -11.5 57.5q0 66 49.5 101q49.5 35 135.5 35q30 0 60 -5q30 -5 43 -11q1 11 1 22q0 11 0 25zt0 0zM228 73q32 0 53 14q21 14 29 28l1 73q-15 8 -34.5 11.5q-19.5 3.5 -39.5 3.5q-32 0 -52.5 -18q-20.5 -18 -20.5 -47q0 -29 18.5 -47q18.5 -18 45.5 -18zt0 0zM154 536q-29 0 -49.5 19q-20.5 19 -20.5 54q0 32 20.5 50.5q20.5 18.5 49.5 18.5q24 0 44.5 -18.5q20.5 -18.5 20.5 -50.5q0 -35 -20.5 -54q-20.5 -19 -44.5 -19zt0 0zM350 536q-29 0 -49.5 19q-20.5 19 -20.5 54q0 32 20.5 50.5q20.5 18.5 49.5 18.5q24 0 44 -18.5q20 -18.5 20 -50.5q0 -35 -20 -54t-44 -19z" />
<glyph unicode="&#229;" horiz-adv-x="510" d="M312 290q0 49 -20.5 76q-20.5 27 -65.5 27q-23 0 -40 -5.5q-17 -5.5 -30 -13.5q9 -4 17.5 -14.5q8.5 -10.5 8.5 -25.5q0 -24 -16.5 -39.5q-16.5 -15.5 -43.5 -15.5q-28 0 -44 19q-16 19 -16 42q0 27 15.5 49.5q15.5 22.5 41.5 38q26 15.5 60.5 24.5q34.5 9 73.5 9q95 0 143.5 -46.5q48.5 -46.5 48.5 -134.5q0 -12 -0.5 -33q-0.5 -21 -1 -45.5q-0.5 -24.5 -1 -49q-0.5 -24.5 -0.5 -44.5q0 -9 2.5 -22q2.5 -13 19.5 -13q12 0 23 5l19 -58q-11 -9 -26 -15q-13 -5 -31 -9.5q-18 -4.5 -41 -4.5q-25 0 -41.5 7q-16.5 7 -27 18q-10.5 11 -15.5 24.5q-5 13.5 -7 26.5q-15 -29 -49.5 -52.5q-34.5 -23.5 -92.5 -23.5q-33 0 -60.5 8.5q-27.5 8.5 -48 25q-20.5 16.5 -32 41q-11.5 24.5 -11.5 57.5q0 66 49.5 101q49.5 35 135.5 35q30 0 60 -5q30 -5 43 -11q1 11 1 22q0 11 0 25zt0 0zM228 73q32 0 53 14q21 14 29 28l1 73q-15 8 -34.5 11.5q-19.5 3.5 -39.5 3.5q-32 0 -52.5 -18q-20.5 -18 -20.5 -47q0 -29 18.5 -47q18.5 -18 45.5 -18zt0 0zM246 501q-55 0 -90.5 30.5q-35.5 30.5 -35.5 80.5q0 50 35.5 81.5q35.5 31.5 90.5 31.5q56 0 92 -30.5q36 -30.5 36 -82.5q0 -50 -36 -80.5q-36 -30.5 -92 -30.5zt0 0zM248 549q24 0 38 17.5q14 17.5 14 46.5q0 32 -15 48q-15 16 -37 16q-27 0 -40 -19q-13 -19 -13 -45q0 -26 15 -45t38 -19z" />
<glyph unicode="&#230;" horiz-adv-x="787" d="M745 70q-29 -35 -80.5 -58q-51.5 -23 -122.5 -23q-109 0 -174 65q-29 -29 -74.5 -46q-45.5 -17 -102.5 -17q-75 0 -121 34q-46 34 -46 100q0 65 48 100q48 35 135 35q29 0 59 -4.5q30 -4.5 43 -11.5q3 30 1.5 56q-1.5 26 -10 45.5q-8.5 19.5 -26 31q-17.5 11.5 -47.5 11.5q-25 0 -40.5 -6q-15.5 -6 -26.5 -14q7 -4 12.5 -13q5.5 -9 5.5 -23q0 -23 -17.5 -37q-17.5 -14 -43.5 -14q-31 0 -44.5 19q-13.5 19 -13.5 40q0 29 16 51.5q16 22.5 42.5 38q26.5 15.5 59.5 23.5q33 8 67 8q95 0 139 -53q29 25 68.5 39q39.5 14 90.5 14q52 0 93.5 -15q41.5 -15 71 -42.5q29.5 -27.5 45.5 -66q16 -38.5 16 -85.5q0 -22 -2 -36q-2 -14 -5 -27l-325 0v-21q8 -46 42 -69.5q34 -23.5 85 -23.5q52 0 85 15.5q33 15.5 53 34.5zM631 260q1 24 -3.5 46q-4.5 22 -16 39q-11.5 17 -30 27q-18.5 10 -45.5 10q-39 0 -66 -19.5q-27 -19.5 -35 -57.5l0 -33v-12zM226 73q32 0 56 15.5q24 15.5 32 29.5q-2 19 -3.5 34q-1.5 15 -1.5 37q-15 8 -34 12q-19 4 -39 4q-33 0 -52 -17q-19 -17 -19 -48q0 -29 17.5 -48t43.5 -19z" />
<glyph unicode="&#231;" horiz-adv-x="492" d="M231 -7q-97 13 -151.5 74.5q-54.5 61.5 -54.5 157.5q0 49 17.5 92q17.5 43 50.5 75q33 32 80.5 50.5q47.5 18.5 107.5 18.5q38 0 72.5 -8.5q34.5 -8.5 60 -25.5q25.5 -17 40.5 -42q15 -25 15 -58q0 -31 -18 -50.5q-18 -19.5 -47 -19.5q-28 0 -47 16.5q-19 16.5 -19 41.5q0 33 24 47q-10 8 -25 14q-15 6 -38 6q-54 0 -89.5 -39q-35.5 -39 -35.5 -111q0 -37 11 -66q11 -29 30.5 -49.5q19.5 -20.5 45.5 -31q26 -10.5 56 -10.5q29 0 60 16q31 16 49 46l51 -42q-29 -54 -77 -79q-48 -25 -110 -27l0 -23q104 -8 104 -85q0 -39 -33.5 -64q-33.5 -25 -96.5 -25q-24 0 -43.5 5.5q-19.5 5.5 -34.5 13q-15 7.5 -26.5 16.5q-11.5 9 -18.5 16l28 39q14 -11 32.5 -18.5q18.5 -7.5 37.5 -7.5q20 0 29 8.5q9 8.5 9 19.5q0 14 -9 22.5q-9 8.5 -31 8.5l-6 0z" />
<glyph unicode="&#232;" horiz-adv-x="542" d="M177 189q4 -52 38.5 -83q34.5 -31 94.5 -31q52 0 86.5 15.5q34.5 15.5 53.5 34.5l42 -55q-29 -35 -81 -58q-52 -23 -122 -23q-66 0 -115.5 17q-49.5 17 -82.5 48q-33 31 -49.5 75.5q-16.5 44.5 -16.5 98.5q0 48 16.5 90.5q16.5 42.5 49 74q32.5 31.5 80.5 50q48 18.5 111 18.5q54 0 97.5 -15q43.5 -15 73.5 -42.5q30 -27.5 46 -66q16 -38.5 16 -85.5q0 -22 -1.5 -36q-1.5 -14 -5.5 -27zM377 260q1 24 -3.5 46q-4.5 22 -15.5 39q-11 17 -29.5 27q-18.5 10 -45.5 10q-27 0 -46.5 -10q-19.5 -10 -33 -27q-13.5 -17 -20.5 -39q-7 -22 -8 -46zM263 729l94 -171l-48 -33l-140 132z" />
<glyph unicode="&#233;" horiz-adv-x="542" d="M177 189q4 -52 38.5 -83q34.5 -31 94.5 -31q52 0 86.5 15.5q34.5 15.5 53.5 34.5l42 -55q-29 -35 -81 -58q-52 -23 -122 -23q-66 0 -115.5 17q-49.5 17 -82.5 48q-33 31 -49.5 75.5q-16.5 44.5 -16.5 98.5q0 48 16.5 90.5q16.5 42.5 49 74q32.5 31.5 80.5 50q48 18.5 111 18.5q54 0 97.5 -15q43.5 -15 73.5 -42.5q30 -27.5 46 -66q16 -38.5 16 -85.5q0 -22 -1.5 -36q-1.5 -14 -5.5 -27zM377 260q1 24 -3.5 46q-4.5 22 -15.5 39q-11 17 -29.5 27q-18.5 10 -45.5 10q-27 0 -46.5 -10q-19.5 -10 -33 -27q-13.5 -17 -20.5 -39q-7 -22 -8 -46zM225 557l95 174l93 -72l-142 -134z" />
<glyph unicode="&#234;" horiz-adv-x="542" d="M177 189q4 -52 38.5 -83q34.5 -31 94.5 -31q52 0 86.5 15.5q34.5 15.5 53.5 34.5l42 -55q-29 -35 -81 -58q-52 -23 -122 -23q-66 0 -115.5 17q-49.5 17 -82.5 48q-33 31 -49.5 75.5q-16.5 44.5 -16.5 98.5q0 48 16.5 90.5q16.5 42.5 49 74q32.5 31.5 80.5 50q48 18.5 111 18.5q54 0 97.5 -15q43.5 -15 73.5 -42.5q30 -27.5 46 -66q16 -38.5 16 -85.5q0 -22 -1.5 -36q-1.5 -14 -5.5 -27zM377 260q1 24 -3.5 46q-4.5 22 -15.5 39q-11 17 -29.5 27q-18.5 10 -45.5 10q-27 0 -46.5 -10q-19.5 -10 -33 -27q-13.5 -17 -20.5 -39q-7 -22 -8 -46zM123 550l154 164h4l153 -165l-40 -38l-116 87l-117 -86z" />
<glyph unicode="&#235;" horiz-adv-x="542" d="M177 189q4 -52 38.5 -83q34.5 -31 94.5 -31q52 0 86.5 15.5q34.5 15.5 53.5 34.5l42 -55q-29 -35 -81 -58q-52 -23 -122 -23q-66 0 -115.5 17q-49.5 17 -82.5 48q-33 31 -49.5 75.5q-16.5 44.5 -16.5 98.5q0 48 16.5 90.5q16.5 42.5 49 74q32.5 31.5 80.5 50q48 18.5 111 18.5q54 0 97.5 -15q43.5 -15 73.5 -42.5q30 -27.5 46 -66q16 -38.5 16 -85.5q0 -22 -1.5 -36q-1.5 -14 -5.5 -27zM377 260q1 24 -3.5 46q-4.5 22 -15.5 39q-11 17 -29.5 27q-18.5 10 -45.5 10q-27 0 -46.5 -10q-19.5 -10 -33 -27q-13.5 -17 -20.5 -39q-7 -22 -8 -46zM190 536q-29 0 -49.5 19q-20.5 19 -20.5 54q0 32 20.5 50.5q20.5 18.5 49.5 18.5q24 0 44.5 -18.5q20.5 -18.5 20.5 -50.5q0 -35 -20.5 -54q-20.5 -19 -44.5 -19zt0 0zM386 536q-29 0 -49.5 19q-20.5 19 -20.5 54q0 32 20.5 50.5q20.5 18.5 49.5 18.5q24 0 44 -18.5q20 -18.5 20 -50.5q0 -35 -20 -54t-44 -19z" />
<glyph unicode="&#236;" horiz-adv-x="302" d="M36 79h56v292h-56v79h187v-371h57v-79h-244zM99 729l94 -171l-48 -33l-140 132z" />
<glyph unicode="&#237;" horiz-adv-x="302" d="M36 79h56v292h-56v79h187v-371h57v-79h-244zM83 557l95 174l93 -72l-142 -134z" />
<glyph unicode="&#238;" horiz-adv-x="302" d="M36 79h56v292h-56v79h187v-371h57v-79h-244zM-4 550l154 164h4l153 -165l-40 -38l-116 87l-117 -86z" />
<glyph unicode="&#239;" horiz-adv-x="302" d="M36 79h56v292h-56v79h187v-371h57v-79h-244zM55 536q-29 0 -49.5 19q-20.5 19 -20.5 54q0 32 20.5 50.5q20.5 18.5 49.5 18.5q24 0 44.5 -18.5q20.5 -18.5 20.5 -50.5q0 -35 -20.5 -54q-20.5 -19 -44.5 -19zt0 0zM251 536q-29 0 -49.5 19q-20.5 19 -20.5 54q0 32 20.5 50.5q20.5 18.5 49.5 18.5q24 0 44 -18.5q20 -18.5 20 -50.5q0 -35 -20 -54t-44 -19z" />
<glyph unicode="&#240;" horiz-adv-x="571" d="M247 621q-21 20 -44 37.5q-23 17.5 -47 34.5l70 20q27 -11 54 -27q27 -16 53 -36l123 43l24 -72l-83 -30q33 -34 60 -72.5q27 -38.5 47 -80.5q20 -42 31 -86q11 -44 11 -88q0 -131 -68 -203q-68 -72 -192 -72q-62 0 -110.5 18q-48.5 18 -82 49.5q-33.5 31.5 -51 74.5q-17.5 43 -17.5 94q0 51 17.5 94q17.5 43 50.5 74.5q33 31.5 80.5 49.5q47.5 18 107.5 18q38 0 61 -11q23 -11 33 -21q-11 37 -29 69q-18 32 -42 61l-118 -43l-25 73zM286 68q57 0 87.5 56.5q30.5 56.5 25.5 159.5q-11 48 -41.5 73q-30.5 25 -71.5 25q-23 0 -43 -9.5q-20 -9.5 -36 -28.5q-16 -19 -25 -49q-9 -30 -9 -70q0 -79 33 -118t80 -39z" />
<glyph unicode="&#241;" horiz-adv-x="611" d="M32 78h57v294h-57v78h192v-67q10 16 27 30q17 14 38.5 24q21.5 10 46 15.5q24.5 5.5 49.5 5.5q72 0 115 -41q43 -41 43 -128v-211h53v-78h-233v78h44v181q0 54 -20.5 79.5q-20.5 25.5 -69.5 25.5q-29 0 -52.5 -12q-23.5 -12 -40.5 -32l0 -242h44v-78h-236zM471 609q-17 -39 -46.5 -62q-29.5 -23 -58.5 -23q-17 0 -30.5 6.5q-13.5 6.5 -27 14q-13.5 7.5 -27.5 14q-14 6.5 -31 6.5q-15 0 -33 -6.5q-18 -6.5 -34 -16.5l-27 31q17 41 46 63.5q29 22.5 58 22.5q18 0 32.5 -6.5q14.5 -6.5 28 -14q13.5 -7.5 27 -14q13.5 -6.5 28.5 -6.5q23 0 37.5 5.5q14.5 5.5 34.5 19.5z" />
<glyph unicode="&#242;" horiz-adv-x="570" d="M285 -13q-68 0 -117 18q-49 18 -80.5 50q-31.5 32 -47 75.5q-15.5 43.5 -15.5 94.5q0 51 16.5 94.5q16.5 43.5 49 75.5q32.5 32 81 50q48.5 18 113.5 18q64 0 113 -18q49 -18 81.5 -50q32.5 -32 49 -75.5q16.5 -43.5 16.5 -94.5q0 -51 -16.5 -94.5q-16.5 -43.5 -49 -75.5q-32.5 -32 -81.5 -50q-49 -18 -113 -18zt0 0zM285 65q56 0 84 41.5q28 41.5 28 118.5q0 72 -28.5 116q-28.5 44 -83.5 44q-54 0 -83 -43.5q-29 -43.5 -29 -116.5q0 -71 28.5 -115.5q28.5 -44.5 83.5 -44.5zt0 0zM251 729l94 -171l-48 -33l-140 132z" />
<glyph unicode="&#243;" horiz-adv-x="570" d="M285 -13q-68 0 -117 18q-49 18 -80.5 50q-31.5 32 -47 75.5q-15.5 43.5 -15.5 94.5q0 51 16.5 94.5q16.5 43.5 49 75.5q32.5 32 81 50q48.5 18 113.5 18q64 0 113 -18q49 -18 81.5 -50q32.5 -32 49 -75.5q16.5 -43.5 16.5 -94.5q0 -51 -16.5 -94.5q-16.5 -43.5 -49 -75.5q-32.5 -32 -81.5 -50q-49 -18 -113 -18zt0 0zM285 65q56 0 84 41.5q28 41.5 28 118.5q0 72 -28.5 116q-28.5 44 -83.5 44q-54 0 -83 -43.5q-29 -43.5 -29 -116.5q0 -71 28.5 -115.5q28.5 -44.5 83.5 -44.5zt0 0zM224 557l95 174l93 -72l-142 -134z" />
<glyph unicode="&#244;" horiz-adv-x="570" d="M285 -13q-68 0 -117 18q-49 18 -80.5 50q-31.5 32 -47 75.5q-15.5 43.5 -15.5 94.5q0 51 16.5 94.5q16.5 43.5 49 75.5q32.5 32 81 50q48.5 18 113.5 18q64 0 113 -18q49 -18 81.5 -50q32.5 -32 49 -75.5q16.5 -43.5 16.5 -94.5q0 -51 -16.5 -94.5q-16.5 -43.5 -49 -75.5q-32.5 -32 -81.5 -50q-49 -18 -113 -18zt0 0zM285 65q56 0 84 41.5q28 41.5 28 118.5q0 72 -28.5 116q-28.5 44 -83.5 44q-54 0 -83 -43.5q-29 -43.5 -29 -116.5q0 -71 28.5 -115.5q28.5 -44.5 83.5 -44.5zt0 0zM129 550l154 164h4l153 -165l-40 -38l-116 87l-117 -86z" />
<glyph unicode="&#245;" horiz-adv-x="570" d="M285 -13q-68 0 -117 18q-49 18 -80.5 50q-31.5 32 -47 75.5q-15.5 43.5 -15.5 94.5q0 51 16.5 94.5q16.5 43.5 49 75.5q32.5 32 81 50q48.5 18 113.5 18q64 0 113 -18q49 -18 81.5 -50q32.5 -32 49 -75.5q16.5 -43.5 16.5 -94.5q0 -51 -16.5 -94.5q-16.5 -43.5 -49 -75.5q-32.5 -32 -81.5 -50q-49 -18 -113 -18zt0 0zM285 65q56 0 84 41.5q28 41.5 28 118.5q0 72 -28.5 116q-28.5 44 -83.5 44q-54 0 -83 -43.5q-29 -43.5 -29 -116.5q0 -71 28.5 -115.5q28.5 -44.5 83.5 -44.5zt0 0zM442 609q-17 -39 -46.5 -62q-29.5 -23 -58.5 -23q-17 0 -30.5 6.5q-13.5 6.5 -27 14q-13.5 7.5 -27.5 14q-14 6.5 -31 6.5q-15 0 -33 -6.5q-18 -6.5 -34 -16.5l-27 31q17 41 46 63.5q29 22.5 58 22.5q18 0 32.5 -6.5q14.5 -6.5 28 -14q13.5 -7.5 27 -14q13.5 -6.5 28.5 -6.5q23 0 37.5 5.5q14.5 5.5 34.5 19.5z" />
<glyph unicode="&#246;" horiz-adv-x="570" d="M285 -13q-68 0 -117 18q-49 18 -80.5 50q-31.5 32 -47 75.5q-15.5 43.5 -15.5 94.5q0 51 16.5 94.5q16.5 43.5 49 75.5q32.5 32 81 50q48.5 18 113.5 18q64 0 113 -18q49 -18 81.5 -50q32.5 -32 49 -75.5q16.5 -43.5 16.5 -94.5q0 -51 -16.5 -94.5q-16.5 -43.5 -49 -75.5q-32.5 -32 -81.5 -50q-49 -18 -113 -18zt0 0zM285 65q56 0 84 41.5q28 41.5 28 118.5q0 72 -28.5 116q-28.5 44 -83.5 44q-54 0 -83 -43.5q-29 -43.5 -29 -116.5q0 -71 28.5 -115.5q28.5 -44.5 83.5 -44.5zt0 0zM190 536q-29 0 -49.5 19q-20.5 19 -20.5 54q0 32 20.5 50.5q20.5 18.5 49.5 18.5q24 0 44.5 -18.5q20.5 -18.5 20.5 -50.5q0 -35 -20.5 -54q-20.5 -19 -44.5 -19zt0 0zM386 536q-29 0 -49.5 19q-20.5 19 -20.5 54q0 32 20.5 50.5q20.5 18.5 49.5 18.5q24 0 44 -18.5q20 -18.5 20 -50.5q0 -35 -20 -54t-44 -19z" />
<glyph unicode="&#247;" horiz-adv-x="596" d="M223 180q0 28 20 50q20 22 55 22q32 0 53 -22q21 -22 21 -50q0 -32 -20.5 -54.5q-20.5 -22.5 -53.5 -22.5q-35 0 -55 22.5q-20 22.5 -20 54.5zt0 0zM223 545q0 28 20 50q20 22 55 22q32 0 53 -22q21 -22 21 -50q0 -32 -20.5 -54.5q-20.5 -22.5 -53.5 -22.5q-35 0 -55 22.5q-20 22.5 -20 54.5zt0 0zM66 403h464v-86l-464 0z" />
<glyph unicode="&#248;" horiz-adv-x="571" d="M31 42l39 35q-45 60 -45 148q0 51 16.5 94.5q16.5 43.5 49.5 75.5q33 32 81.5 50q48.5 18 113.5 18q54 0 96 -13q42 -13 74 -36l44 39l43 -48l-41 -36q23 -29 33.5 -65.5q10.5 -36.5 10.5 -78.5q0 -51 -16.5 -94.5q-16.5 -43.5 -49 -75.5q-32.5 -32 -81.5 -50q-49 -18 -113 -18q-104 0 -169 45l-44 -40zM369 340q-14 21 -35 33q-21 12 -48 12q-54 0 -83 -43.5q-29 -43.5 -29 -116.5q0 -14 2 -27.5q2 -13.5 7 -24.5zM205 106q28 -41 81 -41q55 0 83.5 41.5q28.5 41.5 28.5 118.5q0 12 -2 25q-2 13 -6 23z" />
<glyph unicode="&#249;" horiz-adv-x="576" d="M370 372h-51v78h187v-377h53v-73h-186v71q-19 -32 -60 -57q-41 -25 -94 -25q-73 0 -116.5 44.5q-43.5 44.5 -42.5 141.5q0 4 0 19q0 15 0.5 35.5q0.5 20.5 0.5 43.5q0 23 0.5 43.5q0.5 20.5 0.5 36q0 15.5 0 19.5l-46 0v78h184q0 -6 -0.5 -27q-0.5 -21 -1 -49.5q-0.5 -28.5 -0.5 -61q0 -32.5 -0.5 -60.5q-0.5 -28 -1 -49q-0.5 -21 -0.5 -26q0 -45 17.5 -73.5q17.5 -28.5 61.5 -28.5q29 0 53.5 12.5q24.5 12.5 41.5 33.5zM245 729l94 -171l-48 -33l-140 132z" />
<glyph unicode="&#250;" horiz-adv-x="576" d="M370 372h-51v78h187v-377h53v-73h-186v71q-19 -32 -60 -57q-41 -25 -94 -25q-73 0 -116.5 44.5q-43.5 44.5 -42.5 141.5q0 4 0 19q0 15 0.5 35.5q0.5 20.5 0.5 43.5q0 23 0.5 43.5q0.5 20.5 0.5 36q0 15.5 0 19.5l-46 0v78h184q0 -6 -0.5 -27q-0.5 -21 -1 -49.5q-0.5 -28.5 -0.5 -61q0 -32.5 -0.5 -60.5q-0.5 -28 -1 -49q-0.5 -21 -0.5 -26q0 -45 17.5 -73.5q17.5 -28.5 61.5 -28.5q29 0 53.5 12.5q24.5 12.5 41.5 33.5zM225 557l95 174l93 -72l-142 -134z" />
<glyph unicode="&#251;" horiz-adv-x="576" d="M370 372h-51v78h187v-377h53v-73h-186v71q-19 -32 -60 -57q-41 -25 -94 -25q-73 0 -116.5 44.5q-43.5 44.5 -42.5 141.5q0 4 0 19q0 15 0.5 35.5q0.5 20.5 0.5 43.5q0 23 0.5 43.5q0.5 20.5 0.5 36q0 15.5 0 19.5l-46 0v78h184q0 -6 -0.5 -27q-0.5 -21 -1 -49.5q-0.5 -28.5 -0.5 -61q0 -32.5 -0.5 -60.5q-0.5 -28 -1 -49q-0.5 -21 -0.5 -26q0 -45 17.5 -73.5q17.5 -28.5 61.5 -28.5q29 0 53.5 12.5q24.5 12.5 41.5 33.5zM125 550l154 164h4l153 -165l-40 -38l-116 87l-117 -86z" />
<glyph unicode="&#252;" horiz-adv-x="576" d="M370 372h-51v78h187v-377h53v-73h-186v71q-19 -32 -60 -57q-41 -25 -94 -25q-73 0 -116.5 44.5q-43.5 44.5 -42.5 141.5q0 4 0 19q0 15 0.5 35.5q0.5 20.5 0.5 43.5q0 23 0.5 43.5q0.5 20.5 0.5 36q0 15.5 0 19.5l-46 0v78h184q0 -6 -0.5 -27q-0.5 -21 -1 -49.5q-0.5 -28.5 -0.5 -61q0 -32.5 -0.5 -60.5q-0.5 -28 -1 -49q-0.5 -21 -0.5 -26q0 -45 17.5 -73.5q17.5 -28.5 61.5 -28.5q29 0 53.5 12.5q24.5 12.5 41.5 33.5zM185 536q-29 0 -49.5 19q-20.5 19 -20.5 54q0 32 20.5 50.5q20.5 18.5 49.5 18.5q24 0 44.5 -18.5q20.5 -18.5 20.5 -50.5q0 -35 -20.5 -54q-20.5 -19 -44.5 -19zt0 0zM381 536q-29 0 -49.5 19q-20.5 19 -20.5 54q0 32 20.5 50.5q20.5 18.5 49.5 18.5q24 0 44 -18.5q20 -18.5 20 -50.5q0 -35 -20 -54t-44 -19z" />
<glyph unicode="&#253;" horiz-adv-x="531" d="M42 371h-37v79h238v-79h-48l80 -175q8 -16 16.5 -38q8.5 -22 10.5 -34q4 14 10.5 33q6.5 19 14.5 39l67 175h-53v79h189v-79h-37l-161 -382q-23 -56 -46 -92.5q-23 -36.5 -45.5 -58q-22.5 -21.5 -46 -30q-23.5 -8.5 -48.5 -8.5q-42 0 -71.5 23.5q-29.5 23.5 -29.5 62.5q0 32 19 49.5q19 17.5 48 17.5q27 0 41.5 -15.5q14.5 -15.5 13.5 -35.5q0 -8 -3 -14.5q-3 -6.5 -7 -9.5l6 0q19 0 38 21q19 21 37 68l8 24zM202 557l95 174l93 -72l-142 -134z" />
<glyph unicode="&#254;" horiz-adv-x="579" d="M10 -121h58v742h-58v79h191v-276q18 14 52.5 25.5q34.5 11.5 79.5 11.5q53 0 94 -17q41 -17 69.5 -47.5q28.5 -30.5 43 -72.5q14.5 -42 14.5 -92q0 -54 -16 -98.5q-16 -44.5 -47.5 -77q-31.5 -32.5 -77 -50q-45.5 -17.5 -105.5 -17.5q-29 0 -56.5 6q-27.5 6 -47.5 17l0 -133h71v-79h-265zM204 97q23 -15 43 -20.5q20 -5.5 43 -5.5q33 0 55 12q22 12 36 33.5q14 21.5 20 50.5q6 29 6 62q0 69 -31.5 107.5q-31.5 38.5 -85.5 38.5q-29 0 -50.5 -9.5q-21.5 -9.5 -35.5 -23.5z" />
<glyph unicode="&#255;" horiz-adv-x="531" d="M42 371h-37v79h238v-79h-48l80 -175q8 -16 16.5 -38q8.5 -22 10.5 -34q4 14 10.5 33q6.5 19 14.5 39l67 175h-53v79h189v-79h-37l-161 -382q-23 -56 -46 -92.5q-23 -36.5 -45.5 -58q-22.5 -21.5 -46 -30q-23.5 -8.5 -48.5 -8.5q-42 0 -71.5 23.5q-29.5 23.5 -29.5 62.5q0 32 19 49.5q19 17.5 48 17.5q27 0 41.5 -15.5q14.5 -15.5 13.5 -35.5q0 -8 -3 -14.5q-3 -6.5 -7 -9.5l6 0q19 0 38 21q19 21 37 68l8 24zM175 536q-29 0 -49.5 19q-20.5 19 -20.5 54q0 32 20.5 50.5q20.5 18.5 49.5 18.5q24 0 44.5 -18.5q20.5 -18.5 20.5 -50.5q0 -35 -20.5 -54q-20.5 -19 -44.5 -19zt0 0zM371 536q-29 0 -49.5 19q-20.5 19 -20.5 54q0 32 20.5 50.5q20.5 18.5 49.5 18.5q24 0 44 -18.5q20 -18.5 20 -50.5q0 -35 -20 -54t-44 -19z" />
<glyph unicode="&#256;" horiz-adv-x="763" d="M5 82h51l234 618h185l237 -618h48v-82h-292v82h75l-55 148h-267l-54 -148h77v-82h-239zM459 308l-63 168q-10 29 -21.5 62.5q-11.5 33.5 -18.5 54.5l-5 0q-7 -22 -19.5 -55q-12.5 -33 -22.5 -62l-61 -168zM222 846h309v-71l-309 0z" />
<glyph unicode="&#257;" horiz-adv-x="510" d="M312 290q0 49 -20.5 76q-20.5 27 -65.5 27q-23 0 -40 -5.5q-17 -5.5 -30 -13.5q9 -4 17.5 -14.5q8.5 -10.5 8.5 -25.5q0 -24 -16.5 -39.5q-16.5 -15.5 -43.5 -15.5q-28 0 -44 19q-16 19 -16 42q0 27 15.5 49.5q15.5 22.5 41.5 38q26 15.5 60.5 24.5q34.5 9 73.5 9q95 0 143.5 -46.5q48.5 -46.5 48.5 -134.5q0 -12 -0.5 -33q-0.5 -21 -1 -45.5q-0.5 -24.5 -1 -49q-0.5 -24.5 -0.5 -44.5q0 -9 2.5 -22q2.5 -13 19.5 -13q12 0 23 5l19 -58q-11 -9 -26 -15q-13 -5 -31 -9.5q-18 -4.5 -41 -4.5q-25 0 -41.5 7q-16.5 7 -27 18q-10.5 11 -15.5 24.5q-5 13.5 -7 26.5q-15 -29 -49.5 -52.5q-34.5 -23.5 -92.5 -23.5q-33 0 -60.5 8.5q-27.5 8.5 -48 25q-20.5 16.5 -32 41q-11.5 24.5 -11.5 57.5q0 66 49.5 101q49.5 35 135.5 35q30 0 60 -5q30 -5 43 -11q1 11 1 22q0 11 0 25zt0 0zM228 73q32 0 53 14q21 14 29 28l1 73q-15 8 -34.5 11.5q-19.5 3.5 -39.5 3.5q-32 0 -52.5 -18q-20.5 -18 -20.5 -47q0 -29 18.5 -47q18.5 -18 45.5 -18zt0 0zM105 635h280v-71l-280 0z" />
<glyph unicode="&#258;" horiz-adv-x="763" d="M5 82h51l234 618h185l237 -618h48v-82h-292v82h75l-55 148h-267l-54 -148h77v-82h-239zM459 308l-63 168q-10 29 -21.5 62.5q-11.5 33.5 -18.5 54.5l-5 0q-7 -22 -19.5 -55q-12.5 -33 -22.5 -62l-61 -168zM558 871q-10 -22 -27.5 -46q-17.5 -24 -40.5 -43.5q-23 -19.5 -51 -32q-28 -12.5 -58 -12.5q-35 0 -65.5 13.5q-30.5 13.5 -54.5 33.5q-24 20 -41 43.5q-17 23.5 -24 43.5l42 30q9 -10 22 -20.5q13 -10.5 30.5 -18.5q17.5 -8 39.5 -13.5q22 -5.5 51 -5.5q50 0 85 19q35 19 55 39z" />
<glyph unicode="&#259;" horiz-adv-x="510" d="M312 290q0 49 -20.5 76q-20.5 27 -65.5 27q-23 0 -40 -5.5q-17 -5.5 -30 -13.5q9 -4 17.5 -14.5q8.5 -10.5 8.5 -25.5q0 -24 -16.5 -39.5q-16.5 -15.5 -43.5 -15.5q-28 0 -44 19q-16 19 -16 42q0 27 15.5 49.5q15.5 22.5 41.5 38q26 15.5 60.5 24.5q34.5 9 73.5 9q95 0 143.5 -46.5q48.5 -46.5 48.5 -134.5q0 -12 -0.5 -33q-0.5 -21 -1 -45.5q-0.5 -24.5 -1 -49q-0.5 -24.5 -0.5 -44.5q0 -9 2.5 -22q2.5 -13 19.5 -13q12 0 23 5l19 -58q-11 -9 -26 -15q-13 -5 -31 -9.5q-18 -4.5 -41 -4.5q-25 0 -41.5 7q-16.5 7 -27 18q-10.5 11 -15.5 24.5q-5 13.5 -7 26.5q-15 -29 -49.5 -52.5q-34.5 -23.5 -92.5 -23.5q-33 0 -60.5 8.5q-27.5 8.5 -48 25q-20.5 16.5 -32 41q-11.5 24.5 -11.5 57.5q0 66 49.5 101q49.5 35 135.5 35q30 0 60 -5q30 -5 43 -11q1 11 1 22q0 11 0 25zt0 0zM228 73q32 0 53 14q21 14 29 28l1 73q-15 8 -34.5 11.5q-19.5 3.5 -39.5 3.5q-32 0 -52.5 -18q-20.5 -18 -20.5 -47q0 -29 18.5 -47q18.5 -18 45.5 -18zt0 0zM415 647q-10 -21 -23.5 -42q-13.5 -21 -32.5 -37.5q-19 -16.5 -44 -26.5q-25 -10 -57 -10q-33 0 -59.5 12q-26.5 12 -46.5 29.5q-20 17.5 -32.5 37.5q-12.5 20 -18.5 36l52 36q8 -9 18 -19q10 -10 23.5 -18.5q13.5 -8.5 30 -14q16.5 -5.5 37.5 -5.5q38 0 67 17.5q29 17.5 46 37.5z" />
<glyph unicode="&#260;" horiz-adv-x="763" d="M5 82h51l234 618h185l237 -618h48v-82h-292v82h75l-55 148h-267l-54 -148h77v-82h-239zM459 308l-63 168q-10 29 -21.5 62.5q-11.5 33.5 -18.5 54.5l-5 0q-7 -22 -19.5 -55q-12.5 -33 -22.5 -62l-61 -168zM735 0q-23 0 -42 -7q-19 -7 -32.5 -18.5q-13.5 -11.5 -21.5 -25.5q-8 -14 -8 -29q0 -23 12.5 -32q12.5 -9 27.5 -9q12 0 20.5 1.5q8.5 1.5 21.5 7.5l28 -44q-13 -14 -40 -29q-27 -15 -69 -15q-21 0 -42.5 5q-21.5 5 -39.5 16.5q-18 11.5 -29 29q-11 17.5 -11 43.5q0 33 21 57q21 24 53.5 39.5q32.5 15.5 72.5 22.5q40 7 78 7z" />
<glyph unicode="&#261;" horiz-adv-x="510" d="M312 290q0 49 -20.5 76q-20.5 27 -65.5 27q-23 0 -40 -5.5q-17 -5.5 -30 -13.5q9 -4 17.5 -14.5q8.5 -10.5 8.5 -25.5q0 -24 -16.5 -39.5q-16.5 -15.5 -43.5 -15.5q-28 0 -44 19q-16 19 -16 42q0 27 15.5 49.5q15.5 22.5 41.5 38q26 15.5 60.5 24.5q34.5 9 73.5 9q95 0 143.5 -46.5q48.5 -46.5 48.5 -134.5q0 -11 -0.5 -29.5q-0.5 -18.5 -1 -41q-0.5 -22.5 -1 -46q-0.5 -23.5 -0.5 -42.5q-1 -18 3 -30q4 -12 27 -12h25v-79h-10q-22 -1 -40.5 -8q-18.5 -7 -32.5 -18.5q-14 -11.5 -22 -26q-8 -14.5 -8 -29.5q0 -26 15 -36.5q15 -10.5 35 -10.5q16 0 27 3q11 3 24 9l18 -41q-13 -14 -43 -28q-30 -14 -76 -14q-19 0 -39.5 5q-20.5 5 -38 16.5q-17.5 11.5 -28.5 29q-11 17.5 -11 43.5q0 39 29 66.5q29 27.5 77 43.5q-18 3 -29 12q-11 9 -17 19q-6 10 -8 19q-2 9 -2 13q-15 -29 -49.5 -52.5q-34.5 -23.5 -92.5 -23.5q-33 0 -60.5 8.5q-27.5 8.5 -48 25q-20.5 16.5 -32 41q-11.5 24.5 -11.5 57.5q0 66 49.5 101q49.5 35 135.5 35q30 0 60 -5q30 -5 43 -11q1 11 1 22q0 11 0 25zt0 0zM228 73q32 0 53 14q21 14 29 28l1 73q-15 8 -34.5 11.5q-19.5 3.5 -39.5 3.5q-32 0 -52.5 -18q-20.5 -18 -20.5 -47q0 -29 18.5 -47t45.5 -18z" />
<glyph unicode="&#262;" horiz-adv-x="738" d="M602 231h86v-231h-86v53q-36 -29 -86 -46.5q-50 -17.5 -107 -17.5q-81 0 -149 24.5q-68 24.5 -117 71q-49 46.5 -76 113.5q-27 67 -27 152q0 75 25 141q25 66 72.5 115q47.5 49 114.5 77q67 28 151 28q63 0 109 -16.5q46 -16.5 81 -45.5l0 51h87v-227h-87l-2 85q-24 26 -60 43.5q-36 17.5 -88 17.5q-48 0 -88 -19q-40 -19 -69 -54q-29 -35 -45 -85q-16 -50 -16 -111q0 -59 16 -108.5q16 -49.5 45.5 -85q29.5 -35.5 70 -55.5q40.5 -20 90.5 -20q48 0 86.5 16q38.5 16 66.5 45zM311 779l200 138l52 -106l-231 -74z" />
<glyph unicode="&#263;" horiz-adv-x="492" d="M25 225q0 49 17.5 92q17.5 43 50.5 75q33 32 80.5 50.5q47.5 18.5 107.5 18.5q38 0 72.5 -8.5q34.5 -8.5 60 -25.5q25.5 -17 40.5 -42q15 -25 15 -58q0 -31 -18 -50.5q-18 -19.5 -47 -19.5q-28 0 -47 16.5q-19 16.5 -19 41.5q0 33 24 47q-10 8 -25 14q-15 6 -38 6q-54 0 -89.5 -39q-35.5 -39 -35.5 -111q0 -37 11 -66q11 -29 30.5 -49.5q19.5 -20.5 45.5 -31q26 -10.5 56 -10.5q29 0 60 16q31 16 49 46l51 -42q-30 -56 -81 -81q-51 -25 -117 -25q-59 0 -106 17q-47 17 -80 48q-33 31 -50.5 74.5q-17.5 43.5 -17.5 96.5zt0 0zM218 557l95 174l93 -72l-142 -134z" />
<glyph unicode="&#264;" horiz-adv-x="738" d="M602 231h86v-231h-86v53q-36 -29 -86 -46.5q-50 -17.5 -107 -17.5q-81 0 -149 24.5q-68 24.5 -117 71q-49 46.5 -76 113.5q-27 67 -27 152q0 75 25 141q25 66 72.5 115q47.5 49 114.5 77q67 28 151 28q63 0 109 -16.5q46 -16.5 81 -45.5l0 51h87v-227h-87l-2 85q-24 26 -60 43.5q-36 17.5 -88 17.5q-48 0 -88 -19q-40 -19 -69 -54q-29 -35 -45 -85q-16 -50 -16 -111q0 -59 16 -108.5q16 -49.5 45.5 -85q29.5 -35.5 70 -55.5q40.5 -20 90.5 -20q48 0 86.5 16q38.5 16 66.5 45zM228 770l167 143h4l172 -142l-31 -35l-143 58l-143 -58z" />
<glyph unicode="&#265;" horiz-adv-x="492" d="M25 225q0 49 17.5 92q17.5 43 50.5 75q33 32 80.5 50.5q47.5 18.5 107.5 18.5q38 0 72.5 -8.5q34.5 -8.5 60 -25.5q25.5 -17 40.5 -42q15 -25 15 -58q0 -31 -18 -50.5q-18 -19.5 -47 -19.5q-28 0 -47 16.5q-19 16.5 -19 41.5q0 33 24 47q-10 8 -25 14q-15 6 -38 6q-54 0 -89.5 -39q-35.5 -39 -35.5 -111q0 -37 11 -66q11 -29 30.5 -49.5q19.5 -20.5 45.5 -31q26 -10.5 56 -10.5q29 0 60 16q31 16 49 46l51 -42q-30 -56 -81 -81q-51 -25 -117 -25q-59 0 -106 17q-47 17 -80 48q-33 31 -50.5 74.5q-17.5 43.5 -17.5 96.5zt0 0zM117 550l154 164h4l153 -165l-40 -38l-116 87l-117 -86z" />
<glyph unicode="&#266;" horiz-adv-x="738" d="M602 231h86v-231h-86v53q-36 -29 -86 -46.5q-50 -17.5 -107 -17.5q-81 0 -149 24.5q-68 24.5 -117 71q-49 46.5 -76 113.5q-27 67 -27 152q0 75 25 141q25 66 72.5 115q47.5 49 114.5 77q67 28 151 28q63 0 109 -16.5q46 -16.5 81 -45.5l0 51h87v-227h-87l-2 85q-24 26 -60 43.5q-36 17.5 -88 17.5q-48 0 -88 -19q-40 -19 -69 -54q-29 -35 -45 -85q-16 -50 -16 -111q0 -59 16 -108.5q16 -49.5 45.5 -85q29.5 -35.5 70 -55.5q40.5 -20 90.5 -20q48 0 86.5 16q38.5 16 66.5 45zM398 750q-35 0 -60.5 21q-25.5 21 -25.5 60q0 35 25.5 55.5q25.5 20.5 60.5 20.5q31 0 56 -20.5q25 -20.5 25 -55.5q0 -39 -25 -60t-56 -21z" />
<glyph unicode="&#267;" horiz-adv-x="492" d="M25 225q0 49 17.5 92q17.5 43 50.5 75q33 32 80.5 50.5q47.5 18.5 107.5 18.5q38 0 72.5 -8.5q34.5 -8.5 60 -25.5q25.5 -17 40.5 -42q15 -25 15 -58q0 -31 -18 -50.5q-18 -19.5 -47 -19.5q-28 0 -47 16.5q-19 16.5 -19 41.5q0 33 24 47q-10 8 -25 14q-15 6 -38 6q-54 0 -89.5 -39q-35.5 -39 -35.5 -111q0 -37 11 -66q11 -29 30.5 -49.5q19.5 -20.5 45.5 -31q26 -10.5 56 -10.5q29 0 60 16q31 16 49 46l51 -42q-30 -56 -81 -81q-51 -25 -117 -25q-59 0 -106 17q-47 17 -80 48q-33 31 -50.5 74.5q-17.5 43.5 -17.5 96.5zt0 0zM274 543q-32 0 -54.5 20q-22.5 20 -22.5 58q0 34 22.5 53.5q22.5 19.5 54.5 19.5q28 0 51 -19.5q23 -19.5 23 -53.5q0 -38 -23 -58t-51 -20z" />
<glyph unicode="&#268;" horiz-adv-x="738" d="M602 231h86v-231h-86v53q-36 -29 -86 -46.5q-50 -17.5 -107 -17.5q-81 0 -149 24.5q-68 24.5 -117 71q-49 46.5 -76 113.5q-27 67 -27 152q0 75 25 141q25 66 72.5 115q47.5 49 114.5 77q67 28 151 28q63 0 109 -16.5q46 -16.5 81 -45.5l0 51h87v-227h-87l-2 85q-24 26 -60 43.5q-36 17.5 -88 17.5q-48 0 -88 -19q-40 -19 -69 -54q-29 -35 -45 -85q-16 -50 -16 -111q0 -59 16 -108.5q16 -49.5 45.5 -85q29.5 -35.5 70 -55.5q40.5 -20 90.5 -20q48 0 86.5 16q38.5 16 66.5 45zM241 876l30 37l143 -67l143 67l27 -35l-168 -142l-4 0z" />
<glyph unicode="&#269;" horiz-adv-x="492" d="M25 225q0 49 17.5 92q17.5 43 50.5 75q33 32 80.5 50.5q47.5 18.5 107.5 18.5q38 0 72.5 -8.5q34.5 -8.5 60 -25.5q25.5 -17 40.5 -42q15 -25 15 -58q0 -31 -18 -50.5q-18 -19.5 -47 -19.5q-28 0 -47 16.5q-19 16.5 -19 41.5q0 33 24 47q-10 8 -25 14q-15 6 -38 6q-54 0 -89.5 -39q-35.5 -39 -35.5 -111q0 -37 11 -66q11 -29 30.5 -49.5q19.5 -20.5 45.5 -31q26 -10.5 56 -10.5q29 0 60 16q31 16 49 46l51 -42q-30 -56 -81 -81q-51 -25 -117 -25q-59 0 -106 17q-47 17 -80 48q-33 31 -50.5 74.5q-17.5 43.5 -17.5 96.5zt0 0zM126 673l40 38l116 -87l117 86l38 -38l-154 -164l-4 0z" />
<glyph unicode="&#270;" horiz-adv-x="823" d="M286 82q25 -2 41 -2q16 0 30 0q61 0 106 21q45 21 75 58q30 37 45 87.5q15 50.5 15 110.5q0 58 -14.5 106.5q-14.5 48.5 -44 83.5q-29.5 35 -74.5 54.5q-45 19.5 -106 19.5q-22 0 -37 -0.5q-15 -0.5 -36 -2.5zM124 82v536h-82v82h95q15 0 46 0.5q31 0.5 67 1q36 0.5 71 1q35 0.5 58 0.5q111 0 188 -28q77 -28 125.5 -75.5q48.5 -47.5 70 -110.5q21.5 -63 21.5 -132q0 -74 -23.5 -139.5q-23.5 -65.5 -74.5 -114q-51 -48.5 -131.5 -77q-80.5 -28.5 -194.5 -28.5q-15 0 -43 0.5q-28 0.5 -60 0.5q-32 0 -63.5 0.5q-31.5 0.5 -55.5 0.5h-96v82zM212 876l30 37l143 -67l143 67l27 -35l-168 -142l-4 0z" />
<glyph unicode="&#271;" horiz-adv-x="717" d="M566 79v-79h-186v62q-17 -28 -54.5 -49q-37.5 -21 -91.5 -21q-45 0 -83.5 16.5q-38.5 16.5 -66 46.5q-27.5 30 -43.5 72q-16 42 -16 93q0 56 18 101q18 45 50.5 76q32.5 31 78.5 47.5q46 16.5 102 16.5q38 0 62.5 -7.5q24.5 -7.5 43.5 -18.5l0 186h-59v79h191v-621zM286 78q33 0 55 11q22 11 39 29l0 238q-20 16 -40.5 21q-20.5 5 -43.5 5q-56 0 -89 -42.5q-33 -42.5 -33 -115.5q0 -63 29.5 -104.5q29.5 -41.5 82.5 -41.5zt0 0zM557 541q20 20 32 49q12 29 12 61q0 16 -2.5 27q-2.5 11 -7.5 22l113 0q4 -8 5.5 -17q1.5 -9 1.5 -17q0 -36 -12.5 -64q-12.5 -28 -32 -49q-19.5 -21 -42.5 -34.5q-23 -13.5 -44 -20.5z" />
<glyph unicode="&#272;" horiz-adv-x="823" d="M124 82v234h-82v90h82v212h-82v82h95q16 0 47 0.5q31 0.5 67 1q36 0.5 70.5 1q34.5 0.5 57.5 0.5q111 0 188 -28q77 -28 125.5 -75.5q48.5 -47.5 70 -110.5q21.5 -63 21.5 -132q0 -74 -23.5 -139.5q-23.5 -65.5 -74.5 -114q-51 -48.5 -131.5 -77q-80.5 -28.5 -193.5 -28.5q-16 0 -43.5 0.5q-27.5 0.5 -59.5 0.5q-32 0 -64 0.5q-32 0.5 -56 0.5h-96v82zM286 316v-234q25 -2 41 -2q16 0 29 0q61 0 106.5 21q45.5 21 75.5 58q30 37 45 87.5q15 50.5 15 110.5q0 58 -14.5 106.5q-14.5 48.5 -44.5 83.5q-30 35 -75 54.5q-45 19.5 -106 19.5q-22 0 -36.5 -0.5q-14.5 -0.5 -35.5 -2.5l0 -212h112l0 -90z" />
<glyph unicode="&#273;" horiz-adv-x="582" d="M566 79v-79h-186v62q-17 -28 -54.5 -49q-37.5 -21 -91.5 -21q-45 0 -83.5 16.5q-38.5 16.5 -66 46.5q-27.5 30 -43.5 72q-16 42 -16 93q0 56 18 101q18 45 50.5 76q32.5 31 78.5 47.5q46 16.5 102 16.5q38 0 62.5 -7.5q24.5 -7.5 43.5 -18.5l0 80h-160v58h160v48h-59v79h191v-127h55v-58h-55v-436zM286 78q33 0 55 11q22 11 39 29l0 238q-20 16 -40.5 21q-20.5 5 -43.5 5q-56 0 -89 -42.5q-33 -42.5 -33 -115.5q0 -63 29.5 -104.5t82.5 -41.5z" />
<glyph unicode="&#274;" horiz-adv-x="659" d="M42 82h82v536h-82v82h562v-227h-87l-4 145h-215v-226h172v-78h-172v-232h225l4 146h87v-228h-572zM180 846h309v-71l-309 0z" />
<glyph unicode="&#275;" horiz-adv-x="542" d="M177 189q4 -52 38.5 -83q34.5 -31 94.5 -31q52 0 86.5 15.5q34.5 15.5 53.5 34.5l42 -55q-29 -35 -81 -58q-52 -23 -122 -23q-66 0 -115.5 17q-49.5 17 -82.5 48q-33 31 -49.5 75.5q-16.5 44.5 -16.5 98.5q0 48 16.5 90.5q16.5 42.5 49 74q32.5 31.5 80.5 50q48 18.5 111 18.5q54 0 97.5 -15q43.5 -15 73.5 -42.5q30 -27.5 46 -66q16 -38.5 16 -85.5q0 -22 -1.5 -36q-1.5 -14 -5.5 -27zM377 260q1 24 -3.5 46q-4.5 22 -15.5 39q-11 17 -29.5 27q-18.5 10 -45.5 10q-27 0 -46.5 -10q-19.5 -10 -33 -27q-13.5 -17 -20.5 -39q-7 -22 -8 -46zM130 635h280v-71l-280 0z" />
<glyph unicode="&#278;" horiz-adv-x="659" d="M42 82h82v536h-82v82h562v-227h-87l-4 145h-215v-226h172v-78h-172v-232h225l4 146h87v-228h-572zM339 750q-35 0 -60.5 21q-25.5 21 -25.5 60q0 35 25.5 55.5q25.5 20.5 60.5 20.5q31 0 56 -20.5q25 -20.5 25 -55.5q0 -39 -25 -60t-56 -21z" />
<glyph unicode="&#279;" horiz-adv-x="542" d="M177 189q4 -52 38.5 -83q34.5 -31 94.5 -31q52 0 86.5 15.5q34.5 15.5 53.5 34.5l42 -55q-29 -35 -81 -58q-52 -23 -122 -23q-66 0 -115.5 17q-49.5 17 -82.5 48q-33 31 -49.5 75.5q-16.5 44.5 -16.5 98.5q0 48 16.5 90.5q16.5 42.5 49 74q32.5 31.5 80.5 50q48 18.5 111 18.5q54 0 97.5 -15q43.5 -15 73.5 -42.5q30 -27.5 46 -66q16 -38.5 16 -85.5q0 -22 -1.5 -36q-1.5 -14 -5.5 -27zM377 260q1 24 -3.5 46q-4.5 22 -15.5 39q-11 17 -29.5 27q-18.5 10 -45.5 10q-27 0 -46.5 -10q-19.5 -10 -33 -27q-13.5 -17 -20.5 -39q-7 -22 -8 -46zM271 543q-32 0 -54.5 20q-22.5 20 -22.5 58q0 34 22.5 53.5q22.5 19.5 54.5 19.5q28 0 51 -19.5q23 -19.5 23 -53.5q0 -38 -23 -58t-51 -20z" />
<glyph unicode="&#280;" horiz-adv-x="659" d="M42 82h82v536h-82v82h562v-227h-87l-4 145h-215v-226h172v-78h-172v-232h225l4 146h87v-228h-35q-43 -2 -71 -26.5q-28 -24.5 -28 -53.5q0 -23 12.5 -32q12.5 -9 27.5 -9q12 0 20.5 1.5q8.5 1.5 21.5 7.5l28 -44q-13 -14 -40 -29q-27 -15 -69 -15q-21 0 -42.5 5q-21.5 5 -39.5 16.5q-18 11.5 -29 29q-11 17.5 -11 43.5q0 39 27.5 65.5q27.5 26.5 69.5 40.5l-414 0z" />
</font>
</defs>
</svg>
