<?xml version="1.0" encoding="UTF-8" standalone="no"?>
<!DOCTYPE svg PUBLIC "-//W3C//DTD SVG 1.1//EN" "http://www.w3.org/Graphics/SVG/1.1/DTD/svg11.dtd" >
<svg xmlns="http://www.w3.org/2000/svg">
<metadata>
Generated by SVGconv.
Copyright   : Copyright  1990 ParaGraph Intl,  1998 ParaType Inc., ParaType Ltd. All rights reserved.
Designer    : Lyubov Kuznetsova
Foundry     : ParaType Ltd
Foundry URL : http://www.paratype.com
</metadata>
<defs>
<font id="QuantAntiquaWeb-Italic" horiz-adv-x="566" >
<font-face units-per-em="1000" ascent="927" descent="373" >
<font-face-src>
<font-face-name/>
</font-face-src>
</font-face>
<missing-glyph horiz-adv-x="500" />
<glyph unicode="&#32;" horiz-adv-x="233" />
<glyph unicode="&#33;" horiz-adv-x="309" d="M95 159q2 12 3.5 20.5q1.5 8.5 2.5 15.5q1 7 2.5 14q1.5 7 3.5 17q3 15 4.5 26q1.5 11 3.5 23.5q2 12.5 4.5 30.5q2.5 18 5.5 47q2 17 4 30.5q2 13.5 3.5 27q1.5 13.5 3.5 29q2 15.5 5 37.5q1 11 2 22.5q1 11.5 3 22.5q1 10 2 19q1 9 2 19q4 28 9.5 56q5.5 28 14.5 49.5q9 21.5 22.5 35q13.5 13.5 33.5 13.5q20 0 28.5 -14q8.5 -14 8.5 -34q0 -21 -6 -49.5q-6 -28.5 -15 -61q-9 -32.5 -21 -68.5q-12 -36 -24 -72q-25 -76 -40 -122q-15 -46 -23 -73q-8 -27 -11.5 -39.5q-3.5 -12.5 -5.5 -21.5zM42 35q0 26 16.5 37.5q16.5 11.5 32.5 11.5q18 0 33.5 -14q15.5 -14 15.5 -35q0 -20 -14.5 -34.5q-14.5 -14.5 -34.5 -14.5q-17 0 -33 13t-16 36z" />
<glyph unicode="&#34;" horiz-adv-x="395" d="M117 493h-39l-28 221h95zM293 493h-38l-29 221l96 0z" />
<glyph unicode="&#35;" horiz-adv-x="910" d="M756 168h-168l-45 -168h-63l45 168h-238l-45 -168h-63l45 168h-168l16 63h168l64 238h-168l17 63h168l45 168h63l-45 -168h238l45 168h63l-45 -168h169l-17 -63h-169l-64 -238h168zM303 231h238l64 238l-238 0z" />
<glyph unicode="&#36;" horiz-adv-x="765" d="M269 -6q-22 4 -50.5 17.5q-28.5 13.5 -54 32.5q-25.5 19 -43 43q-17.5 24 -17.5 50q0 20 10.5 38q10.5 18 35.5 18q22 0 32 -8q10 -8 15 -21q5 -13 7.5 -29.5q2.5 -16.5 9.5 -33.5q7 -17 21.5 -33q14.5 -16 44.5 -27l81 297q-32 29 -56.5 53q-24.5 24 -41 47q-16.5 23 -25.5 47q-9 24 -9 53q0 46 21.5 80.5q21.5 34.5 55.5 57q34 22.5 76.5 32.5q42.5 10 85.5 6l22 84l35 -9l-20 -80q31 -6 58 -18q27 -12 47 -28.5q20 -16.5 31.5 -36q11.5 -19.5 11.5 -40.5q0 -23 -11.5 -34.5q-11.5 -11.5 -28.5 -11.5q-26 0 -35.5 16.5q-9.5 16.5 -14.5 36.5q-3 10 -7 21.5q-4 11.5 -11.5 22q-7.5 10.5 -19.5 18.5q-12 8 -30 10l-71 -257q32 -29 61 -55q29 -26 51 -53.5q22 -27.5 35 -57q13 -29.5 13 -65.5q0 -34 -14 -68q-14 -34 -42.5 -61.5q-28.5 -27.5 -71.5 -44.5q-43 -17 -102 -17q-12 0 -23.5 0q-11.5 0 -23.5 2l-38 -120l-36 12zM456 672h-20q-60 0 -97 -27q-37 -27 -37 -72q0 -39 25 -71.5q25 -32.5 63 -67.5zM319 34q19 -4 42 -4q41 0 69.5 10.5q28.5 10.5 46.5 27.5q18 17 26 37.5q8 20.5 8 40.5q0 38 -30 76.5q-30 38.5 -85 85.5z" />
<glyph unicode="&#37;" horiz-adv-x="1054" d="M98 538q0 43 18 77.5q18 34.5 47 59q29 24.5 65 38q36 13.5 72 13.5q28 0 55.5 -9q27.5 -9 49 -28q21.5 -19 34.5 -48.5q13 -29.5 13 -70.5q0 -46 -19 -84.5q-19 -38.5 -51 -66q-32 -27.5 -73.5 -43q-41.5 -15.5 -87.5 -15.5q-31 0 -54 14.5q-23 14.5 -38.5 39q-15.5 24.5 -23 56.5q-7.5 32 -7.5 67zt0 0zM313 698q-23 0 -39 -8.5q-16 -8.5 -28 -21.5q-12 -13 -20 -29q-8 -16 -14 -30q-18 -39 -27 -67.5q-9 -28.5 -13.5 -48q-4.5 -19.5 -5 -30q-0.5 -10.5 -0.5 -13.5q0 -18 7 -30q7 -12 18.5 -18.5q11.5 -6.5 25 -9.5q13.5 -3 25.5 -3q22 0 40.5 16q18.5 16 33.5 40.5q15 24.5 26.5 54.5q11.5 30 19 58q7.5 28 11.5 50q4 22 4 32q0 27 -19 42.5q-19 15.5 -45 15.5zt0 0zM880 792l-741 -912l-26 25l739 912zM520 120q0 35 15 69q15 34 42 60.5q27 26.5 64 42.5q37 16 81 16q34 0 62.5 -11.5q28.5 -11.5 48 -32.5q19.5 -21 30.5 -49.5q11 -28.5 11 -62.5q0 -45 -19 -83.5q-19 -38.5 -51 -66q-32 -27.5 -74 -43.5q-42 -16 -87 -16q-30 0 -53 14q-23 14 -38.5 38q-15.5 24 -23.5 56.5q-8 32.5 -8 68.5zt0 0zM735 280q-23 0 -39 -8q-16 -8 -27.5 -21q-11.5 -13 -19.5 -29q-8 -16 -15 -31q-18 -39 -27 -67.5q-9 -28.5 -13.5 -48q-4.5 -19.5 -5 -30q-0.5 -10.5 -0.5 -13.5q0 -18 7 -30q7 -12 18.5 -18.5q11.5 -6.5 25 -9.5q13.5 -3 25.5 -3q22 0 40.5 15.5q18.5 15.5 33.5 40q15 24.5 26.5 54q11.5 29.5 19 57.5q7.5 28 11.5 50.5q4 22.5 4 33.5q0 22 -16.5 40t-47.5 18z" />
<glyph unicode="&#38;" horiz-adv-x="728" d="M646 325q-29 -5 -48.5 -20q-19.5 -15 -37 -39.5q-17.5 -24.5 -37 -57.5q-19.5 -33 -49.5 -75q6 -14 16.5 -33q10.5 -19 23.5 -35.5q13 -16.5 27 -28q14 -11.5 26 -11.5q20 0 41 21.5q21 21.5 35 47.5l29 -12q-23 -45 -53 -70.5q-30 -25.5 -71 -25.5q-19 0 -37.5 7q-18.5 7 -35 18q-16.5 11 -30 25q-13.5 14 -23.5 28l-4 0q-28 -27 -56.5 -43q-28.5 -16 -54.5 -23.5q-26 -7.5 -49.5 -9.5q-23.5 -2 -41.5 -2q-43 0 -75.5 15.5q-32.5 15.5 -54.5 40q-22 24.5 -33 55.5q-11 31 -11 63q0 44 18 80.5q18 36.5 49.5 67.5q31.5 31 74.5 56.5q43 25.5 92 47.5q-3 18 -6 44.5q-3 26.5 -3 49.5q0 52 15 91q15 39 40 65q25 26 57 39q32 13 65 13q37 0 62.5 -10q25.5 -10 41.5 -26.5q16 -16.5 23.5 -37q7.5 -20.5 7.5 -40.5q0 -35 -19 -63.5q-19 -28.5 -50 -52q-31 -23.5 -71 -42.5q-40 -19 -81 -35q7 -34 26.5 -94.5q19.5 -60.5 65.5 -141.5l4 0q5 7 15.5 25.5q10.5 18.5 21.5 39q11 20.5 19 39.5q8 19 8 29q0 14 -14.5 19q-14.5 5 -29.5 5l0 22h172zM350 439q29 13 60 28.5q31 15.5 56.5 35q25.5 19.5 42 44.5q16.5 25 16.5 56q0 38 -22 55q-22 17 -54 17q-21 0 -40.5 -8q-19.5 -8 -35 -23q-15.5 -15 -25.5 -37.5q-10 -22.5 -12 -51.5q-1 -18 0 -35q1 -23 4 -42q3 -19 8 -39zM134 169q0 -29 9.5 -53.5q9.5 -24.5 26 -41.5q16.5 -17 38 -26.5q21.5 -9.5 45.5 -9.5q36 0 76 17q40 17 67 49q-38 62 -64 126.5q-26 64.5 -48 145.5q-42 -19 -70.5 -44q-28.5 -25 -46.5 -53q-18 -28 -25.5 -56.5t-7.5 -53.5z" />
<glyph unicode="&#39;" horiz-adv-x="219" d="M117 493h-38l-29 221l96 0z" />
<glyph unicode="&#40;" horiz-adv-x="526" d="M498 801q-70 -37 -120.5 -101q-50.5 -64 -83.5 -144.5q-33 -80.5 -48.5 -170q-15.5 -89.5 -15.5 -177.5q0 -83 24 -163q24 -80 89 -147l-12 -24q-48 36 -83 88q-35 52 -57.5 112.5q-22.5 60.5 -33.5 127q-11 66.5 -11 131.5q0 49 16.5 115q16.5 66 56 134.5q39.5 68.5 105.5 132.5q66 64 165 111z" />
<glyph unicode="&#41;" horiz-adv-x="527" d="M28 -101q70 37 120.5 101q50.5 64 83.5 144.5q33 80.5 48.5 170q15.5 89.5 15.5 177.5q0 28 -4 66.5q-4 38.5 -16 81q-12 42.5 -34.5 84.5q-22.5 42 -58.5 78l12 24q47 -36 82 -88q35 -52 58 -112.5q23 -60.5 34.5 -127q11.5 -66.5 11.5 -131.5q0 -47 -17 -113q-17 -66 -56.5 -135.5q-39.5 -69.5 -105.5 -134.5q-66 -65 -165 -110z" />
<glyph unicode="&#42;" horiz-adv-x="526" d="M225 532q-4 8 -14 13q-10 5 -23 10q-20 9 -37 10q-17 1 -29.5 2q-12.5 1 -19.5 6q-7 5 -7 21q0 14 6 28.5q6 14.5 19 14.5q15 0 24.5 -5.5q9.5 -5.5 17.5 -14.5q8 -9 16.5 -20q8.5 -11 21.5 -21q9 -7 18.5 -14q9.5 -7 19.5 -7q8 0 11.5 5q3.5 5 3.5 9q0 7 0 15.5q0 8.5 -2 20.5q-2 21 -6 31q-4 10 -8 15.5q-4 5.5 -7 10.5q-3 5 -3 17q0 10 4.5 17q4.5 7 10 11q5.5 4 11.5 5.5q6 1.5 9 1.5q11 0 24.5 -9q13.5 -9 13.5 -26q0 -21 -2.5 -24.5q-2.5 -3.5 -6.5 -5q-4 -1.5 -8 -8.5q-4 -7 -8 -36q-1 -7 -2 -15.5q-1 -8.5 0 -16.5q1 -8 4 -13.5q3 -5.5 11 -5.5q10 0 20 7.5q10 7.5 18 13.5q13 10 21.5 21q8.5 11 16.5 20q8 9 17.5 14.5q9.5 5.5 24.5 5.5q12 0 18.5 -14q6.5 -14 6.5 -30q0 -15 -9 -20.5q-9 -5.5 -22.5 -7q-13.5 -1.5 -30 -3q-16.5 -1.5 -31.5 -7.5q-12 -5 -25 -13q-13 -8 -13 -23q0 -9 12.5 -13.5q12.5 -4.5 24.5 -9.5q16 -7 32.5 -8q16.5 -1 30 -2.5q13.5 -1.5 22 -7q8.5 -5.5 8.5 -21.5q0 -4 0 -11q0 -7 -2.5 -14q-2.5 -7 -7.5 -12.5q-5 -5.5 -15 -5.5q-16 0 -25 5.5q-9 5.5 -16.5 14.5q-7.5 9 -15.5 20q-8 11 -22 21q-12 9 -21 15q-9 6 -18 6q-8 0 -11.5 -5q-3.5 -5 -3.5 -9q0 -7 0 -15.5q0 -8.5 2 -20.5q2 -21 6.5 -32q4.5 -11 8.5 -18q4 -7 7 -11.5q3 -4.5 3 -12.5q0 -18 -13.5 -26.5q-13.5 -8.5 -22.5 -8.5q-4 0 -10.5 1.5q-6.5 1.5 -12.5 5.5q-6 4 -10 10.5q-4 6.5 -4 17.5q0 8 3.5 15.5q3.5 7.5 8 15.5q4.5 8 8.5 18.5q4 10.5 5 24.5q2 20 1.5 27q-0.5 7 -0.5 9q0 8 -5 11.5q-5 3.5 -9 3.5q-9 0 -20 -7.5q-11 -7.5 -19 -13.5q-14 -10 -22 -21q-8 -11 -15.5 -20q-7.5 -9 -16.5 -14.5q-9 -5.5 -25 -5.5q-10 0 -15 5q-5 5 -7.5 12q-2.5 7 -2.5 14q0 7 0 12q0 15 7 20q7 5 19 6.5q12 1.5 29 3q17 1.5 37 9.5q8 3 21 9q13 6 17 14q3 6 0 13z" />
<glyph unicode="&#43;" horiz-adv-x="672" d="M301 84v231h-231v70h231v231h70v-231h231v-70h-231l0 -231z" />
<glyph unicode="&#44;" horiz-adv-x="280" d="M53 -130q30 16 58 35.5q28 19.5 36 48.5q4 16 0 26q-3 10 -6 15q-3 5 -6 9q-3 4 -5.5 9q-2.5 5 -4.5 15q-1 5 -1.5 10q-0.5 5 1.5 10q2 11 13.5 23.5q11.5 12.5 31.5 12.5q26 0 41.5 -16q15.5 -16 15.5 -45q0 -26 -13 -52q-13 -26 -35.5 -49q-22.5 -23 -52 -41.5q-29.5 -18.5 -62.5 -28.5z" />
<glyph unicode="&#45;" horiz-adv-x="350" d="M71 266h223l-16 -56l-222 0z" />
<glyph unicode="&#46;" horiz-adv-x="280" d="M91 35q0 26 16.5 37.5q16.5 11.5 32.5 11.5q18 0 33.5 -14q15.5 -14 15.5 -35q0 -20 -14.5 -34.5q-14.5 -14.5 -34.5 -14.5q-17 0 -33 13t-16 36z" />
<glyph unicode="&#47;" horiz-adv-x="781" d="M126 -122l489 963l40 -21l-489 -961z" />
<glyph unicode="&#48;" horiz-adv-x="526" d="M348 715q23 0 50 -7.5q27 -7.5 50 -29.5q23 -22 38.5 -62q15.5 -40 15.5 -104q0 -36 -7 -79.5q-7 -43.5 -21 -91.5q-14 -48 -35.5 -99q-21.5 -51 -51.5 -101q-32 -54 -63 -85q-31 -31 -60 -47q-29 -16 -54.5 -20.5q-25.5 -4.5 -45.5 -4.5q-24 0 -49.5 9q-25.5 9 -45.5 31.5q-20 22.5 -33 59.5q-13 37 -13 94q0 18 2.5 48q2.5 30 10 68.5q7.5 38.5 21 84.5q13.5 46 36.5 97q11 25 33 65.5q22 40.5 54.5 79q32.5 38.5 74.5 66.5q42 28 93 28zt0 0zM175 26q19 0 38 7.5q19 7.5 38.5 27q19.5 19.5 40 53q20.5 33.5 42.5 86.5q18 43 35.5 98.5q17.5 55.5 31 109.5q13.5 54 21.5 101q8 47 8 75q0 9 -3 24q-3 15 -11.5 29.5q-8.5 14.5 -23 25q-14.5 10.5 -38.5 10.5q-29 0 -53 -13q-24 -13 -44 -35.5q-20 -22.5 -37 -52.5q-17 -30 -33 -64q-21 -47 -38.5 -102q-17.5 -55 -29.5 -107.5q-12 -52.5 -19 -97.5q-7 -45 -7 -71q0 -19 4 -37.5q4 -18.5 13.5 -33.5q9.5 -15 25 -24t39.5 -9z" />
<glyph unicode="&#49;" horiz-adv-x="526" d="M251 83q-5 -17 -6 -22q-1 -5 -1 -10v-7q2 -13 11.5 -15q9.5 -2 14.5 -2h26l-7 -27h-195l7 27q21 0 33.5 5q12.5 5 19.5 13q7 8 10 18q3 10 6 20l115 427q4 13 4 30q0 2 -1 8.5q-1 6.5 -6.5 14q-5.5 7.5 -17 13.5q-11.5 6 -32.5 6h-13l7 25q55 0 94 20.5q39 20.5 66 72.5l32 0z" />
<glyph unicode="&#50;" horiz-adv-x="526" d="M29 25q125 118 201 205q76 87 116.5 150q40.5 63 53.5 105q13 42 13 71q0 60 -32 88q-32 28 -79 28q-28 0 -49.5 -10q-21.5 -10 -35.5 -24.5q-14 -14.5 -21.5 -31q-7.5 -16.5 -7.5 -30.5q0 -8 2 -14.5q2 -6.5 5 -13.5q6 -14 13 -28q7 -14 7 -27q0 -13 -9 -26.5q-9 -13.5 -31 -13.5q-24 0 -35.5 20.5q-11.5 20.5 -11.5 46.5q0 33 14.5 67.5q14.5 34.5 40.5 62.5q26 28 63.5 46q37.5 18 83.5 18q46 0 78 -16.5q32 -16.5 51.5 -42q19.5 -25.5 28 -56.5q8.5 -31 8.5 -61q0 -24 -9 -54q-9 -30 -29 -65q-20 -35 -53.5 -76q-33.5 -41 -81.5 -88q-13 -12 -27 -25.5q-14 -13.5 -36 -33q-22 -19.5 -55 -49.5q-33 -30 -82 -75l0 -5h155q16 0 29.5 2q13.5 2 26.5 8.5q13 6.5 25.5 19q12.5 12.5 26.5 34.5l26 0l-50 -131l-340 0z" />
<glyph unicode="&#51;" horiz-adv-x="526" d="M210 403q59 -2 97 17.5q38 19.5 59.5 48q21.5 28.5 29.5 61q8 32.5 8 58.5q0 25 -9 41.5q-9 16.5 -22.5 26.5q-13.5 10 -30 14q-16.5 4 -31.5 4q-11 0 -25 -3.5q-14 -3.5 -26.5 -11.5q-12.5 -8 -21.5 -20.5q-9 -12.5 -9 -30.5q0 -14 5 -21.5q5 -7.5 5 -27.5q0 -20 -8 -37q-8 -17 -29 -17q-20 0 -32 16q-12 16 -12 48q0 32 15.5 58.5q15.5 26.5 40 46q24.5 19.5 54 30q29.5 10.5 57.5 10.5q31 0 60 -8.5q29 -8.5 51 -25q22 -16.5 35 -40.5q13 -24 13 -55q0 -27 -7.5 -55q-7.5 -28 -26.5 -54q-19 -26 -50 -48q-31 -22 -78 -37l0 -5q16 -4 36.5 -13.5q20.5 -9.5 39 -27q18.5 -17.5 31 -45q12.5 -27.5 12.5 -67.5q0 -44 -17.5 -88.5q-17.5 -44.5 -49.5 -79.5q-32 -35 -76.5 -57q-44.5 -22 -98.5 -22q-39 0 -68.5 12q-29.5 12 -50 31.5q-20.5 19.5 -31 44.5q-10.5 25 -10.5 51q0 17 3.5 36.5q3.5 19.5 12 36.5q8.5 17 22.5 28.5q14 11.5 34 11.5q23 0 33 -12q10 -12 10 -23q0 -19 -9 -30.5q-9 -11.5 -20 -21.5q-11 -10 -20.5 -20.5q-9.5 -10.5 -11.5 -27.5l0 -11q1 -17 11 -29q10 -12 24.5 -19.5q14.5 -7.5 33 -11.5q18.5 -4 36.5 -4q41 0 71 23q30 23 49.5 57.5q19.5 34.5 29 74q9.5 39.5 9.5 71.5q0 67 -38.5 94.5q-38.5 27.5 -113.5 29.5z" />
<glyph unicode="&#52;" horiz-adv-x="526" d="M355 254h84l-10 -41h-84l-34 -130q-1 -3 -3.5 -15.5q-2.5 -12.5 -3.5 -16.5l0 -7q1 -9 7 -14q6 -5 31 -5h17l-7 -25h-193l7 25q33 0 46 13q13 13 21 45l33 130h-251l11 41l394 446h50zM363 586h-6l-286 -325v-7l206 0z" />
<glyph unicode="&#53;" horiz-adv-x="526" d="M252 633l-69 -224h6q31 20 58 28q27 8 60 8q33 0 61.5 -11q28.5 -11 49 -32q20.5 -21 32 -51q11.5 -30 11.5 -67q0 -47 -20 -99.5q-20 -52.5 -56 -96.5q-36 -44 -87.5 -73q-51.5 -29 -114.5 -29q-28 0 -54.5 7.5q-26.5 7.5 -47.5 22.5q-21 15 -33.5 36.5q-12.5 21.5 -12.5 49.5q0 17 3.5 37q3.5 20 11.5 37q8 17 21.5 28.5q13.5 11.5 33.5 11.5q30 0 38.5 -16.5q8.5 -16.5 8.5 -32.5q0 -32 -9.5 -44q-9.5 -12 -21 -16.5q-11.5 -4.5 -21 -8.5q-9.5 -4 -9.5 -19q0 -17 22.5 -33q22.5 -16 63.5 -16q40 0 75.5 19.5q35.5 19.5 62.5 54q27 34.5 42.5 80q15.5 45.5 15.5 98.5q0 13 -0.5 33.5q-0.5 20.5 -7.5 40q-7 19.5 -24.5 33.5q-17.5 14 -50.5 14q-25 0 -47 -8.5q-22 -8.5 -40.5 -21q-18.5 -12.5 -33 -27q-14.5 -14.5 -23.5 -27.5l-26 0l117 382h215q21 0 29.5 5q8.5 5 12.5 10l25 0l-37 -83z" />
<glyph unicode="&#54;" horiz-adv-x="526" d="M155 367q62 74 149 74q30 0 57 -9q27 -9 47 -26q20 -17 31.5 -42.5q11.5 -25.5 11.5 -58.5q0 -58 -18.5 -115q-18.5 -57 -51.5 -102.5q-33 -45.5 -78 -73.5q-45 -28 -98 -28q-26 0 -55.5 8q-29.5 8 -54.5 28q-25 20 -41 55.5q-16 35.5 -16 89.5q0 70 15 137.5q15 67.5 41.5 128.5q26.5 61 61.5 112.5q35 51.5 75.5 89q40.5 37.5 83.5 58.5q43 21 85 21q13 0 30 -2.5q17 -2.5 33 -9.5q16 -7 27.5 -18q11.5 -11 13.5 -29q2 -7 0 -13q-2 -16 -12 -24.5q-10 -8.5 -22 -8.5q-18 0 -32 9q-14 9 -28 20q-14 11 -29 20q-15 9 -33 9q-20 0 -38.5 -12.5q-18.5 -12.5 -33.5 -29q-15 -16.5 -26.5 -34.5q-11.5 -18 -17.5 -28q-17 -31 -41.5 -83.5q-24.5 -52.5 -41.5 -112.5zM276 399q-39 0 -70.5 -25q-31.5 -25 -53 -64.5q-21.5 -39.5 -33 -87q-11.5 -47.5 -11.5 -92.5q0 -48 27.5 -75q27.5 -27 69.5 -27q38 0 69 20.5q31 20.5 52.5 54.5q21.5 34 33.5 78q12 44 12 90q0 9 -0.5 30q-0.5 21 -9 43q-8.5 22 -28.5 38.5t-58 16.5z" />
<glyph unicode="&#55;" horiz-adv-x="526" d="M515 671q-50 -64 -103.5 -144q-53.5 -80 -101.5 -168q-48 -88 -85 -180q-37 -92 -55 -179l-89 0q21 101 54.5 179.5q33.5 78.5 77 150q43.5 71.5 97.5 142q54 70.5 117 155.5l0 5h-196q-35 0 -66.5 -10.5q-31.5 -10.5 -56.5 -51.5l-25 0l57 130l383 0z" />
<glyph unicode="&#56;" horiz-adv-x="526" d="M227 392q-11 10 -23.5 24.5q-12.5 14.5 -24 31.5q-11.5 17 -19 36q-7.5 19 -7.5 40q0 31 11 65q11 34 34 61.5q23 27.5 59 45.5q36 18 86 18q39 0 69.5 -12.5q30.5 -12.5 51.5 -32q21 -19.5 31.5 -44q10.5 -24.5 10.5 -49.5q0 -12 -3 -35q-3 -23 -17.5 -49q-14.5 -26 -45 -52.5q-30.5 -26.5 -85.5 -45.5l0 -8q54 -47 73.5 -89.5q19.5 -42.5 19.5 -76.5q0 -42 -15.5 -83.5q-15.5 -41.5 -44 -75q-28.5 -33.5 -69 -54.5q-40.5 -21 -90.5 -21q-40 0 -76 11q-36 11 -63.5 32.5q-27.5 21.5 -43.5 53.5q-16 32 -16 74q0 31 8.5 63q8.5 32 30 61.5q21.5 29.5 60 55.5q38.5 26 98.5 46zM320 415q31 12 55 30q24 18 40 40q16 22 24.5 47q8.5 25 8.5 49q0 24 -10 41q-10 17 -26 28q-16 11 -36 16.5q-20 5.5 -40 5.5q-26 0 -48.5 -9q-22.5 -9 -39 -24q-16.5 -15 -25.5 -35q-9 -20 -9 -42q0 -22 9.5 -42.5q9.5 -20.5 25 -39q15.5 -18.5 34.5 -35q19 -16.5 37 -30.5zt0 0zM258 364q-49 -19 -80 -47.5q-31 -28.5 -48.5 -59.5q-17.5 -31 -24 -61.5q-6.5 -30.5 -6.5 -54.5q0 -48 34.5 -80q34.5 -32 92.5 -32q39 0 67 14q28 14 47 36.5q19 22.5 28 49.5q9 27 9 54q0 29 -11.5 56q-11.5 27 -29 50q-17.5 23 -38.5 42t-40 33z" />
<glyph unicode="&#57;" horiz-adv-x="526" d="M368 333q-62 -74 -149 -74q-30 0 -57 9q-27 9 -47 26q-20 17 -31.5 42.5q-11.5 25.5 -11.5 58.5q0 56 18.5 111.5q18.5 55.5 51.5 99.5q33 44 78 71.5q45 27.5 98 27.5q25 0 54.5 -7.5q29.5 -7.5 54.5 -27q25 -19.5 42 -53q17 -33.5 17 -84.5q0 -78 -17 -148.5q-17 -70.5 -45 -131.5q-28 -61 -65.5 -110q-37.5 -49 -77.5 -84q-40 -35 -81 -54q-41 -19 -77 -19q-29 0 -48.5 6.5q-19.5 6.5 -32 15.5q-12.5 9 -18 19q-5.5 10 -5.5 18q0 3 0.5 11q0.5 8 3.5 15.5q3 7.5 10 13.5q7 6 21 6q21 0 31 -9q10 -9 19 -20q9 -11 24 -20q15 -9 47 -9q20 0 38.5 12.5q18.5 12.5 33.5 29q15 16.5 26.5 34q11.5 17.5 17.5 28.5q17 31 41.5 83.5q24.5 52.5 41.5 112.5zM247 300q39 0 70.5 25q31.5 25 53 64.5q21.5 39.5 33 87.5q11.5 48 11.5 93q0 48 -27.5 75q-27.5 27 -69.5 27q-37 0 -68 -20.5q-31 -20.5 -53 -54.5q-22 -34 -34 -78q-12 -44 -12 -90q0 -58 23 -93.5t73 -35.5z" />
<glyph unicode="&#58;" horiz-adv-x="350" d="M161 413q0 22 15.5 35.5q15.5 13.5 33.5 13.5q20 0 34.5 -14.5q14.5 -14.5 14.5 -34.5q0 -18 -13.5 -33.5q-13.5 -15.5 -35.5 -15.5q-20 0 -34.5 14.5q-14.5 14.5 -14.5 34.5zt0 0zM91 35q0 22 15.5 35.5q15.5 13.5 33.5 13.5q20 0 34.5 -14.5q14.5 -14.5 14.5 -34.5q0 -18 -13.5 -33.5q-13.5 -15.5 -35.5 -15.5q-20 0 -34.5 14.5t-14.5 34.5z" />
<glyph unicode="&#59;" horiz-adv-x="349" d="M194 413q0 22 15.5 35.5q15.5 13.5 33.5 13.5q20 0 34.5 -14.5q14.5 -14.5 14.5 -34.5q0 -18 -13.5 -33.5q-13.5 -15.5 -35.5 -15.5q-20 0 -34.5 14.5q-14.5 14.5 -14.5 34.5zt0 0zM57 -130q28 15 57 35q29 20 37 49q4 16 0 26q-3 11 -13 22q-10 11 -10 26q0 22 12.5 39q12.5 17 32.5 17q26 0 41.5 -16q15.5 -16 15.5 -45q0 -25 -11.5 -50q-11.5 -25 -32.5 -47.5q-21 -22.5 -51 -41.5q-30 -19 -67 -32z" />
<glyph unicode="&#60;" horiz-adv-x="672" d="M531 616l29 -54l-367 -212l367 -212l-29 -54l-461 266z" />
<glyph unicode="&#61;" horiz-adv-x="672" d="M70 483h532v-70h-532zM70 287h532v-70l-532 0z" />
<glyph unicode="&#62;" horiz-adv-x="672" d="M141 84l-29 54l367 212l-367 212l29 54l461 -266z" />
<glyph unicode="&#63;" horiz-adv-x="470" d="M109 163q4 51 22.5 90q18.5 39 59.5 80q27 27 54.5 48.5q27.5 21.5 49.5 44q22 22.5 36 50.5q14 28 14 68q0 59 -33.5 92.5q-33.5 33.5 -95.5 33.5q-17 0 -34.5 -3.5q-17.5 -3.5 -32.5 -12q-15 -8.5 -24.5 -21.5q-9.5 -13 -9.5 -32q0 -18 1.5 -27.5q1.5 -9.5 3.5 -15.5q2 -6 3.5 -12.5q1.5 -6.5 1.5 -19.5q0 -20 -13.5 -29q-13.5 -9 -30.5 -9q-21 0 -30 18q-9 18 -9 42q0 37 17.5 67.5q17.5 30.5 46.5 52.5q29 22 66.5 34q37.5 12 78.5 12q46 0 79.5 -15.5q33.5 -15.5 55.5 -40q22 -24.5 32 -56q10 -31.5 10 -62.5q0 -41 -14.5 -71.5q-14.5 -30.5 -38 -54q-23.5 -23.5 -52.5 -42.5q-29 -19 -58 -38q-20 -13 -38 -26.5q-18 -13.5 -33 -32.5q-15 -19 -26 -46q-11 -27 -18 -66zM64 35q0 22 15.5 35.5q15.5 13.5 33.5 13.5q20 0 34.5 -14.5q14.5 -14.5 14.5 -34.5q0 -18 -13.5 -33.5q-13.5 -15.5 -35.5 -15.5q-20 0 -34.5 14.5t-14.5 34.5z" />
<glyph unicode="&#64;" horiz-adv-x="939" d="M653 293q-11 -35 -15 -54q-4 -19 -4 -30q0 -20 5.5 -32.5q5.5 -12.5 13 -19.5q7.5 -7 16 -9.5q8.5 -2.5 13.5 -2.5q23 0 56.5 16q33.5 16 64 49q30.5 33 52 84q21.5 51 21.5 120q0 83 -31.5 149q-31.5 66 -85.5 112q-54 46 -126.5 70.5q-72.5 24.5 -154.5 24.5q-89 0 -162.5 -35q-73.5 -35 -126.5 -93q-53 -58 -82.5 -133.5q-29.5 -75.5 -29.5 -156.5q0 -77 28 -152.5q28 -75.5 80.5 -135.5q52.5 -60 127.5 -97q75 -37 168 -37q57 0 102 10.5q45 10.5 79 25.5q34 15 56 30.5q22 15.5 33 25.5l22 -28q-45 -33 -85.5 -53q-40.5 -20 -76.5 -30q-36 -10 -68 -13q-32 -3 -59 -3q-106 0 -190.5 40.5q-84.5 40.5 -143.5 105.5q-59 65 -90.5 147q-31.5 82 -31.5 165q0 80 29.5 160.5q29.5 80.5 86.5 145.5q57 65 140.5 105.5q83.5 40.5 191.5 40.5q90 0 169 -27.5q79 -27.5 138.5 -78.5q59.5 -51 93.5 -123.5q34 -72.5 34 -161.5q0 -67 -19 -123q-19 -56 -51.5 -96q-32.5 -40 -76 -62.5q-43.5 -22.5 -92.5 -22.5q-27 0 -47 7q-20 7 -34 16.5q-14 9.5 -23 20.5q-9 11 -14 19q-32 -25 -65 -39q-33 -14 -76 -14q-38 0 -68 14.5q-30 14.5 -50.5 40q-20.5 25.5 -31.5 60q-11 34.5 -11 74.5q0 56 20.5 106.5q20.5 50.5 56.5 88.5q36 38 85 60q49 22 105 22q10 0 23.5 -1.5q13.5 -1.5 29.5 -8.5q16 -7 33 -20q17 -13 33 -35l15 47h83zM614 458q-8 42 -34 69q-26 27 -63 27q-29 0 -59 -19q-30 -19 -54 -53q-24 -34 -39.5 -80q-15.5 -46 -15.5 -101q0 -29 3 -55.5q3 -26.5 12 -46.5q9 -20 25.5 -31.5q16.5 -11.5 44.5 -11.5q40 0 68 20q28 20 44 42z" />
<glyph unicode="&#65;" horiz-adv-x="675" d="M557 72q0 -9 1.5 -17q1.5 -8 7 -14q5.5 -6 18 -10q12.5 -4 35.5 -4l-6 -27h-204l6 27q32 -5 47 6q15 11 13 41l-9 160h-264l-83 -146q-3 -5 -8 -12.5q-5 -7.5 -5 -20.5q0 -3 1 -8q1 -5 6 -9.5q5 -4.5 15 -7.5q10 -3 27 -3l-7 -27h-169l6 27q21 3 34 8.5q13 5.5 22 15q9 9.5 17.5 24q8.5 14.5 20.5 34.5l271 462q7 12 9 17q2 5 2 13q0 10 -9 20.5q-9 10.5 -43 10.5l19 32h26q38 0 65 19q27 19 58 51l42 0zM464 276l-20 353h-12l-205 -353z" />
<glyph unicode="&#66;" horiz-adv-x="687" d="M434 700q68 0 110.5 -14q42.5 -14 66.5 -35q24 -21 32.5 -46.5q8.5 -25.5 8.5 -48.5q0 -32 -12.5 -61.5q-12.5 -29.5 -35.5 -52.5q-23 -23 -56 -39q-33 -16 -74 -21l0 -6q35 -9 61.5 -26q26.5 -17 44.5 -40q18 -23 27.5 -49.5q9.5 -26.5 9.5 -54.5q0 -24 -9.5 -59.5q-9.5 -35.5 -37 -68q-27.5 -32.5 -77.5 -55.5q-50 -23 -131 -23h-334l7 27q20 0 32.5 5q12.5 5 19.5 13q7 8 10.5 18q3.5 10 6.5 20l143 534q7 25 8 31.5q1 6.5 1 8.5q0 6 -4.5 9q-4.5 3 -11.5 4.5q-7 1.5 -15.5 2q-8.5 0.5 -15.5 0.5h-8l7 27zM272 406q36 -3 73 -3q23 0 60.5 2.5q37.5 2.5 73.5 16q36 13.5 62 43q26 29.5 26 84.5q0 36 -15 57.5q-15 21.5 -35 33q-20 11.5 -41 15q-21 3.5 -33 4.5q-10 1 -20 1q-10 0 -20 0q-27 0 -41.5 -4.5q-14.5 -4.5 -22 -12.5q-7.5 -8 -10 -18.5q-2.5 -10.5 -5.5 -22.5zM188 100q-3 -14 -5.5 -20q-2.5 -6 -2.5 -18q0 -13 11.5 -16.5q11.5 -3.5 28.5 -3.5h80q70 0 114 19q44 19 69 46.5q25 27.5 34.5 58.5q9.5 31 9.5 55q0 49 -21 78q-21 29 -53 44q-32 15 -70.5 19.5q-38.5 4.5 -72.5 4.5q-13 0 -25 -0.5q-12 -0.5 -25 -1.5z" />
<glyph unicode="&#67;" horiz-adv-x="679" d="M616 515h-26q-3 21 -11.5 48q-8.5 27 -25 51.5q-16.5 24.5 -42.5 41.5q-26 17 -64 17q-48 0 -85.5 -23q-37.5 -23 -66.5 -61q-29 -38 -49.5 -86q-20.5 -48 -33.5 -98q-13 -50 -19 -97q-6 -47 -6 -82q0 -37 7.5 -72.5q7.5 -35.5 25 -63.5q17.5 -28 45.5 -45q28 -17 70 -17q40 0 74.5 14q34.5 14 62.5 36.5q28 22.5 50 51q22 28.5 36 57.5l25 0l-26 -152q-25 -12 -54 -21q-29 -9 -58.5 -15q-29.5 -6 -58.5 -9.5q-29 -3.5 -54 -3.5q-54 0 -99.5 18q-45.5 18 -78.5 51q-33 33 -51.5 80q-18.5 47 -18.5 106q0 46 10 99.5q10 53.5 30.5 106q20.5 52.5 51.5 101q31 48.5 72 85.5q41 37 92.5 59q51.5 22 113.5 22q48 0 99 -14.5q51 -14.5 98 -55.5z" />
<glyph unicode="&#68;" horiz-adv-x="757" d="M418 700q24 0 55.5 -2.5q31.5 -2.5 64.5 -11q33 -8.5 65.5 -25.5q32.5 -17 58 -47q25.5 -30 41 -75q15.5 -45 15.5 -108q0 -93 -23 -161q-23 -68 -60 -116q-37 -48 -83.5 -78q-46.5 -30 -93 -47q-46.5 -17 -89 -23q-42.5 -6 -71.5 -6h-270l7 27q33 0 47 13q14 13 22 43l143 534q1 3 4.5 17q3.5 14 3.5 23q0 11 -10 13.5q-10 2.5 -36 2.5h-7l7 27zM191 100q-6 -22 -7.5 -29q-1.5 -7 -1.5 -10q0 -10 8 -14q8 -4 19 -4l52 -1q18 0 42.5 1.5q24.5 1.5 50.5 6.5q26 5 53.5 15q27.5 10 51.5 27q35 24 65.5 64q30.5 40 52.5 87.5q22 47.5 34.5 98.5q12.5 51 12.5 98q0 36 -6 74.5q-6 38.5 -27.5 70.5q-21.5 32 -63 52.5q-41.5 20.5 -113.5 20.5h-34q-29 0 -38.5 -16.5q-9.5 -16.5 -16.5 -41.5z" />
<glyph unicode="&#69;" horiz-adv-x="655" d="M641 547h-25q-14 39 -33.5 61.5q-19.5 22.5 -41.5 33.5q-22 11 -46 13.5q-24 2.5 -46 2.5h-50q-26 0 -40 -5q-14 -5 -21 -13q-7 -8 -9 -18.5q-2 -10.5 -5 -21.5l-56 -204h126q17 0 34.5 1.5q17.5 1.5 33.5 7.5q16 6 29 18.5q13 12.5 21 35.5l25 0l-48 -176h-25q0 27 -5 41.5q-5 14.5 -13 21q-8 6.5 -19 7.5q-11 1 -24 1h-145l-69 -254q-3 -12 -5.5 -21q-2.5 -9 -2.5 -18q0 -12 11 -15.5q11 -3.5 29 -3.5h113q32 0 60.5 2.5q28.5 2.5 54 13.5q25.5 11 49.5 34.5q24 23.5 47 65.5l26 0l-43 -158h-500l7 27q33 0 47 13q14 13 22 43l143 534q1 4 4.5 17q3.5 13 3.5 23q0 3 -1 5.5q-1 2.5 -5.5 5q-4.5 2.5 -13.5 4q-9 1.5 -26 1.5h-8l7 27l433 0z" />
<glyph unicode="&#70;" horiz-adv-x="667" d="M639 547h-25q-15 39 -34 61q-19 22 -41 33.5q-22 11.5 -45.5 14q-23.5 2.5 -46.5 2.5h-47q-20 0 -32.5 -2.5q-12.5 -2.5 -20.5 -9q-8 -6.5 -13 -18q-5 -11.5 -10 -29.5l-54 -197h125q16 0 34 1q18 1 34 7q16 6 29.5 19q13.5 13 20.5 37l25 0l-50 -177h-25q2 27 -4.5 41.5q-6.5 14.5 -18 21q-11.5 6.5 -26.5 7.5q-15 1 -30 1h-125l-74 -277q-2 -7 -5 -19q-3 -12 -3 -20q0 -4 4.5 -10.5q4.5 -6.5 22.5 -6.5h23l-7 -27h-192l7 27q33 0 47 13q14 13 22 43l143 534q2 8 5.5 20.5q3.5 12.5 3.5 19.5q0 7 -6 10q-6 3 -14 4.5q-8 1.5 -15.5 1.5q-7.5 0 -11.5 0h-7l7 27l430 0z" />
<glyph unicode="&#71;" horiz-adv-x="741" d="M692 352q-18 0 -29 -3q-11 -3 -18.5 -9q-7.5 -6 -12.5 -17q-5 -11 -9 -27l-41 -146q-2 -9 -4 -20.5q-2 -11.5 -2 -27.5q0 -25 24 -37q-53 -38 -121 -58.5q-68 -20.5 -137 -20.5q-78 0 -128.5 22.5q-50.5 22.5 -79 55.5q-28.5 33 -39.5 71q-11 38 -11 70q0 47 9 103q9 56 28.5 112.5q19.5 56.5 49.5 109.5q30 53 72.5 94q42.5 41 98 65.5q55.5 24.5 124.5 24.5q53 0 110 -17q57 -17 100 -57l-35 -126h-25q-9 44 -24 74q-15 30 -35 49q-20 19 -43.5 27q-23.5 8 -47.5 8q-20 0 -44.5 -4.5q-24.5 -4.5 -51 -18q-26.5 -13.5 -53 -40q-26.5 -26.5 -50.5 -69.5q-17 -32 -33 -74.5q-16 -42.5 -28 -89q-12 -46.5 -19.5 -94q-7.5 -47.5 -7.5 -90.5q0 -85 43 -124.5q43 -39.5 122 -39.5q28 0 52 4.5q24 4.5 43 15.5q19 11 33 30q14 19 22 48l48 171q4 14 5.5 20q1.5 6 2.5 11l0 8q0 3 -1 5.5q-1 2.5 -5 5q-4 2.5 -13.5 4q-9.5 1.5 -25.5 1.5h-15l7 27l202 0z" />
<glyph unicode="&#72;" horiz-adv-x="765" d="M397 673q-17 0 -28 -2q-11 -2 -18.5 -8q-7.5 -6 -12.5 -17q-5 -11 -10 -29l-55 -202h309l55 202q1 3 4.5 16.5q3.5 13.5 3.5 23.5q0 2 -1 5q-1 3 -5.5 5.5q-4.5 2.5 -13.5 4q-9 1.5 -26 1.5h-7l6 27h195l-7 -27q-24 -1 -37 -6.5q-13 -5.5 -19 -14q-6 -8.5 -8 -18q-2 -9.5 -4 -17.5l-143 -534q-2 -5 -4 -12q-2 -7 -4 -20l0 -8q2 -9 9 -12.5q7 -3.5 17 -3.5h24l-7 -27h-193l7 27q21 0 33.5 5q12.5 5 19.5 13q7 8 10 18q3 10 6 20l77 290h-308l-77 -290q-2 -6 -4 -13q-2 -7 -4 -19l0 -7q1 -8 6.5 -12.5q5.5 -4.5 20.5 -4.5h23l-7 -27h-192l7 27q21 0 33 5q12 5 19 13q7 8 10 18q3 10 6 20l144 534q1 4 4.5 17q3.5 13 3.5 23q0 3 -1 5.5q-1 2.5 -5.5 5q-4.5 2.5 -13.5 4q-9 1.5 -26 1.5h-7l7 27l195 0z" />
<glyph unicode="&#73;" horiz-adv-x="375" d="M396 673q-22 0 -34 -5q-12 -5 -18.5 -12.5q-6.5 -7.5 -9.5 -17.5q-3 -10 -6 -21l-143 -534q-2 -7 -4.5 -15.5q-2.5 -8.5 -3.5 -16.5l0 -7q1 -6 5.5 -11.5q4.5 -5.5 20.5 -5.5h24l-7 -27h-192l7 27q33 0 47 13q14 13 22 43l142 534q5 17 6.5 22q1.5 5 2.5 10l0 8q-2 10 -11 13q-9 3 -35 3h-7l7 27l194 0z" />
<glyph unicode="&#74;" horiz-adv-x="416" d="M437 673q-35 -1 -48 -12.5q-13 -11.5 -21 -43.5l-79 -298q-11 -40 -18.5 -80q-7.5 -40 -16 -77q-8.5 -37 -19.5 -69q-11 -32 -27.5 -56q-16.5 -24 -40 -37.5q-23.5 -13.5 -57.5 -13.5q-22 0 -38.5 6.5q-16.5 6.5 -28 17.5q-11.5 11 -17 25q-5.5 14 -5.5 29q0 10 2.5 20.5q2.5 10.5 8.5 19.5q6 9 15.5 15q9.5 6 23.5 6q26 0 36 -14.5q10 -14.5 10 -26.5q0 -3 -2 -11.5q-2 -8.5 -10 -23.5q-1 -2 -2 -4q-1 -2 -1 -4q0 -4 4.5 -8.5q4.5 -4.5 19.5 -4.5q23 0 39 17.5q16 17.5 19 38.5q3 25 0.5 41.5q-2.5 16.5 -5 32q-2.5 15.5 -3 33q-0.5 17.5 7.5 46.5l103 380q2 7 5.5 17.5q3.5 10.5 3.5 22.5q0 12 -14.5 14q-14.5 2 -31.5 2h-8l7 27l195 0z" />
<glyph unicode="&#75;" horiz-adv-x="682" d="M724 700l-7 -27q-12 -3 -24 -8q-12 -5 -25.5 -13q-13.5 -8 -30 -20q-16.5 -12 -37.5 -30l-183 -154l112 -335q6 -19 13 -34.5q7 -15.5 17.5 -27q10.5 -11.5 25 -18q14.5 -6.5 35.5 -6.5l-7 -27h-212l7 27h18q16 0 23 10.5q7 10.5 7 20.5q0 6 -3.5 21.5q-3.5 15.5 -6.5 24.5l-94 283l-112 -92l-55 -210q-2 -10 -5 -19.5q-3 -9.5 -3 -20.5q0 -7 4.5 -10.5q4.5 -3.5 10.5 -5q6 -1.5 13 -2q7 -0.5 12 -0.5h10l-7 -27h-192l7 27q34 0 47 13q13 13 22 45l144 533q2 5 5 18.5q3 13.5 3 21.5q0 7 -6.5 11q-6.5 4 -25.5 4h-21l7 27h195l-7 -27h-14q-24 0 -35.5 -12.5q-11.5 -12.5 -19.5 -42.5l-69 -253h9l246 214q29 26 40.5 39.5q11.5 13.5 11.5 21.5q0 3 -1 8q-1 5 -4.5 10q-3.5 5 -11.5 9q-8 4 -23 6l7 27z" />
<glyph unicode="&#76;" horiz-adv-x="616" d="M189 100q-4 -14 -5.5 -20q-1.5 -6 -1.5 -13v-6q1 -12 10 -15.5q9 -3.5 29 -3.5h114q40 0 71.5 6q31.5 6 57 20q25.5 14 46 36q20.5 22 39.5 54l25 0l-43 -158h-503l7 27q33 0 47 13q14 13 22 43l143 534q7 25 8 31.5q1 6.5 1 8.5q0 11 -15 13.5q-15 2.5 -32 2.5h-7l7 27h195l-7 -27q-17 0 -28.5 -3q-11.5 -3 -19 -9q-7.5 -6 -12.5 -17q-5 -11 -9 -27z" />
<glyph unicode="&#77;" horiz-adv-x="913" d="M443 153l298 547h148l-7 -27q-35 -1 -45.5 -13q-10.5 -12 -14.5 -43l-60 -534q-1 -5 -1 -9.5q0 -4.5 0 -9.5q-1 -5 -1.5 -7.5q-0.5 -2.5 -0.5 -5.5q0 -18 12.5 -21q12.5 -3 18.5 -3h27l-7 -27h-196l7 27q23 0 35 6.5q12 6.5 17 15q5 8.5 5.5 18q0.5 9.5 1.5 16.5l61 533h-6l-334 -616h-17l-66 591h-6l-168 -480q-4 -11 -7.5 -21q-3.5 -10 -3.5 -21q0 -18 11.5 -27q11.5 -9 45.5 -15l-8 -27h-182l8 27q68 11 94 85l170 479q9 24 8.5 38.5q-0.5 14.5 -9 22.5q-8.5 8 -25 12q-16.5 4 -39.5 9l8 27h161l60 -547z" />
<glyph unicode="&#78;" horiz-adv-x="784" d="M562 124l115 445q1 4 2.5 13q1.5 9 3 19.5q1.5 10.5 2.5 21q1 10.5 1 17.5q0 23 -18.5 27.5q-18.5 4.5 -44.5 5.5l7 27h182l-7 -27q-12 0 -25 -4q-13 -4 -25.5 -14.5q-12.5 -10.5 -23 -28.5q-10.5 -18 -17.5 -46l-148 -580h-54l-224 569h-7l-108 -413q-9 -33 -11.5 -50q-2.5 -17 -2.5 -30q0 -26 19 -37q19 -11 49 -12l-7 -27h-192l7 27q22 1 38 10q16 9 26.5 24q10.5 15 18 34.5q7.5 19.5 13.5 42.5l116 442q7 27 8.5 39.5q1.5 12.5 1.5 21.5q0 4 -2.5 10q-2.5 6 -9.5 11q-7 5 -19.5 8q-12.5 3 -32.5 3l7 27h129l227 -576z" />
<glyph unicode="&#79;" horiz-adv-x="762" d="M478 714q55 0 100.5 -18.5q45.5 -18.5 77.5 -51.5q32 -33 49.5 -78.5q17.5 -45.5 17.5 -99.5q0 -42 -8 -88q-8 -46 -23 -91.5q-15 -45.5 -36.5 -87.5q-21.5 -42 -48.5 -76q-51 -64 -120 -100.5q-69 -36.5 -161 -36.5q-52 0 -96 19.5q-44 19.5 -76.5 55q-32.5 35.5 -51 86q-18.5 50.5 -18.5 112.5q0 37 8 79.5q8 42.5 25 86.5q17 44 43.5 88q26.5 44 62.5 84q38 42 75.5 65.5q37.5 23.5 70.5 35q33 11.5 61 14q28 2.5 48 2.5zt0 0zM477 672q-35 0 -65 -8.5q-30 -8.5 -57.5 -27.5q-27.5 -19 -53.5 -50.5q-26 -31.5 -51 -77.5q-15 -28 -29 -63.5q-14 -35.5 -24.5 -74.5q-10.5 -39 -17 -79q-6.5 -40 -6.5 -76q0 -37 10 -70.5q10 -33.5 30 -59.5q20 -26 50.5 -41.5q30.5 -15.5 71.5 -15.5q49 0 86.5 20q37.5 20 65 48q27.5 28 46 59q18.5 31 29.5 54q14 29 27 64q13 35 23 72.5q10 37.5 16 75.5q6 38 6 72q0 36 -10 68.5q-10 32.5 -29.5 57q-19.5 24.5 -49 39t-68.5 14.5z" />
<glyph unicode="&#80;" horiz-adv-x="651" d="M428 700q75 0 121 -16.5q46 -16.5 72 -43q26 -26.5 35 -58.5q9 -32 9 -62q0 -36 -14 -76.5q-14 -40.5 -52.5 -75q-38.5 -34.5 -105.5 -57q-67 -22.5 -173 -22.5q-20 0 -39 2q-19 2 -39 4l-57 -212q-2 -7 -5 -19q-3 -12 -3 -20q0 -4 4.5 -10.5q4.5 -6.5 22.5 -6.5h23l-7 -27h-192l7 27q34 0 47.5 13q13.5 13 21.5 43l143 534q1 4 4 14.5q3 10.5 4 17.5l0 8q0 3 -1 5.5q-1 2.5 -5.5 5q-4.5 2.5 -13.5 4q-9 1.5 -26 1.5h-7l7 27zM254 336q17 -2 32.5 -3.5q15.5 -1.5 32.5 -1.5q84 0 134.5 23q50.5 23 77 54.5q26.5 31.5 34.5 63.5q8 32 8 51q0 47 -18.5 73.5q-18.5 26.5 -43 40q-24.5 13.5 -49.5 17.5q-25 4 -38 4q-8 0 -15.5 0.5q-7.5 0.5 -15.5 -0.5q-18 -1 -29 -3.5q-11 -2.5 -18 -8.5q-7 -6 -11.5 -17q-4.5 -11 -9.5 -29z" />
<glyph unicode="&#81;" horiz-adv-x="758" d="M631 -86q-24 -26 -51.5 -43q-27.5 -17 -65.5 -17q-50 0 -87.5 33q-37.5 33 -60.5 100q-8 -2 -15.5 -2q-7.5 0 -15.5 0q-9 0 -31 3q-22 3 -50 12q-28 9 -58 27.5q-30 18.5 -55 48.5q-25 30 -41 75q-16 45 -16 108q0 56 13.5 106.5q13.5 50.5 34 94q20.5 43.5 44.5 78.5q24 35 46 59q38 42 75 65.5q37 23.5 70.5 35q33.5 11.5 61 14q27.5 2.5 45.5 2.5q55 0 100.5 -19q45.5 -19 77.5 -52q32 -33 49.5 -78.5q17.5 -45.5 17.5 -98.5q0 -67 -19 -139q-19 -72 -55.5 -136.5q-36.5 -64.5 -89.5 -115q-53 -50.5 -121 -74.5q8 -21 16.5 -40q8.5 -19 19 -33.5q10.5 -14.5 24 -23q13.5 -8.5 30.5 -8.5q23 0 42 11.5q19 11.5 40 30.5zM247 188q38 1 64.5 -7.5q26.5 -8.5 46 -26q19.5 -17.5 33.5 -44.5q14 -27 26 -62q52 27 92.5 80.5q40.5 53.5 68 117q27.5 63.5 41.5 129.5q14 66 14 118q0 45 -12.5 78.5q-12.5 33.5 -33.5 56q-21 22.5 -49.5 33.5q-28.5 11 -61.5 11q-79 0 -132 -42q-53 -42 -94 -120q-15 -29 -29.5 -64.5q-14.5 -35.5 -25 -74q-10.5 -38.5 -17 -78.5q-6.5 -40 -6.5 -79q0 -45 12.5 -80q12.5 -35 34.5 -59q22 -24 51.5 -36q29.5 -12 63.5 -12q5 0 9 0q4 0 9 1q-7 33 -14 57q-7 24 -18.5 39q-11.5 15 -28.5 22.5q-17 7.5 -44 9.5z" />
<glyph unicode="&#82;" horiz-adv-x="683" d="M405 700q81 0 131.5 -17.5q50.5 -17.5 78 -45.5q27.5 -28 37.5 -63q10 -35 10 -69q0 -61 -25 -100q-25 -39 -61 -62q-36 -23 -75.5 -33q-39.5 -10 -68.5 -13l76 -162q7 -15 16 -34q9 -19 20 -35.5q11 -16.5 25.5 -27.5q14.5 -11 33.5 -11h14l-7 -27h-203l7 27h23q7 0 15 4q8 4 8 15q0 6 -4.5 20q-4.5 14 -21.5 49l-89 182q-12 -1 -24 -1q-12 0 -24 0q-14 0 -26.5 0q-12.5 0 -26.5 1l-59 -214q-5 -16 -6 -22q-1 -6 -1 -10v-7q0 -5 4 -11q4 -6 22 -6h23l-6 -27h-193l7 27q34 0 47.5 13q13.5 13 21.5 43l143 534q4 13 6.5 24q2.5 11 2.5 16q0 6 -4.5 9q-4.5 3 -11.5 4.5q-7 1.5 -15.5 2q-8.5 0.5 -15.5 0.5h-7l7 27zM296 339q60 0 111 7.5q51 7.5 89 27.5q38 20 59.5 55.5q21.5 35.5 21.5 91.5q0 13 -4 36q-4 23 -22.5 45.5q-18.5 22.5 -56 39q-37.5 16.5 -104.5 16.5q-20 0 -31.5 -4q-11.5 -4 -18 -11.5q-6.5 -7.5 -10 -18.5q-3.5 -11 -6.5 -24l-69 -261z" />
<glyph unicode="&#83;" horiz-adv-x="620" d="M524 516q0 28 -9 56q-9 28 -28.5 50.5q-19.5 22.5 -49 36q-29.5 13.5 -68.5 13.5q-39 0 -65 -11q-26 -11 -41.5 -27q-15.5 -16 -22 -34.5q-6.5 -18.5 -6.5 -32.5q0 -30 17 -55.5q17 -25.5 44 -49q27 -23.5 59.5 -45.5q32.5 -22 62.5 -44q30 -21 53.5 -43q23.5 -22 40.5 -45.5q17 -23.5 26 -49.5q9 -26 9 -57q0 -48 -23 -84q-23 -36 -61.5 -60q-38.5 -24 -88.5 -36q-50 -12 -103 -12q-66 0 -125.5 21q-59.5 21 -109.5 57l33 133h24q2 -37 17 -68.5q15 -31.5 40.5 -54.5q25.5 -23 60 -36q34.5 -13 75.5 -13q32 0 63.5 8.5q31.5 8.5 56 25q24.5 16.5 39.5 40.5q15 24 15 54q0 27 -8.5 47q-8.5 20 -27.5 40.5q-19 20.5 -49 43.5q-30 23 -73 55q-33 24 -59.5 47.5q-26.5 23.5 -45.5 47.5q-19 24 -29.5 50.5q-10.5 26.5 -10.5 58.5q0 32 14 63q14 31 41.5 55q27.5 24 70 38.5q42.5 14.5 99.5 14.5q66 0 115.5 -20q49.5 -20 84.5 -46l-32 -132z" />
<glyph unicode="&#84;" horiz-adv-x="644" d="M344 0h-192l7 27q35 1 48 12q13 11 21 43l140 525q2 7 3.5 16q1.5 9 -1 17q-2.5 8 -11.5 13q-9 5 -29 5q-37 0 -67.5 -12q-30.5 -12 -54 -30q-23.5 -18 -41 -39q-17.5 -21 -29.5 -39l-26 0l69 162h491l-15 -162h-26q-10 29 -20.5 51.5q-10.5 22.5 -24.5 37.5q-14 15 -33 23q-19 8 -46 8q-20 0 -31 -5.5q-11 -5.5 -16 -14.5q-5 -9 -7.5 -20.5q-2.5 -11.5 -5.5 -24.5l-138 -511q-2 -7 -5 -21q-3 -14 -3 -17q0 -11 8 -14q8 -3 19 -3l23 0z" />
<glyph unicode="&#85;" horiz-adv-x="832" d="M402 673q-33 2 -51.5 -19q-18.5 -21 -28.5 -59l-87 -322q-2 -8 -5 -21q-3 -13 -5.5 -28q-2.5 -15 -4.5 -30.5q-2 -15.5 -2 -28.5q0 -35 12 -60.5q12 -25.5 33 -42.5q21 -17 50 -25.5q29 -8.5 63 -8.5q43 0 78 13.5q35 13.5 63.5 45.5q28.5 32 52 84q23.5 52 43.5 129l70 270q8 29 10 42q2 13 2 22q0 23 -15 31q-15 8 -40 8l7 27h164l-7 -27h-8q-21 0 -33.5 -11q-12.5 -11 -20.5 -28q-8 -17 -13 -39q-5 -22 -10 -43l-52 -207q-9 -37 -18 -74q-9 -37 -21 -72q-12 -35 -28 -67.5q-16 -32.5 -39 -59.5q-22 -26 -46 -42q-24 -16 -48 -25.5q-24 -9.5 -46.5 -13.5q-22.5 -4 -41.5 -5l-18 0q-11 0 -32 2q-21 2 -45.5 8.5q-24.5 6.5 -50 18.5q-25.5 12 -46.5 32q-21 20 -34 50q-13 30 -13 73q0 14 3.5 41q3.5 27 15.5 72l82 315q2 5 5 20q3 15 3 22q0 22 -16 26.5q-16 4.5 -36 6.5l6 27l206 0z" />
<glyph unicode="&#86;" horiz-adv-x="694" d="M340 87l271 481q4 6 9 15.5q5 9.5 10 20q5 10.5 8.5 20.5q3.5 10 3.5 17q0 12 -5 18.5q-5 6.5 -11.5 9.5q-6.5 3 -14 3.5q-7.5 0.5 -12.5 0.5h-12l7 27h170l-6 -27q-20 -3 -34.5 -11.5q-14.5 -8.5 -26 -21q-11.5 -12.5 -20.5 -28q-9 -15.5 -18 -31.5l-341 -595h-57l-44 600q-2 26 -6 43q-4 17 -12 26.5q-8 9.5 -22.5 13.5q-14.5 4 -36.5 4l7 27h205l-6 -27q-23 0 -34 -6.5q-11 -6.5 -15 -15.5q-4 -9 -3.5 -19.5q0.5 -10.5 1.5 -19.5l39 -525z" />
<glyph unicode="&#87;" horiz-adv-x="970" d="M562 402l116 188q17 28 20.5 38q3.5 10 3.5 19q0 17 -16 21.5q-16 4.5 -28 4.5h-11l7 27h180l-7 -27q-26 -2 -43.5 -11.5q-17.5 -9.5 -30.5 -23q-13 -13.5 -23.5 -30.5q-10.5 -17 -20.5 -34l-143 -231l24 -254h5l306 494q19 31 22.5 44.5q3.5 13.5 3.5 16.5q0 11 -6 17q-6 6 -14.5 8.5q-8.5 2.5 -16.5 3q-8 0.5 -11 0.5h-9l7 27h163l-7 -27q-21 -8 -35.5 -18q-14.5 -10 -25.5 -23q-11 -13 -20.5 -28.5q-9.5 -15.5 -20.5 -33.5l-365 -584h-41l-28 250h-7l-156 -250h-48l-70 614q-2 18 -4.5 31.5q-2.5 13.5 -10 22.5q-7.5 9 -22 14q-14.5 5 -39.5 5l6 27h205l-7 -27q-31 -2 -41 -10.5q-10 -8.5 -10 -35.5q0 -6 0.5 -13q0.5 -7 2.5 -20l54 -505h5l135 207l-36 301q-2 15 -4.5 28q-2.5 13 -10 23.5q-7.5 10.5 -20.5 17q-13 6.5 -36 7.5l7 27h200l-7 -27q-10 -3 -19 -4.5q-9 -1.5 -16 -5q-7 -3.5 -11.5 -10.5q-4.5 -7 -4.5 -20q0 -4 0.5 -8q0.5 -4 1.5 -12l22 -211z" />
<glyph unicode="&#88;" horiz-adv-x="669" d="M391 673q-5 0 -13 -0.5q-8 -0.5 -15.5 -3.5q-7.5 -3 -12.5 -10q-5 -7 -5 -19q0 -6 1.5 -14.5q1.5 -8.5 6.5 -25.5l48 -168h7l135 171q17 22 25 34q8 12 8 20q0 8 -8.5 12q-8.5 4 -18.5 4h-21l7 27h176l-8 -27q-34 -3 -48.5 -12q-14.5 -9 -22.5 -15q-8 -6 -13.5 -11.5q-5.5 -5.5 -12.5 -13q-7 -7.5 -15.5 -18q-8.5 -10.5 -22.5 -28.5l-145 -186l87 -298q5 -19 14.5 -30.5q9.5 -11.5 21.5 -18.5q12 -7 27.5 -10q15.5 -3 32.5 -5l-7 -27h-225l6 27q9 -1 19.5 1q10.5 2 18.5 8q8 6 11.5 16q3.5 10 -0.5 25l-74 242h-5l-155 -199q-36 -47 -36 -68q0 -2 0.5 -5.5q0.5 -3.5 4 -7q3.5 -3.5 11.5 -7.5q8 -4 23 -5l-7 -27h-191l5 27q40 4 76 30.5q36 26.5 81 84.5l174 222l-67 227q-6 21 -13 36.5q-7 15.5 -17.5 25.5q-10.5 10 -26.5 15q-16 5 -39 5l7 27l218 0z" />
<glyph unicode="&#89;" horiz-adv-x="649" d="M209 604q-8 32 -26 49.5q-18 17.5 -57 19.5l6 27h205l-7 -27q-25 -3 -38 -5.5q-13 -2.5 -13 -21.5q0 -5 2.5 -16q2.5 -11 3.5 -15l67 -254h10l151 220q4 6 11 15q7 9 14.5 19.5q7.5 10.5 13 21q5.5 10.5 5.5 18.5q0 12 -13 15q-13 3 -25 3h-8l7 27h159l-7 -27q-20 -5 -33.5 -12.5q-13.5 -7.5 -23.5 -16.5q-10 -9 -17 -19.5q-7 -10.5 -14 -20.5l-212 -303l-59 -218q-2 -5 -4 -13q-2 -8 -4 -19l0 -7q1 -6 5.5 -11.5q4.5 -5.5 20.5 -5.5h24l-7 -27h-192l7 27q21 0 33 5q12 5 19 13q7 8 10 18q3 10 6 20l59 218z" />
<glyph unicode="&#90;" horiz-adv-x="700" d="M541 0h-513l531 658q-35 3 -69 3q-33 0 -72 -3q-39 -3 -78 -14q-39 -11 -75 -33.5q-36 -22.5 -62 -61.5l-28 -2l91 153h434l-529 -658q18 0 36 -0.5q18 -0.5 36 -0.5q23 0 44.5 -0.5q21.5 -0.5 44.5 0.5q45 1 80.5 4.5q35.5 3.5 66 16q30.5 12.5 59 36q28.5 23.5 58.5 63.5l28 0z" />
<glyph unicode="&#91;" horiz-adv-x="526" d="M476 818l-7 -26q-18 0 -29.5 -2.5q-11.5 -2.5 -19.5 -8.5q-8 -6 -13.5 -17.5q-5.5 -11.5 -10.5 -29.5l-217 -768q-5 -15 -7 -22q-2 -7 -3 -13q0 -2 -0.5 -4.5q-0.5 -2.5 0.5 -4.5q2 -10 14.5 -12q12.5 -2 35.5 -2l-7 -26h-128l264 936z" />
<glyph unicode="&#92;" horiz-adv-x="781" d="M126 820l40 21l489 -963l-39 -19z" />
<glyph unicode="&#93;" horiz-adv-x="526" d="M84 -118l7 26q18 0 30 2.5q12 2.5 20 9q8 6.5 13 17.5q5 11 10 29l217 768q5 15 7 22q2 7 3 13q0 2 0.5 4.5q0.5 2.5 -0.5 4.5q-2 10 -14.5 12q-12.5 2 -35.5 2l7 26h128l-264 -936z" />
<glyph unicode="&#94;" horiz-adv-x="398" d="M325 538q-18 10 -33 19.5q-15 9.5 -29.5 20q-14.5 10.5 -29.5 22.5q-15 12 -34 26q-35 -29 -64 -50q-29 -21 -61 -38l-15 18q20 13 39.5 30.5q19.5 17.5 37 37q17.5 19.5 31 39.5q13.5 20 22.5 37l21 0q20 -40 54.5 -80q34.5 -40 74.5 -63z" />
<glyph unicode="&#95;" horiz-adv-x="532" d="M0 0h532v-70l-532 0z" />
<glyph unicode="&#96;" horiz-adv-x="294" d="M235 672l45 -141h-20l-148 141z" />
<glyph unicode="&#97;" horiz-adv-x="555" d="M513 109q-19 -24 -37.5 -46q-18.5 -22 -36.5 -38.5q-18 -16.5 -35.5 -26q-17.5 -9.5 -34.5 -9.5q-18 0 -29 5q-11 5 -16.5 13.5q-5.5 8.5 -7.5 19q-2 10.5 -2 21.5q0 14 3 28l4 16h-7q-59 -59 -102 -81q-43 -22 -75 -22q-18 0 -35 6q-17 6 -30.5 20.5q-13.5 14.5 -21.5 39q-8 24.5 -8 62.5q0 39 10 80.5q10 41.5 27.5 81q17.5 39.5 42 75q24.5 35.5 53 62q28.5 26.5 61 42q32.5 15.5 66.5 15.5q40 0 66.5 -18q26.5 -18 48.5 -56l5 0l33 74h28l-104 -388q-1 -2 -3.5 -15q-2.5 -13 -2.5 -21q0 -13 17 -13q10 0 19.5 5.5q9.5 5.5 21 16.5q11.5 11 26 27.5q14.5 16.5 35.5 39.5zM381 322q6 23 3 44q-3 21 -14 36.5q-11 15.5 -29 25q-18 9.5 -40 9.5q-14 0 -29.5 -4q-15.5 -4 -32 -16.5q-16.5 -12.5 -34 -35q-17.5 -22.5 -34.5 -59.5q-9 -20 -19.5 -45.5q-10.5 -25.5 -18.5 -52.5q-8 -27 -13.5 -54q-5.5 -27 -5.5 -49q0 -22 5.5 -35.5q5.5 -13.5 14.5 -21q9 -7.5 20.5 -10.5q11.5 -3 22.5 -3q18 0 43.5 11q25.5 11 50 28q24.5 17 44 37q19.5 20 24.5 38z" />
<glyph unicode="&#98;" horiz-adv-x="493" d="M189 379h5q21 19 39.5 36.5q18.5 17.5 37 30q18.5 12.5 39 20q20.5 7.5 44.5 7.5q54 0 79 -37.5q25 -37.5 25 -96.5q0 -60 -23 -122q-23 -62 -61.5 -112.5q-38.5 -50.5 -88.5 -83q-50 -32.5 -105 -32.5q-58 0 -91 29q-33 29 -33 80q0 14 3.5 28q3.5 14 7.5 29l112 419q2 5 3 12.5q1 7.5 1 11.5q0 3 -1 8.5q-1 5.5 -6.5 10.5q-5.5 5 -17 7.5q-11.5 2.5 -31.5 -0.5l7 23q42 -3 66.5 15.5q24.5 18.5 47.5 48.5l30 0zM128 156q-6 -21 -8.5 -39.5q-2.5 -18.5 -2.5 -35.5q0 -16 6 -26.5q6 -10.5 15.5 -17q9.5 -6.5 21 -9.5q11.5 -3 22.5 -3q44 0 86.5 40.5q42.5 40.5 74.5 123.5q9 22 16 41q7 19 12.5 37.5q5.5 18.5 8.5 37q3 18.5 3 40.5q0 23 -5.5 38q-5.5 15 -13.5 24q-8 9 -18 12.5q-10 3.5 -20 3.5q-17 0 -39 -12.5q-22 -12.5 -44 -30.5q-22 -18 -41.5 -36.5q-19.5 -18.5 -30.5 -30.5z" />
<glyph unicode="&#99;" horiz-adv-x="465" d="M400 329h-25v30q0 7 -2 20.5q-2 13.5 -9.5 27q-7.5 13.5 -22.5 23.5q-15 10 -42 10q-23 0 -45.5 -14.5q-22.5 -14.5 -43 -38q-20.5 -23.5 -38 -55q-17.5 -31.5 -30.5 -65.5q-13 -34 -20 -68.5q-7 -34.5 -7 -64.5q0 -52 22 -76.5q22 -24.5 62 -24.5q27 0 52.5 11q25.5 11 47.5 28q22 17 40.5 37q18.5 20 31.5 38h27q-32 -61 -62.5 -88q-30.5 -27 -59.5 -42.5q-29 -15.5 -56.5 -21.5q-27.5 -6 -53.5 -6q-44 0 -69 14q-25 14 -37 33.5q-12 19.5 -15 39q-3 19.5 -3 30.5q0 59 21 124q21 65 57.5 119q36.5 54 86.5 89q50 35 108 35q25 0 55.5 -6.5q30.5 -6.5 63.5 -26.5z" />
<glyph unicode="&#100;" horiz-adv-x="588" d="M508 109q-47 -61 -80 -90.5q-33 -29.5 -65 -29.5q-26 0 -40 15.5q-14 15.5 -14 43.5q0 8 2.5 19q2.5 11 4.5 18l-6 0q-44 -53 -84 -74.5q-40 -21.5 -83 -21.5q-36 0 -56.5 12.5q-20.5 12.5 -30.5 29.5q-10 17 -12 34.5q-2 17.5 -2 27.5q0 38 9.5 81q9.5 43 27.5 85.5q18 42.5 43 81.5q25 39 56 68.5q31 29.5 66.5 47q35.5 17.5 74.5 17.5q27 0 49.5 -11q22.5 -11 33.5 -34l5 0l38 145q2 7 3.5 11.5q1.5 4.5 1.5 12.5q0 3 -1 8.5q-1 5.5 -6.5 10.5q-5.5 5 -16.5 7.5q-11 2.5 -32 -0.5l7 23q22 -1 37.5 3q15.5 4 28.5 12.5q13 8.5 24 21q11 12.5 24 27.5l31 0l-170 -626q-2 -5 -4.5 -16q-2.5 -11 -2.5 -16q0 -8 3.5 -12q3.5 -4 6.5 -5q4 -2 9 0q10 2 18.5 7q8.5 5 19 15.5q10.5 10.5 24.5 26.5q14 16 37 40zM381 330q3 10 6 19q3 9 3 19q0 68 -73 68q-29 0 -55.5 -16.5q-26.5 -16.5 -49 -44q-22.5 -27.5 -41 -62q-18.5 -34.5 -31 -71q-12.5 -36.5 -19.5 -71.5q-7 -35 -7 -63q0 -5 1 -16.5q1 -11.5 7 -23.5q6 -12 18 -21.5q12 -9.5 34 -9.5q25 0 49 12.5q24 12.5 44.5 30.5q20.5 18 37.5 39.5q17 21.5 28 39.5z" />
<glyph unicode="&#101;" horiz-adv-x="466" d="M396 111q-15 -21 -37 -42.5q-22 -21.5 -49 -39q-27 -17.5 -59.5 -29q-32.5 -11.5 -68.5 -11.5q-67 0 -103.5 35q-36.5 35 -36.5 99q0 30 9 67.5q9 37.5 26.5 76.5q17.5 39 42 76q24.5 37 55.5 66q31 29 68 46.5q37 17.5 79 17.5q38 0 61 -12q23 -12 35 -29q12 -17 16 -36q4 -19 4 -32q0 -26 -16.5 -53q-16.5 -27 -54 -50q-37.5 -23 -98 -39.5q-60.5 -16.5 -147.5 -20.5q-5 -14 -6.5 -25.5q-1.5 -11.5 -2.5 -26.5l0 -29q1 -29 12 -46.5q11 -17.5 25 -26.5q14 -9 29 -12q15 -3 25 -3q25 0 50 9.5q25 9.5 47 24q22 14.5 41 31.5q19 17 33 33zM130 236q59 1 103.5 17q44.5 16 74.5 39q30 23 45.5 50.5q15.5 27.5 15.5 52.5q0 6 -3 14.5q-3 8.5 -11 16q-8 7.5 -21.5 13q-13.5 5.5 -33.5 5.5q-35 0 -63.5 -21q-28.5 -21 -49.5 -52.5q-21 -31.5 -35.5 -68t-21.5 -66.5z" />
<glyph unicode="&#102;" horiz-adv-x="377" d="M211 462q3 10 3 19q0 9 0 23q0 23 -1 36q-1 13 -2 21q-1 8 -2 14q-1 6 -1 14v28q1 33 11.5 54.5q10.5 21.5 25.5 34.5q15 13 33 18q18 5 35 5q32 0 55 -19q23 -19 23 -48q0 -20 -11.5 -28.5q-11.5 -8.5 -22.5 -8.5q-16 0 -24 11.5q-8 11.5 -14 23.5q-11 20 -22.5 25.5q-11.5 5.5 -18.5 5.5q-11 0 -24 -8.5q-13 -8.5 -13 -32.5q0 -7 1.5 -29.5q1.5 -22.5 15.5 -57.5q8 -20 15 -36.5q7 -16.5 7 -35.5q0 -19 -2 -29l91 0l-12 -39h-87l-153 -530q-3 -11 -4 -17.5q-1 -6.5 -1 -10.5q0 -20 18 -31.5q18 -11.5 41 -9.5l-8 -21q-17 -1 -54 -5.5q-37 -4.5 -88 -21.5l186 647h-83l11 39z" />
<glyph unicode="&#103;" horiz-adv-x="596" d="M154 159q-14 16 -29 45q-15 29 -15 71q0 34 14 69.5q14 35.5 40.5 64q26.5 28.5 64.5 46.5q38 18 86 18q39 0 65.5 -10.5q26.5 -10.5 45.5 -24.5q17 12 28.5 22.5q11.5 10.5 22 17.5q10.5 7 22 11q11.5 4 27.5 4q20 0 31 -9.5q11 -9.5 11 -25.5q0 -14 -8.5 -23q-8.5 -9 -22.5 -9q-8 0 -13.5 1q-5.5 1 -10.5 3q-4 2 -10 4q-6 2 -14 2q-11 0 -22 -8q-11 -8 -17 -16q19 -21 28.5 -52.5q9.5 -31.5 9.5 -60.5q0 -35 -14 -69q-14 -34 -40 -61q-26 -27 -63.5 -44q-37.5 -17 -83.5 -17q-24 0 -48.5 4.5q-24.5 4.5 -50.5 17.5q-8 -3 -18 -9q-10 -6 -19.5 -14.5q-9.5 -8.5 -16 -18q-6.5 -9.5 -6.5 -18.5q0 -9 8.5 -16.5q8.5 -7.5 28 -15q19.5 -7.5 50.5 -15.5q31 -8 76 -18q33 -8 64 -17q31 -9 54.5 -22q23.5 -13 38 -31.5q14.5 -18.5 14.5 -45.5q0 -18 -11 -38.5q-11 -20.5 -37.5 -37.5q-26.5 -17 -72 -28.5q-45.5 -11.5 -114.5 -11.5q-71 0 -114.5 12q-43.5 12 -67 29.5q-23.5 17.5 -31 36.5q-7.5 19 -7.5 34q0 35 26 60.5q26 25.5 67 45.5l0 6q-17 8 -30.5 21.5q-13.5 13.5 -13.5 30.5q0 19 9 35q9 16 23.5 29q14.5 13 31.5 23.5q17 10.5 34 18.5zM143 -22q-36 -20 -56.5 -46.5q-20.5 -26.5 -20.5 -47.5q0 -11 6 -24q6 -13 24 -24q18 -11 51 -19q33 -8 86 -8q34 0 64 4q30 4 51.5 12.5q21.5 8.5 34 20.5q12.5 12 12.5 28q0 20 -16.5 30q-16.5 10 -54.5 21zM183 237q0 -32 9.5 -50.5q9.5 -18.5 23.5 -28.5q14 -10 30 -13q16 -3 29 -3q28 0 53.5 16q25.5 16 44.5 44q19 28 30 64.5q11 36.5 11 78.5q0 25 -7.5 43q-7.5 18 -20 29.5q-12.5 11.5 -28 16.5q-15.5 5 -31.5 5q-30 0 -56.5 -16q-26.5 -16 -46 -44q-19.5 -28 -30.5 -64.5t-11 -77.5z" />
<glyph unicode="&#104;" horiz-adv-x="548" d="M28 0l152 574q1 2 3 11q2 9 2 13q0 11 -6.5 17q-6.5 6 -15.5 8q-9 2 -19 2q-10 0 -16 -1l8 23q39 -2 63 14.5q24 16.5 50 49.5l30 0l-101 -378h5q75 64 129 102q54 38 98 38q21 0 36 -15q15 -15 15 -53q0 -7 -1.5 -13q-1.5 -6 -3.5 -12l-81 -295q-2 -5 -4.5 -16q-2.5 -11 -2.5 -16q0 -8 3.5 -12q3.5 -4 5.5 -5q4 -2 9 0q5 1 12.5 4.5q7.5 3.5 18.5 13q11 9.5 27.5 26.5q16.5 17 40.5 45l21 -16q-47 -61 -80 -90.5q-33 -29.5 -65 -29.5q-26 0 -40 15.5q-14 15.5 -14 43.5q0 6 1.5 14q1.5 8 5.5 23q1 4 2.5 10.5q1.5 6.5 7.5 27.5l69 261q1 3 1 6q0 3 1 6q1 5 1.5 9q0.5 4 -1.5 8q-2 5 -6.5 9q-4.5 4 -12.5 4q-10 0 -28 -10q-18 -10 -40 -26q-22 -16 -45 -35q-23 -19 -44 -36.5q-21 -17.5 -36.5 -32q-15.5 -14.5 -22.5 -20.5l-70 -266z" />
<glyph unicode="&#105;" horiz-adv-x="313" d="M174 623q0 26 17 37.5q17 11.5 31 11.5q16 0 32.5 -11.5q16.5 -11.5 16.5 -37.5q0 -24 -15.5 -36.5q-15.5 -12.5 -32.5 -12.5q-17 0 -33 13q-16 13 -16 36zt0 0zM129 336q1 2 3 11q2 9 2 13q0 11 -6.5 17q-6.5 6 -15.5 8q-9 2 -19 2q-10 0 -16 -1l8 23q39 -2 63 14.5q24 16.5 50 49.5l30 0l-105 -388q-2 -5 -4.5 -16q-2.5 -11 -2.5 -16q0 -8 3.5 -12q3.5 -4 5.5 -5q5 -2 10 0q6 1 13.5 4.5q7.5 3.5 18 13q10.5 9.5 26.5 26q16 16.5 40 45.5l21 -16q-47 -61 -80 -90.5q-33 -29.5 -64 -29.5q-18 0 -29 6.5q-11 6.5 -16.5 16q-5.5 9.5 -7 19.5q-1.5 10 -1.5 17q0 6 2.5 19q2.5 13 3.5 18q1 5 3 11.5q2 6.5 7 26.5z" />
<glyph unicode="&#106;" horiz-adv-x="317" d="M143 22q-5 -19 -8 -45.5q-3 -26.5 -7 -55q-4 -28.5 -10 -56.5q-6 -28 -17 -50.5q-11 -22.5 -29 -36q-18 -13.5 -46 -13.5q-23 0 -35 13q-12 13 -12 26q0 2 1 8.5q1 6.5 4.5 14q3.5 7.5 11 13q7.5 5.5 21.5 5.5q12 0 19 -4.5q7 -4.5 13 -8.5q8 -5 13 -6.5q5 -1.5 7 -1.5q10 0 15.5 9.5q5.5 9.5 5.5 23.5q0 5 -1.5 16q-1.5 11 -2.5 14q-2 8 -3.5 13q-1.5 5 -3.5 11q-2 6 -3 14.5q-1 8.5 -1 22.5q0 14 1 37q1 23 11 58l78 293q1 2 3 11q2 9 2 13q0 11 -6.5 17q-6.5 6 -15.5 8q-9 2 -19 2q-10 0 -16 -1l8 23q39 -2 63 14.5q24 16.5 50 49.5l30 0zM205 623q0 26 17 37.5q17 11.5 31 11.5q20 0 35 -14.5q15 -14.5 15 -34.5q0 -20 -14.5 -34.5q-14.5 -14.5 -34.5 -14.5q-17 0 -33 13t-16 36z" />
<glyph unicode="&#107;" horiz-adv-x="515" d="M28 0l153 574q1 5 3 10.5q2 5.5 2 13.5q0 11 -6 16.5q-6 5.5 -15 8q-9 2.5 -18.5 2.5q-9.5 0 -16.5 -1v23q28 -1 44 3q16 4 29 12.5q13 8.5 24 21q11 12.5 23 27.5l30 0l-78 -292h5q18 9 40.5 18.5q22.5 9.5 46 17.5q23.5 8 46.5 13q23 5 42 5q41 0 61 -22.5q20 -22.5 20 -59.5q0 -35 -15.5 -62q-15.5 -27 -40 -47q-24.5 -20 -55 -35.5q-30.5 -15.5 -60.5 -27.5l31 -113q2 -8 4.5 -19q2.5 -11 6 -21q3.5 -10 10 -17q6.5 -7 17.5 -7q9 0 19.5 7.5q10.5 7.5 22 19q11.5 11.5 24.5 26.5q13 15 27 30l19 -19q-26 -33 -46 -55.5q-20 -22.5 -36.5 -36q-16.5 -13.5 -30 -19.5q-13.5 -6 -26.5 -6q-32 0 -46.5 22.5q-14.5 22.5 -23.5 57.5l-35 134q-19 -5 -42 -9.5q-23 -4.5 -48 -5.5l-50 -188zM147 217q43 5 86.5 18.5q43.5 13.5 78 34q34.5 20.5 56.5 48q22 27.5 22 60.5q0 16 -5 26.5q-5 10.5 -12.5 16.5q-7.5 6 -17 8q-9.5 2 -17.5 2q-13 0 -32.5 -5.5q-19.5 -5.5 -40.5 -14q-21 -8.5 -41 -17.5q-20 -9 -33 -16z" />
<glyph unicode="&#108;" horiz-adv-x="319" d="M192 574q1 4 2.5 12q1.5 8 1.5 12q0 10 -5.5 16q-5.5 6 -14 8.5q-8.5 2.5 -18 2.5q-9.5 0 -18.5 -1l7 23q42 -3 66.5 15.5q24.5 18.5 47.5 48.5l30 0l-168 -626q-2 -5 -4.5 -16q-2.5 -11 -2.5 -16q0 -8 3.5 -12q3.5 -4 5.5 -5q5 -2 10 0q6 1 13.5 4.5q7.5 3.5 18 13q10.5 9.5 26.5 26q16 16.5 40 45.5l21 -16q-47 -61 -80 -90.5q-33 -29.5 -64 -29.5q-26 0 -39 13.5q-13 13.5 -15 27.5q-1 5 -0.5 9q0.5 4 0.5 9q1 11 1.5 17q0.5 6 4.5 20z" />
<glyph unicode="&#109;" horiz-adv-x="784" d="M253 473l-40 -134h7q14 15 37 38q23 23 49 44.5q26 21.5 52.5 36.5q26.5 15 48.5 15q23 0 40.5 -14.5q17.5 -14.5 17.5 -45.5q0 -3 -1 -9q-1 -6 -2.5 -13q-1.5 -7 -3 -14q-1.5 -7 -2.5 -11l-7 -27h5q34 41 61 67q27 26 49.5 41q22.5 15 41 20.5q18.5 5.5 34.5 5.5q29 0 44 -16q15 -16 15 -36q0 -3 -1 -15q-1 -12 -9 -40l-78 -281q-2 -5 -4.5 -16q-2.5 -11 -2.5 -16q0 -8 3.5 -12q3.5 -4 5.5 -5q2 -1 3 -0.5q1 0.5 3 0.5q7 1 14 3.5q7 2.5 18 11.5q11 9 27.5 26.5q16.5 17.5 42.5 47.5l21 -16q-15 -20 -31.5 -41q-16.5 -21 -34.5 -38.5q-18 -17.5 -37.5 -29q-19.5 -11.5 -40.5 -11.5q-32 0 -43 19q-11 19 -11 40q0 6 2.5 19q2.5 13 3.5 18q1 4 2.5 10q1.5 6 7.5 28l66 245q1 4 3.5 16q2.5 12 2.5 16q0 14 -9.5 18.5q-9.5 4.5 -14.5 4.5q-11 0 -28 -12.5q-17 -12.5 -33.5 -28q-16.5 -15.5 -29.5 -29.5q-13 -14 -16 -17q-35 -38 -57 -67q-22 -29 -30 -60l-58 -209h-62l98 368q2 9 4 16.5q2 7.5 2 15.5q0 8 -3.5 15.5q-3.5 7.5 -15.5 7.5q-13 0 -34.5 -15q-21.5 -15 -64.5 -56q-45 -44 -69 -74q-24 -30 -32 -59l-61 -219h-62l90 336q1 2 3 11q2 9 2 13q0 11 -6.5 17q-6.5 6 -15.5 8q-9 2 -19 2q-10 0 -16 -1l8 23q39 -2 63 14.5q24 16.5 50 49.5z" />
<glyph unicode="&#110;" horiz-adv-x="573" d="M214 341q42 37 73.5 62.5q31.5 25.5 56 41q24.5 15.5 45 22q20.5 6.5 40.5 6.5q22 0 34 -7.5q12 -7.5 17.5 -17.5q5.5 -10 6 -20q0.5 -10 0.5 -15q0 -7 -2 -18.5q-2 -11.5 -7 -28.5l-79 -281q-2 -5 -4.5 -16q-2.5 -11 -2.5 -16q0 -8 3.5 -12q3.5 -4 6.5 -5q4 -2 9 0q10 2 18.5 7q8.5 5 19 15.5q10.5 10.5 24.5 26.5q14 16 37 40l21 -16q-47 -61 -80 -90.5q-33 -29.5 -65 -29.5q-26 0 -40 15.5q-14 15.5 -14 43.5q0 10 3 21.5q3 11.5 4 15.5l75 283q2 8 4 15q2 7 2 17q0 6 -3 16q-3 10 -21 10q-18 0 -46 -18q-28 -18 -58 -43q-30 -25 -57.5 -51q-27.5 -26 -43.5 -42l-74 -272h-61l90 336q2 5 3 12.5q1 7.5 1 11.5q0 3 -1 8.5q-1 5.5 -6.5 10.5q-5.5 5 -17 7.5q-11.5 2.5 -31.5 -0.5l7 23q42 -3 66.5 15.5q24.5 18.5 47.5 48.5l30 0l-36 -134z" />
<glyph unicode="&#111;" horiz-adv-x="516" d="M306 473q42 0 74.5 -13.5q32.5 -13.5 55 -37.5q22.5 -24 34 -56.5q11.5 -32.5 11.5 -69.5q0 -20 -3.5 -45.5q-3.5 -25.5 -12 -54q-8.5 -28.5 -23.5 -58q-15 -29.5 -39 -56.5q-24 -28 -49.5 -46q-25.5 -18 -50 -28.5q-24.5 -10.5 -47.5 -14.5q-23 -4 -44 -4q-35 0 -66 11.5q-31 11.5 -54 34q-23 22.5 -36.5 55.5q-13.5 33 -13.5 75q0 28 7.5 59.5q7.5 31.5 20.5 62.5q13 31 31 60q18 29 40 51q25 25 49 40q24 15 45.5 23q21.5 8 39.5 10q18 2 31 2zt0 0zM307 437q-41 0 -75.5 -26.5q-34.5 -26.5 -60.5 -68q-26 -41.5 -42 -91.5q-16 -50 -19 -97q-2 -19 0 -37q3 -29 14.5 -47q11.5 -18 27 -28q15.5 -10 32 -13.5q16.5 -3.5 28.5 -3.5q39 0 75 26q36 26 64.5 68.5q28.5 42.5 45.5 96.5q17 54 17 111q0 39 -13.5 61.5q-13.5 22.5 -31 33q-17.5 10.5 -35.5 13t-27 2.5z" />
<glyph unicode="&#112;" horiz-adv-x="545" d="M147 336q1 4 2.5 11.5q1.5 7.5 1.5 12.5q0 12 -7 18q-7 6 -16 8q-9 2 -18.5 1.5q-9.5 -0.5 -13.5 -1.5l7 23q40 -2 65 16q25 18 48 48l30 0l-25 -91h6q13 16 31 32.5q18 16.5 38.5 29.5q20.5 13 42.5 21q22 8 45 8q23 0 43.5 -8q20.5 -8 35.5 -24.5q15 -16.5 24 -41q9 -24.5 9 -57.5q0 -54 -20 -115.5q-20 -61.5 -53.5 -114.5q-33.5 -53 -78.5 -88q-45 -35 -94 -35q-43 0 -69.5 22.5q-26.5 22.5 -39.5 48.5l-5 0l-44 -167q-2 -8 -3.5 -14q-1.5 -6 -1.5 -14q0 -23 19 -33q19 -10 40 -8l-6 -21q-21 -1 -57.5 -5.5q-36.5 -4.5 -83.5 -21.5zM160 150q-6 -23 -0.5 -45.5q5.5 -22.5 18 -40q12.5 -17.5 31 -28.5q18.5 -11 39.5 -11q26 0 49.5 17q23.5 17 43 45q19.5 28 35.5 63q16 35 27 71q11 36 17 70q6 34 6 59q0 8 -1.5 20.5q-1.5 12.5 -8.5 24.5q-7 12 -20 21q-13 9 -37 9q-22 0 -48.5 -14.5q-26.5 -14.5 -50.5 -34.5q-24 -20 -41.5 -41q-17.5 -21 -20.5 -35z" />
<glyph unicode="&#113;" horiz-adv-x="528" d="M324 -107q-1 -4 -2.5 -14q-1.5 -10 -1.5 -14q0 -20 17.5 -31.5q17.5 -11.5 40.5 -9.5l-6 -21q-17 -1 -53 -5.5q-36 -4.5 -87 -21.5l79 299h-5q-11 -12 -27.5 -27q-16.5 -15 -37.5 -28q-21 -13 -46 -22q-25 -9 -52 -9q-45 0 -73 26.5q-28 26.5 -28 77.5q0 39 10 82.5q10 43.5 28.5 85.5q18.5 42 43.5 80.5q25 38.5 55.5 67.5q30.5 29 64.5 46.5q34 17.5 71 17.5q30 0 57 -12.5q27 -12.5 45 -33.5l5 0l27 46h30zM377 321q5 18 7.5 30q2.5 12 2.5 22q0 33 -21 48.5q-21 15.5 -49 15.5q-40 0 -76.5 -33.5q-36.5 -33.5 -64.5 -83.5q-28 -50 -44.5 -107.5q-16.5 -57.5 -16.5 -104.5q0 -22 6.5 -36q6.5 -14 16 -22q9.5 -8 20.5 -11q11 -3 20 -3q20 0 45 13q25 13 49 34q24 21 42.5 47q18.5 26 25.5 52z" />
<glyph unicode="&#114;" horiz-adv-x="401" d="M56 0l93 336q2 5 3.5 10.5q1.5 5.5 1.5 13.5q0 3 -1 8.5q-1 5.5 -7 10.5q-6 5 -18 7.5q-12 2.5 -33 -0.5l8 23q42 -2 67 14q25 16 51 50l30 0l-46 -161h8q20 41 53 82q6 8 16.5 21.5q10.5 13.5 25 26q14.5 12.5 31.5 22q17 9.5 36 9.5q26 0 37 -11.5q11 -11.5 11 -25.5q0 -21 -8 -27.5q-8 -6.5 -21.5 -7.5q-13.5 -1 -32.5 -1.5q-19 -0.5 -40 -8.5q-32 -12 -58.5 -41q-26.5 -29 -46.5 -63q-20 -34 -33.5 -67q-13.5 -33 -19.5 -54l-45 -166z" />
<glyph unicode="&#115;" horiz-adv-x="438" d="M337 333q3 19 -1.5 38q-4.5 19 -16.5 33.5q-12 14.5 -31 23.5q-19 9 -44 9q-42 0 -66 -20.5q-24 -20.5 -24 -51.5q0 -20 10 -36q10 -16 24.5 -28.5q14.5 -12.5 31.5 -22.5q17 -10 31 -19q45 -29 70.5 -59q25.5 -30 25.5 -72q0 -25 -9.5 -50q-9.5 -25 -29 -44.5q-19.5 -19.5 -50 -32q-30.5 -12.5 -72.5 -12.5q-38 0 -81.5 14.5q-43.5 14.5 -83.5 49.5l29 99h25q1 -38 12 -62.5q11 -24.5 27.5 -38.5q16.5 -14 35.5 -20q19 -6 36 -6q30 0 49 8.5q19 8.5 30.5 20.5q11.5 12 15.5 25.5q4 13.5 4 23.5q0 19 -9.5 35q-9.5 16 -23.5 29q-14 13 -29.5 23q-15.5 10 -26.5 17q-14 9 -30.5 21q-16.5 12 -30.5 27.5q-14 15.5 -23 36q-9 20.5 -9 46.5q0 24 8.5 48q8.5 24 26.5 43.5q18 19.5 45 31.5q27 12 64 12q33 0 67 -8.5q34 -8.5 82 -28.5l-34 -103z" />
<glyph unicode="&#116;" horiz-adv-x="356" d="M137 85q-4 -13 -5 -21q-1 -8 -1 -11q0 -14 9 -17q2 -1 4 -0.5q2 0.5 4 0.5q3 0 9.5 2.5q6.5 2.5 17.5 11q11 8.5 29 26q18 17.5 44 49.5l21 -16q-47 -61 -80 -90.5q-33 -29.5 -65 -29.5q-26 0 -40 15.5q-14 15.5 -14 43.5q0 10 2.5 18.5q2.5 8.5 4.5 18.5q1 5 1.5 7.5q0.5 2.5 1 5.5q0.5 3 2 8q1.5 5 4.5 17l86 315h-91l11 35h25q28 0 49.5 17.5q21.5 17.5 37.5 44q16 26.5 28 57.5q12 31 21 58l30 0l-47 -177h92l-10 -35l-85 0z" />
<glyph unicode="&#117;" horiz-adv-x="544" d="M365 85q-2 -5 -4.5 -16q-2.5 -11 -2.5 -16q0 -8 3.5 -12q3.5 -4 6.5 -5l6 0q16 2 30 10.5q14 8.5 26.5 21q12.5 12.5 25 27.5q12.5 15 25.5 30l21 -16q-47 -61 -80 -90.5q-33 -29.5 -64 -29.5q-26 0 -40.5 16q-14.5 16 -14.5 43q0 8 2 17q2 9 5 20q5 17 6.5 24q1.5 7 3.5 14l2 12h-4q-39 -36 -68 -63.5q-29 -27.5 -53 -46q-24 -18.5 -44.5 -27.5q-20.5 -9 -43.5 -9q-23 0 -38 8.5q-15 8.5 -15 29.5q0 13 1 28.5q1 15.5 8 41.5l63 239q2 5 3.5 10.5q1.5 5.5 1.5 13.5q0 11 -6 16.5q-6 5.5 -15 8q-9 2.5 -18.5 2.5q-9.5 0 -16.5 -1v23q46 -2 70 14.5q24 16.5 50 49.5l23 0l-100 -371q-2 -7 -3.5 -14q-1.5 -7 -3.5 -18q-2 -8 0 -16q3 -16 22 -16q12 0 29 8.5q17 8.5 41.5 27.5q24.5 19 57.5 50q33 31 77 77l70 261l56 0z" />
<glyph unicode="&#118;" horiz-adv-x="528" d="M295 454q-81 -93 -114.5 -159q-33.5 -66 -33.5 -111q0 -38 9.5 -63q9.5 -25 25 -40q15.5 -15 34 -21.5q18.5 -6.5 36.5 -6.5q34 0 62.5 20.5q28.5 20.5 48 52q19.5 31.5 30.5 70q11 38.5 11 73.5q0 23 -4.5 47.5q-4.5 24.5 -8.5 49.5q-4 23 -5 34q-1 11 -1 16q0 32 12 44.5q12 12.5 29 12.5q26 0 36 -25q10 -25 10 -60q0 -50 -14.5 -118.5q-14.5 -68.5 -48.5 -135.5q-26 -51 -53.5 -80q-27.5 -29 -54 -43.5q-26.5 -14.5 -50 -18q-23.5 -3.5 -41.5 -3.5q-35 0 -59 12.5q-24 12.5 -38.5 33q-14.5 20.5 -20.5 46.5q-6 26 -6 53q0 35 11 70q11 35 30 70q19 35 44 69.5q25 34.5 54 69.5l-6 0q-10 -5 -19.5 -6.5q-9.5 -1.5 -18.5 -1.5q-35 0 -48 5.5q-13 5.5 -24 5.5q-6 0 -10.5 -5q-4.5 -5 -4.5 -12q0 -7 2 -10q2 -3 4 -5q2 -2 4 -6.5q2 -4.5 2 -14.5q0 -7 -5 -13.5q-5 -6.5 -14 -6.5q-11 0 -17.5 8.5q-6.5 8.5 -6.5 21.5q0 14 8 29q8 15 21.5 28q13.5 13 32.5 21q19 8 42 8q18 0 38 -4q20 -4 33 -4q11 0 21 8.5q10 8.5 15 13.5z" />
<glyph unicode="&#119;" horiz-adv-x="758" d="M295 454q-55 -59 -85.5 -109.5q-30.5 -50.5 -45.5 -90q-15 -39.5 -18 -66.5q-3 -27 -3 -40q0 -47 31 -73q31 -26 75 -26q21 0 40 7q19 7 40 22q-12 26 -17 48.5q-5 22.5 -5 51.5q0 45 12.5 97q12.5 52 33.5 96q21 44 49.5 73q28.5 29 61.5 29q30 0 41.5 -26.5q11.5 -26.5 11.5 -61.5q0 -31 -7.5 -67.5q-7.5 -36.5 -23 -75q-15.5 -38.5 -39 -76q-23.5 -37.5 -56.5 -70.5q4 -7 11.5 -14q7.5 -7 18.5 -13q11 -6 26.5 -10q15.5 -4 37.5 -4q38 0 68 18q30 18 51 45.5q21 27.5 32 61.5q11 34 11 66q0 28 -3 48.5q-3 20.5 -7 38.5q-4 18 -7 37q-3 19 -3 45q0 19 3.5 30.5q3.5 11.5 9 17.5q5.5 6 11.5 8q6 2 11 2q13 0 21 -8q8 -8 12 -20.5q4 -12.5 5.5 -28.5q1.5 -16 1.5 -31q0 -24 -3.5 -53.5q-3.5 -29.5 -10 -59.5q-6.5 -30 -14.5 -58q-8 -28 -17 -49q-15 -35 -35.5 -67q-20.5 -32 -46.5 -56q-26 -24 -56.5 -38.5q-30.5 -14.5 -63.5 -14.5q-11 0 -25.5 3q-14.5 3 -29.5 10q-15 7 -29 18.5q-14 11.5 -26 28.5l-4 0q-30 -26 -69 -43q-39 -17 -70 -17q-17 0 -37.5 6.5q-20.5 6.5 -38 23q-17.5 16.5 -29.5 44.5q-12 28 -12 71q0 35 11.5 70q11.5 35 30.5 70q19 35 44.5 69.5q25.5 34.5 53.5 69.5l-6 0q-11 -5 -21 -6.5q-10 -1.5 -18 -1.5q-20 0 -31 1.5q-11 1.5 -18 4q-7 2.5 -11.5 4q-4.5 1.5 -10.5 1.5q-6 0 -10.5 -5.5q-4.5 -5.5 -4.5 -11.5q0 -11 5.5 -16.5q5.5 -5.5 5.5 -19.5q0 -11 -6.5 -15.5q-6.5 -4.5 -12.5 -4.5q-6 0 -14.5 5q-8.5 5 -8.5 25q0 16 8.5 31.5q8.5 15.5 23 27.5q14.5 12 33.5 19.5q19 7.5 39 7.5q21 0 39 -4q18 -4 31 -4q13 0 22.5 8.5q9.5 8.5 14.5 13.5zM381 121q24 24 42 55.5q18 31.5 30 63.5q12 32 18 61q6 29 6 49q0 21 -3.5 34.5q-3.5 13.5 -9.5 21q-6 7.5 -13.5 10q-7.5 2.5 -14.5 2.5q-23 0 -45 -32.5q-22 -32.5 -32 -86.5q-4 -20 -5.5 -45.5q-1.5 -25.5 0 -50.5q1.5 -25 7 -47q5.5 -22 14.5 -35z" />
<glyph unicode="&#120;" horiz-adv-x="539" d="M276 288h3q33 45 56 80q23 35 42 58q19 23 37.5 35q18.5 12 41.5 12q22 0 31.5 -9q9.5 -9 9.5 -20q0 -15 -6.5 -23q-6.5 -8 -16.5 -12q-10 -4 -22 -6q-12 -2 -24 -4q-9 -2 -22 -8q-13 -6 -31 -22.5q-18 -16.5 -39.5 -45q-21.5 -28.5 -46.5 -75.5l39 -161q4 -17 9.5 -32q5.5 -15 20.5 -15q5 0 13 4q8 4 19 15q11 11 25.5 30q14.5 19 33.5 49l23 -19q-47 -69 -77.5 -99.5q-30.5 -30.5 -62.5 -30.5q-17 0 -27.5 6.5q-10.5 6.5 -17 17q-6.5 10.5 -11 24q-4.5 13.5 -7.5 27.5l-29 122h-5l-62 -93q-33 -50 -58.5 -77q-25.5 -27 -58.5 -27q-23 0 -36 9q-13 9 -13 26q0 20 14.5 29q14.5 9 34.5 8q8 0 15 -1q7 -1 15 1q6 1 17 6q11 5 28.5 22.5q17.5 17.5 42 50q24.5 32.5 57.5 88.5l-32 119q-4 15 -11.5 30q-7.5 15 -30.5 15q-5 0 -16.5 -2q-11.5 -2 -16.5 -4l-7 17q35 8 55.5 28.5q20.5 20.5 31.5 41.5l23 0z" />
<glyph unicode="&#121;" horiz-adv-x="530" d="M409 126q-30 -111 -64.5 -179.5q-34.5 -68.5 -71.5 -106.5q-37 -38 -75 -51q-38 -13 -74 -13q-49 0 -79.5 18q-30.5 18 -30.5 44q0 13 8.5 24.5q8.5 11.5 28.5 11.5q21 0 30.5 -10q9.5 -10 14.5 -18q11 -20 29.5 -25.5q18.5 -5.5 37.5 -5.5q37 0 66.5 30.5q29.5 30.5 51.5 75.5q22 45 38 97.5q16 52.5 27 97.5l-6 0q-50 -45 -84.5 -71q-34.5 -26 -58.5 -38.5q-24 -12.5 -39.5 -15.5q-15.5 -3 -25.5 -3q-17 0 -27.5 5q-10.5 5 -16.5 11.5q-6 6.5 -8.5 14q-2.5 7.5 -3.5 13.5q-1 5 -0.5 9q0.5 4 0.5 9q2 16 4 28q2 12 6 26l62 232q2 7 3.5 11.5q1.5 4.5 1.5 12.5q0 3 -1.5 8.5q-1.5 5.5 -7 10.5q-5.5 5 -17 7.5q-11.5 2.5 -31.5 -0.5l8 23q39 -2 63 14.5q24 16.5 50 49.5l30 0l-99 -366q-7 -24 -8.5 -33q-1.5 -9 -1.5 -14q0 -22 28 -22q16 0 42.5 16q26.5 16 55 38q28.5 22 55 45.5q26.5 23.5 42.5 38.5l77 286l61 0z" />
<glyph unicode="&#122;" horiz-adv-x="514" d="M78 361q12 15 30 34q18 19 40 36.5q22 17.5 47 29.5q25 12 51 12q30 0 42 -8.5q12 -8.5 22.5 -18q10.5 -9.5 29 -18q18.5 -8.5 60.5 -8.5q14 0 19.5 6.5q5.5 6.5 5.5 14.5q0 3 -1.5 6.5q-1.5 3.5 -1.5 6.5q0 5 4 12q4 7 16 7q17 0 23.5 -11q6.5 -11 6.5 -22q0 -18 -11.5 -43.5q-11.5 -25.5 -34.5 -56q-23 -30.5 -59 -64q-36 -33.5 -84 -66.5q-40 -27 -68.5 -43q-28.5 -16 -51 -28q-22.5 -12 -40.5 -24.5q-18 -12.5 -36 -34.5l2 -1q8 3 24 7.5q16 4.5 38 4.5q22 0 42 -5.5q20 -5.5 37 -12.5q30 -12 52.5 -22.5q22.5 -10.5 45.5 -10.5q32 0 57.5 23q25.5 23 49.5 54l22 -15q-21 -25 -39.5 -45.5q-18.5 -20.5 -39.5 -35.5q-21 -15 -45.5 -23.5q-24.5 -8.5 -56.5 -8.5q-9 0 -42 6.5q-33 6.5 -80 35.5q-16 10 -24.5 15.5q-8.5 5.5 -13.5 8.5q-5 3 -9 3.5q-4 0.5 -11 0.5q-16 0 -20 -6q-4 -6 -4 -12q0 -8 5 -12.5q5 -4.5 7 -8.5q2 -3 2 -11q0 -14 -8 -17q-8 -3 -12 -3h-8q-6 2 -14.5 9.5q-8.5 7.5 -8.5 24.5q0 28 20.5 59q20.5 31 49.5 61q29 30 61.5 55.5q32.5 25.5 56.5 42.5q50 34 84 56q34 22 57 38q23 16 37 29q14 13 24 30l-5 4q-25 -14 -42.5 -19q-17.5 -5 -38.5 -5q-17 0 -31.5 2.5q-14.5 2.5 -33.5 11.5q-18 9 -36.5 19q-18.5 10 -39.5 10q-18 0 -43 -16q-25 -16 -56 -58z" />
<glyph unicode="&#123;" horiz-adv-x="356" d="M511 784q-32 -6 -52.5 -22.5q-20.5 -16.5 -33 -37q-12.5 -20.5 -19 -43.5q-6.5 -23 -10.5 -42q-6 -32 -13 -70.5q-7 -38.5 -26 -77.5q-19 -39 -55.5 -75.5q-36.5 -36.5 -100.5 -65.5q25 -15 40.5 -31q15.5 -16 23.5 -31.5q8 -15.5 11 -31q3 -15.5 3 -28.5q0 -48 -14 -92.5q-14 -44.5 -25 -74.5q-9 -23 -12.5 -39.5q-3.5 -16.5 -3.5 -37.5q0 -32 16.5 -47.5q16.5 -15.5 36.5 -20.5l-14 -34q-23 4 -42.5 11q-19.5 7 -34.5 18q-15 11 -23.5 28q-8.5 17 -8.5 41q0 37 10 79q10 42 27 96q8 27 11.5 54.5q3.5 27.5 3.5 54.5q0 31 -14.5 46q-14.5 15 -46.5 20l11 40q37 6 61.5 26q24.5 20 41 49.5q16.5 29.5 27 65q10.5 35.5 19.5 71.5q8 36 19 73.5q11 37.5 33 70q22 32.5 59.5 57q37.5 24.5 99.5 35.5z" />
<glyph unicode="&#124;" horiz-adv-x="289" d="M153 829h63v-1053l-63 0z" />
<glyph unicode="&#125;" horiz-adv-x="356" d="M33 -84q31 6 51.5 22.5q20.5 16.5 33.5 37.5q13 21 19.5 43.5q6.5 22.5 10.5 41.5q10 53 22.5 96.5q12.5 43.5 33.5 78.5q21 35 54 63q33 28 86 51q-26 14 -41 30q-15 16 -23.5 32.5q-8.5 16.5 -11 32q-2.5 15.5 -2.5 28.5q0 41 10.5 79.5q10.5 38.5 27.5 86.5q6 17 11.5 35.5q5.5 18.5 5.5 41.5q0 28 -12.5 45.5q-12.5 17.5 -41.5 22.5l15 34q23 -4 43 -11q20 -7 35 -18q15 -11 23.5 -28q8.5 -17 8.5 -41q0 -32 -9 -73q-9 -41 -28 -102q-8 -27 -12 -54.5q-4 -27.5 -4 -54.5q0 -58 61 -66l-11 -40q-38 -6 -62 -26q-24 -20 -40.5 -49.5q-16.5 -29.5 -26.5 -65q-10 -35.5 -19 -71.5q-9 -37 -20 -74.5q-11 -37.5 -32.5 -69.5q-21.5 -32 -59 -56.5q-37.5 -24.5 -100.5 -35.5z" />
<glyph unicode="&#126;" horiz-adv-x="472" d="M62 311q10 15 25.5 33q15.5 18 32.5 31q12 9 23 13q11 4 28 4q11 0 30 -2q19 -2 51 -10q16 -4 38 -8.5q22 -4.5 43 -4.5q9 0 25.5 5q16.5 5 30.5 20l21 0q-4 -6 -13 -19q-9 -13 -18 -23q-11 -13 -29.5 -26q-18.5 -13 -44.5 -13q-6 0 -18 2q-12 2 -25 4.5q-13 2.5 -25.5 5q-12.5 2.5 -19.5 4.5q-33 8 -48.5 10.5q-15.5 2.5 -26.5 2.5q-20 0 -32.5 -8.5q-12.5 -8.5 -26.5 -20.5z" />
<glyph unicode="&#160;" horiz-adv-x="233" />
<glyph unicode="&#161;" horiz-adv-x="309" d="M214 303q-6 -36 -9.5 -58q-3.5 -22 -7 -41q-3.5 -19 -6.5 -40.5q-3 -21.5 -7 -54.5q-6 -41 -9.5 -68.5q-3.5 -27.5 -5.5 -45q-2 -17.5 -3 -28.5q-1 -11 -2 -20q-1 -9 -2 -19q-1 -10 -3 -26q-4 -29 -9.5 -56.5q-5.5 -27.5 -14.5 -49q-9 -21.5 -22.5 -35q-13.5 -13.5 -33.5 -13.5q-20 0 -28.5 14q-8.5 14 -8.5 34q0 21 6 49.5q6 28.5 15 61q9 32.5 21 68.5q12 36 24 72q18 55 31.5 94.5q13.5 39.5 22.5 70.5q5 18 7.5 27q2.5 9 5 17q2.5 8 5.5 18q3 10 9 29zM267 427q0 -23 -16 -36q-16 -13 -33 -13q-20 0 -34.5 14.5q-14.5 14.5 -14.5 34.5q0 21 15.5 35q15.5 14 33.5 14q16 0 32.5 -11.5t16.5 -37.5z" />
<glyph unicode="&#162;" horiz-adv-x="328" d="M326 329h-25v30q0 10 -2 22q-2 12 -8 23.5q-6 11.5 -17 21q-11 9.5 -29 12.5l-77 -397q17 4 35.5 16q18.5 12 36 27.5q17.5 15.5 32.5 32q15 16.5 25 30.5l27 -18q-9 -13 -25 -31.5q-16 -18.5 -37.5 -38q-21.5 -19.5 -47 -36q-25.5 -16.5 -54.5 -24.5l-22 -111l-44 8l18 94q-5 -1 -10 -1q-5 0 -10 0q-44 0 -69 14.5q-25 14.5 -37 33.5q-12 19 -15 38.5q-3 19.5 -3 30.5q0 58 19.5 119q19.5 61 52 112.5q32.5 51.5 75.5 87.5q43 36 90 45l18 91l44 -9l-15 -79q58 -3 108 -33zM198 436q-30 -11 -58.5 -46q-28.5 -35 -50.5 -80q-22 -45 -35 -93q-13 -48 -13 -83q0 -45 19 -72.5q19 -27.5 61 -28.5z" />
<glyph unicode="&#163;" horiz-adv-x="685" d="M35 40q59 29 97.5 58.5q38.5 29.5 63 66q24.5 36.5 39.5 82.5q15 46 27 109l-104 0l14 41h98q18 107 49 170q31 63 67 95.5q36 32.5 72.5 42q36.5 9.5 65.5 9.5q36 0 58 -10q22 -10 34 -25q12 -15 16.5 -32q4.5 -17 4.5 -31q0 -8 -3 -17.5q-3 -9.5 -10.5 -17.5q-7.5 -8 -19 -14q-11.5 -6 -27.5 -6q-19 0 -33 12q-14 12 -14 34q0 11 5 21q5 12 11.5 18.5q6.5 6.5 6.5 11.5q0 6 -11 11.5q-11 5.5 -31 5.5q-32 0 -56 -13q-24 -13 -44 -44q-7 -11 -15.5 -28q-8.5 -17 -17 -43q-8.5 -26 -16.5 -63q-8 -37 -14 -87l145 0l-14 -41h-139q-10 -38 -22 -72.5q-12 -34.5 -28.5 -67.5q-16.5 -33 -39.5 -63.5q-23 -30.5 -54 -58.5l0 -9q21 1 29.5 3q8.5 2 13.5 3.5q5 1.5 11.5 2.5q6.5 1 24.5 1q37 0 53 -7.5q16 -7.5 26.5 -16.5q10.5 -9 22.5 -16.5q12 -7.5 40 -7.5q11 0 29.5 5q18.5 5 41.5 17l13 -24q-13 -10 -31.5 -20.5q-18.5 -10.5 -38.5 -19q-20 -8.5 -40 -14q-20 -5.5 -36 -5.5q-28 0 -39 5.5q-11 5.5 -15 13q-4 7.5 -6 17q-2 9.5 -11 17q-9 7.5 -30 13q-21 5.5 -63 5.5q-10 0 -19.5 -3q-9.5 -3 -24 -10q-14.5 -7 -35.5 -19q-21 -12 -54 -31z" />
<glyph unicode="&#164;" horiz-adv-x="875" d="M188 174q-31 43 -43.5 88.5q-12.5 45.5 -12.5 87.5q0 42 12.5 87.5q12.5 45.5 43.5 88.5l-118 118l70 70l117 -118q7 6 22 16q15 10 37.5 20q22.5 10 52.5 17q30 7 68 7q37 0 67 -7q30 -7 52.5 -17q22.5 -10 37.5 -20q15 -10 23 -16l118 118l70 -70l-118 -118q31 -43 43.5 -88.5q12.5 -45.5 12.5 -87.5q0 -42 -12.5 -87.5q-12.5 -45.5 -43.5 -88.5l118 -118l-70 -70l-118 118q-8 -6 -23 -16q-15 -10 -37.5 -20q-22.5 -10 -52.5 -17q-30 -7 -67 -7q-38 0 -68 7q-30 7 -52.5 17q-22.5 10 -37.5 20q-15 10 -22 16l-117 -118l-70 70zM211 350q0 -47 17.5 -88q17.5 -41 48.5 -72q31 -31 72 -49q41 -18 88 -18q46 0 87.5 18q41.5 18 72.5 49q31 31 49 72q18 41 18 88q0 46 -18 87.5q-18 41.5 -49 72.5q-31 31 -72.5 49q-41.5 18 -87.5 18q-47 0 -88 -18q-41 -18 -72 -49q-31 -31 -48.5 -72.5t-17.5 -87.5z" />
<glyph unicode="&#165;" horiz-adv-x="674" d="M362 700l-7 -27q-25 -3 -38 -5.5q-13 -2.5 -13 -21.5q0 -5 2.5 -16q2.5 -11 3.5 -15l67 -254h10l151 220q4 6 11 15q7 9 14.5 19.5q7.5 10.5 13 21q5.5 10.5 5.5 18.5q0 12 -13 15q-13 3 -25 3h-8l7 27h159l-7 -27q-20 -5 -33.5 -12.5q-13.5 -7.5 -23.5 -16.5q-10 -9 -17 -19.5q-7 -10.5 -14 -20.5l-214 -309h148l-7 -30h-149l-19 -70h149l-7 -30h-150l-22 -82q-2 -5 -4 -13q-2 -8 -4 -19l0 -7q1 -6 5.5 -11.5q4.5 -5.5 20.5 -5.5h24l-7 -27h-192l7 27q21 0 33 5q12 5 19 13q7 8 10 18q3 10 6 20l22 82h-150l7 30h151l19 70h-151l7 30h151l-76 309q-8 32 -26 49.5q-18 17.5 -57 19.5l6 27z" />
<glyph unicode="&#166;" horiz-adv-x="289" d="M216 458h-63v418h63zM153 242h63v-418l-63 0z" />
<glyph unicode="&#167;" horiz-adv-x="519" d="M198 491q-2 6 -6 31q-4 25 -4 56q0 23 11.5 47.5q11.5 24.5 33.5 44q22 19.5 52.5 32q30.5 12.5 69.5 12.5q29 0 52.5 -10q23.5 -10 40.5 -26.5q17 -16.5 26 -38.5q9 -22 9 -46q0 -21 -6 -35q-6 -14 -15 -23q-9 -9 -19.5 -12.5q-10.5 -3.5 -18.5 -3.5q-13 0 -24.5 10q-11.5 10 -11.5 29q0 14 7 24q7 10 15 17q7 5 12.5 11.5q5.5 6.5 5.5 18.5q0 10 -6.5 18q-6.5 8 -17 13.5q-10.5 5.5 -24 8.5q-13.5 3 -26.5 3q-23 0 -41 -8q-18 -8 -30 -20.5q-12 -12.5 -18.5 -28q-6.5 -15.5 -6.5 -30.5q0 -7 1.5 -18q1.5 -11 7.5 -29q6 -18 18.5 -43.5q12.5 -25.5 35.5 -60.5q24 -36 44.5 -69.5q20.5 -33.5 36.5 -66q16 -32.5 25 -65q9 -32.5 9 -66.5q0 -27 -11.5 -52q-11.5 -25 -31.5 -47.5q-20 -22.5 -47.5 -41q-27.5 -18.5 -58.5 -32.5q2 -8 4.5 -16q2.5 -8 2.5 -16q0 -48 -14.5 -83.5q-14.5 -35.5 -38 -59.5q-23.5 -24 -52.5 -35.5q-29 -11.5 -58 -11.5q-36 0 -61 11q-25 11 -40.5 27q-15.5 16 -22.5 34q-7 18 -7 32q0 41 16 64q16 23 39 23q11 0 22.5 -8.5q11.5 -8.5 11.5 -30.5q0 -13 -3 -19.5q-3 -6.5 -7.5 -11q-4.5 -4.5 -10 -10.5q-5.5 -6 -9.5 -17q-3 -10 0 -19q5 -16 24.5 -24.5q19.5 -8.5 42.5 -8.5q42 0 73 24q31 24 31 67q0 18 -4 33.5q-4 15.5 -12 32.5q-8 17 -21 37.5q-13 20.5 -31 48.5q-21 32 -41 64.5q-20 32.5 -35.5 65.5q-15.5 33 -24.5 66q-9 33 -9 66q0 21 8.5 44.5q8.5 23.5 26.5 46q18 22.5 45.5 43.5q27.5 21 65.5 38zt0 0zM273 28q52 18 75.5 56q23.5 38 23.5 83q0 13 -4.5 27.5q-4.5 14.5 -11.5 29q-7 14.5 -14 27.5q-7 13 -13 22l-116 187q-9 -3 -25.5 -11.5q-16.5 -8.5 -33 -23.5q-16.5 -15 -29 -38q-12.5 -23 -12.5 -56q0 -23 8.5 -47q8.5 -24 22.5 -47z" />
<glyph unicode="&#168;" horiz-adv-x="42" d="M-36 623q0 18 14 33.5q14 15.5 35 15.5q20 0 34.5 -14.5q14.5 -14.5 14.5 -34.5q0 -17 -13 -33q-13 -16 -36 -16q-26 0 -37.5 16.5q-11.5 16.5 -11.5 32.5zt0 0zM126 623q0 21 15.5 35q15.5 14 33.5 14q16 0 32.5 -11.5q16.5 -11.5 16.5 -37.5q0 -23 -16 -36q-16 -13 -33 -13q-20 0 -34.5 14.5t-14.5 34.5z" />
<glyph unicode="&#169;" horiz-adv-x="852" d="M62 350q0 75 28.5 141q28.5 66 78 115.5q49.5 49.5 116 78.5q66.5 29 141.5 29q75 0 141 -29q66 -29 115.5 -78.5q49.5 -49.5 78.5 -115.5q29 -66 29 -141q0 -75 -29 -141.5q-29 -66.5 -78.5 -116q-49.5 -49.5 -115.5 -78q-66 -28.5 -141 -28.5q-75 0 -141.5 28.5q-66.5 28.5 -116 78q-49.5 49.5 -78 116q-28.5 66.5 -28.5 141.5zt0 0zM117 350q0 -64 24 -120q24 -56 66 -98q42 -42 98 -66.5q56 -24.5 121 -24.5q64 0 120.5 24q56.5 24 98.5 66q42 42 66 98.5q24 56.5 24 120.5q0 64 -24.5 120.5q-24.5 56.5 -66.5 98.5q-42 42 -98 66q-56 24 -120 24q-64 0 -120.5 -24q-56.5 -24 -98.5 -66q-42 -42 -66 -98.5q-24 -56.5 -24 -120.5zt0 0zM527 463q-10 29 -41 48q-31 19 -66 19q-9 0 -30 -4.5q-21 -4.5 -43 -22.5q-22 -18 -39 -53.5q-17 -35.5 -17 -96.5q0 -38 9.5 -70.5q9.5 -32.5 27.5 -56q18 -23.5 43 -37q25 -13.5 55 -13.5q44 0 74 20q30 20 46 66l13 0l-3 -76q-32 -20 -62 -26q-30 -6 -68 -6q-38 0 -71 16.5q-33 16.5 -58 43.5q-25 27 -39 63q-14 36 -14 75q0 31 11 65.5q11 34.5 35 64q24 29.5 62 49q38 19.5 92 21.5l21 0q11 -1 30.5 -4.5q19.5 -3.5 43.5 -14.5l2 -70z" />
<glyph unicode="&#170;" horiz-adv-x="373" d="M252 623q0 10 0 23q0 13 -8 25q-4 6 -14.5 14q-10.5 8 -31.5 8q-33 0 -51 -16q-7 -7 -9 -12.5q-2 -5.5 -2.5 -11.5q-0.5 -6 -1 -12.5q-0.5 -6.5 -4.5 -14.5q-2 -5 -8.5 -10.5q-6.5 -5.5 -17.5 -5.5q-9 0 -17.5 5.5q-8.5 5.5 -8.5 19.5q0 14 9 31q9 17 33 30q18 10 39 14q21 4 44 4q31 0 49 -7.5q18 -7.5 28 -16.5q14 -14 17.5 -28.5q3.5 -14.5 3.5 -27.5v-189q0 -17 10.5 -24q10.5 -7 28.5 -7l0 -7h-88v30q-26 -20 -58.5 -28.5q-32.5 -8.5 -57.5 -8.5q-41 0 -60.5 19.5q-19.5 19.5 -19.5 47.5q0 28 14 48q14 20 37 34q26 17 60.5 28.5q34.5 11.5 84.5 25.5zM252 582q-51 -14 -74 -27.5q-23 -13.5 -28 -16.5q-23 -17 -30.5 -36q-7.5 -19 -7.5 -36q0 -20 14 -31.5q14 -11.5 34 -11.5q21 0 46.5 10.5q25.5 10.5 45.5 24.5zM49 345h288v-30l-288 0z" />
<glyph unicode="&#171;" horiz-adv-x="527" d="M482 347l-106 -115l64 -143l-26 -10l-111 162l161 122zM226 267l104 -211l-28 -12l-170 238l244 172l19 -19z" />
<glyph unicode="&#172;" horiz-adv-x="1050" d="M56 276h938v-174h-64v111l-874 0z" />
<glyph unicode="&#173;" horiz-adv-x="350" d="M71 266h223l-16 -56h-222zM71 266h223l-16 -56l-222 0z" />
<glyph unicode="&#174;" horiz-adv-x="840" d="M56 350q0 76 29 142q29 66 78.5 115.5q49.5 49.5 115.5 78q66 28.5 141 28.5q76 0 142.5 -28.5q66.5 -28.5 115.5 -77.5q49 -49 77.5 -115.5q28.5 -66.5 28.5 -142.5q0 -75 -28.5 -141q-28.5 -66 -78 -115.5q-49.5 -49.5 -115.5 -78.5q-66 -29 -142 -29q-74 0 -140.5 29q-66.5 29 -116 78.5q-49.5 49.5 -78.5 116q-29 66.5 -29 140.5zt0 0zM111 350q0 -64 24 -120.5q24 -56.5 66 -98.5q42 -42 98.5 -66q56.5 -24 120.5 -24q64 0 120.5 24.5q56.5 24.5 98.5 66.5q42 42 66 98q24 56 24 120q0 64 -24 120.5q-24 56.5 -66 98.5q-42 42 -98.5 66q-56.5 24 -120.5 24q-64 0 -120 -24q-56 -24 -98 -66q-42 -42 -66.5 -98.5q-24.5 -56.5 -24.5 -120.5zt0 0zM441 544q8 0 27 -2.5q19 -2.5 39 -14q20 -11.5 35 -34q15 -22.5 15 -61.5q0 -37 -23 -67q-23 -30 -62 -37l72 -125q18 -32 49 -31l0 -15h-121v15h7q10 0 18 1.5q8 1.5 8 9.5q0 5 -9 19l-70 116h-33q-13 1 -23 1.5q-10 0.5 -21 2.5l0 -98q0 -16 3.5 -26q3.5 -10 9 -16q5.5 -6 11 -8q5.5 -2 10.5 -2h9v-15h-128v15h10q5 0 11 2q6 2 11.5 8q5.5 6 9 16q3.5 10 3.5 26v252q0 15 -2.5 23.5q-2.5 8.5 -7.5 13.5q-5 5 -14 8.5q-9 3.5 -21 8.5l0 14zM349 344q14 -3 27.5 -3q13.5 0 27.5 0q47 0 74 26q27 26 27 67q0 33 -12.5 50.5q-12.5 17.5 -28.5 26q-16 8.5 -31.5 10q-15.5 1.5 -22.5 1.5h-32q-19 0 -24 -11.5q-5 -11.5 -5 -28.5z" />
<glyph unicode="&#175;" horiz-adv-x="42" d="M38 666h299l-9 -39l-300 0z" />
<glyph unicode="&#176;" horiz-adv-x="348" d="M104 554q0 -18 7 -31q7 -13 17.5 -22q10.5 -9 22.5 -13q12 -4 23 -4q28 0 49 21q21 21 21 49q0 10 -4 22.5q-4 12.5 -13 23q-9 10.5 -22 17.5q-13 7 -31 7q-29 0 -49.5 -20.5q-20.5 -20.5 -20.5 -49.5zt0 0zM62 554q0 23 9 43.5q9 20.5 24 35.5q15 15 35.5 24q20.5 9 43.5 9q23 0 43.5 -9q20.5 -9 35.5 -24q15 -15 24 -35.5q9 -20.5 9 -43.5q0 -23 -9 -43.5q-9 -20.5 -24 -35.5q-15 -15 -35.5 -24q-20.5 -9 -43.5 -9q-23 0 -43.5 9q-20.5 9 -35.5 24q-15 15 -24 35.5t-9 43.5z" />
<glyph unicode="&#177;" horiz-adv-x="822" d="M371 217v140h-231v70h231v178h70v-178h231v-70h-231v-140zM140 168h532v-70l-532 0z" />
<glyph unicode="&#178;" horiz-adv-x="391" d="M299 406l-25 -67h-204l5 13q13 17 24 28.5q11 11.5 21.5 21q10.5 9.5 21.5 19q11 9.5 25 22.5l29 28q14 13 29.5 31q15.5 18 28 38q12.5 20 20.5 42.5q8 22.5 8 46.5q0 10 -3 22.5q-3 12.5 -10 23q-7 10.5 -19 17.5q-12 7 -30 7q-8 0 -17.5 -2.5q-9.5 -2.5 -20.5 -10.5q-11 -8 -16.5 -20.5q-5.5 -12.5 -5.5 -26.5q0 -10 1.5 -15q1.5 -5 4 -8.5q2.5 -3.5 4 -7.5q1.5 -4 1.5 -11q0 -11 -6.5 -16q-6.5 -5 -14.5 -5q-7 0 -16 6q-9 6 -9 26q0 24 11.5 47q11.5 23 28.5 37q17 14 34.5 18q17.5 4 37.5 4q19 0 40.5 -6.5q21.5 -6.5 36.5 -26.5q9 -11 13 -26q4 -15 4 -29q0 -24 -9.5 -45.5q-9.5 -21.5 -21.5 -39.5q-19 -27 -44 -52.5q-25 -25.5 -66 -59.5q-16 -14 -29 -25q-13 -11 -30 -30l109 0q14 0 27.5 8q13.5 8 21.5 24z" />
<glyph unicode="&#179;" horiz-adv-x="385" d="M161 552h16q11 0 33 4q22 4 40 25q18 21 18 52q0 26 -13 46q-13 20 -42 20q-24 0 -36.5 -11.5q-12.5 -11.5 -12.5 -30.5q0 -6 1 -9q1 -3 2.5 -5q1.5 -2 3 -5q1.5 -3 1.5 -10q0 -8 -6 -14.5q-6 -6.5 -15 -6.5q-8 0 -16 6q-8 6 -8 20q0 14 6 28.5q6 14.5 18 26.5q8 8 25 17q17 9 43 9q41 0 68.5 -22q27.5 -22 27.5 -58q0 -19 -8 -35q-8 -16 -21 -28q-13 -12 -29.5 -19.5q-16.5 -7.5 -34.5 -9.5q36 -8 56 -34.5q20 -26.5 20 -55.5q0 -43 -29 -77q-20 -25 -43.5 -34q-23.5 -9 -54.5 -9q-18 0 -37 4.5q-19 4.5 -37 21.5q-17 17 -22 34q-5 17 -5 28q0 10 1.5 17q1.5 7 7.5 15q12 17 29 17q13 0 18.5 -6.5q5.5 -6.5 5.5 -12.5q0 -11 -3.5 -18.5q-3.5 -7.5 -8.5 -10.5q-8 -6 -14 -9.5q-6 -3.5 -6 -13.5q0 -16 13 -31q18 -21 48 -21q17 0 35.5 8q18.5 8 35.5 34q21 31 21 65q0 35 -23 59.5q-23 24.5 -59 24.5l-11 0z" />
<glyph unicode="&#180;" horiz-adv-x="294" d="M194 531h-19l45 141l123 0z" />
<glyph unicode="&#181;" horiz-adv-x="619" d="M440 85q-2 -5 -4.5 -16q-2.5 -11 -2.5 -16q0 -8 3.5 -12q3.5 -4 6.5 -5l6 0q16 2 30 10.5q14 8.5 26.5 21q12.5 12.5 25 27.5q12.5 15 25.5 30l21 -16q-47 -61 -80 -90.5q-33 -29.5 -64 -29.5q-26 0 -40.5 16q-14.5 16 -14.5 43q0 6 2.5 17.5q2.5 11.5 4.5 19.5l9 30h-4q-17 -24 -31.5 -47q-14.5 -23 -29.5 -40.5q-15 -17.5 -32 -28q-17 -10.5 -39 -10.5q-24 0 -46.5 18q-22.5 18 -28.5 50l-42 -164q-2 -8 -3.5 -20q-1.5 -12 4 -23q5.5 -11 20 -19q14.5 -8 44.5 -7l-7 -21q-21 -1 -58 -5.5q-37 -4.5 -85 -21.5l147 560q2 5 3.5 10.5q1.5 5.5 1.5 13.5q0 11 -6 16.5q-6 5.5 -15 8q-9 2.5 -18.5 2.5q-9.5 0 -16.5 -1v23q46 -2 70 14.5q24 16.5 50 49.5l23 0l-86 -318q-4 -15 -2 -35.5q2 -20.5 9.5 -39q7.5 -18.5 20 -31.5q12.5 -13 29.5 -13q14 0 30 11q16 11 34 30.5q18 19.5 38 46q20 26.5 42 57.5l75 281l56 0z" />
<glyph unicode="&#182;" horiz-adv-x="482" d="M220 350q-44 1 -77 17.5q-33 16.5 -54.5 41.5q-21.5 25 -32.5 55.5q-11 30.5 -11 60.5q0 30 11 60.5q11 30.5 33 55.5q22 25 54.5 41q32.5 16 76.5 18l70 0v-896h-70zM367 700h70v-896l-70 0z" />
<glyph unicode="&#183;" horiz-adv-x="250" d="M76 378q0 26 16.5 37.5q16.5 11.5 32.5 11.5q18 0 33.5 -14q15.5 -14 15.5 -35q0 -20 -14.5 -34.5q-14.5 -14.5 -34.5 -14.5q-17 0 -33 13t-16 36z" />
<glyph unicode="&#184;" horiz-adv-x="42" d="M-52 -45h7q31 -1 45.5 -15.5q14.5 -14.5 14.5 -34.5q0 -9 -5.5 -24q-5.5 -15 -26.5 -29q-14 -9 -29.5 -13q-15.5 -4 -31.5 -4q-15 0 -29.5 2.5q-14.5 2.5 -28.5 7.5l5 18q21 -4 32.5 -4.5q11.5 -0.5 14.5 -0.5q31 0 40.5 10.5q9.5 10.5 9.5 23.5q0 11 -10 19q-10 8 -31 8q-11 0 -19 -1q-8 -1 -14 -3l-1 19l67 66l32 0z" />
<glyph unicode="&#185;" horiz-adv-x="288" d="M149 373q-4 -15 1.5 -19.5q5.5 -4.5 19.5 -7.5l-2 -7h-98l2 7l7 1q20 3 24 21l59 251q1 4 2 10.5q1 6.5 -0.5 12.5q-1.5 6 -6.5 10.5q-5 4.5 -15 4.5h-7l2 8q22 -2 43 13q21 15 33 36l15 0z" />
<glyph unicode="&#186;" horiz-adv-x="438" d="M218 714q27 0 52 -10.5q25 -10.5 44.5 -31q19.5 -20.5 31.5 -49.5q12 -29 12 -66q0 -37 -12 -66q-12 -29 -31.5 -49.5q-19.5 -20.5 -44.5 -31q-25 -10.5 -52 -10.5q-26 0 -51 10.5q-25 10.5 -44.5 30.5q-19.5 20 -31 49q-11.5 29 -11.5 67q0 37 11.5 66.5q11.5 29.5 31 49.5q19.5 20 44.5 30.5q25 10.5 51 10.5zt0 0zM219 693q-30 0 -43.5 -14q-13.5 -14 -19.5 -28q-10 -23 -11 -47q-1 -24 -1 -47q0 -23 1 -47q1 -24 11 -47q6 -14 19.5 -28q13.5 -14 43.5 -14q30 0 43.5 14q13.5 14 19.5 28q10 23 11 47q1 24 1 47q0 23 -1 47q-1 24 -11 47q-6 14 -19.5 28q-13.5 14 -43.5 14zt0 0zM75 345h288v-30l-288 0z" />
<glyph unicode="&#187;" horiz-adv-x="457" d="M222 229l-157 -114l-20 18l107 113l-58 144l21 10zM227 455l168 -245l-237 -166l-22 21l166 163l-98 216z" />
<glyph unicode="&#188;" horiz-adv-x="693" d="M199 373q-4 -15 1.5 -19.5q5.5 -4.5 19.5 -7.5l-2 -7h-98l2 7l7 1q20 3 24 21l59 251q1 4 2 10.5q1 6.5 -0.5 12.5q-1.5 6 -6.5 10.5q-5 4.5 -15 4.5h-7l2 8q22 -2 43 13q21 15 33 36l15 0zM142 -125l419 975l26 -15l-419 -975zM572 136h49l-7 -22h-48l-19 -77q-3 -13 3 -22q6 -9 19 -7l-2 -8h-100l2 8h6q8 0 16.5 6q8.5 6 10.5 14l20 86h-144l6 22l209 239h33zM415 136h113l42 181z" />
<glyph unicode="&#189;" horiz-adv-x="737" d="M199 373q-4 -15 1.5 -19.5q5.5 -4.5 19.5 -7.5l-2 -7h-98l2 7l7 1q20 3 24 21l59 251q1 4 2 10.5q1 6.5 -0.5 12.5q-1.5 6 -6.5 10.5q-5 4.5 -15 4.5h-7l2 8q22 -2 43 13q21 15 33 36l15 0zM138 -124l419 974l26 -14l-419 -974zM421 13q13 17 24 28.5q11 11.5 21.5 21q10.5 9.5 21.5 19q11 9.5 25 22.5l29 28q14 13 29.5 31q15.5 18 28 38q12.5 20 20.5 42.5q8 22.5 8 46.5q0 10 -3 22.5q-3 12.5 -10 23q-7 10.5 -19 17.5q-12 7 -30 7q-8 0 -17.5 -2.5q-9.5 -2.5 -20.5 -10.5q-11 -8 -16.5 -20.5q-5.5 -12.5 -5.5 -26.5q0 -10 1.5 -15q1.5 -5 4 -8.5q2.5 -3.5 4 -7.5q1.5 -4 1.5 -11q0 -11 -6.5 -16q-6.5 -5 -14.5 -5q-7 0 -16 6q-9 6 -9 26q0 24 11.5 47q11.5 23 28.5 37q17 14 34.5 18q17.5 4 37.5 4q19 0 40 -6.5q21 -6.5 37 -27.5q17 -23 17 -54q0 -24 -9.5 -45.5q-9.5 -21.5 -21.5 -39.5q-19 -27 -44 -52q-25 -25 -66 -60q-16 -14 -29 -25q-13 -11 -30 -30l109 0q14 0 27.5 8q13.5 8 21.5 24l10 0l-25 -67l-204 0z" />
<glyph unicode="&#190;" horiz-adv-x="781" d="M211 552h16q11 0 33 4q22 4 40 25q18 21 18 52q0 26 -13 46q-13 20 -42 20q-23 0 -33 -8q-10 -8 -12 -13q-4 -8 -4 -21q0 -6 1 -9q1 -3 2.5 -5q1.5 -2 3 -5q1.5 -3 1.5 -10q0 -8 -6 -14.5q-6 -6.5 -15 -6.5q-8 0 -16 6q-8 6 -8 20q0 14 6 28.5q6 14.5 18 26.5q8 8 25 17q17 9 43 9q41 0 68.5 -22q27.5 -22 27.5 -58q0 -19 -8 -35q-8 -16 -21 -28q-13 -12 -29.5 -19.5q-16.5 -7.5 -34.5 -9.5q36 -8 56 -34.5q20 -26.5 20 -55.5q0 -43 -29 -77q-20 -25 -43.5 -34q-23.5 -9 -54.5 -9q-18 0 -37 4.5q-19 4.5 -37 21.5q-17 17 -22 34q-5 17 -5 28q0 10 1.5 17q1.5 7 7.5 15q12 17 29 17q13 0 18.5 -6.5q5.5 -6.5 5.5 -12.5q0 -11 -3.5 -18.5q-3.5 -7.5 -8.5 -10.5q-8 -6 -14 -9.5q-6 -3.5 -6 -13.5q0 -16 13 -31q18 -21 48 -21q17 0 35.5 8q18.5 8 35.5 34q21 31 21 65q0 35 -23 59.5q-23 24.5 -59 24.5h-11zM223 -125l419 975l26 -15l-419 -975zM657 136h49l-7 -22h-48l-19 -77q-3 -13 3 -22q6 -9 19 -7l-2 -8h-100l2 8h6q8 0 16.5 6q8.5 6 10.5 14l20 86h-144l6 22l209 239h33zM500 136h113l42 181z" />
<glyph unicode="&#191;" horiz-adv-x="470" d="M361 299q-6 -62 -25.5 -93.5q-19.5 -31.5 -45.5 -49q-26 -17.5 -55 -29.5q-29 -12 -53.5 -33.5q-24.5 -21.5 -40.5 -61.5q-16 -40 -16 -114q0 -59 33.5 -92.5q33.5 -33.5 95.5 -33.5q34 0 54 8.5q20 8.5 30.5 19.5q10.5 11 13.5 23q3 12 3 18q0 14 -3.5 27q-3.5 13 -5.5 27q-1 5 -1 10.5q0 5.5 0 10.5q0 20 12 29q12 9 32 9q21 0 30 -18q9 -18 9 -42q0 -34 -16 -64.5q-16 -30.5 -44.5 -53q-28.5 -22.5 -66.5 -35.5q-38 -13 -83 -13q-46 0 -79 15.5q-33 15.5 -54.5 40q-21.5 24.5 -32 55.5q-10.5 31 -10.5 63q0 41 14.5 71.5q14.5 30.5 38 54q23.5 23.5 52 42.5q28.5 19 57.5 38q17 12 35.5 25.5q18.5 13.5 34.5 33q16 19.5 28 47q12 27.5 17 65.5zM406 427q0 -20 -14.5 -34.5q-14.5 -14.5 -34.5 -14.5q-17 0 -33 13q-16 13 -16 36q0 26 16.5 37.5q16.5 11.5 32.5 11.5q18 0 33.5 -14t15.5 -35z" />
<glyph unicode="&#192;" horiz-adv-x="675" d="M557 72q0 -9 1.5 -17q1.5 -8 7 -14q5.5 -6 18 -10q12.5 -4 35.5 -4l-6 -27h-204l6 27q32 -5 47 6q15 11 13 41l-9 160h-264l-83 -146q-3 -5 -8 -12.5q-5 -7.5 -5 -20.5q0 -3 1 -8q1 -5 6 -9.5q5 -4.5 15 -7.5q10 -3 27 -3l-7 -27h-169l6 27q21 3 34 8.5q13 5.5 22 15q9 9.5 17.5 24q8.5 14.5 20.5 34.5l271 462q7 12 9 17q2 5 2 13q0 10 -9 20.5q-9 10.5 -43 10.5l19 32h26q38 0 65 19q27 19 58 51l42 0zM464 276l-20 353h-12l-205 -353zM467 913l60 -142h-25l-199 142z" />
<glyph unicode="&#193;" horiz-adv-x="675" d="M557 72q0 -9 1.5 -17q1.5 -8 7 -14q5.5 -6 18 -10q12.5 -4 35.5 -4l-6 -27h-204l6 27q32 -5 47 6q15 11 13 41l-9 160h-264l-83 -146q-3 -5 -8 -12.5q-5 -7.5 -5 -20.5q0 -3 1 -8q1 -5 6 -9.5q5 -4.5 15 -7.5q10 -3 27 -3l-7 -27h-169l6 27q21 3 34 8.5q13 5.5 22 15q9 9.5 17.5 24q8.5 14.5 20.5 34.5l271 462q7 12 9 17q2 5 2 13q0 10 -9 20.5q-9 10.5 -43 10.5l19 32h26q38 0 65 19q27 19 58 51l42 0zM464 276l-20 353h-12l-205 -353zM391 771h-26l60 142l164 0z" />
<glyph unicode="&#194;" horiz-adv-x="675" d="M557 72q0 -9 1.5 -17q1.5 -8 7 -14q5.5 -6 18 -10q12.5 -4 35.5 -4l-6 -27h-204l6 27q32 -5 47 6q15 11 13 41l-9 160h-264l-83 -146q-3 -5 -8 -12.5q-5 -7.5 -5 -20.5q0 -3 1 -8q1 -5 6 -9.5q5 -4.5 15 -7.5q10 -3 27 -3l-7 -27h-169l6 27q21 3 34 8.5q13 5.5 22 15q9 9.5 17.5 24q8.5 14.5 20.5 34.5l271 462q7 12 9 17q2 5 2 13q0 10 -9 20.5q-9 10.5 -43 10.5l19 32h26q38 0 65 19q27 19 58 51l42 0zM464 276l-20 353h-12l-205 -353zM291 758v20l146 135h42l120 -142l-14 -13l-129 80z" />
<glyph unicode="&#195;" horiz-adv-x="675" d="M557 72q0 -9 1.5 -17q1.5 -8 7 -14q5.5 -6 18 -10q12.5 -4 35.5 -4l-6 -27h-204l6 27q32 -5 47 6q15 11 13 41l-9 160h-264l-83 -146q-3 -5 -8 -12.5q-5 -7.5 -5 -20.5q0 -3 1 -8q1 -5 6 -9.5q5 -4.5 15 -7.5q10 -3 27 -3l-7 -27h-169l6 27q21 3 34 8.5q13 5.5 22 15q9 9.5 17.5 24q8.5 14.5 20.5 34.5l271 462q7 12 9 17q2 5 2 13q0 10 -9 20.5q-9 10.5 -43 10.5l19 32h26q38 0 65 19q27 19 58 51l42 0zM464 276l-20 353h-12l-205 -353zM667 866q-17 -14 -34.5 -29q-17.5 -15 -34.5 -27q-17 -12 -33 -19.5q-16 -7.5 -31 -7.5q-19 0 -43 9.5q-24 9.5 -57 23.5q-16 6 -28.5 9.5q-12.5 3.5 -23.5 3.5q-11 0 -34.5 -9q-23.5 -9 -60.5 -37l-12 13q12 12 29.5 26.5q17.5 14.5 36 28q18.5 13.5 37 22.5q18.5 9 32.5 9q12 0 26 -5q14 -5 29 -11q35 -14 56.5 -22q21.5 -8 35.5 -8q24 0 48.5 12q24.5 12 49.5 32z" />
<glyph unicode="&#196;" horiz-adv-x="675" d="M557 72q0 -9 1.5 -17q1.5 -8 7 -14q5.5 -6 18 -10q12.5 -4 35.5 -4l-6 -27h-204l6 27q32 -5 47 6q15 11 13 41l-9 160h-264l-83 -146q-3 -5 -8 -12.5q-5 -7.5 -5 -20.5q0 -3 1 -8q1 -5 6 -9.5q5 -4.5 15 -7.5q10 -3 27 -3l-7 -27h-169l6 27q21 3 34 8.5q13 5.5 22 15q9 9.5 17.5 24q8.5 14.5 20.5 34.5l271 462q7 12 9 17q2 5 2 13q0 10 -9 20.5q-9 10.5 -43 10.5l19 32h26q38 0 65 19q27 19 58 51l42 0zM464 276l-20 353h-12l-205 -353zM292 848q0 32 21 48.5q21 16.5 44 16.5q26 0 45.5 -19.5q19.5 -19.5 19.5 -45.5q0 -27 -19.5 -46q-19.5 -19 -45.5 -19q-10 0 -21.5 4q-11.5 4 -21 12q-9.5 8 -16 20q-6.5 12 -6.5 29zt0 0zM526 848q0 32 21 48.5q21 16.5 44 16.5q26 0 45.5 -19.5q19.5 -19.5 19.5 -45.5q0 -27 -19.5 -46q-19.5 -19 -45.5 -19q-10 0 -21.5 4q-11.5 4 -21 12q-9.5 8 -16 20t-6.5 29z" />
<glyph unicode="&#197;" horiz-adv-x="675" d="M557 72q0 -9 1.5 -17q1.5 -8 7 -14q5.5 -6 18 -10q12.5 -4 35.5 -4l-6 -27h-204l6 27q32 -5 47 6q15 11 13 41l-9 160h-264l-83 -146q-3 -5 -8 -12.5q-5 -7.5 -5 -20.5q0 -3 1 -8q1 -5 6 -9.5q5 -4.5 15 -7.5q10 -3 27 -3l-7 -27h-169l6 27q21 3 34 8.5q13 5.5 22 15q9 9.5 17.5 24q8.5 14.5 20.5 34.5l271 462q7 12 9 17q2 5 2 13q0 10 -9 20.5q-9 10.5 -43 10.5l19 32h26q38 0 65 19q27 19 58 51l42 0zM464 276l-20 353h-12l-205 -353zM353 832q0 13 4 27q4 14 14.5 26q10.5 12 29.5 20q19 8 50 8q31 0 50 -7.5q19 -7.5 29.5 -19.5q10.5 -12 14.5 -26.5q4 -14.5 4 -27.5q0 -13 -4 -27q-4 -14 -14.5 -26q-10.5 -12 -30 -19.5q-19.5 -7.5 -49.5 -7.5q-29 0 -47 7q-18 7 -33 21q-10 13 -14 26.5q-4 13.5 -4 25.5zt0 0zM372 832q0 -4 1.5 -13.5q1.5 -9.5 9 -19q7.5 -9.5 23 -17q15.5 -7.5 44.5 -7.5q10 0 23.5 1.5q13.5 1.5 26 7.5q12.5 6 21.5 17.5q9 11.5 9 30.5q0 26 -18.5 40.5q-18.5 14.5 -44.5 16.5l-17 0h-15q-26 -1 -44.5 -16t-18.5 -41z" />
<glyph unicode="&#198;" horiz-adv-x="1065" d="M272 218l-95 -109q-17 -20 -27.5 -33q-10.5 -13 -13.5 -27q-2 -5 0 -9q3 -9 13.5 -11q10.5 -2 24.5 -2h7l-4 -27h-177l3 27q11 1 24 5.5q13 4.5 31 17q18 12.5 42.5 35.5q24.5 23 59.5 62l394 453q20 23 28 33.5q8 10.5 8 18.5q0 11 -10.5 16q-10.5 5 -38.5 5h-8l4 27h499l1 -150h-25q-14 38 -33 60q-19 22 -41 32.5q-22 10.5 -45 13q-23 2.5 -45 2.5h-69q-25 0 -36 -15q-11 -15 -18 -41l-53 -199h124q18 0 35 1q17 1 32 6.5q15 5.5 27.5 18q12.5 12.5 20.5 35.5l25 0l-48 -173h-24q0 26 -5 40.5q-5 14.5 -13 21q-8 6.5 -19 7.5q-11 1 -23 1h-142l-68 -263q-5 -16 -6 -21.5q-1 -5.5 -1 -10.5v-6q1 -8 5 -13q4 -5 21 -6l12 0h111q33 0 62 3q29 3 54 14.5q25 11.5 48 34q23 22.5 44 62.5l25 0l-42 -155h-491l7 27q17 0 28 3q11 3 18.5 9q7.5 6 12.5 16.5q5 10.5 9 25.5l37 137zM308 259h250l99 380l-16 0z" />
<glyph unicode="&#199;" horiz-adv-x="679" d="M616 515h-26q-3 21 -11.5 48q-8.5 27 -25 51.5q-16.5 24.5 -42.5 41.5q-26 17 -64 17q-48 0 -85.5 -23q-37.5 -23 -66.5 -61q-29 -38 -49.5 -86q-20.5 -48 -33.5 -98q-13 -50 -19 -97q-6 -47 -6 -82q0 -37 7.5 -72.5q7.5 -35.5 25 -63.5q17.5 -28 45.5 -45q28 -17 70 -17q40 0 74.5 14q34.5 14 62.5 36.5q28 22.5 50 51q22 28.5 36 57.5l25 0l-26 -152q-23 -11 -75.5 -28q-52.5 -17 -131.5 -21l-29 -31q34 2 50.5 -13q16.5 -15 16.5 -37q0 -9 -5.5 -24q-5.5 -15 -26.5 -29q-14 -9 -29.5 -13q-15.5 -4 -31.5 -4q-15 0 -29.5 2.5q-14.5 2.5 -28.5 7.5l5 18q21 -4 32.5 -4.5q11.5 -0.5 14.5 -0.5q31 0 40.5 10.5q9.5 10.5 9.5 23.5q0 11 -10 19q-10 8 -31 8q-11 0 -19 -1q-8 -1 -14 -3l-1 19l54 53q-57 2 -101 23.5q-44 21.5 -73.5 56.5q-29.5 35 -44.5 80q-15 45 -15 94q0 46 10 99.5q10 53.5 30.5 106q20.5 52.5 51.5 101q31 48.5 72 85.5q41 37 92.5 59q51.5 22 113.5 22q48 0 99 -14.5q51 -14.5 98 -55.5z" />
<glyph unicode="&#200;" horiz-adv-x="655" d="M641 547h-25q-14 39 -33.5 61.5q-19.5 22.5 -41.5 33.5q-22 11 -46 13.5q-24 2.5 -46 2.5h-50q-26 0 -40 -5q-14 -5 -21 -13q-7 -8 -9 -18.5q-2 -10.5 -5 -21.5l-56 -204h126q17 0 34.5 1.5q17.5 1.5 33.5 7.5q16 6 29 18.5q13 12.5 21 35.5l25 0l-48 -176h-25q0 27 -5 41.5q-5 14.5 -13 21q-8 6.5 -19 7.5q-11 1 -24 1h-145l-69 -254q-3 -12 -5.5 -21q-2.5 -9 -2.5 -18q0 -12 11 -15.5q11 -3.5 29 -3.5h113q32 0 60.5 2.5q28.5 2.5 54 13.5q25.5 11 49.5 34.5q24 23.5 47 65.5l26 0l-43 -158h-500l7 27q33 0 47 13q14 13 22 43l143 534q1 4 4.5 17q3.5 13 3.5 23q0 3 -1 5.5q-1 2.5 -5.5 5q-4.5 2.5 -13.5 4q-9 1.5 -26 1.5h-8l7 27h433zM457 913l60 -142h-25l-199 142z" />
<glyph unicode="&#201;" horiz-adv-x="655" d="M641 547h-25q-14 39 -33.5 61.5q-19.5 22.5 -41.5 33.5q-22 11 -46 13.5q-24 2.5 -46 2.5h-50q-26 0 -40 -5q-14 -5 -21 -13q-7 -8 -9 -18.5q-2 -10.5 -5 -21.5l-56 -204h126q17 0 34.5 1.5q17.5 1.5 33.5 7.5q16 6 29 18.5q13 12.5 21 35.5l25 0l-48 -176h-25q0 27 -5 41.5q-5 14.5 -13 21q-8 6.5 -19 7.5q-11 1 -24 1h-145l-69 -254q-3 -12 -5.5 -21q-2.5 -9 -2.5 -18q0 -12 11 -15.5q11 -3.5 29 -3.5h113q32 0 60.5 2.5q28.5 2.5 54 13.5q25.5 11 49.5 34.5q24 23.5 47 65.5l26 0l-43 -158h-500l7 27q33 0 47 13q14 13 22 43l143 534q1 4 4.5 17q3.5 13 3.5 23q0 3 -1 5.5q-1 2.5 -5.5 5q-4.5 2.5 -13.5 4q-9 1.5 -26 1.5h-8l7 27h433zM381 771h-26l60 142l164 0z" />
<glyph unicode="&#202;" horiz-adv-x="655" d="M641 547h-25q-14 39 -33.5 61.5q-19.5 22.5 -41.5 33.5q-22 11 -46 13.5q-24 2.5 -46 2.5h-50q-26 0 -40 -5q-14 -5 -21 -13q-7 -8 -9 -18.5q-2 -10.5 -5 -21.5l-56 -204h126q17 0 34.5 1.5q17.5 1.5 33.5 7.5q16 6 29 18.5q13 12.5 21 35.5l25 0l-48 -176h-25q0 27 -5 41.5q-5 14.5 -13 21q-8 6.5 -19 7.5q-11 1 -24 1h-145l-69 -254q-3 -12 -5.5 -21q-2.5 -9 -2.5 -18q0 -12 11 -15.5q11 -3.5 29 -3.5h113q32 0 60.5 2.5q28.5 2.5 54 13.5q25.5 11 49.5 34.5q24 23.5 47 65.5l26 0l-43 -158h-500l7 27q33 0 47 13q14 13 22 43l143 534q1 4 4.5 17q3.5 13 3.5 23q0 3 -1 5.5q-1 2.5 -5.5 5q-4.5 2.5 -13.5 4q-9 1.5 -26 1.5h-8l7 27h433zM243 758v20l146 135h42l120 -142l-14 -13l-129 80z" />
<glyph unicode="&#203;" horiz-adv-x="655" d="M641 547h-25q-14 39 -33.5 61.5q-19.5 22.5 -41.5 33.5q-22 11 -46 13.5q-24 2.5 -46 2.5h-50q-26 0 -40 -5q-14 -5 -21 -13q-7 -8 -9 -18.5q-2 -10.5 -5 -21.5l-56 -204h126q17 0 34.5 1.5q17.5 1.5 33.5 7.5q16 6 29 18.5q13 12.5 21 35.5l25 0l-48 -176h-25q0 27 -5 41.5q-5 14.5 -13 21q-8 6.5 -19 7.5q-11 1 -24 1h-145l-69 -254q-3 -12 -5.5 -21q-2.5 -9 -2.5 -18q0 -12 11 -15.5q11 -3.5 29 -3.5h113q32 0 60.5 2.5q28.5 2.5 54 13.5q25.5 11 49.5 34.5q24 23.5 47 65.5l26 0l-43 -158h-500l7 27q33 0 47 13q14 13 22 43l143 534q1 4 4.5 17q3.5 13 3.5 23q0 3 -1 5.5q-1 2.5 -5.5 5q-4.5 2.5 -13.5 4q-9 1.5 -26 1.5h-8l7 27h433zM282 848q0 32 21 48.5q21 16.5 44 16.5q26 0 45.5 -19.5q19.5 -19.5 19.5 -45.5q0 -27 -19.5 -46q-19.5 -19 -45.5 -19q-10 0 -21.5 4q-11.5 4 -21 12q-9.5 8 -16 20q-6.5 12 -6.5 29zt0 0zM516 848q0 32 21 48.5q21 16.5 44 16.5q26 0 45.5 -19.5q19.5 -19.5 19.5 -45.5q0 -27 -19.5 -46q-19.5 -19 -45.5 -19q-10 0 -21.5 4q-11.5 4 -21 12q-9.5 8 -16 20t-6.5 29z" />
<glyph unicode="&#204;" horiz-adv-x="375" d="M396 673q-22 0 -34 -5q-12 -5 -18.5 -12.5q-6.5 -7.5 -9.5 -17.5q-3 -10 -6 -21l-143 -534q-2 -7 -4.5 -15.5q-2.5 -8.5 -3.5 -16.5l0 -7q1 -6 5.5 -11.5q4.5 -5.5 20.5 -5.5h24l-7 -27h-192l7 27q33 0 47 13q14 13 22 43l142 534q5 17 6.5 22q1.5 5 2.5 10l0 8q-2 10 -11 13q-9 3 -35 3h-7l7 27h194zM317 913l60 -142h-25l-199 142z" />
<glyph unicode="&#205;" horiz-adv-x="375" d="M396 673q-22 0 -34 -5q-12 -5 -18.5 -12.5q-6.5 -7.5 -9.5 -17.5q-3 -10 -6 -21l-143 -534q-2 -7 -4.5 -15.5q-2.5 -8.5 -3.5 -16.5l0 -7q1 -6 5.5 -11.5q4.5 -5.5 20.5 -5.5h24l-7 -27h-192l7 27q33 0 47 13q14 13 22 43l142 534q5 17 6.5 22q1.5 5 2.5 10l0 8q-2 10 -11 13q-9 3 -35 3h-7l7 27h194zM241 771h-26l60 142l164 0z" />
<glyph unicode="&#206;" horiz-adv-x="375" d="M396 673q-22 0 -34 -5q-12 -5 -18.5 -12.5q-6.5 -7.5 -9.5 -17.5q-3 -10 -6 -21l-143 -534q-2 -7 -4.5 -15.5q-2.5 -8.5 -3.5 -16.5l0 -7q1 -6 5.5 -11.5q4.5 -5.5 20.5 -5.5h24l-7 -27h-192l7 27q33 0 47 13q14 13 22 43l142 534q5 17 6.5 22q1.5 5 2.5 10l0 8q-2 10 -11 13q-9 3 -35 3h-7l7 27h194zM175 758v20l146 135h42l120 -142l-14 -13l-129 80z" />
<glyph unicode="&#207;" horiz-adv-x="375" d="M396 673q-22 0 -34 -5q-12 -5 -18.5 -12.5q-6.5 -7.5 -9.5 -17.5q-3 -10 -6 -21l-143 -534q-2 -7 -4.5 -15.5q-2.5 -8.5 -3.5 -16.5l0 -7q1 -6 5.5 -11.5q4.5 -5.5 20.5 -5.5h24l-7 -27h-192l7 27q33 0 47 13q14 13 22 43l142 534q5 17 6.5 22q1.5 5 2.5 10l0 8q-2 10 -11 13q-9 3 -35 3h-7l7 27h194zM142 848q0 32 21 48.5q21 16.5 44 16.5q26 0 45.5 -19.5q19.5 -19.5 19.5 -45.5q0 -27 -19.5 -46q-19.5 -19 -45.5 -19q-10 0 -21.5 4q-11.5 4 -21 12q-9.5 8 -16 20q-6.5 12 -6.5 29zt0 0zM376 848q0 32 21 48.5q21 16.5 44 16.5q26 0 45.5 -19.5q19.5 -19.5 19.5 -45.5q0 -27 -19.5 -46q-19.5 -19 -45.5 -19q-10 0 -21.5 4q-11.5 4 -21 12q-9.5 8 -16 20t-6.5 29z" />
<glyph unicode="&#208;" horiz-adv-x="757" d="M418 700q24 0 55.5 -2.5q31.5 -2.5 64.5 -11q33 -8.5 65.5 -25.5q32.5 -17 58 -47q25.5 -30 41 -75q15.5 -45 15.5 -108q0 -93 -23 -161q-23 -68 -60 -116q-37 -48 -83.5 -78q-46.5 -30 -93 -47q-46.5 -17 -89 -23q-42.5 -6 -71.5 -6h-270l7 27q33 0 47 13q14 13 22 43l78 290h-87l11 42h87l54 202q1 3 4.5 17q3.5 14 3.5 23q0 11 -10 13.5q-10 2.5 -36 2.5h-7l7 27zM275 415h140l-12 -42h-139l-73 -273q-7 -24 -8 -30.5q-1 -6.5 -1 -8.5q0 -11 8 -15q8 -4 19 -4h52q51 0 102.5 10q51.5 10 95.5 40q35 24 65.5 64q30.5 40 52.5 87.5q22 47.5 34.5 98.5q12.5 51 12.5 98q0 36 -6 74.5q-6 38.5 -27.5 70.5q-21.5 32 -63 52.5q-41.5 20.5 -113.5 20.5h-34q-29 0 -38.5 -16.5q-9.5 -16.5 -16.5 -41.5z" />
<glyph unicode="&#209;" horiz-adv-x="784" d="M562 124l115 445q1 4 2.5 13q1.5 9 3 19.5q1.5 10.5 2.5 21q1 10.5 1 17.5q0 23 -18.5 27.5q-18.5 4.5 -44.5 5.5l7 27h182l-7 -27q-12 0 -25 -4q-13 -4 -25.5 -14.5q-12.5 -10.5 -23 -28.5q-10.5 -18 -17.5 -46l-148 -580h-54l-224 569h-7l-108 -413q-9 -33 -11.5 -50q-2.5 -17 -2.5 -30q0 -26 19 -37q19 -11 49 -12l-7 -27h-192l7 27q22 1 38 10q16 9 26.5 24q10.5 15 18 34.5q7.5 19.5 13.5 42.5l116 442q7 27 8.5 39.5q1.5 12.5 1.5 21.5q0 4 -2.5 10q-2.5 6 -9.5 11q-7 5 -19.5 8q-12.5 3 -32.5 3l7 27h129l227 -576zM722 866q-17 -14 -34.5 -29q-17.5 -15 -34.5 -27q-17 -12 -33 -19.5q-16 -7.5 -31 -7.5q-19 0 -43 9.5q-24 9.5 -57 23.5q-16 6 -28.5 9.5q-12.5 3.5 -23.5 3.5q-11 0 -34.5 -9q-23.5 -9 -60.5 -37l-12 13q12 12 29.5 26.5q17.5 14.5 36 28q18.5 13.5 37 22.5q18.5 9 32.5 9q12 0 26 -5q14 -5 29 -11q35 -14 56.5 -22q21.5 -8 35.5 -8q24 0 48.5 12q24.5 12 49.5 32z" />
<glyph unicode="&#210;" horiz-adv-x="762" d="M478 714q55 0 100.5 -18.5q45.5 -18.5 77.5 -51.5q32 -33 49.5 -78.5q17.5 -45.5 17.5 -99.5q0 -42 -8 -88q-8 -46 -23 -91.5q-15 -45.5 -36.5 -87.5q-21.5 -42 -48.5 -76q-51 -64 -120 -100.5q-69 -36.5 -161 -36.5q-52 0 -96 19.5q-44 19.5 -76.5 55q-32.5 35.5 -51 86q-18.5 50.5 -18.5 112.5q0 37 8 79.5q8 42.5 25 86.5q17 44 43.5 88q26.5 44 62.5 84q38 42 75.5 65.5q37.5 23.5 70.5 35q33 11.5 61 14q28 2.5 48 2.5zt0 0zM477 672q-35 0 -65 -8.5q-30 -8.5 -57.5 -27.5q-27.5 -19 -53.5 -50.5q-26 -31.5 -51 -77.5q-15 -28 -29 -63.5q-14 -35.5 -24.5 -74.5q-10.5 -39 -17 -79q-6.5 -40 -6.5 -76q0 -37 10 -70.5q10 -33.5 30 -59.5q20 -26 50.5 -41.5q30.5 -15.5 71.5 -15.5q49 0 86.5 20q37.5 20 65 48q27.5 28 46 59q18.5 31 29.5 54q14 29 27 64q13 35 23 72.5q10 37.5 16 75.5q6 38 6 72q0 36 -10 68.5q-10 32.5 -29.5 57q-19.5 24.5 -49 39q-29.5 14.5 -68.5 14.5zt0 0zM511 913l60 -142h-25l-199 142z" />
<glyph unicode="&#211;" horiz-adv-x="762" d="M478 714q55 0 100.5 -18.5q45.5 -18.5 77.5 -51.5q32 -33 49.5 -78.5q17.5 -45.5 17.5 -99.5q0 -42 -8 -88q-8 -46 -23 -91.5q-15 -45.5 -36.5 -87.5q-21.5 -42 -48.5 -76q-51 -64 -120 -100.5q-69 -36.5 -161 -36.5q-52 0 -96 19.5q-44 19.5 -76.5 55q-32.5 35.5 -51 86q-18.5 50.5 -18.5 112.5q0 37 8 79.5q8 42.5 25 86.5q17 44 43.5 88q26.5 44 62.5 84q38 42 75.5 65.5q37.5 23.5 70.5 35q33 11.5 61 14q28 2.5 48 2.5zt0 0zM477 672q-35 0 -65 -8.5q-30 -8.5 -57.5 -27.5q-27.5 -19 -53.5 -50.5q-26 -31.5 -51 -77.5q-15 -28 -29 -63.5q-14 -35.5 -24.5 -74.5q-10.5 -39 -17 -79q-6.5 -40 -6.5 -76q0 -37 10 -70.5q10 -33.5 30 -59.5q20 -26 50.5 -41.5q30.5 -15.5 71.5 -15.5q49 0 86.5 20q37.5 20 65 48q27.5 28 46 59q18.5 31 29.5 54q14 29 27 64q13 35 23 72.5q10 37.5 16 75.5q6 38 6 72q0 36 -10 68.5q-10 32.5 -29.5 57q-19.5 24.5 -49 39q-29.5 14.5 -68.5 14.5zt0 0zM478 771h-26l60 142l164 0z" />
<glyph unicode="&#212;" horiz-adv-x="762" d="M478 714q55 0 100.5 -18.5q45.5 -18.5 77.5 -51.5q32 -33 49.5 -78.5q17.5 -45.5 17.5 -99.5q0 -42 -8 -88q-8 -46 -23 -91.5q-15 -45.5 -36.5 -87.5q-21.5 -42 -48.5 -76q-51 -64 -120 -100.5q-69 -36.5 -161 -36.5q-52 0 -96 19.5q-44 19.5 -76.5 55q-32.5 35.5 -51 86q-18.5 50.5 -18.5 112.5q0 37 8 79.5q8 42.5 25 86.5q17 44 43.5 88q26.5 44 62.5 84q38 42 75.5 65.5q37.5 23.5 70.5 35q33 11.5 61 14q28 2.5 48 2.5zt0 0zM477 672q-35 0 -65 -8.5q-30 -8.5 -57.5 -27.5q-27.5 -19 -53.5 -50.5q-26 -31.5 -51 -77.5q-15 -28 -29 -63.5q-14 -35.5 -24.5 -74.5q-10.5 -39 -17 -79q-6.5 -40 -6.5 -76q0 -37 10 -70.5q10 -33.5 30 -59.5q20 -26 50.5 -41.5q30.5 -15.5 71.5 -15.5q49 0 86.5 20q37.5 20 65 48q27.5 28 46 59q18.5 31 29.5 54q14 29 27 64q13 35 23 72.5q10 37.5 16 75.5q6 38 6 72q0 36 -10 68.5q-10 32.5 -29.5 57q-19.5 24.5 -49 39q-29.5 14.5 -68.5 14.5zt0 0zM297 758v20l146 135h42l120 -142l-14 -13l-129 80z" />
<glyph unicode="&#213;" horiz-adv-x="762" d="M478 714q55 0 100.5 -18.5q45.5 -18.5 77.5 -51.5q32 -33 49.5 -78.5q17.5 -45.5 17.5 -99.5q0 -42 -8 -88q-8 -46 -23 -91.5q-15 -45.5 -36.5 -87.5q-21.5 -42 -48.5 -76q-51 -64 -120 -100.5q-69 -36.5 -161 -36.5q-52 0 -96 19.5q-44 19.5 -76.5 55q-32.5 35.5 -51 86q-18.5 50.5 -18.5 112.5q0 37 8 79.5q8 42.5 25 86.5q17 44 43.5 88q26.5 44 62.5 84q38 42 75.5 65.5q37.5 23.5 70.5 35q33 11.5 61 14q28 2.5 48 2.5zt0 0zM477 672q-35 0 -65 -8.5q-30 -8.5 -57.5 -27.5q-27.5 -19 -53.5 -50.5q-26 -31.5 -51 -77.5q-15 -28 -29 -63.5q-14 -35.5 -24.5 -74.5q-10.5 -39 -17 -79q-6.5 -40 -6.5 -76q0 -37 10 -70.5q10 -33.5 30 -59.5q20 -26 50.5 -41.5q30.5 -15.5 71.5 -15.5q49 0 86.5 20q37.5 20 65 48q27.5 28 46 59q18.5 31 29.5 54q14 29 27 64q13 35 23 72.5q10 37.5 16 75.5q6 38 6 72q0 36 -10 68.5q-10 32.5 -29.5 57q-19.5 24.5 -49 39q-29.5 14.5 -68.5 14.5zt0 0zM711 866q-17 -14 -34.5 -29q-17.5 -15 -34.5 -27q-17 -12 -33 -19.5q-16 -7.5 -31 -7.5q-19 0 -43 9.5q-24 9.5 -57 23.5q-16 6 -28.5 9.5q-12.5 3.5 -23.5 3.5q-11 0 -34.5 -9q-23.5 -9 -60.5 -37l-12 13q12 12 29.5 26.5q17.5 14.5 36 28q18.5 13.5 37 22.5q18.5 9 32.5 9q12 0 26 -5q14 -5 29 -11q35 -14 56.5 -22q21.5 -8 35.5 -8q24 0 48.5 12q24.5 12 49.5 32z" />
<glyph unicode="&#214;" horiz-adv-x="762" d="M478 714q55 0 100.5 -18.5q45.5 -18.5 77.5 -51.5q32 -33 49.5 -78.5q17.5 -45.5 17.5 -99.5q0 -42 -8 -88q-8 -46 -23 -91.5q-15 -45.5 -36.5 -87.5q-21.5 -42 -48.5 -76q-51 -64 -120 -100.5q-69 -36.5 -161 -36.5q-52 0 -96 19.5q-44 19.5 -76.5 55q-32.5 35.5 -51 86q-18.5 50.5 -18.5 112.5q0 37 8 79.5q8 42.5 25 86.5q17 44 43.5 88q26.5 44 62.5 84q38 42 75.5 65.5q37.5 23.5 70.5 35q33 11.5 61 14q28 2.5 48 2.5zt0 0zM477 672q-35 0 -65 -8.5q-30 -8.5 -57.5 -27.5q-27.5 -19 -53.5 -50.5q-26 -31.5 -51 -77.5q-15 -28 -29 -63.5q-14 -35.5 -24.5 -74.5q-10.5 -39 -17 -79q-6.5 -40 -6.5 -76q0 -37 10 -70.5q10 -33.5 30 -59.5q20 -26 50.5 -41.5q30.5 -15.5 71.5 -15.5q49 0 86.5 20q37.5 20 65 48q27.5 28 46 59q18.5 31 29.5 54q14 29 27 64q13 35 23 72.5q10 37.5 16 75.5q6 38 6 72q0 36 -10 68.5q-10 32.5 -29.5 57q-19.5 24.5 -49 39q-29.5 14.5 -68.5 14.5zt0 0zM336 848q0 32 21 48.5q21 16.5 44 16.5q26 0 45.5 -19.5q19.5 -19.5 19.5 -45.5q0 -27 -19.5 -46q-19.5 -19 -45.5 -19q-10 0 -21.5 4q-11.5 4 -21 12q-9.5 8 -16 20q-6.5 12 -6.5 29zt0 0zM570 848q0 32 21 48.5q21 16.5 44 16.5q26 0 45.5 -19.5q19.5 -19.5 19.5 -45.5q0 -27 -19.5 -46q-19.5 -19 -45.5 -19q-10 0 -21.5 4q-11.5 4 -21 12q-9.5 8 -16 20t-6.5 29z" />
<glyph unicode="&#215;" horiz-adv-x="672" d="M502 133l-166 167l-167 -167l-50 50l166 167l-166 167l50 50l167 -167l166 167l51 -50l-167 -167l167 -167z" />
<glyph unicode="&#216;" horiz-adv-x="999" d="M76 30l151 118q-8 22 -11.5 47.5q-3.5 25.5 -3.5 63.5q0 56 13.5 106.5q13.5 50.5 33.5 94q20 43.5 44.5 78.5q24.5 35 46.5 59q38 42 75 65.5q37 23.5 70.5 35q33.5 11.5 61 14q27.5 2.5 45.5 2.5q15 0 40 -3.5q25 -3.5 54 -15q29 -11.5 58.5 -34q29.5 -22.5 53.5 -60.5l120 94l21 -30l-124 -97q8 -19 15 -43.5q7 -24.5 7 -58.5q0 -42 -8 -88q-8 -46 -23 -91.5q-15 -45.5 -36.5 -87.5q-21.5 -42 -48.5 -76q-34 -43 -70.5 -70q-36.5 -27 -73 -42q-36.5 -15 -71.5 -20q-35 -5 -66 -5q-12 0 -36.5 3q-24.5 3 -54 16q-29.5 13 -61 38q-31.5 25 -56.5 70l-146 -114zM751 560q-6 24 -19 44.5q-13 20.5 -32.5 35.5q-19.5 15 -43.5 23.5q-24 8.5 -52 8.5q-79 0 -132 -42q-53 -42 -95 -121q-15 -29 -29 -65q-14 -36 -24.5 -74.5q-10.5 -38.5 -16.5 -78q-6 -39.5 -6 -76.5v-9zM306 163q4 -27 16.5 -52q12.5 -25 32 -44q19.5 -19 46.5 -30q27 -11 61 -11q49 0 86.5 20q37.5 20 65 48.5q27.5 28.5 46 59.5q18.5 31 29.5 53q13 27 26 62q13 35 23 72.5q10 37.5 16.5 75.5q6.5 38 6.5 72q0 7 -0.5 13.5q-0.5 6.5 -1.5 13.5z" />
<glyph unicode="&#217;" horiz-adv-x="832" d="M402 673q-33 2 -51.5 -19q-18.5 -21 -28.5 -59l-87 -322q-2 -8 -5 -21q-3 -13 -5.5 -28q-2.5 -15 -4.5 -30.5q-2 -15.5 -2 -28.5q0 -35 12 -60.5q12 -25.5 33 -42.5q21 -17 50 -25.5q29 -8.5 63 -8.5q43 0 78 13.5q35 13.5 63.5 45.5q28.5 32 52 84q23.5 52 43.5 129l70 270q8 29 10 42q2 13 2 22q0 23 -15 31q-15 8 -40 8l7 27h164l-7 -27h-8q-21 0 -33.5 -11q-12.5 -11 -20.5 -28q-8 -17 -13 -39q-5 -22 -10 -43l-52 -207q-9 -37 -18 -74q-9 -37 -21 -72q-12 -35 -28 -67.5q-16 -32.5 -39 -59.5q-22 -26 -46 -42q-24 -16 -48 -25.5q-24 -9.5 -46.5 -13.5q-22.5 -4 -41.5 -5l-18 0q-11 0 -32 2q-21 2 -45.5 8.5q-24.5 6.5 -50 18.5q-25.5 12 -46.5 32q-21 20 -34 50q-13 30 -13 73q0 14 3.5 41q3.5 27 15.5 72l82 315q2 5 5 20q3 15 3 22q0 22 -16 26.5q-16 4.5 -36 6.5l6 27h206zM546 913l60 -142h-25l-199 142z" />
<glyph unicode="&#218;" horiz-adv-x="832" d="M402 673q-33 2 -51.5 -19q-18.5 -21 -28.5 -59l-87 -322q-2 -8 -5 -21q-3 -13 -5.5 -28q-2.5 -15 -4.5 -30.5q-2 -15.5 -2 -28.5q0 -35 12 -60.5q12 -25.5 33 -42.5q21 -17 50 -25.5q29 -8.5 63 -8.5q43 0 78 13.5q35 13.5 63.5 45.5q28.5 32 52 84q23.5 52 43.5 129l70 270q8 29 10 42q2 13 2 22q0 23 -15 31q-15 8 -40 8l7 27h164l-7 -27h-8q-21 0 -33.5 -11q-12.5 -11 -20.5 -28q-8 -17 -13 -39q-5 -22 -10 -43l-52 -207q-9 -37 -18 -74q-9 -37 -21 -72q-12 -35 -28 -67.5q-16 -32.5 -39 -59.5q-22 -26 -46 -42q-24 -16 -48 -25.5q-24 -9.5 -46.5 -13.5q-22.5 -4 -41.5 -5l-18 0q-11 0 -32 2q-21 2 -45.5 8.5q-24.5 6.5 -50 18.5q-25.5 12 -46.5 32q-21 20 -34 50q-13 30 -13 73q0 14 3.5 41q3.5 27 15.5 72l82 315q2 5 5 20q3 15 3 22q0 22 -16 26.5q-16 4.5 -36 6.5l6 27h206zM493 771h-26l60 142l164 0z" />
<glyph unicode="&#219;" horiz-adv-x="832" d="M402 673q-33 2 -51.5 -19q-18.5 -21 -28.5 -59l-87 -322q-2 -8 -5 -21q-3 -13 -5.5 -28q-2.5 -15 -4.5 -30.5q-2 -15.5 -2 -28.5q0 -35 12 -60.5q12 -25.5 33 -42.5q21 -17 50 -25.5q29 -8.5 63 -8.5q43 0 78 13.5q35 13.5 63.5 45.5q28.5 32 52 84q23.5 52 43.5 129l70 270q8 29 10 42q2 13 2 22q0 23 -15 31q-15 8 -40 8l7 27h164l-7 -27h-8q-21 0 -33.5 -11q-12.5 -11 -20.5 -28q-8 -17 -13 -39q-5 -22 -10 -43l-52 -207q-9 -37 -18 -74q-9 -37 -21 -72q-12 -35 -28 -67.5q-16 -32.5 -39 -59.5q-22 -26 -46 -42q-24 -16 -48 -25.5q-24 -9.5 -46.5 -13.5q-22.5 -4 -41.5 -5l-18 0q-11 0 -32 2q-21 2 -45.5 8.5q-24.5 6.5 -50 18.5q-25.5 12 -46.5 32q-21 20 -34 50q-13 30 -13 73q0 14 3.5 41q3.5 27 15.5 72l82 315q2 5 5 20q3 15 3 22q0 22 -16 26.5q-16 4.5 -36 6.5l6 27h206zM372 758v20l146 135h42l120 -142l-14 -13l-129 80z" />
<glyph unicode="&#220;" horiz-adv-x="832" d="M402 673q-33 2 -51.5 -19q-18.5 -21 -28.5 -59l-87 -322q-2 -8 -5 -21q-3 -13 -5.5 -28q-2.5 -15 -4.5 -30.5q-2 -15.5 -2 -28.5q0 -35 12 -60.5q12 -25.5 33 -42.5q21 -17 50 -25.5q29 -8.5 63 -8.5q43 0 78 13.5q35 13.5 63.5 45.5q28.5 32 52 84q23.5 52 43.5 129l70 270q8 29 10 42q2 13 2 22q0 23 -15 31q-15 8 -40 8l7 27h164l-7 -27h-8q-21 0 -33.5 -11q-12.5 -11 -20.5 -28q-8 -17 -13 -39q-5 -22 -10 -43l-52 -207q-9 -37 -18 -74q-9 -37 -21 -72q-12 -35 -28 -67.5q-16 -32.5 -39 -59.5q-22 -26 -46 -42q-24 -16 -48 -25.5q-24 -9.5 -46.5 -13.5q-22.5 -4 -41.5 -5l-18 0q-11 0 -32 2q-21 2 -45.5 8.5q-24.5 6.5 -50 18.5q-25.5 12 -46.5 32q-21 20 -34 50q-13 30 -13 73q0 14 3.5 41q3.5 27 15.5 72l82 315q2 5 5 20q3 15 3 22q0 22 -16 26.5q-16 4.5 -36 6.5l6 27h206zM371 848q0 32 21 48.5q21 16.5 44 16.5q26 0 45.5 -19.5q19.5 -19.5 19.5 -45.5q0 -27 -19.5 -46q-19.5 -19 -45.5 -19q-10 0 -21.5 4q-11.5 4 -21 12q-9.5 8 -16 20q-6.5 12 -6.5 29zt0 0zM605 848q0 32 21 48.5q21 16.5 44 16.5q26 0 45.5 -19.5q19.5 -19.5 19.5 -45.5q0 -27 -19.5 -46q-19.5 -19 -45.5 -19q-10 0 -21.5 4q-11.5 4 -21 12q-9.5 8 -16 20t-6.5 29z" />
<glyph unicode="&#221;" horiz-adv-x="649" d="M209 604q-8 32 -26 49.5q-18 17.5 -57 19.5l6 27h205l-7 -27q-25 -3 -38 -5.5q-13 -2.5 -13 -21.5q0 -5 2.5 -16q2.5 -11 3.5 -15l67 -254h10l151 220q4 6 11 15q7 9 14.5 19.5q7.5 10.5 13 21q5.5 10.5 5.5 18.5q0 12 -13 15q-13 3 -25 3h-8l7 27h159l-7 -27q-20 -5 -33.5 -12.5q-13.5 -7.5 -23.5 -16.5q-10 -9 -17 -19.5q-7 -10.5 -14 -20.5l-212 -303l-59 -218q-2 -5 -4 -13q-2 -8 -4 -19l0 -7q1 -6 5.5 -11.5q4.5 -5.5 20.5 -5.5h24l-7 -27h-192l7 27q21 0 33 5q12 5 19 13q7 8 10 18q3 10 6 20l59 218zM408 771h-26l60 142l164 0z" />
</font>
</defs>
</svg>
