<?xml version="1.0" encoding="UTF-8" standalone="no"?>
<!DOCTYPE svg PUBLIC "-//W3C//DTD SVG 1.1//EN" "http://www.w3.org/Graphics/SVG/1.1/DTD/svg11.dtd" >
<svg xmlns="http://www.w3.org/2000/svg">
<metadata>
Generated by SVGconv.
Copyright   : Copyright  1990 ParaGraph Intl,  1998 ParaType Inc., ParaType Ltd. All rights reserved.
Designer    : Lyubov Kuznetsova
Foundry     : ParaType Ltd
Foundry URL : http://www.paratype.com
</metadata>
<defs>
<font id="QuantAntiquaWeb-Regular" horiz-adv-x="567" >
<font-face units-per-em="1000" ascent="927" descent="373" >
<font-face-src>
<font-face-name/>
</font-face-src>
</font-face>
<missing-glyph horiz-adv-x="500" />
<glyph unicode="&#13;" horiz-adv-x="233" />
<glyph unicode="&#32;" horiz-adv-x="233" />
<glyph unicode="&#33;" horiz-adv-x="280" d="M118 182q-1 54 -1.5 84q-0.5 30 -1.5 53q-1 23 -2.5 46q-1.5 23 -5.5 62q-4 39 -7 67.5q-3 28.5 -5 50.5q-2 22 -3 38.5q-1 16.5 -1 31.5q0 14 1 31.5q1 17.5 6 32.5q5 15 14.5 25q9.5 10 27.5 10q19 0 29 -12q10 -12 14.5 -28.5q4.5 -16.5 5 -33q0.5 -16.5 0.5 -25.5q0 -36 -5 -78.5q-5 -42.5 -11 -109.5q-5 -50 -7 -87.5q-2 -37.5 -3 -66q-1 -28.5 -1 -50.5q0 -22 1 -41zM91 35q0 13 5 22q5 9 12.5 15q7.5 6 16 9q8.5 3 15.5 3q20 0 34.5 -14.5q14.5 -14.5 14.5 -34.5q0 -18 -13.5 -33.5q-13.5 -15.5 -35.5 -15.5q-16 0 -32.5 12t-16.5 37z" />
<glyph unicode="&#34;" horiz-adv-x="395" d="M117 493h-39l-28 221h95zM293 493h-38l-29 221l96 0z" />
<glyph unicode="&#35;" horiz-adv-x="910" d="M756 168h-168l-45 -168h-63l45 168h-238l-45 -168h-63l45 168h-168l16 63h168l64 238h-168l17 63h168l45 168h63l-45 -168h238l45 168h63l-45 -168h169l-17 -63h-169l-64 -238h168zM303 231h238l64 238l-238 0z" />
<glyph unicode="&#36;" horiz-adv-x="700" d="M334 -14q-25 2 -51.5 7.5q-26.5 5.5 -52 15.5q-25.5 10 -49.5 24q-24 14 -43 32q-14 12 -21.5 24q-7.5 12 -12 22.5q-4.5 10.5 -5.5 18q-1 7.5 -1 10.5q0 26 14 41.5q14 15.5 34 15.5q10 0 20 -2.5q10 -2.5 18.5 -9.5q8.5 -7 15 -20.5q6.5 -13.5 9.5 -35.5q4 -28 17 -47q13 -19 30.5 -30.5q17.5 -11.5 38 -17q20.5 -5.5 39.5 -6.5l0 301q-33 16 -68 34.5q-35 18.5 -64 42.5q-29 24 -47.5 53.5q-18.5 29.5 -18.5 68.5q0 31 13.5 62.5q13.5 31.5 39 57.5q25.5 26 62 43.5q36.5 17.5 83.5 22.5l0 56h42v-56q26 -3 58.5 -11.5q32.5 -8.5 61 -23.5q28.5 -15 47.5 -36.5q19 -21.5 19 -49.5q0 -24 -12 -36q-12 -12 -32 -12q-16 0 -25.5 6.5q-9.5 6.5 -15 16q-5.5 9.5 -9 20.5q-3.5 11 -7.5 20q-10 23 -30 40q-20 17 -55 22l0 -252q40 -20 80.5 -43q40.5 -23 72.5 -52q32 -29 52.5 -65.5q20.5 -36.5 20.5 -84.5q0 -35 -17 -67.5q-17 -32.5 -47.5 -58q-30.5 -25.5 -72 -42q-41.5 -16.5 -89.5 -19.5l0 -84h-42zM334 672q-22 0 -44 -7q-22 -7 -40 -19.5q-18 -12.5 -29 -31q-11 -18.5 -11 -41.5q0 -41 29.5 -75q29.5 -34 94.5 -62zM376 28q29 3 56 13q27 10 47.5 27q20.5 17 33 40q12.5 23 12.5 52q0 26 -10 47q-10 21 -29 39q-19 18 -47 33.5q-28 15.5 -63 31.5z" />
<glyph unicode="&#37;" horiz-adv-x="1044" d="M126 580q0 32 11.5 64.5q11.5 32.5 33.5 59q22 26.5 53.5 43q31.5 16.5 71.5 16.5q43 0 75.5 -18q32.5 -18 54 -45q21.5 -27 32 -59.5q10.5 -32.5 10.5 -60.5q0 -29 -10.5 -61q-10.5 -32 -32 -59q-21.5 -27 -54 -45q-32.5 -18 -75.5 -18q-40 0 -71.5 16.5q-31.5 16.5 -53.5 43q-22 26.5 -33.5 59q-11.5 32.5 -11.5 64.5zt0 0zM212 555q0 -22 3.5 -46q3.5 -24 13 -44.5q9.5 -20.5 26.5 -33.5q17 -13 43 -13q28 0 45 15.5q17 15.5 25.5 37.5q8.5 22 11 45.5q2.5 23.5 2.5 39.5v48q0 15 -2.5 38.5q-2.5 23.5 -11.5 45.5q-9 22 -25.5 38q-16.5 16 -44.5 16q-29 0 -46 -15.5q-17 -15.5 -26 -37.5q-9 -22 -11.5 -45.5q-2.5 -23.5 -2.5 -38.5zM256 -122l487 963l40 -21l-487 -961zM580 137q0 31 11.5 63.5q11.5 32.5 33.5 58.5q22 26 53.5 43q31.5 17 70.5 17q35 0 65.5 -14.5q30.5 -14.5 53.5 -39.5q23 -25 36.5 -58.5q13.5 -33.5 13.5 -70.5q0 -37 -13.5 -70.5q-13.5 -33.5 -36.5 -58.5q-23 -25 -53.5 -39.5q-30.5 -14.5 -65.5 -14.5q-39 0 -70.5 17q-31.5 17 -53.5 43.5q-22 26.5 -33.5 59q-11.5 32.5 -11.5 64.5zt0 0zM666 111q0 -29 4.5 -54q4.5 -25 14 -43.5q9.5 -18.5 25.5 -29q16 -10.5 39 -10.5q43 0 63 38.5q20 38.5 20 98.5v48q0 47 -10 74.5q-10 27.5 -23.5 42q-13.5 14.5 -27.5 18.5q-14 4 -22 4q-9 0 -23.5 -4.5q-14.5 -4.5 -27.5 -18.5q-13 -14 -22.5 -41.5q-9.5 -27.5 -9.5 -73.5z" />
<glyph unicode="&#38;" horiz-adv-x="710" d="M645 389v-25q-28 -4 -47 -19q-19 -15 -35 -39q-16 -24 -30.5 -56q-14.5 -32 -33.5 -70l48 -75q23 -36 51.5 -58q28.5 -22 54.5 -22h12v-25h-145l-68 103h-4q-23 -27 -44.5 -49q-21.5 -22 -46 -37q-24.5 -15 -54.5 -23q-30 -8 -69 -8q-40 0 -74 11.5q-34 11.5 -58.5 33.5q-24.5 22 -38.5 52.5q-14 30.5 -14 69.5q0 44 16.5 80.5q16.5 36.5 44.5 68q28 31.5 66 58.5q38 27 80 52q-22 31 -39.5 64.5q-17.5 33.5 -17.5 73.5q0 30 9.5 59.5q9.5 29.5 28.5 52.5q19 23 48 37.5q29 14.5 68 14.5q33 0 57.5 -12q24.5 -12 40 -30q15.5 -18 23 -40q7.5 -22 7.5 -43q0 -28 -10.5 -51.5q-10.5 -23.5 -29.5 -44q-19 -20.5 -44 -37.5q-25 -17 -55 -33l133 -206q17 32 27.5 60q10.5 28 10.5 52q0 11 -9 21q-9 10 -36 14l0 25zM324 450q19 10 38 26q19 16 33.5 35.5q14.5 19.5 23.5 41.5q9 22 9 45q0 38 -24 56q-24 18 -53 18q-36 0 -64 -20.5q-28 -20.5 -28 -62.5q0 -22 9 -43q9 -21 29 -53zM271 380q-36 -23 -60.5 -48.5q-24.5 -25.5 -39.5 -51q-15 -25.5 -22 -50.5q-7 -25 -7 -48q0 -32 12 -56.5q12 -24.5 32.5 -41q20.5 -16.5 47 -24.5q26.5 -8 55.5 -8q13 0 28.5 4q15.5 4 33 14.5q17.5 10.5 36.5 28.5q19 18 39 46l-147 236z" />
<glyph unicode="&#39;" horiz-adv-x="219" d="M117 493h-38l-29 221l96 0z" />
<glyph unicode="&#40;" horiz-adv-x="388" d="M318 801q-24 -23 -49 -57.5q-25 -34.5 -45.5 -88q-20.5 -53.5 -34 -128q-13.5 -74.5 -13.5 -177.5q0 -103 13.5 -178q13.5 -75 34 -128.5q20.5 -53.5 45.5 -88q25 -34.5 49 -56.5l-19 -18q-73 61 -118 125.5q-45 64.5 -69.5 126.5q-24.5 62 -33 118q-8.5 56 -8.5 99q0 34 6.5 87q6.5 53 30 116.5q23.5 63.5 69 132q45.5 68.5 123.5 133.5z" />
<glyph unicode="&#41;" horiz-adv-x="388" d="M90 819q78 -65 123 -133.5q45 -68.5 68.5 -132q23.5 -63.5 30 -117q6.5 -53.5 6.5 -86.5q0 -57 -11.5 -117.5q-11.5 -60.5 -38.5 -121q-27 -60.5 -70.5 -119q-43.5 -58.5 -107.5 -111.5l-20 18q24 22 49 56.5q25 34.5 45.5 87.5q20.5 53 34 128.5q13.5 75.5 13.5 178.5q0 102 -13.5 177q-13.5 75 -34 128.5q-20.5 53.5 -45.5 88.5q-25 35 -48 57z" />
<glyph unicode="&#42;" horiz-adv-x="526" d="M225 532q-4 8 -14 13q-10 5 -23 10q-16 7 -23.5 8q-7.5 1 -21.5 2q-7 0 -15.5 1q-8.5 1 -15.5 4q-7 3 -12 8.5q-5 5.5 -5 15.5q0 14 6 28.5q6 14.5 19 14.5q22 0 33 -9.5q11 -9.5 16 -17.5q10 -17 15 -21.5q5 -4.5 16 -12.5q9 -7 18.5 -14q9.5 -7 19.5 -7q8 0 11.5 5q3.5 5 3.5 9q0 7 0 15.5q0 8.5 -2 20.5q-2 20 -5 26q-3 6 -9 17q-10 18 -9.5 31q0.5 13 6.5 20.5q6 7.5 14 11q8 3.5 14 3.5q7 0 16 -3.5q9 -3.5 15 -11.5q6 -8 6 -20.5q0 -12.5 -10 -30.5q-5 -8 -7.5 -13.5q-2.5 -5.5 -3.5 -9.5q-1 -4 -1.5 -8.5q-0.5 -4.5 -1.5 -11.5q-1 -7 -2 -15.5q-1 -8.5 0 -16.5q1 -8 4 -13.5q3 -5.5 11 -5.5q10 0 20 7.5q10 7.5 18 13.5q6 4 9.5 6.5q3.5 2.5 6.5 6q3 3.5 6.5 8q3.5 4.5 8.5 13.5q5 8 16 17.5q11 9.5 33 9.5q12 0 18.5 -14q6.5 -14 6.5 -30q0 -11 -5.5 -16.5q-5.5 -5.5 -13.5 -8q-8 -2.5 -16 -3q-8 -0.5 -13 -0.5q-14 -1 -21.5 -2q-7.5 -1 -23.5 -8q-12 -5 -25 -13q-13 -8 -13 -23q0 -9 12.5 -13.5q12.5 -4.5 24.5 -9.5q18 -8 25 -8.5q7 -0.5 20 -0.5q6 0 14 -1q8 -1 15.5 -4q7.5 -3 13 -9q5.5 -6 5.5 -16q0 -4 0 -11q0 -7 -2.5 -14q-2.5 -7 -7.5 -12.5q-5 -5.5 -15 -5.5q-22 0 -33 9q-11 9 -16 18q-6 11 -10 16.5q-4 5.5 -20 17.5q-12 9 -21 15q-9 6 -18 6q-8 0 -11.5 -5q-3.5 -5 -3.5 -9q0 -7 0 -15.5q0 -8.5 2 -20.5q1 -7 1.5 -11.5q0.5 -4.5 1.5 -8.5q1 -4 3.5 -9.5q2.5 -5.5 7.5 -13.5q10 -18 10 -30.5q0 -12.5 -6 -20.5q-6 -8 -14.5 -11.5q-8.5 -3.5 -14.5 -3.5q-8 0 -16.5 4q-8.5 4 -14 12q-5.5 8 -6 20.5q-0.5 12.5 9.5 29.5q6 11 9 17q3 6 5 26q2 13 2 21q0 8 0 15q0 8 -5 11.5q-5 3.5 -9 3.5q-9 0 -20 -7.5q-11 -7.5 -19 -13.5q-8 -6 -12.5 -10q-4.5 -4 -7.5 -7.5q-3 -3.5 -5 -7q-2 -3.5 -5 -9.5q-5 -9 -16 -18q-11 -9 -33 -9q-10 0 -15 5q-5 5 -7.5 12q-2.5 7 -2.5 14q0 7 0 12q0 11 5.5 17q5.5 6 13 8.5q7.5 2.5 15.5 3q8 0.5 14 0.5q18 1 25 3q7 2 19 7q8 3 21 9q13 6 17 14q3 6 0 13z" />
<glyph unicode="&#43;" horiz-adv-x="672" d="M301 84v231h-231v70h231v231h70v-231h231v-70h-231l0 -231z" />
<glyph unicode="&#44;" horiz-adv-x="280" d="M94 -128q20 18 35 39q15 21 20 47q2 9 0 19q-3 16 -13.5 20q-10.5 4 -22 7.5q-11.5 3.5 -20.5 10.5q-9 7 -9 29q0 18 12 36q12 18 38 18q25 0 43.5 -21q18.5 -21 18.5 -65q0 -52 -27.5 -91.5q-27.5 -39.5 -60.5 -63.5z" />
<glyph unicode="&#45;" horiz-adv-x="280" d="M42 276h196v-63l-196 0z" />
<glyph unicode="&#46;" horiz-adv-x="280" d="M91 35q0 22 15.5 35.5q15.5 13.5 33.5 13.5q20 0 34.5 -14.5q14.5 -14.5 14.5 -34.5q0 -18 -13.5 -33.5q-13.5 -15.5 -35.5 -15.5q-20 0 -34.5 14.5t-14.5 34.5z" />
<glyph unicode="&#47;" horiz-adv-x="669" d="M70 -122l489 963l40 -21l-489 -961z" />
<glyph unicode="&#48;" horiz-adv-x="526" d="M26 348q0 85 18.5 152.5q18.5 67.5 50.5 115q32 47.5 75.5 73q43.5 25.5 93.5 25.5q49 0 92 -25.5q43 -25.5 75 -72.5q32 -47 50.5 -114.5q18.5 -67.5 18.5 -151.5q0 -60 -12.5 -124.5q-12.5 -64.5 -41 -118q-28.5 -53.5 -73.5 -87.5q-45 -34 -109 -34q-66 0 -111 34.5q-45 34.5 -73.5 87.5q-28.5 53 -41 117q-12.5 64 -12.5 123zt0 0zM264 672q-46 0 -74.5 -29q-28.5 -29 -44.5 -75q-16 -46 -21.5 -103.5q-5.5 -57.5 -5.5 -114.5q0 -101 13.5 -163.5q13.5 -62.5 34.5 -98q21 -35.5 47 -48q26 -12.5 50 -12.5q20 0 45.5 10.5q25.5 10.5 47.5 44q22 33.5 37 97q15 63.5 15 170.5q0 50 -4.5 106.5q-4.5 56.5 -19.5 104.5q-15 48 -43.5 79.5t-76.5 31.5z" />
<glyph unicode="&#49;" horiz-adv-x="526" d="M298 700v-577q0 -44 16 -69q16 -25 62 -27l0 -27h-236v27q46 2 62 27q16 25 16 69v428q0 10 -0.5 21q-0.5 11 -6.5 20q-6 9 -21 15q-15 6 -44 6l0 25q34 5 62.5 17.5q28.5 12.5 42.5 44.5z" />
<glyph unicode="&#50;" horiz-adv-x="526" d="M42 0v38q93 90 155.5 160.5q62.5 70.5 101 127q38.5 56.5 55 102q16.5 45.5 16.5 84.5q0 72 -39 116q-39 44 -102 44q-26 0 -48 -9q-22 -9 -38.5 -23.5q-16.5 -14.5 -25.5 -32.5q-9 -18 -9 -37q0 -16 6.5 -26.5q6.5 -10.5 15.5 -20.5q9 -10 23.5 -25.5q14.5 -15.5 14.5 -38.5q0 -18 -10 -29.5q-10 -11.5 -24 -11.5q-11 0 -24 5.5q-13 5.5 -23.5 18q-10.5 12.5 -17.5 33q-7 20.5 -7 51.5q0 39 15 73q15 34 41 59.5q26 25.5 61.5 40.5q35.5 15 76.5 15q40 0 77.5 -15q37.5 -15 66 -42q28.5 -27 45.5 -63.5q17 -36.5 17 -78.5q0 -45 -16.5 -82.5q-16.5 -37.5 -44.5 -73.5q-28 -36 -65.5 -72.5q-37.5 -36.5 -80.5 -79.5q-20 -20 -35.5 -35.5q-15.5 -15.5 -29.5 -29.5q-14 -14 -28 -29.5q-14 -15.5 -31 -36.5l201 0q10 0 23.5 2q13.5 2 27.5 9.5q14 7.5 28 22q14 14.5 25 39.5l24 0l-46 -149z" />
<glyph unicode="&#51;" horiz-adv-x="526" d="M302 382q35 -2 65 -16.5q30 -14.5 52.5 -39.5q22.5 -25 35.5 -58.5q13 -33.5 13 -73.5q0 -35 -14 -71.5q-14 -36.5 -42.5 -67q-28.5 -30.5 -70.5 -50q-42 -19.5 -98 -19.5q-47 0 -83 14.5q-36 14.5 -61 37.5q-25 23 -38 51q-13 28 -13 55q0 34 14.5 52q14.5 18 34.5 18q11 0 24 -9q13 -9 13 -29q0 -15 -4.5 -29q-4.5 -14 -9.5 -28q-2 -7 -4 -13.5q-2 -6.5 -2 -14.5q0 -15 10.5 -27q10.5 -12 27.5 -20q17 -8 38 -12q21 -4 41 -4q27 0 53 9q26 9 46.5 28.5q20.5 19.5 33 51q12.5 31.5 12.5 77.5q0 55 -17 86.5q-17 31.5 -40 47.5q-23 16 -45.5 20q-22.5 4 -32.5 4h-27h-33v42h23q19 0 45.5 7q26.5 7 50.5 24q24 17 40.5 44q16.5 27 16.5 68q0 26 -7 50.5q-7 24.5 -22 43q-15 18.5 -38.5 30q-23.5 11.5 -56.5 11.5q-26 0 -45 -5.5q-19 -5.5 -31 -14q-12 -8.5 -18 -18.5q-6 -10 -6 -18q0 -8 1.5 -13q1.5 -5 3.5 -10.5q2 -5.5 3.5 -12.5q1.5 -7 1.5 -18q0 -19 -9 -30q-9 -11 -24 -11q-19 0 -28.5 12.5q-9.5 12.5 -9.5 29.5q0 28 14.5 55q14.5 27 39.5 48.5q25 21.5 57.5 34.5q32.5 13 67.5 13q37 0 70 -13.5q33 -13.5 58 -36.5q25 -23 39.5 -53.5q14.5 -30.5 14.5 -64.5q0 -52 -34 -95.5q-34 -43.5 -97 -62.5z" />
<glyph unicode="&#52;" horiz-adv-x="526" d="M479 203h-100v-78q0 -46 16 -71q16 -25 64 -27l0 -27h-241v27q48 2 64.5 27.5q16.5 25.5 16.5 70.5v78h-272v20l296 477h56v-455h100zM299 581h-7l-201 -336l208 0z" />
<glyph unicode="&#53;" horiz-adv-x="526" d="M387 629h-240v-224h2q29 26 54.5 39.5q25.5 13.5 65.5 13.5q43 0 81 -19q38 -19 66.5 -51.5q28.5 -32.5 45 -74.5q16.5 -42 16.5 -88q0 -52 -19.5 -96q-19.5 -44 -52 -75.5q-32.5 -31.5 -75.5 -49.5q-43 -18 -90 -18q-39 0 -72 12q-33 12 -58 33.5q-25 21.5 -39 51q-14 29.5 -14 64.5q0 13 3.5 27q3.5 14 10.5 25q7 11 17 18.5q10 7.5 23 7.5q14 0 24 -10q10 -10 10 -27q0 -12 -4 -22.5q-4 -10.5 -9 -21.5q-5 -10 -9.5 -21.5q-4.5 -11.5 -4.5 -23.5q0 -26 30.5 -48.5q30.5 -22.5 87.5 -22.5q31 0 58 11.5q27 11.5 47.5 35.5q20.5 24 32 61.5q11.5 37.5 11.5 88.5q0 62 -14 99.5q-14 37.5 -34.5 58q-20.5 20.5 -43.5 27q-23 6.5 -40 6.5q-14 0 -31.5 -4q-17.5 -4 -34.5 -13q-17 -9 -30 -23q-13 -14 -16 -34l-37 0v358h203q32 0 54.5 4.5q22.5 4.5 39.5 26.5l27 0z" />
<glyph unicode="&#54;" horiz-adv-x="526" d="M141 382q38 39 76.5 50.5q38.5 11.5 67.5 11.5q32 0 66.5 -14q34.5 -14 63.5 -41q29 -27 47.5 -66.5q18.5 -39.5 18.5 -90.5q0 -60 -18 -105.5q-18 -45.5 -48 -77q-30 -31.5 -68 -47.5q-38 -16 -78 -16q-58 0 -100 29.5q-42 29.5 -69 77.5q-27 48 -40 109q-13 61 -13 124q0 106 24 179.5q24 73.5 60 120q36 46.5 79 67.5q43 21 81 21q29 0 55.5 -10q26.5 -10 46.5 -25q20 -15 31.5 -33.5q11.5 -18.5 11.5 -35.5q0 -24 -10 -34q-10 -10 -22 -10q-14 0 -23 6.5q-9 6.5 -14.5 16q-5.5 9.5 -8.5 20.5q-3 11 -6 19q-6 21 -23.5 32.5q-17.5 11.5 -41.5 11.5q-47 0 -75.5 -26.5q-28.5 -26.5 -44 -68q-15.5 -41.5 -21 -93q-5.5 -51.5 -6.5 -102.5zM272 402q-18 0 -41 -7q-23 -7 -43.5 -27.5q-20.5 -20.5 -34 -58q-13.5 -37.5 -13.5 -98.5q0 -33 6 -65.5q6 -32.5 21 -59q15 -26.5 40 -42.5q25 -16 62 -16q40 0 63.5 20.5q23.5 20.5 36 50.5q12.5 30 16.5 64.5q4 34.5 4 63.5q0 51 -10 84.5q-10 33.5 -26.5 53.5q-16.5 20 -37.5 28.5t-43 8.5z" />
<glyph unicode="&#55;" horiz-adv-x="526" d="M478 700v-47q-66 -81 -114 -168q-48 -87 -80 -193q-7 -24 -16 -60.5q-9 -36.5 -16.5 -77.5q-7.5 -41 -13 -82q-5.5 -41 -5.5 -72l-90 0q18 80 36.5 154q18.5 74 47.5 148.5q29 74.5 73 153q44 78.5 114 168.5l-216 0q-8 0 -21 -1.5q-13 -1.5 -29 -8q-16 -6.5 -33 -20.5q-17 -14 -33 -39l-24 0l48 145z" />
<glyph unicode="&#56;" horiz-adv-x="526" d="M330 389q69 -33 106 -80q37 -47 37 -116q0 -35 -13 -72q-13 -37 -39 -67q-26 -30 -64.5 -49q-38.5 -19 -90.5 -19q-46 0 -85 15.5q-39 15.5 -67.5 42.5q-28.5 27 -44.5 63.5q-16 36.5 -16 77.5q0 124 148 186l0 6q-24 8 -45 22.5q-21 14.5 -37 35q-16 20.5 -25 45q-9 24.5 -9 53.5q0 39 14 72q14 33 38 57.5q24 24.5 56.5 38q32.5 13.5 70.5 13.5q43 0 76 -15.5q33 -15.5 55 -39.5q22 -24 33.5 -53q11.5 -29 11.5 -57q0 -15 -4 -34.5q-4 -19.5 -16 -40.5q-12 -21 -33.5 -42q-21.5 -21 -56.5 -37zM303 408q26 16 41.5 36q15.5 20 24 39.5q8.5 19.5 11.5 35.5q3 16 3 25q0 54 -31.5 91q-31.5 37 -87.5 37q-30 0 -52 -8.5q-22 -8.5 -36.5 -22q-14.5 -13.5 -21.5 -31q-7 -17.5 -7 -34.5q0 -30 14.5 -54.5q14.5 -24.5 37.5 -45.5q23 -21 50.5 -38q27.5 -17 53.5 -30zt0 0zM228 352q-55 -29 -83 -78q-28 -49 -28 -102q0 -29 11.5 -55.5q11.5 -26.5 31.5 -46q20 -19.5 47.5 -31q27.5 -11.5 59.5 -11.5q36 0 63 12.5q27 12.5 45 31.5q18 19 27.5 42.5q9.5 23.5 9.5 45.5q0 38 -15.5 65q-15.5 27 -41.5 49q-26 22 -59 40t-68 38z" />
<glyph unicode="&#57;" horiz-adv-x="526" d="M386 319q-18 -20 -37.5 -32.5q-19.5 -12.5 -38 -19q-18.5 -6.5 -36 -9q-17.5 -2.5 -31.5 -2.5q-33 0 -67.5 14q-34.5 14 -63.5 41q-29 27 -47.5 66.5q-18.5 39.5 -18.5 90.5q0 46 13.5 90.5q13.5 44.5 40 79q26.5 34.5 66 55.5q39.5 21 92.5 21q58 0 100 -29.5q42 -29.5 69 -77.5q27 -48 40 -109q13 -61 13 -124q0 -90 -19.5 -161.5q-19.5 -71.5 -53 -122q-33.5 -50.5 -78 -77.5q-44.5 -27 -93.5 -27q-29 0 -55 10q-26 10 -46 25q-20 15 -32 33.5q-12 18.5 -12 35.5q0 24 10 34q10 10 23 10q14 0 23 -6.5q9 -6.5 14.5 -16q5.5 -9.5 8.5 -20q3 -10.5 6 -19.5q4 -16 13.5 -24.5q9.5 -8.5 20 -13q10.5 -4.5 19 -5.5q8.5 -1 11.5 -1q47 0 76 26.5q29 26.5 44.5 68.5q15.5 42 21 93.5q5.5 51.5 6.5 102.5zM256 298q24 0 48 10q24 10 42.5 32.5q18.5 22.5 30 59q11.5 36.5 11.5 89.5q0 33 -6.5 65.5q-6.5 32.5 -21.5 58.5q-15 26 -40 42.5q-25 16.5 -62 16.5q-10 0 -30 -4q-20 -4 -39.5 -23q-19.5 -19 -34.5 -59.5q-15 -40.5 -15 -112.5q0 -51 9.5 -84.5q9.5 -33.5 26 -53.5q16.5 -20 37.5 -28.5t44 -8.5z" />
<glyph unicode="&#58;" horiz-adv-x="280" d="M91 413q0 22 15.5 35.5q15.5 13.5 33.5 13.5q20 0 34.5 -14.5q14.5 -14.5 14.5 -34.5q0 -18 -13.5 -33.5q-13.5 -15.5 -35.5 -15.5q-20 0 -34.5 14.5q-14.5 14.5 -14.5 34.5zt0 0zM91 35q0 22 15.5 35.5q15.5 13.5 33.5 13.5q20 0 34.5 -14.5q14.5 -14.5 14.5 -34.5q0 -18 -13.5 -33.5q-13.5 -15.5 -35.5 -15.5q-20 0 -34.5 14.5t-14.5 34.5z" />
<glyph unicode="&#59;" horiz-adv-x="280" d="M98 413q0 22 15.5 35.5q15.5 13.5 33.5 13.5q20 0 34.5 -14.5q14.5 -14.5 14.5 -34.5q0 -18 -13.5 -33.5q-13.5 -15.5 -35.5 -15.5q-20 0 -34.5 14.5q-14.5 14.5 -14.5 34.5zt0 0zM94 -128q20 18 35 39q15 21 20 47q2 9 0 19q-3 17 -21 22q-5 1 -12.5 3q-7.5 2 -14.5 6.5q-7 4.5 -12 13q-5 8.5 -5 22.5q0 18 12 36q12 18 38 18q25 0 43.5 -21q18.5 -21 18.5 -65q0 -52 -27.5 -91.5q-27.5 -39.5 -60.5 -63.5z" />
<glyph unicode="&#60;" horiz-adv-x="672" d="M531 616l29 -54l-367 -212l367 -212l-29 -54l-461 266z" />
<glyph unicode="&#61;" horiz-adv-x="672" d="M70 483h532v-70h-532zM70 287h532v-70l-532 0z" />
<glyph unicode="&#62;" horiz-adv-x="672" d="M141 84l-29 54l367 212l-367 212l29 54l461 -266z" />
<glyph unicode="&#63;" horiz-adv-x="484" d="M159 392q11 -2 22.5 -3q11.5 -1 22.5 -3q16 -2 31.5 -3q15.5 -1 30.5 3q9 3 20.5 8.5q11.5 5.5 21.5 17q10 11.5 17 29q7 17.5 7 43.5q0 28 -10.5 61.5q-10.5 33.5 -27.5 62.5q-17 29 -40.5 48.5q-23.5 19.5 -48.5 19.5q-18 0 -28.5 -9q-10.5 -9 -16.5 -17q-6 -8 -16.5 -19q-10.5 -11 -27.5 -11q-17 0 -24.5 11q-7.5 11 -7.5 37q0 13 10 21.5q10 8.5 24.5 14q14.5 5.5 30.5 8q16 2.5 29 2.5q41 0 81 -22q40 -22 71.5 -58.5q31.5 -36.5 50.5 -83q19 -46.5 19 -95.5q0 -29 -8.5 -56.5q-8.5 -27.5 -28 -50q-19.5 -22.5 -50.5 -36q-31 -13.5 -75 -13.5q-17 0 -37 5l0 -122h-42zM136 35q0 26 16.5 37.5q16.5 11.5 32.5 11.5q18 0 33.5 -14q15.5 -14 15.5 -35q0 -20 -14.5 -34.5q-14.5 -14.5 -34.5 -14.5q-17 0 -33 13t-16 36z" />
<glyph unicode="&#64;" horiz-adv-x="939" d="M653 293q-11 -35 -15 -54q-4 -19 -4 -30q0 -20 5.5 -32.5q5.5 -12.5 13 -19.5q7.5 -7 16 -9.5q8.5 -2.5 13.5 -2.5q23 0 56.5 16q33.5 16 64 49q30.5 33 52 84q21.5 51 21.5 120q0 83 -31.5 149q-31.5 66 -85.5 112q-54 46 -126.5 70.5q-72.5 24.5 -154.5 24.5q-89 0 -162.5 -35q-73.5 -35 -126.5 -93q-53 -58 -82.5 -133.5q-29.5 -75.5 -29.5 -156.5q0 -77 28 -152.5q28 -75.5 80.5 -135.5q52.5 -60 127.5 -97q75 -37 168 -37q57 0 102 10.5q45 10.5 79 25.5q34 15 56 30.5q22 15.5 33 25.5l22 -28q-45 -33 -85.5 -53q-40.5 -20 -76.5 -30q-36 -10 -68 -13q-32 -3 -59 -3q-106 0 -190.5 40.5q-84.5 40.5 -143.5 105.5q-59 65 -90.5 147q-31.5 82 -31.5 165q0 80 29.5 160.5q29.5 80.5 86.5 145.5q57 65 140.5 105.5q83.5 40.5 191.5 40.5q90 0 169 -27.5q79 -27.5 138.5 -78.5q59.5 -51 93.5 -123.5q34 -72.5 34 -161.5q0 -67 -19 -123q-19 -56 -51.5 -96q-32.5 -40 -76 -62.5q-43.5 -22.5 -92.5 -22.5q-27 0 -47 7q-20 7 -34 16.5q-14 9.5 -23 20.5q-9 11 -14 19q-32 -25 -65 -39q-33 -14 -76 -14q-38 0 -68 14.5q-30 14.5 -50.5 40q-20.5 25.5 -31.5 60q-11 34.5 -11 74.5q0 56 20.5 106.5q20.5 50.5 56.5 88.5q36 38 85 60q49 22 105 22q10 0 23.5 -1.5q13.5 -1.5 29.5 -8.5q16 -7 33 -20q17 -13 33 -35l15 47h83zM614 458q-8 42 -34 69q-26 27 -63 27q-29 0 -59 -19q-30 -19 -54 -53q-24 -34 -39.5 -80q-15.5 -46 -15.5 -101q0 -29 3 -55.5q3 -26.5 12 -46.5q9 -20 25.5 -31.5q16.5 -11.5 44.5 -11.5q40 0 68 20q28 20 44 42z" />
<glyph unicode="&#65;" horiz-adv-x="691" d="M230 646q42 11 68.5 29.5q26.5 18.5 35.5 58.5l43 0l183 -599q8 -27 16.5 -45.5q8.5 -18.5 20 -31q11.5 -12.5 28 -20q16.5 -7.5 41.5 -11.5l0 -27h-236v27q33 0 47.5 8.5q14.5 8.5 18 20.5q3.5 12 -0.5 26.5q-4 14.5 -8 27.5l-30 106h-250l-36 -106q-4 -12 -5 -26q-1 -14 -1 -23q0 -18 17 -24.5q17 -6.5 35 -9.5l0 -27h-200v27q39 8 65 29.5q26 21.5 39 59.5l156 447q7 22 6.5 34q-0.5 12 -6 18q-5.5 6 -14 7q-8.5 1 -16.5 1q-5 0 -8.5 -0.5q-3.5 -0.5 -8.5 -1.5zM336 594l-5 1l-111 -337l221 0z" />
<glyph unicode="&#66;" horiz-adv-x="656" d="M346 700q72 0 114.5 -18q42.5 -18 65 -43.5q22.5 -25.5 29 -53.5q6.5 -28 6.5 -47q0 -62 -40 -104.5q-40 -42.5 -104 -55.5l-2 -5q55 -8 92 -28.5q37 -20.5 59.5 -47q22.5 -26.5 31.5 -56q9 -29.5 9 -56.5q0 -26 -9.5 -58q-9.5 -32 -34.5 -60q-25 -28 -68.5 -47.5q-43.5 -19.5 -111.5 -19.5h-338v27q28 1 43 11.5q15 10.5 22 25q7 14.5 8 30.5q1 16 1 28v456q0 41 -15 67q-15 26 -59 28l0 27zM323 385q48 0 78 13.5q30 13.5 47.5 34.5q17.5 21 23.5 47q6 26 6 51q0 45 -17 70.5q-17 25.5 -41.5 38q-24.5 12.5 -52 15.5q-27.5 3 -47.5 3h-67q-17 0 -27.5 -4.5q-10.5 -4.5 -16.5 -11.5q-6 -7 -8 -15q-2 -8 -2 -15v-227zM199 76q0 -12 6.5 -18.5q6.5 -6.5 16 -10q9.5 -3.5 21 -4.5q11.5 -1 20.5 -1h70q19 0 50 3q31 3 60.5 17.5q29.5 14.5 50.5 43.5q21 29 21 80q0 55 -20.5 86.5q-20.5 31.5 -50 47q-29.5 15.5 -62 19.5q-32.5 4 -55.5 4l-128 0z" />
<glyph unicode="&#67;" horiz-adv-x="673" d="M565 551q-9 25 -27 47q-18 22 -42.5 38.5q-24.5 16.5 -54 26q-29.5 9.5 -61.5 9.5q-52 0 -90 -17.5q-38 -17.5 -64.5 -45q-26.5 -27.5 -43 -63q-16.5 -35.5 -26 -71q-9.5 -35.5 -12.5 -68.5q-3 -33 -3 -57q0 -70 17.5 -129q17.5 -59 49 -102q31.5 -43 75.5 -67q44 -24 97 -24q42 0 78.5 11.5q36.5 11.5 64.5 32.5q28 21 47.5 49.5q19.5 28.5 27.5 62.5l25 0l-6 -140q-24 -16 -52.5 -27q-28.5 -11 -59.5 -18q-31 -7 -62.5 -10q-31.5 -3 -62.5 -3q-83 0 -145 35.5q-62 35.5 -103 89q-41 53.5 -62 117q-21 63.5 -21 120.5q0 70 26 136q26 66 74.5 117q48.5 51 118 82q69.5 31 155.5 31q51 0 90 -9q39 -9 72 -26l5 -128z" />
<glyph unicode="&#68;" horiz-adv-x="733" d="M320 700q30 0 69 -4.5q39 -4.5 79.5 -18q40.5 -13.5 79 -36.5q38.5 -23 69 -59.5q30.5 -36.5 49 -89q18.5 -52.5 18.5 -123.5q0 -39 -5.5 -77.5q-5.5 -38.5 -18.5 -75.5q-15 -43 -40.5 -82q-25.5 -39 -66 -69q-40.5 -30 -98.5 -47.5q-58 -17.5 -138 -17.5h-272v27q44 2 59.5 27q15.5 25 15.5 68v456q0 46 -16 69.5q-16 23.5 -59 25.5l0 27zM200 110q0 -22 3.5 -35q3.5 -13 12.5 -20.5q9 -7.5 24 -10q15 -2.5 38 -2.5q77 0 136 17q59 17 98.5 53q39.5 36 59.5 93q20 57 20 137q0 105 -27.5 166.5q-27.5 61.5 -68.5 94q-41 32.5 -89 43q-48 10.5 -90 12.5q-29 1 -57 0q-22 -2 -34 -8.5q-12 -6.5 -18 -16.5q-6 -10 -7 -22.5q-1 -12.5 -1 -24.5z" />
<glyph unicode="&#69;" horiz-adv-x="629" d="M557 563h-25q-11 33 -32.5 52q-21.5 19 -45.5 28.5q-24 9.5 -46 12q-22 2.5 -33 2.5h-122q-29 0 -41.5 -11.5q-12.5 -11.5 -12.5 -39.5v-205h156q46 0 65 13q19 13 20 54l26 0v-179h-26v7q0 9 -3.5 20q-3.5 11 -11 20.5q-7.5 9.5 -19 16q-11.5 6.5 -26.5 6.5h-181v-254q0 -25 6.5 -38q6.5 -13 18.5 -19q12 -6 30.5 -6.5q18.5 -0.5 42.5 -0.5h76q61 0 105.5 21q44.5 21 76.5 79l25 0l-23 -142h-512v27q28 1 43 11.5q15 10.5 22 25q7 14.5 8 30.5q1 16 1 28v456q0 12 -1 28q-1 16 -8 30.5q-7 14.5 -22 25q-15 10.5 -43 11.5l0 27l490 0z" />
<glyph unicode="&#70;" horiz-adv-x="573" d="M552 563h-25q-5 12 -14.5 28q-9.5 16 -26.5 31q-17 15 -43.5 25.5q-26.5 10.5 -63.5 10.5h-126q-23 0 -34.5 -6q-11.5 -6 -17 -15q-5.5 -9 -6 -18q-0.5 -9 -0.5 -15v-202h145q75 0 74 67l26 0v-179h-26v14q0 7 -2.5 17q-2.5 10 -10 18.5q-7.5 8.5 -22.5 14.5q-15 6 -39 6h-145v-238q0 -45 16 -71q16 -26 61 -24l0 -27h-227v27q24 1 38 9.5q14 8.5 21 21.5q7 13 9 29.5q2 16.5 2 34.5v456q0 18 -2 34.5q-2 16.5 -9 29.5q-7 13 -21 21q-14 8 -38 10l0 27l487 0z" />
<glyph unicode="&#71;" horiz-adv-x="752" d="M696 372q-38 -5 -52.5 -26.5q-14.5 -21.5 -14.5 -59.5v-135q0 -39 13 -63q13 -24 54 -28q-53 -27 -99.5 -42q-46.5 -15 -84.5 -22q-38 -7 -67 -8.5q-29 -1.5 -46 -1.5q-70 0 -133.5 24q-63.5 24 -111.5 70q-48 46 -76.5 113.5q-28.5 67.5 -28.5 155.5q0 81 27 148.5q27 67.5 76 115.5q49 48 117.5 74.5q68.5 26.5 151.5 26.5q65 0 107 -10q42 -10 77 -28l6 -126h-26q-10 29 -30 51.5q-20 22.5 -46.5 38.5q-26.5 16 -58 24q-31.5 8 -64.5 8q-54 0 -93.5 -17q-39.5 -17 -67 -44.5q-27.5 -27.5 -44 -62.5q-16.5 -35 -25.5 -71q-9 -36 -12 -69.5q-3 -33.5 -3 -58.5q0 -69 17.5 -128q17.5 -59 49.5 -102q32 -43 76.5 -67q44.5 -24 97.5 -24q62 0 96 12.5q34 12.5 49.5 30q15.5 17.5 18.5 36.5q3 19 3 32v126q0 18 -1 35.5q-1 17.5 -8 32.5q-7 15 -22 25.5q-15 10.5 -42 13.5l0 27l220 0z" />
<glyph unicode="&#72;" horiz-adv-x="762" d="M273 673q-44 -2 -59 -27q-15 -25 -15 -68v-179h365v179q0 43 -15 68q-15 25 -59 27l0 27h227v-27q-24 -2 -38.5 -9.5q-14.5 -7.5 -22 -20.5q-7.5 -13 -10 -29.5q-2.5 -16.5 -2.5 -35.5v-456q0 -19 2.5 -35.5q2.5 -16.5 10 -29.5q7.5 -13 22 -21q14.5 -8 38.5 -9l0 -27h-227v27q44 2 59 26.5q15 24.5 15 68.5v235h-365v-235q0 -44 15 -68.5q15 -24.5 59 -26.5l0 -27h-228v27q24 1 39 9q15 8 22.5 21q7.5 13 10 29.5q2.5 16.5 2.5 35.5v456q0 19 -2.5 35.5q-2.5 16.5 -10 29.5q-7.5 13 -22.5 21q-15 8 -39 9l0 27l228 0z" />
<glyph unicode="&#73;" horiz-adv-x="320" d="M275 700v-27q-29 -2 -44 -12q-15 -10 -22 -24.5q-7 -14.5 -8 -30.5q-1 -16 -1 -28v-456q0 -12 1 -28q1 -16 8 -30.5q7 -14.5 22 -25q15 -10.5 44 -11.5l0 -27h-230v27q27 1 42 10.5q15 9.5 22.5 23.5q7.5 14 9 30.5q1.5 16.5 1.5 30.5v456q0 14 -1.5 30.5q-1.5 16.5 -9 30.5q-7.5 14 -22.5 23.5q-15 9.5 -42 10.5l0 27z" />
<glyph unicode="&#74;" horiz-adv-x="473" d="M428 673q-43 -2 -59 -25.5q-16 -23.5 -16 -69.5v-383q0 -14 -1 -35.5q-1 -21.5 -6 -44.5q-5 -23 -15.5 -46q-10.5 -23 -28.5 -41.5q-18 -18.5 -46.5 -30q-28.5 -11.5 -68.5 -11.5q-28 0 -56 9.5q-28 9.5 -51 26q-23 16.5 -37.5 38q-14.5 21.5 -14.5 46.5q0 34 15.5 45q15.5 11 31.5 11q6 0 14.5 -3q8.5 -3 16.5 -11.5q8 -8.5 13.5 -24q5.5 -15.5 5.5 -39.5q0 -25 15.5 -40.5q15.5 -15.5 42.5 -15.5q31 0 49 10q18 10 27 28.5q9 18.5 11.5 44.5q2.5 26 2.5 58v409q0 46 -16 69.5q-16 23.5 -58 25.5l0 27l229 0z" />
<glyph unicode="&#75;" horiz-adv-x="639" d="M275 673q-43 -2 -59 -25.5q-16 -23.5 -16 -69.5v-260l241 266q4 4 10 11.5q6 7.5 11.5 15.5q5.5 8 9.5 16q4 8 4 14q0 10 -5.5 16q-5.5 6 -14.5 9q-9 3 -20 4q-11 1 -23 3l0 27h221v-27q-48 -7 -76 -28.5q-28 -21.5 -53 -48.5l-157 -171l188 -323q21 -36 44.5 -56q23.5 -20 58.5 -19l0 -27h-216v27h14q23 0 28.5 7q5.5 7 5.5 13q0 8 -7.5 24q-7.5 16 -13.5 26l-159 267l-91 -100v-142q0 -46 16 -69.5q16 -23.5 59 -25.5l0 -27h-230v27q43 2 59 26q16 24 16 69v456q0 45 -16 69q-16 24 -59 26l0 27l230 0z" />
<glyph unicode="&#76;" horiz-adv-x="575" d="M273 700v-27q-41 1 -57 -22.5q-16 -23.5 -16 -63.5v-464q0 -19 1 -34q1 -15 6.5 -25.5q5.5 -10.5 17 -16q11.5 -5.5 32.5 -5.5h88q67 0 114 21.5q47 21.5 76 78.5l26 0l-24 -142h-492v27q46 3 60.5 26q14.5 23 14.5 69v475q0 23 -6.5 37.5q-6.5 14.5 -16.5 23q-10 8.5 -21.5 12q-11.5 3.5 -21.5 3.5l0 27z" />
<glyph unicode="&#77;" horiz-adv-x="944" d="M457 223h6l176 477h163v-27q-28 -2 -42.5 -8.5q-14.5 -6.5 -20 -17.5q-5.5 -11 -4.5 -25q1 -14 4 -29l87 -465q2 -11 6 -28q4 -17 14 -33q10 -16 26 -28q16 -12 42 -12h5v-27h-242v27q42 -1 58.5 11.5q16.5 12.5 16.5 29.5q0 13 -2 27q-2 14 -6 34l-87 456h-5l-191 -508h-39l-169 508h-4l-91 -459q-2 -11 -4.5 -27q-2.5 -16 2.5 -31.5q5 -15.5 20.5 -27q15.5 -11.5 48.5 -13.5l0 -27h-208v27q44 4 62.5 30q18.5 26 26.5 68l88 456q3 15 5.5 32q2.5 17 -1.5 30.5q-4 13.5 -18 22q-14 8.5 -44 7.5l0 27l168 0z" />
<glyph unicode="&#78;" horiz-adv-x="762" d="M717 673q-25 -3 -40 -11q-15 -8 -22.5 -20.5q-7.5 -12.5 -10 -30.5q-2.5 -18 -2.5 -42v-583h-55l-413 614h-6v-505q0 -17 7.5 -30q7.5 -13 19 -21.5q11.5 -8.5 25.5 -12.5q14 -4 28 -4l0 -27h-203v27q49 1 65 27q16 26 16 72v456q0 27 -7.5 44.5q-7.5 17.5 -19 27.5q-11.5 10 -26 14.5q-14.5 4.5 -28.5 4.5l0 27h173l375 -570h7v435q0 31 -4 50.5q-4 19.5 -13 31.5q-9 12 -24.5 17.5q-15.5 5.5 -38.5 8.5l0 27l197 0z" />
<glyph unicode="&#79;" horiz-adv-x="756" d="M49 361q0 94 32.5 161q32.5 67 81.5 109.5q49 42.5 106.5 62.5q57.5 20 107.5 20q52 0 110 -20q58 -20 107 -63q49 -43 81 -109.5q32 -66.5 32 -160.5q0 -73 -17 -129q-17 -56 -44.5 -98q-27.5 -42 -62.5 -70q-35 -28 -72 -45.5q-37 -17.5 -72 -25q-35 -7.5 -62 -7.5q-57 0 -115.5 23.5q-58.5 23.5 -106 70q-47.5 46.5 -77 117q-29.5 70.5 -29.5 164.5zt0 0zM378 672q-41 0 -83 -17q-42 -17 -76.5 -54.5q-34.5 -37.5 -56 -97q-21.5 -59.5 -21.5 -144.5q0 -62 13 -121q13 -59 41 -106q28 -47 73 -75.5q45 -28.5 110 -28.5q49 0 85.5 16.5q36.5 16.5 62.5 43.5q26 27 43.5 61.5q17.5 34.5 27.5 71.5q10 37 14 73q4 36 4 65q0 85 -22 144.5q-22 59.5 -56 97q-34 37.5 -76.5 54.5t-82.5 17z" />
<glyph unicode="&#80;" horiz-adv-x="613" d="M198 120q0 -44 17.5 -68.5q17.5 -24.5 62.5 -24.5l0 -27h-233v27q28 1 42.5 11.5q14.5 10.5 21.5 25q7 14.5 8 30q1 15.5 1 26.5v460q0 17 -2 33q-2 16 -9.5 29q-7.5 13 -22 21.5q-14.5 8.5 -39.5 9.5l0 27h295q56 0 96 -11q40 -11 67.5 -29.5q27.5 -18.5 43.5 -42q16 -23.5 24.5 -47.5q8.5 -24 11 -47q2.5 -23 2.5 -40q0 -60 -20.5 -102q-20.5 -42 -57.5 -68q-37 -26 -89.5 -37.5q-52.5 -11.5 -115.5 -11.5h-104zM198 306h79q34 0 72.5 3.5q38.5 3.5 70 20.5q31.5 17 52.5 52.5q21 35.5 21 100.5q0 63 -21 98q-21 35 -51 52.5q-30 17.5 -62 21q-32 3.5 -54 3.5q-23 0 -42.5 0q-19.5 0 -34 -6.5q-14.5 -6.5 -22.5 -23q-8 -16.5 -8 -49.5z" />
<glyph unicode="&#81;" horiz-adv-x="756" d="M674 -72q-4 -18 -13.5 -36q-9.5 -18 -24 -32.5q-14.5 -14.5 -34 -24q-19.5 -9.5 -44.5 -9.5q-15 0 -36 6.5q-21 6.5 -43.5 24q-22.5 17.5 -43.5 48.5q-21 31 -35 81q-5 -1 -11 -1q-6 0 -11 0q-51 0 -109 21.5q-58 21.5 -107 67q-49 45.5 -81 116.5q-32 71 -32 171q0 94 32.5 161q32.5 67 81.5 110q49 43 106.5 62.5q57.5 19.5 108.5 19.5q27 0 62 -7q35 -7 71.5 -23.5q36.5 -16.5 71.5 -43q35 -26.5 62.5 -65.5q27.5 -39 44.5 -92q17 -53 17 -122q0 -62 -16 -120q-16 -58 -45.5 -106q-29.5 -48 -72 -82.5q-42.5 -34.5 -95.5 -49.5q4 -16 12.5 -36.5q8.5 -20.5 21.5 -38.5q13 -18 31 -30q18 -12 41 -12q20 0 38.5 13.5q18.5 13.5 27.5 28.5zM282 176q10 3 18 4q8 1 19 1q27 0 48 -6.5q21 -6.5 37.5 -21.5q16.5 -15 30 -41q13.5 -26 26.5 -65q34 14 58.5 38q24.5 24 41.5 53q17 29 27.5 60.5q10.5 31.5 16.5 62.5q6 31 8 58q2 27 2 46q0 61 -11.5 107.5q-11.5 46.5 -30.5 80.5q-19 34 -43.5 57q-24.5 23 -50.5 36.5q-26 13.5 -52 19.5q-26 6 -47 6q-33 0 -74.5 -13.5q-41.5 -13.5 -78 -48.5q-36.5 -35 -61.5 -95.5q-25 -60.5 -25 -155.5q0 -48 9.5 -105.5q9.5 -57.5 35.5 -108q26 -50.5 72 -84q46 -33.5 118 -33.5h12q-5 20 -10.5 41q-5.5 21 -14.5 38.5q-9 17.5 -22 30q-13 12.5 -32 14.5q-4 1 -7.5 0.5q-3.5 -0.5 -7.5 -0.5q-3 0 -6 -0.5q-3 -0.5 -6 -0.5z" />
<glyph unicode="&#82;" horiz-adv-x="642" d="M332 700q80 0 128 -22q48 -22 74 -53.5q26 -31.5 34.5 -66.5q8.5 -35 8.5 -61q0 -42 -13.5 -74q-13.5 -32 -36 -55.5q-22.5 -23.5 -51 -38q-28.5 -14.5 -57.5 -21.5l120 -206q21 -36 44.5 -56q23.5 -20 58.5 -19l0 -27h-223v27h13q15 0 30.5 3q15.5 3 15.5 17q0 11 -9.5 24.5q-9.5 13.5 -16.5 25.5l-115 195q-4 0 -7 -0.5q-3 -0.5 -7 -0.5q-11 0 -26 0.5q-15 0.5 -32 1q-17 0.5 -34 2q-17 1.5 -31 4.5l0 -177q0 -12 1 -28q1 -16 8 -30.5q7 -14.5 22 -25q15 -10.5 44 -11.5l0 -27h-230v27q47 1 61 26.5q14 25.5 14 68.5v455q0 46 -17 67q-17 21 -58 29l0 27zM200 338q25 -4 49 -4q24 0 49 0q51 0 86.5 14.5q35.5 14.5 58 37.5q22.5 23 32.5 53q10 30 10 62q0 52 -19.5 83q-19.5 31 -47 47.5q-27.5 16.5 -58 21.5q-30.5 5 -51.5 5q-32 0 -53 -2q-21 -2 -33.5 -7q-12.5 -5 -17.5 -15q-5 -10 -5 -25z" />
<glyph unicode="&#83;" horiz-adv-x="620" d="M465 547q-8 28 -26.5 51q-18.5 23 -43 39.5q-24.5 16.5 -53 25.5q-28.5 9 -56.5 9q-26 0 -48.5 -6q-22.5 -6 -40 -19q-17.5 -13 -27.5 -32q-10 -19 -10 -45q0 -35 16.5 -60q16.5 -25 45.5 -44.5q29 -19.5 69.5 -37.5q40.5 -18 87.5 -39q30 -14 60 -30.5q30 -16.5 55 -39.5q25 -23 40.5 -54.5q15.5 -31.5 15.5 -76.5q0 -26 -11 -60.5q-11 -34.5 -36.5 -66q-25.5 -31.5 -68 -53.5q-42.5 -22 -106.5 -22q-73 0 -132 19q-59 19 -119 50l-7 132h25q8 -35 31 -64q23 -29 53.5 -50q30.5 -21 66 -33q35.5 -12 68.5 -12q32 0 61 8.5q29 8.5 50.5 25q21.5 16.5 34.5 40.5q13 24 13 54q0 41 -17 67.5q-17 26.5 -46 46q-29 19.5 -66.5 35q-37.5 15.5 -79.5 35.5q-40 19 -72 38q-32 19 -54 42q-22 23 -33.5 52q-11.5 29 -11.5 68q0 33 13 64.5q13 31.5 39.5 56q26.5 24.5 65.5 39q39 14.5 92 14.5q31 0 76.5 -10.5q45.5 -10.5 100.5 -42.5l10 -114z" />
<glyph unicode="&#84;" horiz-adv-x="594" d="M182 27q46 2 60.5 26.5q14.5 24.5 14.5 66.5v470q0 25 -4.5 39q-4.5 14 -13 20.5q-8.5 6.5 -19.5 7.5q-11 1 -23 1q-17 0 -36.5 -4q-19.5 -4 -40 -14q-20.5 -10 -40.5 -28q-20 -18 -38 -45l-25 0l30 133h500l30 -133h-25q-18 27 -38 45q-20 18 -40.5 28q-20.5 10 -40 14q-19.5 4 -35.5 4q-13 0 -24 -1q-11 -1 -19.5 -7.5q-8.5 -6.5 -13 -20.5q-4.5 -14 -4.5 -39v-470q0 -42 14.5 -66.5q14.5 -24.5 60.5 -26.5l0 -27l-230 0z" />
<glyph unicode="&#85;" horiz-adv-x="753" d="M708 673q-26 -1 -41 -10q-15 -9 -22.5 -21.5q-7.5 -12.5 -9.5 -26q-2 -13.5 -2 -23.5v-341q0 -22 -2.5 -49.5q-2.5 -27.5 -11 -57q-8.5 -29.5 -25 -58q-16.5 -28.5 -44.5 -51q-28 -22.5 -69.5 -36q-41.5 -13.5 -99.5 -13.5q-67 0 -112 14.5q-45 14.5 -74.5 37q-29.5 22.5 -45 51q-15.5 28.5 -22 56.5q-6.5 28 -7.5 53q-1 25 -1 41v339q0 12 -1 28q-1 16 -8 30.5q-7 14.5 -22 25q-15 10.5 -43 11.5l0 27h229v-27q-43 -2 -59 -25.5q-16 -23.5 -16 -69.5v-348q0 -55 9.5 -93.5q9.5 -38.5 31 -62.5q21.5 -24 57 -35q35.5 -11 88.5 -11q74 0 115.5 25.5q41.5 25.5 61.5 62.5q20 37 24.5 78.5q4.5 41.5 4.5 72.5v305q0 21 -2 38.5q-2 17.5 -9.5 31q-7.5 13.5 -22.5 21.5q-15 8 -40 10l0 27l191 0z" />
<glyph unicode="&#86;" horiz-adv-x="709" d="M241 673q-9 -3 -18.5 -4q-9.5 -1 -16.5 -3.5q-7 -2.5 -11.5 -7.5q-4.5 -5 -4.5 -16q0 -3 1.5 -10.5q1.5 -7.5 3.5 -12.5l167 -503h6l169 453q5 15 9 25.5q4 10.5 4 19.5q0 27 -17.5 42q-17.5 15 -42.5 17l0 27h202v-27q-69 -3 -96 -77l-224 -610h-54l-208 605q-14 38 -33.5 58q-19.5 20 -59.5 24l0 27l224 0z" />
<glyph unicode="&#87;" horiz-adv-x="955" d="M238 673q-23 -2 -34 -10.5q-11 -8.5 -11 -19.5q0 -8 0.5 -21q0.5 -13 11.5 -47l141 -452h5l116 363l-28 102q-12 43 -33 63q-21 20 -60 22l0 27h225v-27q-35 -6 -45.5 -16.5q-10.5 -10.5 -10.5 -33.5q0 -5 3.5 -18.5q3.5 -13.5 5.5 -21.5l130 -448h6l138 430q11 34 13.5 48.5q2.5 14.5 2.5 20.5q0 20 -14 30.5q-14 10.5 -28 9.5l-15 -1v27h181v-27h-6q-20 0 -34 -11.5q-14 -11.5 -24 -29q-10 -17.5 -17 -37.5q-7 -20 -13 -37l-187 -572h-43l-123 419h-5l-132 -419h-51l-180 586q-9 30 -19.5 48.5q-10.5 18.5 -23.5 29.5q-13 11 -28.5 16q-15.5 5 -34.5 7l0 27l221 0z" />
<glyph unicode="&#88;" horiz-adv-x="700" d="M285 700v-27q-14 -1 -31 -4q-17 -3 -21 -12q-2 -3 -1.5 -6.5q0.5 -3.5 1.5 -6.5q2 -6 6 -13q4 -7 13 -22l107 -173l114 162q18 26 23 36q5 10 5 15q0 8 -5.5 12.5q-5.5 4.5 -14 7q-8.5 2.5 -18.5 3q-10 0.5 -20 1.5l0 27h208v-27q-24 -5 -42 -10.5q-18 -5.5 -33 -14q-15 -8.5 -28.5 -21.5q-13.5 -13 -26.5 -32l-138 -197l187 -299q11 -19 34.5 -41.5q23.5 -22.5 74.5 -30.5l0 -27h-245v27q7 1 17 2q10 1 19 3.5q9 2.5 15.5 6.5q6.5 4 6.5 12q0 14 -9.5 32q-9.5 18 -16.5 29l-132 216l-139 -202q-7 -10 -17 -26.5q-10 -16.5 -10 -28.5q0 -18 12 -30q12 -12 47 -14l0 -27h-206v27q26 8 55.5 28.5q29.5 20.5 63.5 70.5l167 245l-146 236q-2 3 -10 13.5q-8 10.5 -21.5 22q-13.5 11.5 -32.5 20.5q-19 9 -43 10l0 27z" />
<glyph unicode="&#89;" horiz-adv-x="654" d="M223 27q27 1 42 10q15 9 22.5 21q7.5 12 9 26.5q1.5 14.5 1.5 27.5v184l-180 313q-19 33 -40.5 47.5q-21.5 14.5 -60.5 16.5l0 27h229v-27q-8 -1 -17.5 -1.5q-9.5 -0.5 -17.5 -3q-8 -2.5 -13.5 -6.5q-5.5 -4 -5.5 -12q0 -4 2.5 -11.5q2.5 -7.5 6 -16q3.5 -8.5 7 -16.5q3.5 -8 6.5 -12l142 -241h5l125 238q1 3 5 11.5q4 8.5 8 18.5q4 10 7 19q3 9 3 13q0 7 -4 11q-4 4 -10.5 5.5q-6.5 1.5 -14 2q-7.5 0.5 -14.5 1.5l0 27h171v-27q-37 -8 -55.5 -15.5q-18.5 -7.5 -28.5 -18.5q-10 -11 -16.5 -27.5q-6.5 -16.5 -19.5 -42.5l-139 -277v-180q0 -16 2 -30.5q2 -14.5 10 -26q8 -11.5 22.5 -19.5q14.5 -8 40.5 -9l0 -27l-230 0z" />
<glyph unicode="&#90;" horiz-adv-x="656" d="M579 149l-47 -149h-487l421 658h-103q-79 0 -142.5 -21.5q-63.5 -21.5 -110.5 -75.5l-26 0l48 139h462l-419 -658h90q34 0 77 2.5q43 2.5 84.5 13q41.5 10.5 75.5 32q34 21.5 51 59.5z" />
<glyph unicode="&#91;" horiz-adv-x="316" d="M246 794h-20q-23 0 -37.5 -1q-14.5 -1 -23.5 -7q-9 -6 -12.5 -19q-3.5 -13 -3.5 -37v-779q0 -20 7.5 -30q7.5 -10 20.5 -13.5q13 -3.5 30.5 -2.5q17.5 1 38.5 1l0 -25h-176v938l176 0z" />
<glyph unicode="&#92;" horiz-adv-x="781" d="M126 820l40 21l489 -963l-39 -19z" />
<glyph unicode="&#93;" horiz-adv-x="316" d="M246 819v-938h-176v25q35 -1 54.5 1q19.5 2 28.5 7.5q9 5.5 11 14.5q2 9 2 22v798q0 33 -19 39q-19 6 -58 6h-19l0 25z" />
<glyph unicode="&#94;" horiz-adv-x="398" d="M325 538q-18 10 -33 19.5q-15 9.5 -29.5 20q-14.5 10.5 -29.5 22.5q-15 12 -34 26q-35 -29 -64 -50q-29 -21 -61 -38l-15 18q20 13 39.5 30.5q19.5 17.5 37 37q17.5 19.5 31 39.5q13.5 20 22.5 37l21 0q20 -40 54.5 -80q34.5 -40 74.5 -63z" />
<glyph unicode="&#95;" horiz-adv-x="532" d="M0 0h532v-70l-532 0z" />
<glyph unicode="&#96;" horiz-adv-x="500" d="M254 700l55 -143h-22l-151 143z" />
<glyph unicode="&#97;" horiz-adv-x="480" d="M385 82q0 -26 9.5 -43.5q9.5 -17.5 38.5 -17.5h8v-21h-116v47h-4q-33 -19 -56.5 -30.5q-23.5 -11.5 -41.5 -17.5q-18 -6 -33 -8q-15 -2 -31 -2q-37 0 -58.5 13q-21.5 13 -33 30.5q-11.5 17.5 -15 35.5q-3.5 18 -3.5 29q0 40 26 69.5q26 29.5 66.5 52q40.5 22.5 89 41.5q48.5 19 94.5 38l0 13q0 21 -1 43q-1 22 -8.5 40.5q-7.5 18.5 -23 30.5q-15.5 12 -45.5 12q-29 0 -46 -8.5q-17 -8.5 -26 -20q-9 -11.5 -13 -24q-4 -12.5 -5 -19.5q-5 -19 -13 -32q-8 -13 -30 -13q-12 0 -23.5 9q-11.5 9 -11.5 31q0 19 12.5 39.5q12.5 20.5 35 36.5q22.5 16 54.5 26.5q32 10.5 72 10.5q48 0 74.5 -15q26.5 -15 39.5 -34.5q13 -19.5 15.5 -39q2.5 -19.5 2.5 -29.5zM325 256q-30 -12 -65.5 -28q-35.5 -16 -66 -36q-30.5 -20 -51 -44q-20.5 -24 -20.5 -52q0 -9 3.5 -19.5q3.5 -10.5 12 -19q8.5 -8.5 21.5 -14.5q13 -6 32 -6q15 0 33 5q18 5 36 13.5q18 8.5 35 18q17 9.5 30 18.5z" />
<glyph unicode="&#98;" horiz-adv-x="509" d="M155 408h2q21 29 53 47q32 18 74 18q35 0 67 -16q32 -16 56 -46q24 -30 38.5 -72.5q14.5 -42.5 14.5 -94.5q0 -35 -10 -79.5q-10 -44.5 -33.5 -83.5q-23.5 -39 -60.5 -65.5q-37 -26.5 -91 -26.5q-20 0 -35 3q-15 3 -28 9q-13 6 -26 16q-13 10 -28 24l-5 0l-26 -52h-22v607q0 18 -4 28q-4 10 -10 14.5q-6 4.5 -13 5.5q-7 1 -13 1h-10v21q55 14 83 56l27 0zM155 122q0 -9 3 -25q3 -16 14 -32q11 -16 32.5 -28q21.5 -12 58.5 -12q46 0 71 27.5q25 27.5 37 63.5q12 36 14 71.5q2 35.5 2 51.5q0 53 -11 90.5q-11 37.5 -28.5 61.5q-17.5 24 -39.5 35q-22 11 -45 11q-21 0 -40.5 -9q-19.5 -9 -34.5 -22.5q-15 -13.5 -24 -29.5q-9 -16 -9 -31z" />
<glyph unicode="&#99;" horiz-adv-x="468" d="M426 73q-42 -40 -82 -62q-40 -22 -86 -22q-50 0 -88.5 22q-38.5 22 -65.5 56.5q-27 34.5 -41 76.5q-14 42 -14 82q0 40 13 83.5q13 43.5 39 80q26 36.5 64.5 60q38.5 23.5 89.5 23.5q24 0 49.5 -8q25.5 -8 47 -22.5q21.5 -14.5 35.5 -35.5q14 -21 14 -47q0 -15 -4.5 -23.5q-4.5 -8.5 -10.5 -13.5q-6 -5 -12.5 -6.5q-6.5 -1.5 -10.5 -1.5q-14 0 -22 5.5q-8 5.5 -13 13q-5 7.5 -7 16.5q-2 9 -3 15q-2 12 -4 24.5q-2 12.5 -9 23q-7 10.5 -20.5 17.5q-13.5 7 -38.5 7q-35 0 -59 -17q-24 -17 -38.5 -45q-14.5 -28 -20.5 -62.5q-6 -34.5 -6 -68.5q0 -37 12 -74q12 -37 34 -66.5q22 -29.5 53.5 -48q31.5 -18.5 69.5 -18.5q29 0 59.5 15q30.5 15 53.5 42z" />
<glyph unicode="&#100;" horiz-adv-x="504" d="M404 722v-653q0 -16 5 -25.5q5 -9.5 12.5 -14.5q7.5 -5 15.5 -6.5q8 -1.5 13 -1.5h9v-21h-115v60h-4q-8 -16 -21 -29q-13 -13 -29 -22.5q-16 -9.5 -34 -14.5q-18 -5 -36 -5q-31 0 -61.5 13.5q-30.5 13.5 -55 40.5q-24.5 27 -39.5 68.5q-15 41.5 -15 98.5q0 49 11 96.5q11 47.5 33 84.5q22 37 56 59.5q34 22.5 81 22.5q29 0 59 -11q30 -11 50 -33l5 0v171q0 7 -0.5 14.5q-0.5 7.5 -4.5 14.5q-4 7 -11.5 11.5q-7.5 4.5 -22.5 4.5h-8v21q55 14 83 56zM344 347q0 12 -5.5 27.5q-5.5 15.5 -18 29.5q-12.5 14 -32.5 23.5q-20 9.5 -50 9.5q-36 0 -58.5 -21q-22.5 -21 -35.5 -51.5q-13 -30.5 -17.5 -65q-4.5 -34.5 -4.5 -62.5q0 -52 9.5 -91.5q9.5 -39.5 26 -66.5q16.5 -27 38 -40.5q21.5 -13.5 46.5 -13.5q21 0 40 10q19 10 32.5 26.5q13.5 16.5 21.5 37.5q8 21 8 44z" />
<glyph unicode="&#101;" horiz-adv-x="476" d="M427 77q-50 -49 -91.5 -68.5q-41.5 -19.5 -83.5 -19.5q-41 0 -78 18.5q-37 18.5 -64.5 50.5q-27.5 32 -44 76.5q-16.5 44.5 -16.5 96.5q0 61 17.5 106.5q17.5 45.5 45 75.5q27.5 30 61.5 45q34 15 67 15q36 0 68 -17q32 -17 56 -47.5q24 -30.5 38.5 -73q14.5 -42.5 15.5 -93.5l-297 0q0 -36 8 -72q8 -36 26.5 -65.5q18.5 -29.5 48 -48q29.5 -18.5 71.5 -18.5q40 0 72.5 16q32.5 16 64.5 44zM346 278q-2 41 -12.5 71q-10.5 30 -26.5 49.5q-16 19.5 -35.5 29q-19.5 9.5 -39.5 9.5q-17 0 -35.5 -7q-18.5 -7 -34.5 -24.5q-16 -17.5 -27.5 -48.5q-11.5 -31 -13.5 -79z" />
<glyph unicode="&#102;" horiz-adv-x="285" d="M115 472q-1 18 -2.5 32q-1.5 14 -5.5 37q-6 39 -7.5 57.5q-1.5 18.5 -1.5 31.5q0 21 9 38q9 17 24 29q15 12 33 18.5q18 6.5 36 6.5q47 0 68 -17.5q21 -17.5 21 -32.5q0 -11 -7.5 -23q-7.5 -12 -27.5 -12q-15 0 -25.5 5.5q-10.5 5.5 -19.5 12q-9 6.5 -18.5 12q-9.5 5.5 -22.5 5.5q-12 0 -24 -9.5q-12 -9.5 -12 -29.5q0 -13 4.5 -33.5q4.5 -20.5 11 -44q6.5 -23.5 14 -45.5q7.5 -22 14.5 -38l74 0v-24h-74v-379q0 -16 5 -25.5q5 -9.5 12.5 -14.5q7.5 -5 15.5 -6.5q8 -1.5 13 -1.5h16v-21h-184v21h15q1 0 8.5 1q7.5 1 16 5.5q8.5 4.5 15.5 14q7 9.5 7 27.5v379h-71l0 24z" />
<glyph unicode="&#103;" horiz-adv-x="542" d="M130 165q-4 3 -13.5 12q-9.5 9 -20 25q-10.5 16 -18.5 39q-8 23 -8 54q0 33 11.5 65q11.5 32 34 57q22.5 25 57 40.5q34.5 15.5 81.5 15.5q35 0 74.5 -10q39.5 -10 78.5 -45q18 28 44.5 47q26.5 19 52.5 19q23 0 36 -12q13 -12 13 -27q0 -15 -8.5 -30q-8.5 -15 -28.5 -15q-9 0 -14 2q-5 2 -9.5 4.5q-4.5 2.5 -9 5q-4.5 2.5 -10.5 3.5q-5 1 -9 0q-10 -2 -16.5 -9q-6.5 -7 -14.5 -15q8 -13 16.5 -36.5q8.5 -23.5 8.5 -58.5q0 -31 -11 -62q-11 -31 -33.5 -56q-22.5 -25 -56.5 -40.5q-34 -15.5 -80 -15.5q-34 0 -62 6.5q-28 6.5 -56 21.5q-20 -8 -38 -24.5q-18 -16.5 -18 -36.5q0 -11 4 -19q4 -8 17.5 -14.5q13.5 -6.5 38.5 -12.5q25 -6 66 -13l86 -16q94 -17 136 -40.5q42 -23.5 42 -69.5q0 -36 -20.5 -61.5q-20.5 -25.5 -54 -42q-33.5 -16.5 -76 -24.5q-42.5 -8 -85.5 -8q-59 0 -99 10q-40 10 -64 26.5q-24 16.5 -34.5 37q-10.5 20.5 -10.5 40.5q0 33 22.5 54q22.5 21 58.5 39l0 6q-35 7 -54.5 33.5q-19.5 26.5 -19.5 55.5q0 16 7.5 30.5q7.5 14.5 18.5 26q11 11.5 24 20.5q13 9 24 15zM143 295q0 -34 9.5 -59.5q9.5 -25.5 26 -43q16.5 -17.5 38.5 -26q22 -8.5 46 -8.5q23 0 44.5 9q21.5 9 38 26q16.5 17 26.5 42q10 25 10 57q0 31 -9 58q-9 27 -24.5 46q-15.5 19 -36.5 30q-21 11 -46 11q-54 0 -88.5 -39.5q-34.5 -39.5 -34.5 -102.5zt0 0zM185 -38q-14 3 -29 -2q-15 -5 -27.5 -14q-12.5 -9 -21 -22q-8.5 -13 -8.5 -27q0 -18 10.5 -34.5q10.5 -16.5 31.5 -29.5q21 -13 52 -21q31 -8 72 -8q22 0 50 4.5q28 4.5 53.5 13.5q25.5 9 43.5 23.5q18 14.5 21 35.5q0 2 0.5 5q0.5 3 -0.5 5q-2 9 -10 15q-8 6 -18.5 10.5q-10.5 4.5 -22.5 7.5q-12 3 -21 5q-31 7 -47 10q-16 3 -24.5 4.5q-8.5 1.5 -14 2q-5.5 0.5 -14.5 2q-9 1.5 -26.5 4.5t-49.5 10z" />
<glyph unicode="&#104;" horiz-adv-x="532" d="M161 69q0 -18 7 -27.5q7 -9.5 15.5 -14q8.5 -4.5 16 -5.5q7.5 -1 8.5 -1h9v-21h-172v21h9q29 0 38 17.5q9 17.5 9 43.5v511q0 18 -6.5 35q-6.5 17 -31.5 17h-9v21q26 8 46.5 20.5q20.5 12.5 35.5 35.5l25 0v-318h5q42 28 86.5 48.5q44.5 20.5 89.5 20.5q28 0 45.5 -7q17.5 -7 27.5 -20.5q10 -13.5 13.5 -33q3.5 -19.5 3.5 -44.5v-299q0 -16 5 -25.5q5 -9.5 12.5 -14.5q7.5 -5 15.5 -6.5q8 -1.5 13 -1.5h9v-21h-170v21h8q3 0 11 1q8 1 16 6q8 5 14 14.5q6 9.5 6 26.5v300q0 20 -7.5 31q-7.5 11 -17 16q-9.5 5 -19.5 6q-10 1 -15 1q-34 0 -76.5 -16.5q-42.5 -16.5 -75.5 -42.5z" />
<glyph unicode="&#105;" horiz-adv-x="260" d="M53 21q1 0 8.5 1q7.5 1 16 5.5q8.5 4.5 15.5 14q7 9.5 7 27.5v288q0 20 -10 32.5q-10 12.5 -27 12.5h-10v21q24 5 48 20.5q24 15.5 35 35.5l24 0v-410q0 -18 7 -27.5q7 -9.5 15.5 -14q8.5 -4.5 16 -5.5q7.5 -1 8.5 -1h8v-21h-170v21zM85 620q0 22 14 35.5q14 13.5 34 13.5q24 0 36 -16.5q12 -16.5 12 -32.5q0 -19 -14 -34q-14 -15 -34 -15q-17 0 -32.5 12.5t-15.5 36.5z" />
<glyph unicode="&#106;" horiz-adv-x="275" d="M63 425q17 5 40.5 17q23.5 12 42.5 40l24 0v-548q0 -46 -11.5 -76.5q-11.5 -30.5 -29.5 -48.5q-18 -18 -39 -25.5q-21 -7.5 -40 -7.5q-32 0 -48 17q-16 17 -16 36q0 20 13 29q13 9 27 9q8 0 21 -4.5q13 -4.5 25 -21.5q7 -9 10.5 -14.5q3.5 -5.5 13.5 -5.5q8 0 16.5 7.5q8.5 7.5 8.5 33.5q0 57 -5.5 83q-5.5 26 -5.5 37v381q0 19 -11 30q-11 11 -27 11h-9zM95 620q0 22 14 35.5q14 13.5 34 13.5q24 0 36 -16.5q12 -16.5 12 -32.5q0 -19 -14 -34q-14 -15 -34 -15q-17 0 -32.5 12.5t-15.5 36.5z" />
<glyph unicode="&#107;" horiz-adv-x="518" d="M161 226h5l153 148q28 26 34.5 36.5q6.5 10.5 6.5 15.5q0 3 -4.5 9q-4.5 6 -21.5 6h-10v21h155v-21q-5 -1 -15 -3.5q-10 -2.5 -25.5 -10q-15.5 -7.5 -35 -22q-19.5 -14.5 -43.5 -38.5l-72 -73l125 -206q14 -24 26.5 -37q12.5 -13 22.5 -20q10 -7 16.5 -8.5q6.5 -1.5 9.5 -1.5h8v-21h-172v21h12q5 0 14 0.5q9 0.5 14 6.5q2 4 2 8.5q0 4.5 -2 9.5q-2 6 -6 13q-4 7 -12 20l-105 170l-80 -81v-99q0 -18 7 -27.5q7 -9.5 15.5 -14q8.5 -4.5 16 -5.5q7.5 -1 8.5 -1h9v-21h-172v21h9q29 0 38 17.5q9 17.5 9 43.5v504q0 23 -6 41q-6 18 -32 18h-9v21q26 8 46.5 20.5q20.5 12.5 35.5 35.5l25 0z" />
<glyph unicode="&#108;" horiz-adv-x="262" d="M54 666q29 8 47.5 20.5q18.5 12.5 34.5 35.5l25 0v-653q0 -18 7 -27.5q7 -9.5 15.5 -14q8.5 -4.5 16 -5.5q7.5 -1 8.5 -1h9v-21h-172v21h8q28 0 38 15q10 15 10 46v519q0 4 -1 11.5q-1 7.5 -5 14.5q-4 7 -11.5 12.5q-7.5 5.5 -20.5 5.5l-9 0z" />
<glyph unicode="&#109;" horiz-adv-x="824" d="M165 411q53 27 100 44.5q47 17.5 96 17.5q29 0 45.5 -7.5q16.5 -7.5 24.5 -17.5q8 -10 9.5 -18.5q1.5 -8.5 1.5 -11.5v-5h4q48 24 92.5 42q44.5 18 98.5 18q50 0 68 -20q18 -20 18 -71v-313q0 -18 7 -27.5q7 -9.5 15.5 -14q8.5 -4.5 16 -5.5q7.5 -1 8.5 -1h9v-21h-172v21h9q30 0 38.5 17.5q8.5 17.5 8.5 43.5v287q0 27 -17 40.5q-17 13.5 -43 13.5q-40 0 -80 -16q-40 -16 -81 -36l0 -302q0 -18 7 -27.5q7 -9.5 15.5 -14q8.5 -4.5 16 -5.5q7.5 -1 8.5 -1h9v-21h-172v21h9q30 0 38.5 17.5q8.5 17.5 8.5 43.5v285q0 3 -1 12q-1 9 -6.5 18.5q-5.5 9.5 -18 17.5q-12.5 8 -34.5 8q-27 0 -67 -10q-40 -10 -94 -43l0 -301q0 -18 7 -27.5q7 -9.5 15.5 -14q8.5 -4.5 16 -5.5q7.5 -1 8.5 -1h9v-21h-172v21h9q29 0 38 17.5q9 17.5 9 43.5v263q0 9 -0.5 19q-0.5 10 -4.5 19q-4 9 -11.5 15q-7.5 6 -21.5 6h-9v21q20 5 44 18.5q24 13.5 38 38.5l25 0l0 -71z" />
<glyph unicode="&#110;" horiz-adv-x="541" d="M161 69q0 -17 6 -26.5q6 -9.5 14 -14.5q8 -5 16 -6q8 -1 11 -1h9v-21h-172v21h9q2 0 9.5 1q7.5 1 16 6q8.5 5 15 14.5q6.5 9.5 6.5 26.5v276q0 9 -0.5 19q-0.5 10 -4.5 19q-4 9 -11.5 15q-7.5 6 -21.5 6h-10v21q23 6 47 21.5q24 15.5 36 35.5l25 0v-71h4q51 25 99 43.5q48 18.5 96 18.5q31 0 47 -11q16 -11 23.5 -29q7.5 -18 8.5 -42q1 -24 1 -50v-272q0 -18 7 -27.5q7 -9.5 15.5 -14q8.5 -4.5 16 -5.5q7.5 -1 8.5 -1h9v-21h-172v21h9q5 0 13 1.5q8 1.5 15.5 6.5q7.5 5 12.5 14.5q5 9.5 5 25.5v298q0 22 -12.5 39q-12.5 17 -47.5 17q-21 0 -63.5 -9.5q-42.5 -9.5 -94.5 -43.5z" />
<glyph unicode="&#111;" horiz-adv-x="502" d="M251 473q51 0 88.5 -22q37.5 -22 63 -57q25.5 -35 38 -78q12.5 -43 12.5 -85q0 -42 -12 -85.5q-12 -43.5 -37 -78q-25 -34.5 -63 -56.5q-38 -22 -89 -22q-53 0 -91 22q-38 22 -63 57q-25 35 -37 78q-12 43 -12 85q0 42 12.5 85q12.5 43 38 78q25.5 35 63 57q37.5 22 88.5 22zt0 0zM251 437q-25 0 -48 -11.5q-23 -11.5 -41 -36q-18 -24.5 -29 -64q-11 -39.5 -11 -94.5q0 -64 13.5 -104.5q13.5 -40.5 33 -63q19.5 -22.5 42 -30.5q22.5 -8 40.5 -8q15 0 37.5 7q22.5 7 42.5 28.5q20 21.5 34.5 62q14.5 40.5 14.5 108.5q0 55 -11 94.5q-11 39.5 -29 64q-18 24.5 -41 36t-48 11.5z" />
<glyph unicode="&#112;" horiz-adv-x="517" d="M162 483v-69h5q17 23 46 41q29 18 74 18q33 0 65.5 -13.5q32.5 -13.5 58 -41.5q25.5 -28 41.5 -69.5q16 -41.5 16 -96.5q0 -54 -14.5 -102q-14.5 -48 -40.5 -83.5q-26 -35.5 -61 -56.5q-35 -21 -76 -21q-30 0 -59 12q-29 12 -50 38l-5 0v-197q0 -17 6 -26.5q6 -9.5 14.5 -14q8.5 -4.5 16.5 -6q8 -1.5 11 -1.5h16v-21h-181v21h9q29 0 38.5 18q9.5 18 9.5 44v498q0 17 -4.5 27q-4.5 10 -11.5 15.5q-7 5.5 -14 7q-7 1.5 -12 1.5h-10v21q30 10 50 22.5q20 12.5 35 34.5zM162 117q0 -20 11 -37q11 -17 27.5 -29q16.5 -12 35 -19q18.5 -7 33.5 -7q18 0 39.5 8.5q21.5 8.5 41 30.5q19.5 22 32.5 59.5q13 37.5 13 95.5q0 47 -9 87q-9 40 -26 69q-17 29 -41 45.5q-24 16.5 -53 16.5q-20 0 -39 -8q-19 -8 -33.5 -20.5q-14.5 -12.5 -23 -29.5q-8.5 -17 -8.5 -35z" />
<glyph unicode="&#113;" horiz-adv-x="511" d="M287 -206q36 1 49.5 12q13.5 11 13.5 49v197h-6q-18 -26 -47.5 -44.5q-29.5 -18.5 -69.5 -18.5q-46 0 -79.5 19.5q-33.5 19.5 -55.5 51q-22 31.5 -32.5 71q-10.5 39.5 -10.5 80.5q0 57 14.5 105q14.5 48 40 83q25.5 35 59 54.5q33.5 19.5 72.5 19.5q31 0 62.5 -12q31.5 -12 49.5 -24l7 0q3 3 6 7q3 4 6 8l24 35h20v-645q0 -21 10.5 -32.5q10.5 -11.5 45.5 -15.5l0 -21h-179zM350 325q0 8 -3 26.5q-3 18.5 -14 37.5q-11 19 -32.5 33.5q-21.5 14.5 -58.5 14.5q-28 0 -48 -11.5q-20 -11.5 -33.5 -30q-13.5 -18.5 -21 -41q-7.5 -22.5 -12 -44.5q-4.5 -22 -5.5 -41.5q-1 -19.5 -1 -31.5q0 -51 10 -90.5q10 -39.5 27.5 -66.5q17.5 -27 41 -41q23.5 -14 49.5 -14q21 0 39 10.5q18 10.5 32 27q14 16.5 22 37q8 20.5 8 40.5z" />
<glyph unicode="&#114;" horiz-adv-x="370" d="M161 412h3q20 21 49.5 38.5q29.5 17.5 58.5 21.5q5 1 10.5 1q5.5 0 10.5 0q31 0 45.5 -14.5q14.5 -14.5 14.5 -33.5q0 -11 -4.5 -18.5q-4.5 -7.5 -11 -12q-6.5 -4.5 -13 -6q-6.5 -1.5 -10.5 -1.5q-11 0 -18.5 3.5q-7.5 3.5 -14.5 8q-7 4.5 -16 8.5q-9 4 -24 6q-3 1 -6.5 1q-3.5 0 -6.5 0q-21 0 -34 -7.5q-13 -7.5 -20.5 -18.5q-7.5 -11 -10 -23.5q-2.5 -12.5 -2.5 -21.5v-274q0 -18 7 -27.5q7 -9.5 15.5 -14q8.5 -4.5 16 -5.5q7.5 -1 8.5 -1h16v-21h-179v21h9q5 0 13 1.5q8 1.5 15.5 6.5q7.5 5 13 14.5q5.5 9.5 5.5 25.5v291q0 4 -1 11.5q-1 7.5 -5 14.5q-4 7 -11.5 12.5q-7.5 5.5 -20.5 5.5h-10v21q23 6 47 21.5q24 15.5 36 35.5l25 0z" />
<glyph unicode="&#115;" horiz-adv-x="434" d="M315 354q-10 25 -24 41q-14 16 -30 25.5q-16 9.5 -33.5 13q-17.5 3.5 -34.5 3.5q-15 0 -31 -4q-16 -4 -28.5 -12.5q-12.5 -8.5 -20.5 -20.5q-8 -12 -8 -27q0 -18 10 -35.5q10 -17.5 42 -31.5l141 -59q7 -3 22 -11q15 -8 29 -24q14 -16 25 -40q11 -24 11 -58q0 -29 -13.5 -52q-13.5 -23 -36 -39.5q-22.5 -16.5 -52 -25q-29.5 -8.5 -61.5 -8.5q-33 0 -50 2q-17 2 -31.5 6q-14.5 4 -31.5 9.5q-17 5.5 -50 12.5l-10 112h21q11 -30 28 -50q17 -20 37.5 -32.5q20.5 -12.5 43.5 -18q23 -5.5 46 -5.5q21 0 41 5.5q20 5.5 35 15.5q15 10 24.5 24.5q9.5 14.5 9.5 31.5q0 22 -14.5 44.5q-14.5 22.5 -54.5 38.5l-121 47q-32 12 -50 28.5q-18 16.5 -27 33q-9 16.5 -11 33q-2 16.5 -2 28.5q0 29 11.5 51q11.5 22 31.5 37q20 15 46.5 22.5q26.5 7.5 55.5 7.5q27 0 56 -5q29 -5 80 -21l0 -93z" />
<glyph unicode="&#116;" horiz-adv-x="354" d="M291 432h-102v-310q0 -19 1 -35.5q1 -16.5 5.5 -28.5q4.5 -12 14.5 -18.5q10 -6.5 27 -6.5q16 0 28 9q12 9 22 23l21 0q-25 -76 -90 -76q-29 0 -46.5 9q-17.5 9 -27 24q-9.5 15 -12.5 34q-3 19 -3 39v337h-84v36q34 4 55 22q21 18 33 44.5q12 26.5 16.5 60q4.5 33.5 5.5 69.5l34 0v-196l102 0z" />
<glyph unicode="&#117;" horiz-adv-x="550" d="M156 130q0 -28 3 -46q3 -18 10 -28q7 -10 18.5 -13.5q11.5 -3.5 28.5 -3.5q20 0 43 5.5q23 5.5 46 14.5q23 9 44 20.5q21 11.5 37 23.5l0 256q0 24 -10 34.5q-10 10.5 -27 10.5h-10v21q17 5 40.5 17q23.5 12 42.5 40l24 0v-413q0 -16 5 -25.5q5 -9.5 12.5 -14.5q7.5 -5 15.5 -6.5q8 -1.5 13 -1.5h9v-21h-115v59h-4q-18 -11 -41 -23.5q-23 -12.5 -49 -23q-26 -10.5 -53.5 -17q-27.5 -6.5 -54.5 -6.5q-30 0 -47.5 9.5q-17.5 9.5 -26.5 23q-9 13.5 -11.5 27q-2.5 13.5 -2.5 22.5v288q0 4 -1 12q-1 8 -5 15q-4 7 -11.5 12.5q-7.5 5.5 -20.5 5.5h-9v21q20 5 44 18.5q24 13.5 38 38.5l25 0z" />
<glyph unicode="&#118;" horiz-adv-x="507" d="M203 441h-10q-20 0 -30.5 -7q-10.5 -7 -10.5 -18q0 -7 2.5 -14q2.5 -7 4.5 -12l113 -304h5l102 280q2 6 5.5 20.5q3.5 14.5 3.5 25.5q0 9 -5 14.5q-5 5.5 -11.5 8.5q-6.5 3 -13 4.5q-6.5 1.5 -9.5 1.5h-6v21h147v-21q-18 -3 -30.5 -11.5q-12.5 -8.5 -21.5 -21q-9 -12.5 -15.5 -27.5q-6.5 -15 -12.5 -30l-131 -362h-34l-147 378q-4 10 -10.5 23q-6.5 13 -16.5 24.5q-10 11.5 -23.5 19.5q-13.5 8 -30.5 7l0 21l186 0z" />
<glyph unicode="&#119;" horiz-adv-x="745" d="M198 462v-21q-43 -8 -43 -28q0 -13 4.5 -29q4.5 -16 6.5 -22l110 -277h4l76 230l-13 40q-3 10 -8 24q-5 14 -13.5 27q-8.5 13 -21.5 22.5q-13 9.5 -33 12.5l0 21h173v-21q-14 0 -28 -9q-14 -9 -14 -35q0 -11 4 -18.5q4 -7.5 8 -17.5l99 -276h3l97 267q1 3 3 8.5q2 5.5 3.5 12q1.5 6.5 3 12q1.5 5.5 1.5 7.5q2 9 0 19q-4 16 -15 22q-11 6 -30 8l0 21h153v-21q-21 -3 -35 -10.5q-14 -7.5 -23.5 -18q-9.5 -10.5 -15.5 -23q-6 -12.5 -10 -24.5l-134 -376h-29l-104 280h-5l-96 -280h-29l-151 378q-12 31 -29 49.5q-17 18.5 -50 24.5l0 21z" />
<glyph unicode="&#120;" horiz-adv-x="511" d="M229 462v-21q-18 1 -29.5 -5q-11.5 -6 -11.5 -14q0 -2 1 -6q1 -4 6 -12l73 -113h5l74 102q3 4 5.5 9.5q2.5 5.5 2.5 10.5q0 2 -0.5 6.5q-0.5 4.5 -4.5 9q-4 4.5 -13.5 8q-9.5 3.5 -26.5 4.5l0 21h154v-21q-31 -4 -48 -18q-17 -14 -34 -36l-97 -124l123 -188q18 -28 35.5 -39.5q17.5 -11.5 46.5 -14.5l0 -21h-180v21q19 -1 30 6q11 7 11 15q0 4 -3.5 11q-3.5 7 -5.5 10l-92 143h-6l-99 -140q-2 -2 -5.5 -9q-3.5 -7 -3.5 -9q0 -3 0.5 -7q0.5 -4 4.5 -8q4 -4 13.5 -7.5q9.5 -3.5 26.5 -4.5l0 -21h-160v21q32 7 51 19.5q19 12.5 36 35.5l117 160v3l-97 152q-16 25 -36.5 35q-20.5 10 -46.5 15l0 21z" />
<glyph unicode="&#121;" horiz-adv-x="514" d="M285 91l94 260q2 8 6.5 21q4.5 13 4.5 23q0 26 -15 35.5q-15 9.5 -32 10.5l0 21h154v-21q-29 -6 -45.5 -23.5q-16.5 -17.5 -28.5 -50.5l-176 -487q-13 -35 -27 -55q-14 -20 -28.5 -30.5q-14.5 -10.5 -27 -13q-12.5 -2.5 -22.5 -2.5q-41 0 -64.5 17q-23.5 17 -23.5 43q0 17 11.5 25.5q11.5 8.5 23.5 8.5q7 0 17 -3q10 -3 22 -14q10 -9 17.5 -17.5q7.5 -8.5 16.5 -8.5q3 0 9 1.5q6 1.5 13 7.5q7 6 14.5 18q7.5 12 14.5 33l37 107l-145 377q-2 4 -6.5 15q-4.5 11 -13.5 22.5q-9 11.5 -21.5 20.5q-12.5 9 -30.5 9h-5v21h169v-21q-22 -2 -31 -6.5q-9 -4.5 -9 -15.5q0 -11 3 -18q3 -7 5 -11l115 -299z" />
<glyph unicode="&#122;" horiz-adv-x="474" d="M380 0h-335l257 426h-44q-28 0 -54.5 -3.5q-26.5 -3.5 -50 -13q-23.5 -9.5 -44 -26.5q-20.5 -17 -36.5 -44l-21 0l53 123h289l-254 -426h43q17 0 44.5 2q27.5 2 59 11.5q31.5 9.5 63.5 30q32 20.5 58 56.5l21 0z" />
<glyph unicode="&#123;" horiz-adv-x="356" d="M300 784q-13 -3 -26.5 -8.5q-13.5 -5.5 -25 -16.5q-11.5 -11 -18.5 -28q-7 -17 -7 -42q0 -22 1.5 -46q1.5 -24 3.5 -53q2 -28 0 -55q-2 -33 -9.5 -60q-7.5 -27 -22 -49.5q-14.5 -22.5 -36.5 -41q-22 -18.5 -53 -34.5q36 -18 59 -38.5q23 -20.5 36 -44q13 -23.5 18.5 -49q5.5 -25.5 7.5 -53.5q2 -28 0 -55q-1 -12 -2 -24.5q-1 -12.5 -2 -24.5q-1 -13 -1 -25q0 -12 0 -25q0 -25 7 -42q7 -17 18.5 -28q11.5 -11 25 -16.5q13.5 -5.5 26.5 -8.5l-5 -34q-53 9 -83 31.5q-30 22.5 -44.5 50.5q-14.5 28 -18 59.5q-3.5 31.5 -3.5 58.5q0 18 1.5 36q1.5 18 1.5 37q0 19 -1.5 46.5q-1.5 27.5 -10.5 54.5q-9 27 -28 48q-19 21 -53 26l0 40q34 5 53 26q19 21 28 48q9 27 10.5 54.5q1.5 27.5 1.5 46.5q0 19 -1.5 37q-1.5 18 -1.5 36q0 27 3.5 58.5q3.5 31.5 18 59.5q14.5 28 44.5 50.5q30 22.5 83 31.5z" />
<glyph unicode="&#124;" horiz-adv-x="289" d="M113 876h63v-1052l-63 0z" />
<glyph unicode="&#125;" horiz-adv-x="356" d="M56 -84q39 8 58 33.5q19 25.5 19 61.5q0 22 -1.5 46q-1.5 24 -3.5 53q-2 27 0 55q1 27 7 53q6 26 19.5 49.5q13.5 23.5 36.5 44q23 20.5 59 38.5q-32 15 -54.5 33.5q-22.5 18.5 -36.5 41q-14 22.5 -21.5 50q-7.5 27.5 -9.5 60.5q-2 27 0 55q1 12 2 24.5q1 12.5 2 24.5q1 13 1 25q0 12 0 25q0 36 -19 61.5q-19 25.5 -58 33.5l5 34q54 -9 84.5 -31q30.5 -22 44.5 -50.5q14 -28.5 17 -59.5q3 -31 3 -59q0 -18 -1 -36q-1 -18 -1 -37q0 -15 1 -42q1 -27 9 -55q8 -28 27 -50.5q19 -22.5 55 -27.5l0 -40q-36 -5 -55 -27.5q-19 -22.5 -27 -50.5q-8 -28 -9 -55q-1 -27 -1 -42q0 -19 1 -37q1 -18 1 -36q0 -28 -3 -59q-3 -31 -17 -59.5q-14 -28.5 -44.5 -50.5q-30.5 -22 -84.5 -31z" />
<glyph unicode="&#126;" horiz-adv-x="472" d="M62 311q10 15 25.5 33q15.5 18 32.5 31q12 9 23 13q11 4 28 4q11 0 30 -2q19 -2 51 -10q16 -4 38 -8.5q22 -4.5 43 -4.5q9 0 25.5 5q16.5 5 30.5 20l21 0q-4 -6 -13 -19q-9 -13 -18 -23q-11 -13 -29.5 -26q-18.5 -13 -44.5 -13q-6 0 -18 2q-12 2 -25 4.5q-13 2.5 -25.5 5q-12.5 2.5 -19.5 4.5q-33 8 -48.5 10.5q-15.5 2.5 -26.5 2.5q-20 0 -32.5 -8.5q-12.5 -8.5 -26.5 -20.5z" />
<glyph unicode="&#160;" horiz-adv-x="233" />
<glyph unicode="&#161;" horiz-adv-x="280" d="M163 294q-1 -12 -1 -24q0 -12 0 -24q0 -43 2 -74.5q2 -31.5 5 -58q3 -26.5 6.5 -50.5q3.5 -24 6.5 -52.5q3 -28.5 5 -64.5q2 -36 2 -85q0 -9 -0.5 -25.5q-0.5 -16.5 -5 -33q-4.5 -16.5 -14.5 -28.5q-10 -12 -29 -12q-18 0 -27.5 10q-9.5 10 -14.5 25q-5 15 -6 32.5q-1 17.5 -1 31.5q0 21 1.5 42.5q1.5 21.5 4.5 49q3 27.5 7 64q4 36.5 8 86.5q2 24 3 43q1 19 1.5 39.5q0.5 20.5 0.5 46q0 25.5 1 62.5zM91 441q0 13 5 22q5 9 12.5 15q7.5 6 16 9q8.5 3 15.5 3q20 0 34.5 -14.5q14.5 -14.5 14.5 -34.5q0 -18 -13.5 -33.5q-13.5 -15.5 -35.5 -15.5q-16 0 -32.5 12t-16.5 37z" />
<glyph unicode="&#162;" horiz-adv-x="316" d="M347 73q-26 -25 -48 -40.5q-22 -15.5 -41.5 -24.5q-19.5 -9 -36.5 -13.5q-17 -4.5 -32 -5.5l0 -71l-44 -1v76q-41 8 -73.5 31q-32.5 23 -55 55.5q-22.5 32.5 -34.5 70.5q-12 38 -12 76q0 33 10 72.5q10 39.5 31.5 75q21.5 35.5 54.5 62q33 26.5 79 34.5l0 65h44v-63q23 -1 46.5 -10q23.5 -9 43 -24q19.5 -15 31.5 -35q12 -20 12 -43q0 -15 -4.5 -23.5q-4.5 -8.5 -10.5 -13.5q-6 -5 -12.5 -6.5q-6.5 -1.5 -10.5 -1.5q-17 0 -26 8q-9 8 -13 20q-4 12 -6.5 27q-2.5 15 -7 28q-4.5 13 -14 23.5q-9.5 10.5 -28.5 13.5l0 -397q6 -1 11.5 -1q5.5 0 11.5 0q35 0 64 17q29 17 49 40zM145 435q-30 -5 -49.5 -24.5q-19.5 -19.5 -31.5 -46.5q-12 -27 -16.5 -58.5q-4.5 -31.5 -4.5 -61.5q0 -24 6.5 -51.5q6.5 -27.5 19 -53.5q12.5 -26 31.5 -48.5q19 -22.5 45 -37.5z" />
<glyph unicode="&#163;" horiz-adv-x="526" d="M68 398h110q3 60 9.5 118.5q6.5 58.5 25.5 104q19 45.5 55 73.5q36 28 96 28q26 0 47.5 -9q21.5 -9 36.5 -23q15 -14 23.5 -30.5q8.5 -16.5 8.5 -32.5q0 -19 -10 -33q-10 -14 -33 -14q-14 0 -22 6q-8 6 -13 14.5q-5 8.5 -7 18.5q-2 10 -2 19q0 6 -1 13q-1 7 -4.5 14q-3.5 7 -11.5 11.5q-8 4.5 -22 4.5q-26 0 -43 -14q-17 -14 -27 -37.5q-10 -23.5 -14 -53q-4 -29.5 -5 -61q-1 -31.5 0 -62q1 -30.5 2 -55.5l159 0v-42h-159v-32q0 -33 -6 -66.5q-6 -33.5 -18 -65q-12 -31.5 -29.5 -59.5q-17.5 -28 -39.5 -49l0 -5q21 5 35.5 8q14.5 3 35.5 3q26 0 44.5 -6.5q18.5 -6.5 38.5 -16.5q14 -7 29 -13.5q15 -6.5 29 -6.5q18 0 35.5 11q17.5 11 31.5 22l21 -19q-26 -24 -46 -39q-20 -15 -35.5 -23q-15.5 -8 -27.5 -10.5q-12 -2.5 -24 -2.5q-14 0 -25 3q-11 3 -22.5 8.5q-11.5 5.5 -25.5 14q-14 8.5 -33 19.5q-13 8 -27.5 15q-14.5 7 -39.5 7q-6 0 -12.5 -1q-6.5 -1 -12.5 -3q-19 -16 -30.5 -26.5q-11.5 -10.5 -19 -17q-7.5 -6.5 -13.5 -11q-6 -4.5 -14 -8.5l-20 22q45 40 70.5 73.5q25.5 33.5 38.5 71.5q13 38 17 86q4 48 6 117l-110 0z" />
<glyph unicode="&#164;" horiz-adv-x="875" d="M188 174q-31 43 -43.5 88.5q-12.5 45.5 -12.5 87.5q0 42 12.5 87.5q12.5 45.5 43.5 88.5l-118 118l70 70l117 -118q7 6 22 16q15 10 37.5 20q22.5 10 52.5 17q30 7 68 7q37 0 67 -7q30 -7 52.5 -17q22.5 -10 37.5 -20q15 -10 23 -16l118 118l70 -70l-118 -118q31 -43 43.5 -88.5q12.5 -45.5 12.5 -87.5q0 -42 -12.5 -87.5q-12.5 -45.5 -43.5 -88.5l118 -118l-70 -70l-118 118q-8 -6 -23 -16q-15 -10 -37.5 -20q-22.5 -10 -52.5 -17q-30 -7 -67 -7q-38 0 -68 7q-30 7 -52.5 17q-22.5 10 -37.5 20q-15 10 -22 16l-117 -118l-70 70zM211 350q0 -47 17.5 -88q17.5 -41 48.5 -72q31 -31 72 -49q41 -18 88 -18q46 0 87.5 18q41.5 18 72.5 49q31 31 49 72q18 41 18 88q0 46 -18 87.5q-18 41.5 -49 72.5q-31 31 -72.5 49q-41.5 18 -87.5 18q-47 0 -88 -18q-41 -18 -72 -49q-31 -31 -48.5 -72.5t-17.5 -87.5z" />
<glyph unicode="&#165;" horiz-adv-x="654" d="M246 700v-27q-8 -1 -17.5 -1.5q-9.5 -0.5 -17.5 -3q-8 -2.5 -13.5 -6.5q-5.5 -4 -5.5 -12q0 -4 2.5 -11.5q2.5 -7.5 6 -16q3.5 -8.5 7 -16.5q3.5 -8 6.5 -12l142 -241h5l125 238q1 3 5 11.5q4 8.5 8 18.5q4 10 7 19q3 9 3 13q0 7 -4 11q-4 4 -10.5 5.5q-6.5 1.5 -14 2q-7.5 0.5 -14.5 1.5l0 27h171v-27q-37 -8 -55.5 -15.5q-18.5 -7.5 -28.5 -18.5q-10 -11 -16.5 -27.5q-6.5 -16.5 -19.5 -42.5l-137 -274h149v-30h-151v-70h151v-30h-151v-53q0 -16 2 -30.5q2 -14.5 10 -26q8 -11.5 22.5 -19.5q14.5 -8 40.5 -9l0 -27h-230v27q27 1 42 10q15 9 22.5 21q7.5 12 9 26.5q1.5 14.5 1.5 27.5v53h-151v30h151v70h-151v30h151v1l-180 313q-19 33 -40.5 47.5q-21.5 14.5 -60.5 16.5l0 27z" />
<glyph unicode="&#166;" horiz-adv-x="289" d="M176 458h-63v418h63zM113 242h63v-418l-63 0z" />
<glyph unicode="&#167;" horiz-adv-x="530" d="M134 183q-30 30 -47 58q-17 28 -26 52q-9 24 -11 44.5q-2 20.5 -2 36.5q0 11 4 27q4 16 14.5 35.5q10.5 19.5 28.5 40q18 20.5 45 40.5q-5 17 -6.5 35.5q-1.5 18.5 -1.5 37.5q0 24 10 46q10 22 28 39.5q18 17.5 44.5 28q26.5 10.5 59.5 10.5q29 0 56 -10q27 -10 48 -25.5q21 -15.5 33.5 -35.5q12.5 -20 12.5 -40q0 -17 -9.5 -26.5q-9.5 -9.5 -22.5 -9.5q-13 0 -22 6q-9 6 -15 14.5q-6 8.5 -9.5 18q-3.5 9.5 -6.5 17.5q-3 8 -7.5 17q-4.5 9 -12 16q-7.5 7 -19 11.5q-11.5 4.5 -28.5 4.5q-37 0 -60 -19q-23 -19 -23 -41q0 -63 58 -121l149 -151q29 -29 46 -53.5q17 -24.5 26 -44q9 -19.5 11.5 -33.5q2.5 -14 2.5 -23q0 -26 -8 -47.5q-8 -21.5 -21 -40q-13 -18.5 -30 -34.5q-17 -16 -36 -32q5 -11 10.5 -30.5q5.5 -19.5 7.5 -30.5q2 -9 1.5 -17.5q-0.5 -8.5 -1.5 -17.5q-3 -29 -15.5 -55.5q-12.5 -26.5 -32.5 -46.5q-20 -20 -48 -32q-28 -12 -61 -12q-45 0 -75.5 10.5q-30.5 10.5 -49 25.5q-18.5 15 -27 32.5q-8.5 17.5 -8.5 31.5q0 27 14 38.5q14 11.5 28 11.5q21 0 29.5 -13q8.5 -13 14.5 -30q3 -9 7.5 -20q4.5 -11 13 -21q8.5 -10 22.5 -17q14 -7 37 -7q29 0 47 10q18 10 27.5 26q9.5 16 13 35q3.5 19 3.5 36q0 10 -5.5 21.5q-5.5 11.5 -13 22.5q-7.5 11 -15.5 20q-8 9 -14 15zM334 100q6 -7 11 -13q5 -6 18 -21q20 11 37.5 30.5q17.5 19.5 17.5 41.5q0 33 -20 65.5q-20 32.5 -61 75.5l-114 122q-5 6 -13.5 15.5q-8.5 9.5 -17.5 21q-9 11.5 -17.5 22.5q-8.5 11 -15.5 20q-23 -14 -35.5 -34.5q-12.5 -20.5 -12.5 -40.5q0 -26 6.5 -48q6.5 -22 18.5 -41.5q12 -19.5 28 -38.5q16 -19 35 -38z" />
<glyph unicode="&#168;" horiz-adv-x="500" d="M110 651q0 26 16.5 37.5q16.5 11.5 32.5 11.5q18 0 33.5 -14q15.5 -14 15.5 -35q0 -20 -14.5 -34.5q-14.5 -14.5 -34.5 -14.5q-17 0 -33 13q-16 13 -16 36zt0 0zM292 651q0 26 16.5 37.5q16.5 11.5 32.5 11.5q18 0 33.5 -14q15.5 -14 15.5 -35q0 -20 -14.5 -34.5q-14.5 -14.5 -34.5 -14.5q-17 0 -33 13t-16 36z" />
<glyph unicode="&#169;" horiz-adv-x="852" d="M62 350q0 75 28.5 141q28.5 66 78 115.5q49.5 49.5 116 78.5q66.5 29 141.5 29q75 0 141 -29q66 -29 115.5 -78.5q49.5 -49.5 78.5 -115.5q29 -66 29 -141q0 -75 -29 -141.5q-29 -66.5 -78.5 -116q-49.5 -49.5 -115.5 -78q-66 -28.5 -141 -28.5q-75 0 -141.5 28.5q-66.5 28.5 -116 78q-49.5 49.5 -78 116q-28.5 66.5 -28.5 141.5zt0 0zM117 350q0 -64 24 -120q24 -56 66 -98q42 -42 98 -66.5q56 -24.5 121 -24.5q64 0 120.5 24q56.5 24 98.5 66q42 42 66 98.5q24 56.5 24 120.5q0 64 -24.5 120.5q-24.5 56.5 -66.5 98.5q-42 42 -98 66q-56 24 -120 24q-64 0 -120.5 -24q-56.5 -24 -98.5 -66q-42 -42 -66 -98.5q-24 -56.5 -24 -120.5zt0 0zM527 463q-10 29 -41 48q-31 19 -66 19q-9 0 -30 -4.5q-21 -4.5 -43 -22.5q-22 -18 -39 -53.5q-17 -35.5 -17 -96.5q0 -38 9.5 -70.5q9.5 -32.5 27.5 -56q18 -23.5 43 -37q25 -13.5 55 -13.5q44 0 74 20q30 20 46 66l13 0l-3 -76q-32 -20 -62 -26q-30 -6 -68 -6q-38 0 -71 16.5q-33 16.5 -58 43.5q-25 27 -39 63q-14 36 -14 75q0 31 11 65.5q11 34.5 35 64q24 29.5 62 49q38 19.5 92 21.5l21 0q11 -1 30.5 -4.5q19.5 -3.5 43.5 -14.5l2 -70z" />
<glyph unicode="&#170;" horiz-adv-x="373" d="M252 623q0 10 0 23q0 13 -8 25q-4 6 -14.5 14q-10.5 8 -31.5 8q-33 0 -51 -16q-7 -7 -9 -12.5q-2 -5.5 -2.5 -11.5q-0.5 -6 -1 -12.5q-0.5 -6.5 -4.5 -14.5q-2 -5 -8.5 -10.5q-6.5 -5.5 -17.5 -5.5q-9 0 -17.5 5.5q-8.5 5.5 -8.5 19.5q0 14 9 31q9 17 33 30q18 10 39 14q21 4 44 4q31 0 49 -7.5q18 -7.5 28 -16.5q14 -14 17.5 -28.5q3.5 -14.5 3.5 -27.5v-189q0 -17 10.5 -24q10.5 -7 28.5 -7l0 -7h-88v30q-26 -20 -58.5 -28.5q-32.5 -8.5 -57.5 -8.5q-41 0 -60.5 19.5q-19.5 19.5 -19.5 47.5q0 28 14 48q14 20 37 34q26 17 60.5 28.5q34.5 11.5 84.5 25.5zM252 582q-51 -14 -74 -27.5q-23 -13.5 -28 -16.5q-23 -17 -30.5 -36q-7.5 -19 -7.5 -36q0 -20 14 -31.5q14 -11.5 34 -11.5q21 0 46.5 10.5q25.5 10.5 45.5 24.5zM49 345h288v-30l-288 0z" />
<glyph unicode="&#171;" horiz-adv-x="468" d="M313 230l85 -133l-24 -15l-138 147l139 146l21 -14zM166 230l135 -192l-26 -17l-205 209l215 208l21 -15z" />
<glyph unicode="&#172;" horiz-adv-x="1050" d="M56 276h938v-174h-64v111l-874 0z" />
<glyph unicode="&#173;" horiz-adv-x="280" d="M42 276h196v-63h-196zM42 276h196v-63l-196 0z" />
<glyph unicode="&#174;" horiz-adv-x="840" d="M56 350q0 76 29 142q29 66 78.5 115.5q49.5 49.5 115.5 78q66 28.5 141 28.5q76 0 142.5 -28.5q66.5 -28.5 115.5 -77.5q49 -49 77.5 -115.5q28.5 -66.5 28.5 -142.5q0 -75 -28.5 -141q-28.5 -66 -78 -115.5q-49.5 -49.5 -115.5 -78.5q-66 -29 -142 -29q-74 0 -140.5 29q-66.5 29 -116 78.5q-49.5 49.5 -78.5 116q-29 66.5 -29 140.5zt0 0zM111 350q0 -64 24 -120.5q24 -56.5 66 -98.5q42 -42 98.5 -66q56.5 -24 120.5 -24q64 0 120.5 24.5q56.5 24.5 98.5 66.5q42 42 66 98q24 56 24 120q0 64 -24 120.5q-24 56.5 -66 98.5q-42 42 -98.5 66q-56.5 24 -120.5 24q-64 0 -120 -24q-56 -24 -98 -66q-42 -42 -66.5 -98.5q-24.5 -56.5 -24.5 -120.5zt0 0zM441 544q8 0 27 -2.5q19 -2.5 39 -14q20 -11.5 35 -34q15 -22.5 15 -61.5q0 -37 -23 -67q-23 -30 -62 -37l72 -125q18 -32 49 -31l0 -15h-121v15h7q10 0 18 1.5q8 1.5 8 9.5q0 5 -9 19l-70 116h-33q-13 1 -23 1.5q-10 0.5 -21 2.5l0 -98q0 -16 3.5 -26q3.5 -10 9 -16q5.5 -6 11 -8q5.5 -2 10.5 -2h9v-15h-128v15h10q5 0 11 2q6 2 11.5 8q5.5 6 9 16q3.5 10 3.5 26v252q0 15 -2.5 23.5q-2.5 8.5 -7.5 13.5q-5 5 -14 8.5q-9 3.5 -21 8.5l0 14zM349 344q14 -3 27.5 -3q13.5 0 27.5 0q47 0 74 26q27 26 27 67q0 33 -12.5 50.5q-12.5 17.5 -28.5 26q-16 8.5 -31.5 10q-15.5 1.5 -22.5 1.5h-32q-19 0 -24 -11.5q-5 -11.5 -5 -28.5z" />
<glyph unicode="&#175;" horiz-adv-x="500" d="M101 666h299v-39l-299 0z" />
<glyph unicode="&#176;" horiz-adv-x="348" d="M104 554q0 -18 7 -31q7 -13 17.5 -22q10.5 -9 22.5 -13q12 -4 23 -4q28 0 49 21q21 21 21 49q0 10 -4 22.5q-4 12.5 -13 23q-9 10.5 -22 17.5q-13 7 -31 7q-29 0 -49.5 -20.5q-20.5 -20.5 -20.5 -49.5zt0 0zM62 554q0 23 9 43.5q9 20.5 24 35.5q15 15 35.5 24q20.5 9 43.5 9q23 0 43.5 -9q20.5 -9 35.5 -24q15 -15 24 -35.5q9 -20.5 9 -43.5q0 -23 -9 -43.5q-9 -20.5 -24 -35.5q-15 -15 -35.5 -24q-20.5 -9 -43.5 -9q-23 0 -43.5 9q-20.5 9 -35.5 24q-15 15 -24 35.5t-9 43.5z" />
<glyph unicode="&#177;" horiz-adv-x="822" d="M371 217v140h-231v70h231v178h70v-178h231v-70h-231v-140zM140 168h532v-70l-532 0z" />
<glyph unicode="&#178;" horiz-adv-x="437" d="M105 357v19q11 11 26 27q15 16 31.5 34q16.5 18 32.5 37q16 19 29 36q21 29 32.5 54.5q11.5 25.5 11.5 59.5q0 35 -17.5 49.5q-17.5 14.5 -39.5 14.5q-26 0 -43 -16.5q-17 -16.5 -17 -31.5q0 -8 3.5 -12q3.5 -4 8 -7.5q4.5 -3.5 10 -7q5.5 -3.5 8.5 -10.5q7 -14 0 -27.5q-7 -13.5 -24 -13.5q-16 0 -26.5 14.5q-10.5 14.5 -10.5 35.5q0 18 8 38q8 20 22 34q12 13 31 21.5q19 8.5 45 8.5q25 0 46 -9.5q21 -9.5 35 -23.5q11 -11 17.5 -27.5q6.5 -16.5 6.5 -40.5q0 -19 -6 -35q-6 -16 -15 -29.5q-9 -13.5 -19.5 -24.5q-10.5 -11 -19.5 -21q-26 -27 -40.5 -40q-14.5 -13 -23 -21q-8.5 -8 -15 -15q-6.5 -7 -15.5 -22l93 0q14 0 23.5 7q9.5 7 19.5 27l19 0l-23 -82z" />
<glyph unicode="&#179;" horiz-adv-x="436" d="M193 558q13 0 26 5.5q13 5.5 23 15q10 9.5 16 23q6 13.5 6 30.5q0 21 -8.5 33q-8.5 12 -19 17.5q-10.5 5.5 -20.5 6.5q-10 1 -13 1q-25 0 -32.5 -10q-7.5 -10 -7.5 -15q0 -8 4 -14q4 -6 4 -14q0 -10 -7 -18.5q-7 -8.5 -19 -8.5q-9 0 -18 8q-9 8 -9 25q0 11 5.5 23.5q5.5 12.5 18.5 23q13 10.5 33 17.5q20 7 50 7q42 0 69 -22.5q27 -22.5 27 -58.5q0 -19 -6 -32.5q-6 -13.5 -16 -23.5q-10 -10 -22.5 -16q-12.5 -6 -20.5 -9l0 -4q14 -2 28 -9q14 -7 25 -18q11 -12 16.5 -28q5.5 -16 5.5 -32q0 -19 -7 -37q-7 -18 -24 -35q-17 -17 -38 -25q-21 -8 -50 -8q-32 0 -52.5 8.5q-20.5 8.5 -32.5 20.5q-12 12 -17 26q-5 14 -5 25q0 17 9 27.5q9 10.5 22 10.5q11 0 18 -6.5q7 -6.5 7 -16.5q0 -15 -7 -22q-3 -3 -7 -7.5q-4 -4.5 -4 -12.5q0 -11 14.5 -19q14.5 -8 40.5 -8q32 0 53.5 21.5q21.5 21.5 21.5 57.5q0 31 -21.5 51q-21.5 20 -56.5 20h-19l0 26z" />
<glyph unicode="&#180;" horiz-adv-x="500" d="M364 700l-151 -143h-21l54 143z" />
<glyph unicode="&#181;" horiz-adv-x="560" d="M166 130q0 -25 10.5 -42.5q10.5 -17.5 27.5 -28q17 -10.5 37 -15.5q20 -5 40 -5q38 0 65 18.5q27 18.5 50 45.5l0 256q0 24 -10 34.5q-10 10.5 -27 10.5h-10v21q17 5 40.5 17q23.5 12 42.5 40l24 0v-413q0 -16 5 -25.5q5 -9.5 12.5 -14.5q7.5 -5 15.5 -6.5q8 -1.5 13 -1.5h9v-21h-115v59h-4q-29 -37 -57 -53.5q-28 -16.5 -59 -16.5q-44 0 -69 12q-25 12 -37 24l-4 0v-183q0 -17 6 -26.5q6 -9.5 14.5 -14q8.5 -4.5 16.5 -6q8 -1.5 11 -1.5h16v-21h-181v21h9q29 0 38.5 18q9.5 18 9.5 44v503q0 4 -1 12q-1 8 -5 15q-4 7 -11.5 12.5q-7.5 5.5 -20.5 5.5h-9v21q20 5 44 18.5q24 13.5 38 38.5l25 0z" />
<glyph unicode="&#182;" horiz-adv-x="482" d="M220 350q-44 1 -77 17.5q-33 16.5 -54.5 41.5q-21.5 25 -32.5 55.5q-11 30.5 -11 60.5q0 30 11 60.5q11 30.5 33 55.5q22 25 54.5 41q32.5 16 76.5 18l70 0v-896h-70zM367 700h70v-896l-70 0z" />
<glyph unicode="&#183;" horiz-adv-x="250" d="M76 378q0 22 15.5 35.5q15.5 13.5 33.5 13.5q20 0 34.5 -14.5q14.5 -14.5 14.5 -34.5q0 -18 -13.5 -33.5q-13.5 -15.5 -35.5 -15.5q-20 0 -34.5 14.5t-14.5 34.5z" />
<glyph unicode="&#184;" horiz-adv-x="500" d="M249 -61q33 -3 51.5 -12.5q18.5 -9.5 27.5 -21q9 -11.5 11.5 -23.5q2.5 -12 2.5 -19q0 -15 -8 -29.5q-8 -14.5 -23 -26q-15 -11.5 -37.5 -18.5q-22.5 -7 -50.5 -7q-21 0 -35 2.5q-14 2.5 -37 10.5l3 24q12 -3 25 -4q13 -1 29 -1q11 0 22.5 1.5q11.5 1.5 20.5 5.5q9 4 15 12q6 8 6 20q0 20 -21 29q-21 9 -43 9q-13 0 -28 -5l-14 25l100 89l52 0z" />
<glyph unicode="&#185;" horiz-adv-x="352" d="M204 425q0 -6 0.5 -14.5q0.5 -8.5 4.5 -16q4 -7.5 12.5 -13.5q8.5 -6 25.5 -6l0 -19h-142v19q16 0 25 6q9 6 13 13.5q4 7.5 4.5 16q0.5 8.5 0.5 14.5v206q0 2 -0.5 7q-0.5 5 -3.5 10.5q-3 5.5 -10 9.5q-7 4 -19 4h-10v19q20 -2 41 6.5q21 8.5 24 26.5l34 0z" />
<glyph unicode="&#186;" horiz-adv-x="438" d="M218 714q27 0 52 -10.5q25 -10.5 44.5 -31q19.5 -20.5 31.5 -49.5q12 -29 12 -66q0 -37 -12 -66q-12 -29 -31.5 -49.5q-19.5 -20.5 -44.5 -31q-25 -10.5 -52 -10.5q-26 0 -51 10.5q-25 10.5 -44.5 30.5q-19.5 20 -31 49q-11.5 29 -11.5 67q0 37 11.5 66.5q11.5 29.5 31 49.5q19.5 20 44.5 30.5q25 10.5 51 10.5zt0 0zM219 693q-30 0 -43.5 -14q-13.5 -14 -19.5 -28q-10 -23 -11 -47q-1 -24 -1 -47q0 -23 1 -47q1 -24 11 -47q6 -14 19.5 -28q13.5 -14 43.5 -14q30 0 43.5 14q13.5 14 19.5 28q10 23 11 47q1 24 1 47q0 23 -1 47q-1 24 -11 47q-6 14 -19.5 28q-13.5 14 -43.5 14zt0 0zM75 345h288v-30l-288 0z" />
<glyph unicode="&#187;" horiz-adv-x="468" d="M92 375l139 -146l-137 -147l-24 15l84 133l-82 131zM183 438l215 -208l-205 -209l-26 17l134 192l-139 193z" />
<glyph unicode="&#188;" horiz-adv-x="850" d="M254 419q0 -6 0.5 -14.5q0.5 -8.5 4.5 -16q4 -7.5 12.5 -13.5q8.5 -6 25.5 -6l0 -19h-142v19q16 0 25 6q9 6 13 13.5q4 7.5 4.5 16q0.5 8.5 0.5 14.5v206q0 2 -0.5 7q-0.5 5 -3.5 10.5q-3 5.5 -10 9.5q-7 4 -19 4h-10v19q20 -2 41 6.5q21 8.5 24 26.5l34 0zM211 -64l-31 17l407 801l31 -20zM648 135h47v-29h-47v-48q0 -6 0.5 -14.5q0.5 -8.5 4.5 -16q4 -7.5 12 -13q8 -5.5 22 -7.5l0 -7h-134v7q14 2 22 7.5q8 5.5 11.5 13q3.5 7.5 4.5 16q1 8.5 1 14.5v48h-162v7l161 245h57zM592 313l-114 -178l114 0z" />
<glyph unicode="&#189;" horiz-adv-x="851" d="M254 425q0 -6 0.5 -14.5q0.5 -8.5 4.5 -16q4 -7.5 12.5 -13.5q8.5 -6 25.5 -6l0 -19h-142v19q16 0 25 6q9 6 13 13.5q4 7.5 4.5 16q0.5 8.5 0.5 14.5v206q0 2 -0.5 7q-0.5 5 -3.5 10.5q-3 5.5 -10 9.5q-7 4 -19 4h-10v19q20 -2 41 6.5q21 8.5 24 26.5l34 0zM211 -60l-31 17l407 801l31 -20zM469 0v19q11 11 26 27q15 16 31.5 34q16.5 18 32.5 37q16 19 29 36q22 29 33 54.5q11 25.5 11 59.5q0 21 -6 33.5q-6 12.5 -15 19q-9 6.5 -19 9q-10 2.5 -17 2.5q-10 0 -20.5 -4q-10.5 -4 -19.5 -10.5q-9 -6.5 -14.5 -15.5q-5.5 -9 -5.5 -18q0 -8 3.5 -12q3.5 -4 8 -7.5q4.5 -3.5 10 -7q5.5 -3.5 8.5 -10.5q7 -14 0 -27.5q-7 -13.5 -24 -13.5q-16 0 -26.5 14.5q-10.5 14.5 -10.5 35.5q0 18 8 38q8 20 22 34q12 13 31 21.5q19 8.5 45 8.5q25 0 46 -9.5q21 -9.5 35 -23.5q11 -11 17.5 -27.5q6.5 -16.5 6.5 -40.5q0 -19 -6 -35q-6 -16 -15 -29.5q-9 -13.5 -19.5 -24.5q-10.5 -11 -19.5 -21q-26 -27 -40.5 -40q-14.5 -13 -23 -21q-8.5 -8 -15 -15q-6.5 -7 -15.5 -22l93 0q14 0 23.5 7q9.5 7 19.5 27l19 0l-23 -82z" />
<glyph unicode="&#190;" horiz-adv-x="936" d="M297 -64l-31 17l407 801l31 -20zM243 558q13 0 26 5.5q13 5.5 23 15q10 9.5 16 23q6 13.5 6 30.5q0 21 -8.5 33q-8.5 12 -19 17.5q-10.5 5.5 -20.5 6.5q-10 1 -13 1q-25 0 -32.5 -10q-7.5 -10 -7.5 -15q0 -8 4 -14q4 -6 4 -14q0 -10 -7 -18.5q-7 -8.5 -19 -8.5q-9 0 -18 8q-9 8 -9 25q0 11 5.5 23.5q5.5 12.5 18.5 23q13 10.5 33 17.5q20 7 50 7q42 0 69 -22.5q27 -22.5 27 -58.5q0 -19 -6 -32.5q-6 -13.5 -16 -23.5q-10 -10 -22.5 -16q-12.5 -6 -20.5 -9l0 -4q14 -2 28 -9q14 -7 25 -18q11 -12 16.5 -28q5.5 -16 5.5 -32q0 -19 -7 -37q-7 -18 -24 -35q-17 -17 -38 -25q-21 -8 -50 -8q-32 0 -52.5 8.5q-20.5 8.5 -32.5 20.5q-12 12 -17 26q-5 14 -5 25q0 17 9 27.5q9 10.5 22 10.5q11 0 18 -6.5q7 -6.5 7 -16.5q0 -15 -7 -22q-3 -3 -7 -7.5q-4 -4.5 -4 -12.5q0 -11 14.5 -19q14.5 -8 40.5 -8q32 0 53.5 21.5q21.5 21.5 21.5 57.5q0 31 -21.5 51q-21.5 20 -56.5 20h-19v26zM734 135h47v-29h-47v-48q0 -6 0.5 -14.5q0.5 -8.5 4.5 -16q4 -7.5 12 -13q8 -5.5 22 -7.5l0 -7h-134v7q14 2 22 7.5q8 5.5 11.5 13q3.5 7.5 4.5 16q1 8.5 1 14.5v48h-162v7l161 245h57zM678 313l-114 -178l114 0z" />
<glyph unicode="&#191;" horiz-adv-x="484" d="M325 84q-11 2 -22.5 3q-11.5 1 -22.5 3q-16 2 -31.5 3q-15.5 1 -30.5 -3q-9 -2 -20.5 -8q-11.5 -6 -22 -17.5q-10.5 -11.5 -17.5 -29.5q-7 -18 -7 -43q0 -29 10.5 -62.5q10.5 -33.5 28 -62q17.5 -28.5 40.5 -48q23 -19.5 48 -19.5q19 0 29.5 9q10.5 9 16.5 17q6 8 16 19q10 11 27 11q18 0 25.5 -11.5q7.5 -11.5 7.5 -36.5q0 -13 -10 -21.5q-10 -8.5 -24.5 -14q-14.5 -5.5 -30.5 -8q-16 -2.5 -29 -2.5q-38 0 -77.5 20.5q-39.5 20.5 -71.5 55.5q-32 35 -52.5 82q-20.5 47 -20.5 101q0 28 8.5 56q8.5 28 28 50.5q19.5 22.5 50 36q30.5 13.5 75.5 13.5q17 0 37 -5l0 122h42zM348 441q0 -25 -16.5 -37q-16.5 -12 -32.5 -12q-22 0 -35.5 15.5q-13.5 15.5 -13.5 33.5q0 20 14.5 34.5q14.5 14.5 34.5 14.5q7 0 15.5 -3q8.5 -3 16 -9q7.5 -6 12.5 -15t5 -22z" />
<glyph unicode="&#192;" horiz-adv-x="691" d="M230 646q42 11 68.5 29.5q26.5 18.5 35.5 58.5l43 0l183 -599q8 -27 16.5 -45.5q8.5 -18.5 20 -31q11.5 -12.5 28 -20q16.5 -7.5 41.5 -11.5l0 -27h-236v27q33 0 47.5 8.5q14.5 8.5 18 20.5q3.5 12 -0.5 26.5q-4 14.5 -8 27.5l-30 106h-250l-36 -106q-4 -12 -5 -26q-1 -14 -1 -23q0 -18 17 -24.5q17 -6.5 35 -9.5l0 -27h-200v27q39 8 65 29.5q26 21.5 39 59.5l156 447q7 22 6.5 34q-0.5 12 -6 18q-5.5 6 -14 7q-8.5 1 -16.5 1q-5 0 -8.5 -0.5q-3.5 -0.5 -8.5 -1.5zM336 594l-5 1l-111 -337h221zM368 840l75 -92h-21l-175 71l0 21z" />
<glyph unicode="&#193;" horiz-adv-x="691" d="M230 646q42 11 68.5 29.5q26.5 18.5 35.5 58.5l43 0l183 -599q8 -27 16.5 -45.5q8.5 -18.5 20 -31q11.5 -12.5 28 -20q16.5 -7.5 41.5 -11.5l0 -27h-236v27q33 0 47.5 8.5q14.5 8.5 18 20.5q3.5 12 -0.5 26.5q-4 14.5 -8 27.5l-30 106h-250l-36 -106q-4 -12 -5 -26q-1 -14 -1 -23q0 -18 17 -24.5q17 -6.5 35 -9.5l0 -27h-200v27q39 8 65 29.5q26 21.5 39 59.5l156 447q7 22 6.5 34q-0.5 12 -6 18q-5.5 6 -14 7q-8.5 1 -16.5 1q-5 0 -8.5 -0.5q-3.5 -0.5 -8.5 -1.5zM336 594l-5 1l-111 -337h221zM322 840h121v-21l-175 -71l-21 0z" />
<glyph unicode="&#194;" horiz-adv-x="691" d="M230 646q42 11 68.5 29.5q26.5 18.5 35.5 58.5l43 0l183 -599q8 -27 16.5 -45.5q8.5 -18.5 20 -31q11.5 -12.5 28 -20q16.5 -7.5 41.5 -11.5l0 -27h-236v27q33 0 47.5 8.5q14.5 8.5 18 20.5q3.5 12 -0.5 26.5q-4 14.5 -8 27.5l-30 106h-250l-36 -106q-4 -12 -5 -26q-1 -14 -1 -23q0 -18 17 -24.5q17 -6.5 35 -9.5l0 -27h-200v27q39 8 65 29.5q26 21.5 39 59.5l156 447q7 22 6.5 34q-0.5 12 -6 18q-5.5 6 -14 7q-8.5 1 -16.5 1q-5 0 -8.5 -0.5q-3.5 -0.5 -8.5 -1.5zM336 594l-5 1l-111 -337h221zM194 735v21l131 84h40l131 -84v-21l-151 60z" />
<glyph unicode="&#195;" horiz-adv-x="691" d="M230 646q42 11 68.5 29.5q26.5 18.5 35.5 58.5l43 0l183 -599q8 -27 16.5 -45.5q8.5 -18.5 20 -31q11.5 -12.5 28 -20q16.5 -7.5 41.5 -11.5l0 -27h-236v27q33 0 47.5 8.5q14.5 8.5 18 20.5q3.5 12 -0.5 26.5q-4 14.5 -8 27.5l-30 106h-250l-36 -106q-4 -12 -5 -26q-1 -14 -1 -23q0 -18 17 -24.5q17 -6.5 35 -9.5l0 -27h-200v27q39 8 65 29.5q26 21.5 39 59.5l156 447q7 22 6.5 34q-0.5 12 -6 18q-5.5 6 -14 7q-8.5 1 -16.5 1q-5 0 -8.5 -0.5q-3.5 -0.5 -8.5 -1.5zM336 594l-5 1l-111 -337h221zM144 762q31 41 65 59.5q34 18.5 63 18.5q29 0 61.5 -12.5q32.5 -12.5 63.5 -23.5q14 -5 27.5 -8.5q13.5 -3.5 28.5 -3.5q16 0 34.5 8.5q18.5 8.5 37.5 34.5l20 -19q-27 -35 -55.5 -58.5q-28.5 -23.5 -68.5 -23.5q-20 0 -36 4.5q-16 4.5 -32 10.5q-29 11 -59 22.5q-30 11.5 -55 11.5q-16 0 -36 -8.5q-20 -8.5 -40 -32.5z" />
<glyph unicode="&#196;" horiz-adv-x="691" d="M230 646q42 11 68.5 29.5q26.5 18.5 35.5 58.5l43 0l183 -599q8 -27 16.5 -45.5q8.5 -18.5 20 -31q11.5 -12.5 28 -20q16.5 -7.5 41.5 -11.5l0 -27h-236v27q33 0 47.5 8.5q14.5 8.5 18 20.5q3.5 12 -0.5 26.5q-4 14.5 -8 27.5l-30 106h-250l-36 -106q-4 -12 -5 -26q-1 -14 -1 -23q0 -18 17 -24.5q17 -6.5 35 -9.5l0 -27h-200v27q39 8 65 29.5q26 21.5 39 59.5l156 447q7 22 6.5 34q-0.5 12 -6 18q-5.5 6 -14 7q-8.5 1 -16.5 1q-5 0 -8.5 -0.5q-3.5 -0.5 -8.5 -1.5zM336 594l-5 1l-111 -337h221zM177 826q0 23 16.5 39.5q16.5 16.5 39.5 16.5q23 0 39.5 -16.5q16.5 -16.5 16.5 -39.5q0 -23 -16.5 -39.5q-16.5 -16.5 -39.5 -16.5q-23 0 -39.5 16.5q-16.5 16.5 -16.5 39.5zt0 0zM401 826q0 23 16.5 39.5q16.5 16.5 39.5 16.5q23 0 39.5 -16.5q16.5 -16.5 16.5 -39.5q0 -23 -16.5 -39.5q-16.5 -16.5 -39.5 -16.5q-23 0 -39.5 16.5t-16.5 39.5z" />
<glyph unicode="&#197;" horiz-adv-x="691" d="M230 646q42 11 68.5 29.5q26.5 18.5 35.5 58.5l43 0l183 -599q8 -27 16.5 -45.5q8.5 -18.5 20 -31q11.5 -12.5 28 -20q16.5 -7.5 41.5 -11.5l0 -27h-236v27q33 0 47.5 8.5q14.5 8.5 18 20.5q3.5 12 -0.5 26.5q-4 14.5 -8 27.5l-30 106h-250l-36 -106q-4 -12 -5 -26q-1 -14 -1 -23q0 -18 17 -24.5q17 -6.5 35 -9.5l0 -27h-200v27q39 8 65 29.5q26 21.5 39 59.5l156 447q7 22 6.5 34q-0.5 12 -6 18q-5.5 6 -14 7q-8.5 1 -16.5 1q-5 0 -8.5 -0.5q-3.5 -0.5 -8.5 -1.5zM336 594l-5 1l-111 -337h221zM226 805q0 10 5 21q5 11 18 20.5q13 9.5 36.5 15.5q23.5 6 59.5 6q35 0 58 -5.5q23 -5.5 36.5 -14.5q13.5 -9 19 -20q5.5 -11 5.5 -23q0 -20 -12.5 -32.5q-12.5 -12.5 -30.5 -19q-18 -6.5 -39 -9q-21 -2.5 -37 -2.5q-32 0 -54.5 5.5q-22.5 5.5 -37 14.5q-14.5 9 -21 20.5q-6.5 11.5 -6.5 22.5zt0 0zM263 805q0 -10 7 -17.5q7 -7.5 17 -12.5q10 -5 22 -8q12 -3 22 -3h15h14q9 0 20.5 2.5q11.5 2.5 21.5 7q10 4.5 17 12.5q7 8 7 19q0 11 -7 19q-7 8 -17 12.5q-10 4.5 -21.5 7q-11.5 2.5 -20.5 2.5h-14h-15q-10 0 -22 -3q-12 -3 -22 -8q-10 -5 -17 -12.5t-7 -17.5z" />
<glyph unicode="&#198;" horiz-adv-x="1000" d="M262 264l-99 -148q-8 -11 -15.5 -22.5q-7.5 -11.5 -10.5 -25.5q-1 -5 -1.5 -9.5q-0.5 -4.5 1.5 -8.5q4 -10 18 -16q14 -6 32 -7l0 -27h-206v27q27 9 50.5 24.5q23.5 15.5 41.5 32.5q18 17 30.5 32.5q12.5 15.5 18.5 23.5l293 440q8 11 16 24q8 13 8 27q0 14 -12 27q-12 13 -51 15l0 27h548l22 -137h-25q-12 33 -35.5 52q-23.5 19 -48.5 28.5q-25 9.5 -46 12q-21 2.5 -27 2.5h-113q-23 0 -35.5 -5q-12.5 -5 -18.5 -13q-6 -8 -7 -17.5q-1 -9.5 -1 -18.5v-202h149q38 0 51.5 16q13.5 16 15.5 51l25 0v-179h-25q1 22 -6 35.5q-7 13.5 -17.5 21.5q-10.5 8 -22 11q-11.5 3 -20.5 3h-150v-269q0 -17 6 -27q6 -10 15 -15q9 -5 18.5 -6.5q9.5 -1.5 17.5 -1.5h135q6 0 25 2q19 2 43 12q24 10 50 30q26 20 46 56l25 0l-24 -142h-512v27q25 1 40 9q15 8 23 19.5q8 11.5 10 26q2 14.5 2 30.5v152zM509 628h-5l-214 -322l219 0z" />
<glyph unicode="&#199;" horiz-adv-x="673" d="M565 551q-9 25 -27 47q-18 22 -42.5 38.5q-24.5 16.5 -54 26q-29.5 9.5 -61.5 9.5q-52 0 -90 -17.5q-38 -17.5 -64.5 -45q-26.5 -27.5 -43 -63q-16.5 -35.5 -26 -71q-9.5 -35.5 -12.5 -68.5q-3 -33 -3 -57q0 -70 17.5 -129q17.5 -59 49 -102q31.5 -43 75.5 -67q44 -24 97 -24q42 0 78.5 11.5q36.5 11.5 64.5 32.5q28 21 47.5 49.5q19.5 28.5 27.5 62.5l25 0l-6 -140q-41 -27 -95.5 -43q-54.5 -16 -113.5 -16l-33 -30q5 0 15 -2q26 -5 41.5 -14q15.5 -9 23.5 -19.5q8 -10.5 10.5 -21.5q2.5 -11 2.5 -19q0 -15 -8 -29.5q-8 -14.5 -23 -26q-15 -11.5 -37.5 -18.5q-22.5 -7 -50.5 -7q-21 0 -35 2.5q-14 2.5 -37 10.5l3 24q12 -3 25 -4q13 -1 29 -1q11 0 22.5 1.5q11.5 1.5 20.5 5.5q9 4 15 12q6 8 6 20q0 20 -21 29q-21 9 -43 9q-13 0 -28 -5l-14 25l68 61q-80 10 -139 48q-59 38 -97 90.5q-38 52.5 -56.5 111.5q-18.5 59 -18.5 110q0 35 9 76q9 41 27.5 82q18.5 41 48.5 78.5q30 37.5 71.5 66.5q41.5 29 95.5 46.5q54 17.5 122 17.5q52 0 90.5 -9.5q38.5 -9.5 71.5 -26.5l5 -128z" />
<glyph unicode="&#200;" horiz-adv-x="629" d="M557 563h-25q-11 33 -32.5 52q-21.5 19 -45.5 28.5q-24 9.5 -46 12q-22 2.5 -33 2.5h-122q-29 0 -41.5 -11.5q-12.5 -11.5 -12.5 -39.5v-205h156q46 0 65 13q19 13 20 54l26 0v-179h-26v7q0 9 -3.5 20q-3.5 11 -11 20.5q-7.5 9.5 -19 16q-11.5 6.5 -26.5 6.5h-181v-254q0 -25 6.5 -38q6.5 -13 18.5 -19q12 -6 30.5 -6.5q18.5 -0.5 42.5 -0.5h76q61 0 105.5 21q44.5 21 76.5 79l25 0l-23 -142h-512v27q28 1 43 11.5q15 10.5 22 25q7 14.5 8 30.5q1 16 1 28v456q0 12 -1 28q-1 16 -8 30.5q-7 14.5 -22 25q-15 10.5 -43 11.5l0 27h490zM337 840l75 -92h-21l-175 71l0 21z" />
<glyph unicode="&#201;" horiz-adv-x="629" d="M557 563h-25q-11 33 -32.5 52q-21.5 19 -45.5 28.5q-24 9.5 -46 12q-22 2.5 -33 2.5h-122q-29 0 -41.5 -11.5q-12.5 -11.5 -12.5 -39.5v-205h156q46 0 65 13q19 13 20 54l26 0v-179h-26v7q0 9 -3.5 20q-3.5 11 -11 20.5q-7.5 9.5 -19 16q-11.5 6.5 -26.5 6.5h-181v-254q0 -25 6.5 -38q6.5 -13 18.5 -19q12 -6 30.5 -6.5q18.5 -0.5 42.5 -0.5h76q61 0 105.5 21q44.5 21 76.5 79l25 0l-23 -142h-512v27q28 1 43 11.5q15 10.5 22 25q7 14.5 8 30.5q1 16 1 28v456q0 12 -1 28q-1 16 -8 30.5q-7 14.5 -22 25q-15 10.5 -43 11.5l0 27h490zM291 840h121v-21l-175 -71l-21 0z" />
<glyph unicode="&#202;" horiz-adv-x="629" d="M557 563h-25q-11 33 -32.5 52q-21.5 19 -45.5 28.5q-24 9.5 -46 12q-22 2.5 -33 2.5h-122q-29 0 -41.5 -11.5q-12.5 -11.5 -12.5 -39.5v-205h156q46 0 65 13q19 13 20 54l26 0v-179h-26v7q0 9 -3.5 20q-3.5 11 -11 20.5q-7.5 9.5 -19 16q-11.5 6.5 -26.5 6.5h-181v-254q0 -25 6.5 -38q6.5 -13 18.5 -19q12 -6 30.5 -6.5q18.5 -0.5 42.5 -0.5h76q61 0 105.5 21q44.5 21 76.5 79l25 0l-23 -142h-512v27q28 1 43 11.5q15 10.5 22 25q7 14.5 8 30.5q1 16 1 28v456q0 12 -1 28q-1 16 -8 30.5q-7 14.5 -22 25q-15 10.5 -43 11.5l0 27h490zM163 735v21l131 84h40l131 -84v-21l-151 60z" />
<glyph unicode="&#203;" horiz-adv-x="629" d="M557 563h-25q-11 33 -32.5 52q-21.5 19 -45.5 28.5q-24 9.5 -46 12q-22 2.5 -33 2.5h-122q-29 0 -41.5 -11.5q-12.5 -11.5 -12.5 -39.5v-205h156q46 0 65 13q19 13 20 54l26 0v-179h-26v7q0 9 -3.5 20q-3.5 11 -11 20.5q-7.5 9.5 -19 16q-11.5 6.5 -26.5 6.5h-181v-254q0 -25 6.5 -38q6.5 -13 18.5 -19q12 -6 30.5 -6.5q18.5 -0.5 42.5 -0.5h76q61 0 105.5 21q44.5 21 76.5 79l25 0l-23 -142h-512v27q28 1 43 11.5q15 10.5 22 25q7 14.5 8 30.5q1 16 1 28v456q0 12 -1 28q-1 16 -8 30.5q-7 14.5 -22 25q-15 10.5 -43 11.5l0 27h490zM146 826q0 23 16.5 39.5q16.5 16.5 39.5 16.5q23 0 39.5 -16.5q16.5 -16.5 16.5 -39.5q0 -23 -16.5 -39.5q-16.5 -16.5 -39.5 -16.5q-23 0 -39.5 16.5q-16.5 16.5 -16.5 39.5zt0 0zM370 826q0 23 16.5 39.5q16.5 16.5 39.5 16.5q23 0 39.5 -16.5q16.5 -16.5 16.5 -39.5q0 -23 -16.5 -39.5q-16.5 -16.5 -39.5 -16.5q-23 0 -39.5 16.5t-16.5 39.5z" />
<glyph unicode="&#204;" horiz-adv-x="320" d="M275 700v-27q-29 -2 -44 -12q-15 -10 -22 -24.5q-7 -14.5 -8 -30.5q-1 -16 -1 -28v-456q0 -12 1 -28q1 -16 8 -30.5q7 -14.5 22 -25q15 -10.5 44 -11.5l0 -27h-230v27q27 1 42 10.5q15 9.5 22.5 23.5q7.5 14 9 30.5q1.5 16.5 1.5 30.5v456q0 14 -1.5 30.5q-1.5 16.5 -9 30.5q-7.5 14 -22.5 23.5q-15 9.5 -42 10.5l0 27zM183 840l75 -92h-21l-175 71l0 21z" />
<glyph unicode="&#205;" horiz-adv-x="320" d="M275 700v-27q-29 -2 -44 -12q-15 -10 -22 -24.5q-7 -14.5 -8 -30.5q-1 -16 -1 -28v-456q0 -12 1 -28q1 -16 8 -30.5q7 -14.5 22 -25q15 -10.5 44 -11.5l0 -27h-230v27q27 1 42 10.5q15 9.5 22.5 23.5q7.5 14 9 30.5q1.5 16.5 1.5 30.5v456q0 14 -1.5 30.5q-1.5 16.5 -9 30.5q-7.5 14 -22.5 23.5q-15 9.5 -42 10.5l0 27zM137 840h121v-21l-175 -71l-21 0z" />
<glyph unicode="&#206;" horiz-adv-x="320" d="M275 700v-27q-29 -2 -44 -12q-15 -10 -22 -24.5q-7 -14.5 -8 -30.5q-1 -16 -1 -28v-456q0 -12 1 -28q1 -16 8 -30.5q7 -14.5 22 -25q15 -10.5 44 -11.5l0 -27h-230v27q27 1 42 10.5q15 9.5 22.5 23.5q7.5 14 9 30.5q1.5 16.5 1.5 30.5v456q0 14 -1.5 30.5q-1.5 16.5 -9 30.5q-7.5 14 -22.5 23.5q-15 9.5 -42 10.5l0 27zM9 735v21l131 84h40l131 -84v-21l-151 60z" />
<glyph unicode="&#207;" horiz-adv-x="320" d="M275 700v-27q-29 -2 -44 -12q-15 -10 -22 -24.5q-7 -14.5 -8 -30.5q-1 -16 -1 -28v-456q0 -12 1 -28q1 -16 8 -30.5q7 -14.5 22 -25q15 -10.5 44 -11.5l0 -27h-230v27q27 1 42 10.5q15 9.5 22.5 23.5q7.5 14 9 30.5q1.5 16.5 1.5 30.5v456q0 14 -1.5 30.5q-1.5 16.5 -9 30.5q-7.5 14 -22.5 23.5q-15 9.5 -42 10.5l0 27zM-8 826q0 23 16.5 39.5q16.5 16.5 39.5 16.5q23 0 39.5 -16.5q16.5 -16.5 16.5 -39.5q0 -23 -16.5 -39.5q-16.5 -16.5 -39.5 -16.5q-23 0 -39.5 16.5q-16.5 16.5 -16.5 39.5zt0 0zM216 826q0 23 16.5 39.5q16.5 16.5 39.5 16.5q23 0 39.5 -16.5q16.5 -16.5 16.5 -39.5q0 -23 -16.5 -39.5q-16.5 -16.5 -39.5 -16.5q-23 0 -39.5 16.5t-16.5 39.5z" />
<glyph unicode="&#208;" horiz-adv-x="733" d="M320 700q30 0 69 -4.5q39 -4.5 79.5 -18q40.5 -13.5 79 -36.5q38.5 -23 69 -59.5q30.5 -36.5 49 -89q18.5 -52.5 18.5 -123.5q0 -39 -5.5 -77.5q-5.5 -38.5 -18.5 -75.5q-15 -43 -40.5 -82q-25.5 -39 -66 -69q-40.5 -30 -98.5 -47.5q-58 -17.5 -138 -17.5h-272v27q44 2 59.5 27q15.5 25 15.5 68v235h-75v42h75v179q0 46 -16 69.5q-16 23.5 -59 25.5l0 27zM200 399h131v-42h-131v-247q0 -22 3.5 -35q3.5 -13 12.5 -20.5q9 -7.5 24 -10q15 -2.5 38 -2.5q77 0 136 17q59 17 98.5 53q39.5 36 59.5 93q20 57 20 137q0 105 -27.5 166.5q-27.5 61.5 -68.5 94q-41 32.5 -89 43q-48 10.5 -90 12.5q-29 1 -57 0q-22 -2 -34 -8.5q-12 -6.5 -18 -16.5q-6 -10 -7 -22.5q-1 -12.5 -1 -24.5z" />
<glyph unicode="&#209;" horiz-adv-x="762" d="M717 673q-25 -3 -40 -11q-15 -8 -22.5 -20.5q-7.5 -12.5 -10 -30.5q-2.5 -18 -2.5 -42v-583h-55l-413 614h-6v-505q0 -17 7.5 -30q7.5 -13 19 -21.5q11.5 -8.5 25.5 -12.5q14 -4 28 -4l0 -27h-203v27q49 1 65 27q16 26 16 72v456q0 27 -7.5 44.5q-7.5 17.5 -19 27.5q-11.5 10 -26 14.5q-14.5 4.5 -28.5 4.5l0 27h173l375 -570h7v435q0 31 -4 50.5q-4 19.5 -13 31.5q-9 12 -24.5 17.5q-15.5 5.5 -38.5 8.5l0 27h197zM180 762q31 41 65 59.5q34 18.5 63 18.5q29 0 61.5 -12.5q32.5 -12.5 63.5 -23.5q14 -5 27.5 -8.5q13.5 -3.5 28.5 -3.5q16 0 34.5 8.5q18.5 8.5 37.5 34.5l20 -19q-27 -35 -55.5 -58.5q-28.5 -23.5 -68.5 -23.5q-20 0 -36 4.5q-16 4.5 -32 10.5q-29 11 -59 22.5q-30 11.5 -55 11.5q-16 0 -36 -8.5q-20 -8.5 -40 -32.5z" />
<glyph unicode="&#210;" horiz-adv-x="756" d="M49 361q0 94 32.5 161q32.5 67 81.5 109.5q49 42.5 106.5 62.5q57.5 20 107.5 20q52 0 110 -20q58 -20 107 -63q49 -43 81 -109.5q32 -66.5 32 -160.5q0 -73 -17 -129q-17 -56 -44.5 -98q-27.5 -42 -62.5 -70q-35 -28 -72 -45.5q-37 -17.5 -72 -25q-35 -7.5 -62 -7.5q-57 0 -115.5 23.5q-58.5 23.5 -106 70q-47.5 46.5 -77 117q-29.5 70.5 -29.5 164.5zt0 0zM378 672q-41 0 -83 -17q-42 -17 -76.5 -54.5q-34.5 -37.5 -56 -97q-21.5 -59.5 -21.5 -144.5q0 -62 13 -121q13 -59 41 -106q28 -47 73 -75.5q45 -28.5 110 -28.5q49 0 85.5 16.5q36.5 16.5 62.5 43.5q26 27 43.5 61.5q17.5 34.5 27.5 71.5q10 37 14 73q4 36 4 65q0 85 -22 144.5q-22 59.5 -56 97q-34 37.5 -76.5 54.5q-42.5 17 -82.5 17zt0 0zM401 840l75 -92h-21l-175 71l0 21z" />
<glyph unicode="&#211;" horiz-adv-x="756" d="M49 361q0 94 32.5 161q32.5 67 81.5 109.5q49 42.5 106.5 62.5q57.5 20 107.5 20q52 0 110 -20q58 -20 107 -63q49 -43 81 -109.5q32 -66.5 32 -160.5q0 -73 -17 -129q-17 -56 -44.5 -98q-27.5 -42 -62.5 -70q-35 -28 -72 -45.5q-37 -17.5 -72 -25q-35 -7.5 -62 -7.5q-57 0 -115.5 23.5q-58.5 23.5 -106 70q-47.5 46.5 -77 117q-29.5 70.5 -29.5 164.5zt0 0zM378 672q-41 0 -83 -17q-42 -17 -76.5 -54.5q-34.5 -37.5 -56 -97q-21.5 -59.5 -21.5 -144.5q0 -62 13 -121q13 -59 41 -106q28 -47 73 -75.5q45 -28.5 110 -28.5q49 0 85.5 16.5q36.5 16.5 62.5 43.5q26 27 43.5 61.5q17.5 34.5 27.5 71.5q10 37 14 73q4 36 4 65q0 85 -22 144.5q-22 59.5 -56 97q-34 37.5 -76.5 54.5q-42.5 17 -82.5 17zt0 0zM355 840h121v-21l-175 -71l-21 0z" />
<glyph unicode="&#212;" horiz-adv-x="756" d="M49 361q0 94 32.5 161q32.5 67 81.5 109.5q49 42.5 106.5 62.5q57.5 20 107.5 20q52 0 110 -20q58 -20 107 -63q49 -43 81 -109.5q32 -66.5 32 -160.5q0 -73 -17 -129q-17 -56 -44.5 -98q-27.5 -42 -62.5 -70q-35 -28 -72 -45.5q-37 -17.5 -72 -25q-35 -7.5 -62 -7.5q-57 0 -115.5 23.5q-58.5 23.5 -106 70q-47.5 46.5 -77 117q-29.5 70.5 -29.5 164.5zt0 0zM378 672q-41 0 -83 -17q-42 -17 -76.5 -54.5q-34.5 -37.5 -56 -97q-21.5 -59.5 -21.5 -144.5q0 -62 13 -121q13 -59 41 -106q28 -47 73 -75.5q45 -28.5 110 -28.5q49 0 85.5 16.5q36.5 16.5 62.5 43.5q26 27 43.5 61.5q17.5 34.5 27.5 71.5q10 37 14 73q4 36 4 65q0 85 -22 144.5q-22 59.5 -56 97q-34 37.5 -76.5 54.5q-42.5 17 -82.5 17zt0 0zM227 735v21l131 84h40l131 -84v-21l-151 60z" />
<glyph unicode="&#213;" horiz-adv-x="756" d="M49 361q0 94 32.5 161q32.5 67 81.5 109.5q49 42.5 106.5 62.5q57.5 20 107.5 20q52 0 110 -20q58 -20 107 -63q49 -43 81 -109.5q32 -66.5 32 -160.5q0 -73 -17 -129q-17 -56 -44.5 -98q-27.5 -42 -62.5 -70q-35 -28 -72 -45.5q-37 -17.5 -72 -25q-35 -7.5 -62 -7.5q-57 0 -115.5 23.5q-58.5 23.5 -106 70q-47.5 46.5 -77 117q-29.5 70.5 -29.5 164.5zt0 0zM378 672q-41 0 -83 -17q-42 -17 -76.5 -54.5q-34.5 -37.5 -56 -97q-21.5 -59.5 -21.5 -144.5q0 -62 13 -121q13 -59 41 -106q28 -47 73 -75.5q45 -28.5 110 -28.5q49 0 85.5 16.5q36.5 16.5 62.5 43.5q26 27 43.5 61.5q17.5 34.5 27.5 71.5q10 37 14 73q4 36 4 65q0 85 -22 144.5q-22 59.5 -56 97q-34 37.5 -76.5 54.5q-42.5 17 -82.5 17zt0 0zM177 762q31 41 65 59.5q34 18.5 63 18.5q29 0 61.5 -12.5q32.5 -12.5 63.5 -23.5q14 -5 27.5 -8.5q13.5 -3.5 28.5 -3.5q16 0 34.5 8.5q18.5 8.5 37.5 34.5l20 -19q-27 -35 -55.5 -58.5q-28.5 -23.5 -68.5 -23.5q-20 0 -36 4.5q-16 4.5 -32 10.5q-29 11 -59 22.5q-30 11.5 -55 11.5q-16 0 -36 -8.5q-20 -8.5 -40 -32.5z" />
<glyph unicode="&#214;" horiz-adv-x="756" d="M49 361q0 94 32.5 161q32.5 67 81.5 109.5q49 42.5 106.5 62.5q57.5 20 107.5 20q52 0 110 -20q58 -20 107 -63q49 -43 81 -109.5q32 -66.5 32 -160.5q0 -73 -17 -129q-17 -56 -44.5 -98q-27.5 -42 -62.5 -70q-35 -28 -72 -45.5q-37 -17.5 -72 -25q-35 -7.5 -62 -7.5q-57 0 -115.5 23.5q-58.5 23.5 -106 70q-47.5 46.5 -77 117q-29.5 70.5 -29.5 164.5zt0 0zM378 672q-41 0 -83 -17q-42 -17 -76.5 -54.5q-34.5 -37.5 -56 -97q-21.5 -59.5 -21.5 -144.5q0 -62 13 -121q13 -59 41 -106q28 -47 73 -75.5q45 -28.5 110 -28.5q49 0 85.5 16.5q36.5 16.5 62.5 43.5q26 27 43.5 61.5q17.5 34.5 27.5 71.5q10 37 14 73q4 36 4 65q0 85 -22 144.5q-22 59.5 -56 97q-34 37.5 -76.5 54.5q-42.5 17 -82.5 17zt0 0zM210 826q0 23 16.5 39.5q16.5 16.5 39.5 16.5q23 0 39.5 -16.5q16.5 -16.5 16.5 -39.5q0 -23 -16.5 -39.5q-16.5 -16.5 -39.5 -16.5q-23 0 -39.5 16.5q-16.5 16.5 -16.5 39.5zt0 0zM434 826q0 23 16.5 39.5q16.5 16.5 39.5 16.5q23 0 39.5 -16.5q16.5 -16.5 16.5 -39.5q0 -23 -16.5 -39.5q-16.5 -16.5 -39.5 -16.5q-23 0 -39.5 16.5t-16.5 39.5z" />
<glyph unicode="&#215;" horiz-adv-x="672" d="M502 133l-166 167l-167 -167l-50 50l166 167l-166 167l50 50l167 -167l166 167l51 -50l-167 -167l167 -167z" />
<glyph unicode="&#216;" horiz-adv-x="726" d="M105 97q-42 52 -64.5 117.5q-22.5 65.5 -22.5 146.5q0 69 17 122q17 53 44.5 92q27.5 39 62.5 65.5q35 26.5 71.5 43q36.5 16.5 71 23.5q34.5 7 61.5 7q69 0 123 -24q54 -24 103 -66l80 89l28 -27l-84 -90q2 -2 15 -18q13 -16 27.5 -46q14.5 -30 26.5 -73q12 -43 12 -98q0 -99 -32.5 -170q-32.5 -71 -82 -116.5q-49.5 -45.5 -107.5 -67q-58 -21.5 -109 -21.5q-25 0 -54 5q-29 5 -57.5 15.5q-28.5 10.5 -55 26.5q-26.5 16 -46.5 37l-94 -104l-29 27zM530 578q-13 22 -34 39.5q-21 17.5 -45.5 29.5q-24.5 12 -51 18.5q-26.5 6.5 -50.5 6.5q-32 0 -73.5 -13.5q-41.5 -13.5 -78.5 -48.5q-37 -35 -62 -95.5q-25 -60.5 -25 -155.5q0 -53 8 -101.5q8 -48.5 30 -110.5zM170 112q15 -23 36 -38.5q21 -15.5 45 -26q24 -10.5 49 -15q25 -4.5 49 -4.5q54 0 93 19.5q39 19.5 65 50q26 30.5 41.5 68q15.5 37.5 23.5 74.5q8 37 10.5 69q2.5 32 2.5 51q0 14 -2 35q-2 21 -6 45q-4 24 -10.5 50q-6.5 26 -16.5 51z" />
<glyph unicode="&#217;" horiz-adv-x="753" d="M708 673q-26 -1 -41 -10q-15 -9 -22.5 -21.5q-7.5 -12.5 -9.5 -26q-2 -13.5 -2 -23.5v-341q0 -22 -2.5 -49.5q-2.5 -27.5 -11 -57q-8.5 -29.5 -25 -58q-16.5 -28.5 -44.5 -51q-28 -22.5 -69.5 -36q-41.5 -13.5 -99.5 -13.5q-67 0 -112 14.5q-45 14.5 -74.5 37q-29.5 22.5 -45 51q-15.5 28.5 -22 56.5q-6.5 28 -7.5 53q-1 25 -1 41v339q0 12 -1 28q-1 16 -8 30.5q-7 14.5 -22 25q-15 10.5 -43 11.5l0 27h229v-27q-43 -2 -59 -25.5q-16 -23.5 -16 -69.5v-348q0 -55 9.5 -93.5q9.5 -38.5 31 -62.5q21.5 -24 57 -35q35.5 -11 88.5 -11q74 0 115.5 25.5q41.5 25.5 61.5 62.5q20 37 24.5 78.5q4.5 41.5 4.5 72.5v305q0 21 -2 38.5q-2 17.5 -9.5 31q-7.5 13.5 -22.5 21.5q-15 8 -40 10l0 27h191zM399 840l75 -92h-21l-175 71l0 21z" />
<glyph unicode="&#218;" horiz-adv-x="753" d="M708 673q-26 -1 -41 -10q-15 -9 -22.5 -21.5q-7.5 -12.5 -9.5 -26q-2 -13.5 -2 -23.5v-341q0 -22 -2.5 -49.5q-2.5 -27.5 -11 -57q-8.5 -29.5 -25 -58q-16.5 -28.5 -44.5 -51q-28 -22.5 -69.5 -36q-41.5 -13.5 -99.5 -13.5q-67 0 -112 14.5q-45 14.5 -74.5 37q-29.5 22.5 -45 51q-15.5 28.5 -22 56.5q-6.5 28 -7.5 53q-1 25 -1 41v339q0 12 -1 28q-1 16 -8 30.5q-7 14.5 -22 25q-15 10.5 -43 11.5l0 27h229v-27q-43 -2 -59 -25.5q-16 -23.5 -16 -69.5v-348q0 -55 9.5 -93.5q9.5 -38.5 31 -62.5q21.5 -24 57 -35q35.5 -11 88.5 -11q74 0 115.5 25.5q41.5 25.5 61.5 62.5q20 37 24.5 78.5q4.5 41.5 4.5 72.5v305q0 21 -2 38.5q-2 17.5 -9.5 31q-7.5 13.5 -22.5 21.5q-15 8 -40 10l0 27h191zM353 840h121v-21l-175 -71l-21 0z" />
<glyph unicode="&#219;" horiz-adv-x="753" d="M708 673q-26 -1 -41 -10q-15 -9 -22.5 -21.5q-7.5 -12.5 -9.5 -26q-2 -13.5 -2 -23.5v-341q0 -22 -2.5 -49.5q-2.5 -27.5 -11 -57q-8.5 -29.5 -25 -58q-16.5 -28.5 -44.5 -51q-28 -22.5 -69.5 -36q-41.5 -13.5 -99.5 -13.5q-67 0 -112 14.5q-45 14.5 -74.5 37q-29.5 22.5 -45 51q-15.5 28.5 -22 56.5q-6.5 28 -7.5 53q-1 25 -1 41v339q0 12 -1 28q-1 16 -8 30.5q-7 14.5 -22 25q-15 10.5 -43 11.5l0 27h229v-27q-43 -2 -59 -25.5q-16 -23.5 -16 -69.5v-348q0 -55 9.5 -93.5q9.5 -38.5 31 -62.5q21.5 -24 57 -35q35.5 -11 88.5 -11q74 0 115.5 25.5q41.5 25.5 61.5 62.5q20 37 24.5 78.5q4.5 41.5 4.5 72.5v305q0 21 -2 38.5q-2 17.5 -9.5 31q-7.5 13.5 -22.5 21.5q-15 8 -40 10l0 27h191zM225 735v21l131 84h40l131 -84v-21l-151 60z" />
<glyph unicode="&#220;" horiz-adv-x="753" d="M708 673q-26 -1 -41 -10q-15 -9 -22.5 -21.5q-7.5 -12.5 -9.5 -26q-2 -13.5 -2 -23.5v-341q0 -22 -2.5 -49.5q-2.5 -27.5 -11 -57q-8.5 -29.5 -25 -58q-16.5 -28.5 -44.5 -51q-28 -22.5 -69.5 -36q-41.5 -13.5 -99.5 -13.5q-67 0 -112 14.5q-45 14.5 -74.5 37q-29.5 22.5 -45 51q-15.5 28.5 -22 56.5q-6.5 28 -7.5 53q-1 25 -1 41v339q0 12 -1 28q-1 16 -8 30.5q-7 14.5 -22 25q-15 10.5 -43 11.5l0 27h229v-27q-43 -2 -59 -25.5q-16 -23.5 -16 -69.5v-348q0 -55 9.5 -93.5q9.5 -38.5 31 -62.5q21.5 -24 57 -35q35.5 -11 88.5 -11q74 0 115.5 25.5q41.5 25.5 61.5 62.5q20 37 24.5 78.5q4.5 41.5 4.5 72.5v305q0 21 -2 38.5q-2 17.5 -9.5 31q-7.5 13.5 -22.5 21.5q-15 8 -40 10l0 27h191zM208 826q0 23 16.5 39.5q16.5 16.5 39.5 16.5q23 0 39.5 -16.5q16.5 -16.5 16.5 -39.5q0 -23 -16.5 -39.5q-16.5 -16.5 -39.5 -16.5q-23 0 -39.5 16.5q-16.5 16.5 -16.5 39.5zt0 0zM432 826q0 23 16.5 39.5q16.5 16.5 39.5 16.5q23 0 39.5 -16.5q16.5 -16.5 16.5 -39.5q0 -23 -16.5 -39.5q-16.5 -16.5 -39.5 -16.5q-23 0 -39.5 16.5t-16.5 39.5z" />
<glyph unicode="&#221;" horiz-adv-x="654" d="M223 27q27 1 42 10q15 9 22.5 21q7.5 12 9 26.5q1.5 14.5 1.5 27.5v184l-180 313q-19 33 -40.5 47.5q-21.5 14.5 -60.5 16.5l0 27h229v-27q-8 -1 -17.5 -1.5q-9.5 -0.5 -17.5 -3q-8 -2.5 -13.5 -6.5q-5.5 -4 -5.5 -12q0 -4 2.5 -11.5q2.5 -7.5 6 -16q3.5 -8.5 7 -16.5q3.5 -8 6.5 -12l142 -241h5l125 238q1 3 5 11.5q4 8.5 8 18.5q4 10 7 19q3 9 3 13q0 7 -4 11q-4 4 -10.5 5.5q-6.5 1.5 -14 2q-7.5 0.5 -14.5 1.5l0 27h171v-27q-37 -8 -55.5 -15.5q-18.5 -7.5 -28.5 -18.5q-10 -11 -16.5 -27.5q-6.5 -16.5 -19.5 -42.5l-139 -277v-180q0 -16 2 -30.5q2 -14.5 10 -26q8 -11.5 22.5 -19.5q14.5 -8 40.5 -9l0 -27h-230zM365 840h121v-21l-175 -71l-21 0z" />
<glyph unicode="&#222;" horiz-adv-x="594" d="M283 714v-27q-25 -1 -40 -8q-15 -7 -23.5 -17q-8.5 -10 -11 -20.5q-2.5 -10.5 -2.5 -17.5v-24h25q13 0 41 -2.5q28 -2.5 63 -11q35 -8.5 72 -25q37 -16.5 68 -44.5q31 -28 50.5 -69.5q19.5 -41.5 19.5 -100.5q0 -53 -18.5 -90.5q-18.5 -37.5 -47.5 -63q-29 -25.5 -65 -40q-36 -14.5 -71 -22.5q-35 -8 -65.5 -10q-30.5 -2 -48.5 -2h-23q-1 -43 14.5 -66.5q15.5 -23.5 62.5 -25.5l0 -27h-233v27q10 0 23 2.5q13 2.5 25 10q12 7.5 20 20.5q8 13 8 35v529q0 2 -1.5 12q-1.5 10 -8.5 21q-7 11 -23 20q-16 9 -44 10l0 27zM206 161h19q57 0 99.5 15q42.5 15 71 39.5q28.5 24.5 43 57.5q14.5 33 14.5 69q0 52 -20 92.5q-20 40.5 -52.5 68q-32.5 27.5 -73.5 41.5q-41 14 -82 14l-19 0z" />
<glyph unicode="&#223;" horiz-adv-x="547" d="M55 21q25 5 36.5 13.5q11.5 8.5 16 20q4.5 11.5 4 24.5q-0.5 13 -0.5 26v285q0 10 -5 19.5q-5 9.5 -14 16.5q-9 7 -21 11.5q-12 4.5 -26 3.5l0 21h66q-6 89 13 142.5q19 53.5 49 82.5q30 29 65 38q35 9 63 9q35 0 65 -12.5q30 -12.5 52 -33.5q22 -21 34.5 -49q12.5 -28 12.5 -60q0 -18 -6 -37.5q-6 -19.5 -20.5 -37q-14.5 -17.5 -39.5 -32q-25 -14.5 -63 -22.5l0 -8q84 -11 123 -72.5q39 -61.5 39 -153.5q0 -43 -8.5 -83.5q-8.5 -40.5 -26.5 -72.5q-18 -32 -47 -51.5q-29 -19.5 -70 -19.5q-18 0 -35.5 5q-17.5 5 -30.5 15.5q-13 10.5 -21 26.5q-8 16 -8 38q0 36 14.5 58.5q14.5 22.5 40.5 22.5q14 0 25 -10q11 -10 11 -28q0 -12 -4.5 -22q-4.5 -10 -9.5 -17q-5 -7 -10.5 -15q-5.5 -8 -5.5 -16q0 -4 2 -8q4 -7 12.5 -10.5q8.5 -3.5 19.5 -3.5q28 0 44 16.5q16 16.5 24 41.5q8 25 9.5 54q1.5 29 1.5 55q0 43 -3.5 81.5q-3.5 38.5 -15 68.5q-11.5 30 -33 51q-21.5 21 -58.5 29q-13 3 -26 3.5q-13 0.5 -26 0.5q-8 0 -15 -0.5q-7 -0.5 -15 -1.5l0 38h15q18 0 43 3q25 3 47.5 14.5q22.5 11.5 38 33.5q15.5 22 15.5 60q0 20 -5 41q-5 21 -18 38.5q-13 17.5 -34 28.5q-21 11 -54 11q-36 0 -57.5 -16q-21.5 -16 -33.5 -39.5q-12 -23.5 -15.5 -49q-3.5 -25.5 -3.5 -43.5v-402q0 -25 0.5 -46q0.5 -21 4.5 -36.5q4 -15.5 14 -25.5q10 -10 30 -13l0 -21l-165 0z" />
<glyph unicode="&#224;" horiz-adv-x="480" d="M385 82q0 -26 9.5 -43.5q9.5 -17.5 38.5 -17.5h8v-21h-116v47h-4q-33 -19 -56.5 -30.5q-23.5 -11.5 -41.5 -17.5q-18 -6 -33 -8q-15 -2 -31 -2q-37 0 -58.5 13q-21.5 13 -33 30.5q-11.5 17.5 -15 35.5q-3.5 18 -3.5 29q0 40 26 69.5q26 29.5 66.5 52q40.5 22.5 89 41.5q48.5 19 94.5 38l0 13q0 21 -1 43q-1 22 -8.5 40.5q-7.5 18.5 -23 30.5q-15.5 12 -45.5 12q-29 0 -46 -8.5q-17 -8.5 -26 -20q-9 -11.5 -13 -24q-4 -12.5 -5 -19.5q-5 -19 -13 -32q-8 -13 -30 -13q-12 0 -23.5 9q-11.5 9 -11.5 31q0 19 12.5 39.5q12.5 20.5 35 36.5q22.5 16 54.5 26.5q32 10.5 72 10.5q48 0 74.5 -15q26.5 -15 39.5 -34.5q13 -19.5 15.5 -39q2.5 -19.5 2.5 -29.5zM325 256q-30 -12 -65.5 -28q-35.5 -16 -66 -36q-30.5 -20 -51 -44q-20.5 -24 -20.5 -52q0 -9 3.5 -19.5q3.5 -10.5 12 -19q8.5 -8.5 21.5 -14.5q13 -6 32 -6q15 0 33 5q18 5 36 13.5q18 8.5 35 18q17 9.5 30 18.5zM244 700l55 -143h-22l-151 143z" />
<glyph unicode="&#225;" horiz-adv-x="480" d="M385 82q0 -26 9.5 -43.5q9.5 -17.5 38.5 -17.5h8v-21h-116v47h-4q-33 -19 -56.5 -30.5q-23.5 -11.5 -41.5 -17.5q-18 -6 -33 -8q-15 -2 -31 -2q-37 0 -58.5 13q-21.5 13 -33 30.5q-11.5 17.5 -15 35.5q-3.5 18 -3.5 29q0 40 26 69.5q26 29.5 66.5 52q40.5 22.5 89 41.5q48.5 19 94.5 38l0 13q0 21 -1 43q-1 22 -8.5 40.5q-7.5 18.5 -23 30.5q-15.5 12 -45.5 12q-29 0 -46 -8.5q-17 -8.5 -26 -20q-9 -11.5 -13 -24q-4 -12.5 -5 -19.5q-5 -19 -13 -32q-8 -13 -30 -13q-12 0 -23.5 9q-11.5 9 -11.5 31q0 19 12.5 39.5q12.5 20.5 35 36.5q22.5 16 54.5 26.5q32 10.5 72 10.5q48 0 74.5 -15q26.5 -15 39.5 -34.5q13 -19.5 15.5 -39q2.5 -19.5 2.5 -29.5zM325 256q-30 -12 -65.5 -28q-35.5 -16 -66 -36q-30.5 -20 -51 -44q-20.5 -24 -20.5 -52q0 -9 3.5 -19.5q3.5 -10.5 12 -19q8.5 -8.5 21.5 -14.5q13 -6 32 -6q15 0 33 5q18 5 36 13.5q18 8.5 35 18q17 9.5 30 18.5zM354 700l-151 -143h-21l54 143z" />
<glyph unicode="&#226;" horiz-adv-x="480" d="M385 82q0 -26 9.5 -43.5q9.5 -17.5 38.5 -17.5h8v-21h-116v47h-4q-33 -19 -56.5 -30.5q-23.5 -11.5 -41.5 -17.5q-18 -6 -33 -8q-15 -2 -31 -2q-37 0 -58.5 13q-21.5 13 -33 30.5q-11.5 17.5 -15 35.5q-3.5 18 -3.5 29q0 40 26 69.5q26 29.5 66.5 52q40.5 22.5 89 41.5q48.5 19 94.5 38l0 13q0 21 -1 43q-1 22 -8.5 40.5q-7.5 18.5 -23 30.5q-15.5 12 -45.5 12q-29 0 -46 -8.5q-17 -8.5 -26 -20q-9 -11.5 -13 -24q-4 -12.5 -5 -19.5q-5 -19 -13 -32q-8 -13 -30 -13q-12 0 -23.5 9q-11.5 9 -11.5 31q0 19 12.5 39.5q12.5 20.5 35 36.5q22.5 16 54.5 26.5q32 10.5 72 10.5q48 0 74.5 -15q26.5 -15 39.5 -34.5q13 -19.5 15.5 -39q2.5 -19.5 2.5 -29.5zM325 256q-30 -12 -65.5 -28q-35.5 -16 -66 -36q-30.5 -20 -51 -44q-20.5 -24 -20.5 -52q0 -9 3.5 -19.5q3.5 -10.5 12 -19q8.5 -8.5 21.5 -14.5q13 -6 32 -6q15 0 33 5q18 5 36 13.5q18 8.5 35 18q17 9.5 30 18.5zM364 538q-12 7 -28.5 17.5q-16.5 10.5 -33.5 22.5q-17 12 -33.5 24.5q-16.5 12.5 -29.5 23.5q-13 -11 -29.5 -23.5q-16.5 -12.5 -33.5 -24.5q-17 -12 -33.5 -22.5q-16.5 -10.5 -28.5 -17.5l-14 19q19 12 38 28.5q19 16.5 35.5 35.5q16.5 19 30.5 39q14 20 24 40l21 0q12 -21 27.5 -42.5q15.5 -21.5 32.5 -41q17 -19.5 35.5 -35q18.5 -15.5 35.5 -25.5z" />
<glyph unicode="&#227;" horiz-adv-x="480" d="M385 82q0 -26 9.5 -43.5q9.5 -17.5 38.5 -17.5h8v-21h-116v47h-4q-33 -19 -56.5 -30.5q-23.5 -11.5 -41.5 -17.5q-18 -6 -33 -8q-15 -2 -31 -2q-37 0 -58.5 13q-21.5 13 -33 30.5q-11.5 17.5 -15 35.5q-3.5 18 -3.5 29q0 40 26 69.5q26 29.5 66.5 52q40.5 22.5 89 41.5q48.5 19 94.5 38l0 13q0 21 -1 43q-1 22 -8.5 40.5q-7.5 18.5 -23 30.5q-15.5 12 -45.5 12q-29 0 -46 -8.5q-17 -8.5 -26 -20q-9 -11.5 -13 -24q-4 -12.5 -5 -19.5q-5 -19 -13 -32q-8 -13 -30 -13q-12 0 -23.5 9q-11.5 9 -11.5 31q0 19 12.5 39.5q12.5 20.5 35 36.5q22.5 16 54.5 26.5q32 10.5 72 10.5q48 0 74.5 -15q26.5 -15 39.5 -34.5q13 -19.5 15.5 -39q2.5 -19.5 2.5 -29.5zM325 256q-30 -12 -65.5 -28q-35.5 -16 -66 -36q-30.5 -20 -51 -44q-20.5 -24 -20.5 -52q0 -9 3.5 -19.5q3.5 -10.5 12 -19q8.5 -8.5 21.5 -14.5q13 -6 32 -6q15 0 33 5q18 5 36 13.5q18 8.5 35 18q17 9.5 30 18.5zM66 622q19 26 35 41.5q16 15.5 29 23.5q13 8 24 10.5q11 2.5 21 2.5q9 0 18 -1q9 -1 18 -3q11 -2 22.5 -4q11.5 -2 22.5 -4q12 -2 24.5 -4.5q12.5 -2.5 24.5 -4.5q5 -1 9.5 -2q4.5 -1 9.5 -1h13q19 1 30.5 5.5q11.5 4.5 25.5 17.5l21 0q-13 -16 -24.5 -29.5q-11.5 -13.5 -23.5 -23.5q-12 -10 -25.5 -15.5q-13.5 -5.5 -31.5 -5.5q-5 0 -12.5 1q-7.5 1 -26.5 3q-22 3 -38.5 6.5q-16.5 3.5 -31 6.5q-14.5 3 -27.5 5q-13 2 -28 2q-9 0 -23 -4q-14 -4 -35 -23z" />
<glyph unicode="&#228;" horiz-adv-x="480" d="M385 82q0 -26 9.5 -43.5q9.5 -17.5 38.5 -17.5h8v-21h-116v47h-4q-33 -19 -56.5 -30.5q-23.5 -11.5 -41.5 -17.5q-18 -6 -33 -8q-15 -2 -31 -2q-37 0 -58.5 13q-21.5 13 -33 30.5q-11.5 17.5 -15 35.5q-3.5 18 -3.5 29q0 40 26 69.5q26 29.5 66.5 52q40.5 22.5 89 41.5q48.5 19 94.5 38l0 13q0 21 -1 43q-1 22 -8.5 40.5q-7.5 18.5 -23 30.5q-15.5 12 -45.5 12q-29 0 -46 -8.5q-17 -8.5 -26 -20q-9 -11.5 -13 -24q-4 -12.5 -5 -19.5q-5 -19 -13 -32q-8 -13 -30 -13q-12 0 -23.5 9q-11.5 9 -11.5 31q0 19 12.5 39.5q12.5 20.5 35 36.5q22.5 16 54.5 26.5q32 10.5 72 10.5q48 0 74.5 -15q26.5 -15 39.5 -34.5q13 -19.5 15.5 -39q2.5 -19.5 2.5 -29.5zM325 256q-30 -12 -65.5 -28q-35.5 -16 -66 -36q-30.5 -20 -51 -44q-20.5 -24 -20.5 -52q0 -9 3.5 -19.5q3.5 -10.5 12 -19q8.5 -8.5 21.5 -14.5q13 -6 32 -6q15 0 33 5q18 5 36 13.5q18 8.5 35 18q17 9.5 30 18.5zM100 651q0 26 16.5 37.5q16.5 11.5 32.5 11.5q18 0 33.5 -14q15.5 -14 15.5 -35q0 -20 -14.5 -34.5q-14.5 -14.5 -34.5 -14.5q-17 0 -33 13q-16 13 -16 36zt0 0zM282 651q0 26 16.5 37.5q16.5 11.5 32.5 11.5q18 0 33.5 -14q15.5 -14 15.5 -35q0 -20 -14.5 -34.5q-14.5 -14.5 -34.5 -14.5q-17 0 -33 13t-16 36z" />
<glyph unicode="&#229;" horiz-adv-x="480" d="M385 82q0 -26 9.5 -43.5q9.5 -17.5 38.5 -17.5h8v-21h-116v47h-4q-33 -19 -56.5 -30.5q-23.5 -11.5 -41.5 -17.5q-18 -6 -33 -8q-15 -2 -31 -2q-37 0 -58.5 13q-21.5 13 -33 30.5q-11.5 17.5 -15 35.5q-3.5 18 -3.5 29q0 40 26 69.5q26 29.5 66.5 52q40.5 22.5 89 41.5q48.5 19 94.5 38l0 13q0 21 -1 43q-1 22 -8.5 40.5q-7.5 18.5 -23 30.5q-15.5 12 -45.5 12q-29 0 -46 -8.5q-17 -8.5 -26 -20q-9 -11.5 -13 -24q-4 -12.5 -5 -19.5q-5 -19 -13 -32q-8 -13 -30 -13q-12 0 -23.5 9q-11.5 9 -11.5 31q0 19 12.5 39.5q12.5 20.5 35 36.5q22.5 16 54.5 26.5q32 10.5 72 10.5q48 0 74.5 -15q26.5 -15 39.5 -34.5q13 -19.5 15.5 -39q2.5 -19.5 2.5 -29.5zM325 256q-30 -12 -65.5 -28q-35.5 -16 -66 -36q-30.5 -20 -51 -44q-20.5 -24 -20.5 -52q0 -9 3.5 -19.5q3.5 -10.5 12 -19q8.5 -8.5 21.5 -14.5q13 -6 32 -6q15 0 33 5q18 5 36 13.5q18 8.5 35 18q17 9.5 30 18.5zM159 616q0 35 24 59.5q24 24.5 58 24.5q33 0 57 -24.5q24 -24.5 24 -59.5q0 -35 -24 -59.5q-24 -24.5 -57 -24.5q-34 0 -58 24.5q-24 24.5 -24 59.5zt0 0zM190 616q0 -21 14.5 -36.5q14.5 -15.5 36.5 -15.5q17 0 33.5 13q16.5 13 16.5 39q0 26 -17 39.5q-17 13.5 -33 13.5q-17 0 -34 -14t-17 -39z" />
</font>
</defs>
</svg>
