<?xml version="1.0" encoding="UTF-8" standalone="no"?>
<!DOCTYPE svg PUBLIC "-//W3C//DTD SVG 1.1//EN" "http://www.w3.org/Graphics/SVG/1.1/DTD/svg11.dtd" >
<svg xmlns="http://www.w3.org/2000/svg">
<metadata>
Generated by SVGconv.
Copyright   : Copyright  1992 ParaGraph Intl.,  1998 ParaType Inc., ParaType Ltd. All rights reserved.
Designer    : Vladimir Yefimov
Foundry     : ParaType Ltd
Foundry URL : http://www.paratype.com
</metadata>
<defs>
<font id="PetersburgWeb-Regular" horiz-adv-x="566" >
<font-face units-per-em="1000" ascent="1020" descent="330" >
<font-face-src>
<font-face-name/>
</font-face-src>
</font-face>
<missing-glyph horiz-adv-x="500" />
<glyph unicode="&#13;" horiz-adv-x="233" />
<glyph unicode="&#32;" horiz-adv-x="233" />
<glyph unicode="&#33;" horiz-adv-x="310" d="M141 140l-5 136q-3 73 -9 134q-6 61 -12 109q-6 48 -10.5 84.5q-4.5 36.5 -4.5 61.5q0 17 6.5 26.5q6.5 9.5 15.5 14.5q9 5 18 6.5q9 1.5 15 1.5q6 0 15 -1.5q9 -1.5 18 -6.5q9 -5 15.5 -14.5q6.5 -9.5 6.5 -26.5q0 -25 -4.5 -61.5q-4.5 -36.5 -10.5 -84.5q-6 -48 -12 -109q-6 -61 -9 -134l-5 -136zM101 39q0 23 15.5 38.5q15.5 15.5 38.5 15.5q23 0 38.5 -15.5q15.5 -15.5 15.5 -38.5q0 -23 -15.5 -38.5q-15.5 -15.5 -38.5 -15.5q-23 0 -38.5 15.5t-15.5 38.5z" />
<glyph unicode="&#34;" horiz-adv-x="400" d="M170 700l-36 -200h-28l-36 200zM330 700l-36 -200h-28l-36 200z" />
<glyph unicode="&#35;" horiz-adv-x="642" d="M345 17l30 167h-165l-30 -167h-40l30 167h-114l10 56h114l37 207h-114l10 56h114l30 167h40l-30 -167h165l30 167h40l-30 -167h114l-10 -56h-114l-37 -207h114l-10 -56h-114l-30 -167zM385 240l37 207h-165l-37 -207z" />
<glyph unicode="&#36;" horiz-adv-x="526" d="M235 -14q-44 -1 -84.5 10q-40.5 11 -72 31.5q-31.5 20.5 -50 48.5q-18.5 28 -18.5 60q0 19 5.5 31.5q5.5 12.5 14 20q8.5 7.5 18.5 11q10 3.5 19 3.5q18 0 36.5 -14q18.5 -14 18.5 -49q0 -13 -7 -30q-2 -5 -4.5 -10q-2.5 -5 -2.5 -10q0 -12 9 -25.5q9 -13.5 25.5 -24q16.5 -10.5 40 -18q23.5 -7.5 52.5 -7.5l0 321l-67 40q-28 17 -53 32q-25 15 -43.5 32.5q-18.5 17.5 -29.5 40q-11 22.5 -11 53.5q0 36 13 70q13 34 39 59.5q26 25.5 64 39.5q38 14 88 12l0 46h38v-46q34 -2 68.5 -10.5q34.5 -8.5 62.5 -25.5q28 -17 45.5 -42.5q17.5 -25.5 17.5 -59.5q0 -20 -5.5 -32.5q-5.5 -12.5 -13 -19q-7.5 -6.5 -16 -9q-8.5 -2.5 -13.5 -2.5q-18 0 -37 11.5q-19 11.5 -19 43.5q0 15 6 30q3 7 6 13.5q3 6.5 3 13.5q0 10 -8.5 21q-8.5 11 -22.5 20q-14 9 -33 14.5q-19 5.5 -41 5.5l0 -264l102 -61q20 -12 40.5 -26q20.5 -14 37 -33q16.5 -19 27 -45q10.5 -26 10.5 -62q0 -53 -19.5 -91q-19.5 -38 -50 -63.5q-30.5 -25.5 -69.5 -39q-39 -13.5 -78 -15.5l0 -58h-38zM235 686q-23 1 -45.5 -4.5q-22.5 -5.5 -40.5 -17.5q-18 -12 -29.5 -32q-11.5 -20 -11.5 -47q0 -36 14.5 -59q14.5 -23 45.5 -41l67 -40zM273 14q29 0 55 11q26 11 45.5 30.5q19.5 19.5 31 46q11.5 26.5 11.5 58.5q0 41 -19 64.5q-19 23.5 -50 42.5l-74 45z" />
<glyph unicode="&#37;" horiz-adv-x="800" d="M60 554q0 38 12.5 68q12.5 30 33 50.5q20.5 20.5 47.5 31q27 10.5 57 10.5q30 0 57 -10.5q27 -10.5 47.5 -31q20.5 -20.5 33 -50.5q12.5 -30 12.5 -68q0 -38 -12.5 -68q-12.5 -30 -33 -50.5q-20.5 -20.5 -47.5 -31q-27 -10.5 -57 -10.5q-30 0 -57 10.5q-27 10.5 -47.5 31q-20.5 20.5 -33 50.5q-12.5 30 -12.5 68zt0 0zM132 554q0 -40 7 -66.5q7 -26.5 18 -42.5q11 -16 25 -22.5q14 -6.5 28 -6.5q14 0 28 6.5q14 6.5 25 22.5q11 16 18 42.5q7 26.5 7 66.5q0 40 -7 66.5q-7 26.5 -18 42.5q-11 16 -25 22.5q-14 6.5 -28 6.5q-14 0 -28 -6.5q-14 -6.5 -25 -22.5q-11 -16 -18 -42.5q-7 -26.5 -7 -66.5zt0 0zM103 -50l-23 20l617 780l23 -19zM440 146q0 38 12.5 68q12.5 30 33 50.5q20.5 20.5 47.5 31q27 10.5 57 10.5q30 0 57 -10.5q27 -10.5 47.5 -31q20.5 -20.5 33 -50.5q12.5 -30 12.5 -68q0 -38 -12.5 -68q-12.5 -30 -33 -50.5q-20.5 -20.5 -47.5 -31q-27 -10.5 -57 -10.5q-30 0 -57 10.5q-27 10.5 -47.5 31q-20.5 20.5 -33 50.5q-12.5 30 -12.5 68zt0 0zM512 146q0 -40 7 -66.5q7 -26.5 18 -42.5q11 -16 25 -22.5q14 -6.5 28 -6.5q14 0 28 6.5q14 6.5 25 22.5q11 16 18 42.5q7 26.5 7 66.5q0 40 -7 66.5q-7 26.5 -18 42.5q-11 16 -25 22.5q-14 6.5 -28 6.5q-14 0 -28 -6.5q-14 -6.5 -25 -22.5q-11 -16 -18 -42.5t-7 -66.5z" />
<glyph unicode="&#38;" horiz-adv-x="790" d="M514 307h233v-22h-37q-13 0 -22.5 -2q-9.5 -2 -19 -9.5q-9.5 -7.5 -20 -22q-10.5 -14.5 -25.5 -39.5q-21 -35 -41.5 -61q-20.5 -26 -40.5 -46q7 -14 18 -28.5q11 -14.5 24.5 -26.5q13.5 -12 29 -20q15.5 -8 32.5 -8q23 0 43 12q20 12 35 26l14 -21q-32 -28 -62.5 -40.5q-30.5 -12.5 -70.5 -12.5q-11 0 -25.5 1.5q-14.5 1.5 -31 8.5q-16.5 7 -34.5 19.5q-18 12.5 -34 35.5q-43 -32 -85 -48.5q-42 -16.5 -92 -16.5q-59 0 -101.5 17.5q-42.5 17.5 -70 44.5q-27.5 27 -40.5 60.5q-13 33.5 -13 65.5q0 64 47 116q47 52 148 97q-21 40 -28 70q-7 30 -7 62q0 32 11 58q11 26 30 44.5q19 18.5 44.5 28.5q25.5 10 54.5 10q40 0 65.5 -12q25.5 -12 39.5 -29.5q14 -17.5 19 -37.5q5 -20 5 -36q0 -30 -13.5 -53q-13.5 -23 -34.5 -41q-21 -18 -47 -30.5q-26 -12.5 -51 -21.5l166 -272q8 8 20.5 23.5q12.5 15.5 24.5 33.5q12 18 20.5 36.5q8.5 18.5 8.5 31.5q0 12 -5 18.5q-5 6.5 -12.5 10q-7.5 3.5 -16 4q-8.5 0.5 -14.5 0.5h-38zM285 361q-14 -8 -33.5 -21q-19.5 -13 -36.5 -32.5q-17 -19.5 -29 -45q-12 -25.5 -12 -56.5q0 -32 11.5 -64q11.5 -32 33.5 -57.5q22 -25.5 52.5 -41.5q30.5 -16 69.5 -16q33 0 65 12q32 12 60 33zM347 423q31 14 50.5 30.5q19.5 16.5 30 33.5q10.5 17 14 33.5q3.5 16.5 3.5 30.5q0 42 -17 64.5q-17 22.5 -39 22.5q-12 0 -26 -6q-14 -6 -25 -19q-11 -13 -18.5 -33.5q-7.5 -20.5 -7.5 -50.5q0 -27 8.5 -52t26.5 -54z" />
<glyph unicode="&#39;" horiz-adv-x="240" d="M170 700l-36 -200h-28l-36 200z" />
<glyph unicode="&#40;" horiz-adv-x="427" d="M354 -224q-60 37 -113.5 87.5q-53.5 50.5 -93.5 111.5q-40 61 -63.5 129.5q-23.5 68.5 -23.5 140.5q0 72 23.5 140.5q23.5 68.5 63.5 129q40 60.5 93.5 111.5q53.5 51 113.5 88l13 -20q-51 -38 -88 -87.5q-37 -49.5 -61.5 -107q-24.5 -57.5 -36.5 -122q-12 -64.5 -12 -132.5q0 -68 12 -132.5q12 -64.5 36.5 -122q24.5 -57.5 61.5 -107q37 -49.5 88 -87.5z" />
<glyph unicode="&#41;" horiz-adv-x="427" d="M73 714q60 -37 113.5 -88q53.5 -51 93.5 -111.5q40 -60.5 63.5 -129q23.5 -68.5 23.5 -140.5q0 -72 -23.5 -140.5q-23.5 -68.5 -63.5 -129.5q-40 -61 -93.5 -111.5q-53.5 -50.5 -113.5 -87.5l-13 20q51 38 88 87.5q37 49.5 61.5 107q24.5 57.5 36.5 122q12 64.5 12 132.5q0 68 -12 132.5q-12 64.5 -36.5 122q-24.5 57.5 -61.5 107q-37 49.5 -88 87.5z" />
<glyph unicode="&#42;" horiz-adv-x="484" d="M268 562l94 93q23 -9 33.5 -29q10.5 -20 8.5 -43l-128 -35v-20l128 -35q2 -23 -8.5 -43q-10.5 -20 -33.5 -29l-94 93l-18 -10l34 -128q-8 -6 -18 -10q-10 -4 -24 -4q-25 0 -42 14l34 128l-17 10l-94 -93q-18 7 -31.5 27q-13.5 20 -11.5 45l129 35v20l-129 35q-2 25 11.5 45q13.5 20 31.5 27l94 -93l17 10l-34 128q17 14 42 14q25 0 42 -14l-34 -128z" />
<glyph unicode="&#43;" horiz-adv-x="640" d="M60 370h240v240h40v-240h240v-40h-240v-240h-40v240l-240 0z" />
<glyph unicode="&#44;" horiz-adv-x="236" d="M60 -139q12 11 23.5 26q11.5 15 20.5 31.5q9 16.5 15 32q6 15.5 6 27.5q0 18 -11.5 24.5q-11.5 6.5 -20.5 11.5q-17 10 -23 22q-6 12 -6 29q0 26 17.5 37q17.5 11 36.5 11q26 0 42 -21.5q16 -21.5 16 -54.5q0 -17 -4 -37.5q-4 -20.5 -15 -44.5q-11 -24 -30.5 -51.5q-19.5 -27.5 -50.5 -57.5z" />
<glyph unicode="&#45;" horiz-adv-x="360" d="M300 239h-240v60l240 0z" />
<glyph unicode="&#46;" horiz-adv-x="228" d="M60 39q0 23 15.5 38.5q15.5 15.5 38.5 15.5q23 0 38.5 -15.5q15.5 -15.5 15.5 -38.5q0 -23 -15.5 -38.5q-15.5 -15.5 -38.5 -15.5q-23 0 -38.5 15.5t-15.5 38.5z" />
<glyph unicode="&#47;" horiz-adv-x="500" d="M500 700l-460 -914h-40l460 914z" />
<glyph unicode="&#48;" horiz-adv-x="526" d="M44 350q0 67 14 132.5q14 65.5 42 117q28 51.5 69 83q41 31.5 94 31.5q53 0 94 -31.5q41 -31.5 68.5 -83q27.5 -51.5 42 -117q14.5 -65.5 14.5 -132.5q0 -67 -14.5 -132.5q-14.5 -65.5 -42 -117q-27.5 -51.5 -68.5 -83q-41 -31.5 -94 -31.5q-53 0 -94 31.5q-41 31.5 -69 83q-28 51.5 -42 117q-14 65.5 -14 132.5zt0 0zM142 350q0 -99 10.5 -163.5q10.5 -64.5 27.5 -103q17 -38.5 38.5 -54q21.5 -15.5 44.5 -15.5q23 0 44.5 15.5q21.5 15.5 38.5 54q17 38.5 27.5 103q10.5 64.5 10.5 163.5q0 99 -10.5 163.5q-10.5 64.5 -27.5 103q-17 38.5 -38.5 54q-21.5 15.5 -44.5 15.5q-23 0 -44.5 -15.5q-21.5 -15.5 -38.5 -54q-17 -38.5 -27.5 -103t-10.5 -163.5z" />
<glyph unicode="&#49;" horiz-adv-x="526" d="M321 714v-641q0 -17 4 -26q4 -9 10 -13q6 -4 12.5 -5q6.5 -1 11.5 -1h62v-28h-281v28h62q5 0 11.5 1q6.5 1 12.5 5q6 4 10 13q4 9 4 26v487q-10 -9 -24 -20.5q-14 -11.5 -29.5 -22.5q-15.5 -11 -31 -21.5q-15.5 -10.5 -29.5 -19.5l-13 19q57 48 100.5 99q43.5 51 75.5 120z" />
<glyph unicode="&#50;" horiz-adv-x="526" d="M448 0h-406v24l167 185q38 42 67.5 80q29.5 38 50 74.5q20.5 36.5 31 74q10.5 37.5 10.5 78.5q0 24 -5 53.5q-5 29.5 -18.5 55.5q-13.5 26 -37 43.5q-23.5 17.5 -60.5 17.5q-23 0 -39.5 -7.5q-16.5 -7.5 -27.5 -19.5q-11 -12 -16.5 -26q-5.5 -14 -5.5 -27q0 -7 2.5 -13.5q2.5 -6.5 4.5 -13.5q5 -18 5 -33q0 -27 -17.5 -39.5q-17.5 -12.5 -37.5 -12.5q-5 0 -13 2.5q-8 2.5 -15.5 8.5q-7.5 6 -12.5 17q-5 11 -5 29q0 29 12.5 58q12.5 29 36.5 52.5q24 23.5 59 38q35 14.5 80 14.5q46 0 83.5 -13.5q37.5 -13.5 64 -39q26.5 -25.5 41 -61.5q14.5 -36 14.5 -80q0 -24 -5 -52.5q-5 -28.5 -18.5 -61q-13.5 -32.5 -38 -67q-24.5 -34.5 -63.5 -70.5l-218 -199h204q34 0 55.5 4q21.5 4 33.5 10q12 6 16 13.5q4 7.5 5 14.5l3 25l28 0z" />
<glyph unicode="&#51;" horiz-adv-x="526" d="M149 399q13 -2 33 -5q20 -3 41 -3q68 0 103 42q35 42 35 120q0 28 -7 52.5q-7 24.5 -21.5 42.5q-14.5 18 -37 28q-22.5 10 -52.5 10q-25 0 -42 -5q-17 -5 -27.5 -13.5q-10.5 -8.5 -15.5 -18.5q-5 -10 -5 -19q0 -5 1 -11q1 -6 3 -11q3 -12 3 -24q0 -25 -15.5 -36.5q-15.5 -11.5 -35.5 -11.5q-18 0 -32 14q-14 14 -14 40q0 18 9.5 39.5q9.5 21.5 30.5 40.5q21 19 55 31.5q34 12.5 84 12.5q55 0 95 -15q40 -15 65.5 -39.5q25.5 -24.5 38 -55.5q12.5 -31 12.5 -64q0 -31 -10.5 -58q-10.5 -27 -29.5 -47.5q-19 -20.5 -45.5 -34q-26.5 -13.5 -58.5 -17.5l0 -7q46 -7 78.5 -24.5q32.5 -17.5 53 -42q20.5 -24.5 30 -54q9.5 -29.5 9.5 -59.5q0 -31 -13 -67.5q-13 -36.5 -42.5 -68q-29.5 -31.5 -76.5 -53q-47 -21.5 -115 -21.5q-56 0 -94 13.5q-38 13.5 -61 33.5q-23 20 -33 42q-10 22 -10 40q0 28 15.5 42q15.5 14 35.5 14q18 0 32 -11.5q14 -11.5 14 -39.5q0 -7 -2 -13q-2 -6 -4 -13q-2 -6 -3 -12q-1 -6 -1 -12q0 -8 5 -17.5q5 -9.5 17 -18q12 -8.5 31.5 -14.5q19.5 -6 49.5 -6q9 0 34.5 4q25.5 4 53 22.5q27.5 18.5 48.5 57q21 38.5 21 107.5q0 14 -3 40.5q-3 26.5 -18 52.5q-15 26 -47.5 45.5q-32.5 19.5 -91.5 19.5q-24 0 -44.5 -4q-20.5 -4 -28.5 -6z" />
<glyph unicode="&#52;" horiz-adv-x="526" d="M28 148v33q43 61 87 131q44 70 85 141q41 71 76.5 138.5q35.5 67.5 62.5 122.5l81 -51l-366 -487h252v261l81 69v-330h91v-28h-91v-75q0 -17 4 -26q4 -9 10 -13q6 -4 12.5 -5q6.5 -1 11.5 -1h53v-28h-263v28h53q5 0 11.5 1q6.5 1 12.5 5q6 4 10 13q4 9 4 26l0 75z" />
<glyph unicode="&#53;" horiz-adv-x="526" d="M355 700q12 0 25 0q13 0 23.5 2.5q10.5 2.5 19 9q8.5 6.5 11.5 19.5l5 19h28l-29 -130h-285l-22 -193q22 14 48.5 23.5q26.5 9.5 64.5 9.5q38 0 78.5 -10.5q40.5 -10.5 74 -35.5q33.5 -25 55 -66q21.5 -41 21.5 -102q0 -47 -14.5 -93q-14.5 -46 -44.5 -83.5q-30 -37.5 -77 -60.5q-47 -23 -113 -23q-45 0 -79 10.5q-34 10.5 -57 27q-23 16.5 -34.5 36.5q-11.5 20 -11.5 39q0 29 14.5 46q14.5 17 35.5 17q17 0 33.5 -12q16.5 -12 16.5 -41q0 -13 -7 -30q-2 -5 -4.5 -10q-2.5 -5 -2.5 -10q0 -16 24.5 -30.5q24.5 -14.5 74.5 -14.5q24 0 50 10q26 10 48 35.5q22 25.5 36 69q14 43.5 14 109.5q0 9 -1 26.5q-1 17.5 -5.5 39q-4.5 21.5 -14 43.5q-9.5 22 -26 40.5q-16.5 18.5 -41.5 30q-25 11.5 -61 11.5q-32 0 -56.5 -10.5q-24.5 -10.5 -44.5 -33.5l-30 0l36 315z" />
<glyph unicode="&#54;" horiz-adv-x="526" d="M149 376q39 31 77 43q38 12 67 12q36 0 71.5 -11q35.5 -11 63.5 -36q28 -25 45.5 -66.5q17.5 -41.5 17.5 -101.5q0 -54 -16 -96.5q-16 -42.5 -44.5 -72q-28.5 -29.5 -67.5 -45.5q-39 -16 -85 -16q-68 0 -112.5 30.5q-44.5 30.5 -70.5 78.5q-26 48 -36 107.5q-10 59.5 -10 117.5q0 74 17.5 144.5q17.5 70.5 51.5 126q34 55.5 84.5 89.5q50.5 34 117.5 34q43 0 72 -11.5q29 -11.5 46.5 -29.5q17.5 -18 25 -38.5q7.5 -20.5 7.5 -38.5q0 -25 -14 -35.5q-14 -10.5 -29 -10.5q-28 0 -41.5 15.5q-13.5 15.5 -13.5 38.5q0 9 1.5 18q1.5 9 1.5 18q0 6 -2.5 13.5q-2.5 7.5 -8.5 15q-6 7.5 -17 12.5q-11 5 -27 5q-24 0 -53 -14.5q-29 -14.5 -54.5 -49.5q-25.5 -35 -43.5 -95q-18 -60 -21 -151zt0 0zM148 328q-1 -12 -1.5 -24q-0.5 -12 -0.5 -24q0 -93 15 -146q15 -53 36 -79.5q21 -26.5 43.5 -33.5q22.5 -7 37.5 -7q37 0 60 20q23 20 36 49.5q13 29.5 17 63.5q4 34 4 62q0 56 -12 92.5q-12 36.5 -30 58q-18 21.5 -39.5 30q-21.5 8.5 -40.5 8.5q-34 0 -68 -17.5t-57 -52.5z" />
<glyph unicode="&#55;" horiz-adv-x="526" d="M483 700l-76 -163q-15 -32 -33.5 -85.5q-18.5 -53.5 -37 -116.5q-18.5 -63 -34 -130q-15.5 -67 -24.5 -127q-2 -16 -5.5 -32.5q-3.5 -16.5 -11 -29.5q-7.5 -13 -19 -21.5q-11.5 -8.5 -30.5 -8.5q-8 0 -17 2q-9 2 -17 8.5q-8 6.5 -13.5 18.5q-5.5 12 -5.5 31q0 20 6.5 45q6.5 25 21 61q14.5 36 38 86q23.5 50 58.5 122q24 50 39 80q15 30 28 55q13 25 26 52.5q13 27.5 34 72.5l-240 0q-42 0 -68 -13.5q-26 -13.5 -31 -54.5l-28 0l24 148z" />
<glyph unicode="&#56;" horiz-adv-x="526" d="M320 401q35 -17 65.5 -37q30.5 -20 52.5 -45.5q22 -25.5 34.5 -58q12.5 -32.5 12.5 -74.5q0 -41 -14.5 -77.5q-14.5 -36.5 -42.5 -63.5q-28 -27 -69 -43q-41 -16 -93 -16q-51 0 -93 14.5q-42 14.5 -72 40.5q-30 26 -46 62q-16 36 -16 80q0 43 14.5 75.5q14.5 32.5 37 55.5q22.5 23 48 37.5q25.5 14.5 48.5 22.5q-24 14 -45 30q-21 16 -36.5 35q-15.5 19 -25 41.5q-9.5 22.5 -9.5 50.5q0 32 11.5 64.5q11.5 32.5 35.5 59q24 26.5 62 43q38 16.5 91 16.5q40 0 75 -12q35 -12 61 -33.5q26 -21.5 41 -51.5q15 -30 15 -66q0 -33 -14 -58q-14 -25 -35.5 -44q-21.5 -19 -46.5 -30.5q-25 -11.5 -47 -17.5zt0 0zM296 413q30 13 49.5 29.5q19.5 16.5 31 35q11.5 18.5 15.5 39q4 20.5 4 41.5q0 37 -13 62q-13 25 -32.5 39.5q-19.5 14.5 -42.5 20.5q-23 6 -44 6q-30 0 -53 -10q-23 -10 -39.5 -25.5q-16.5 -15.5 -25 -35.5q-8.5 -20 -8.5 -41q0 -30 14 -54q14 -24 36.5 -43q22.5 -19 51 -34.5q28.5 -15.5 56.5 -29.5zt0 0zM211 362q-58 -32 -79.5 -77.5q-21.5 -45.5 -21.5 -106.5q0 -35 12 -65q12 -30 33.5 -52q21.5 -22 50.5 -34.5q29 -12.5 62 -12.5q35 0 62 12.5q27 12.5 45 33.5q18 21 27 48q9 27 9 55q0 37 -17 66.5q-17 29.5 -44.5 53.5q-27.5 24 -63.5 43t-75 36z" />
<glyph unicode="&#57;" horiz-adv-x="526" d="M377 324q-39 -31 -77 -43q-38 -12 -67 -12q-36 0 -71.5 11q-35.5 11 -63.5 36q-28 25 -45.5 66.5q-17.5 41.5 -17.5 101.5q0 54 16 96.5q16 42.5 44.5 72q28.5 29.5 67.5 45.5q39 16 85 16q68 0 112.5 -30.5q44.5 -30.5 70.5 -78.5q26 -48 36 -107.5q10 -59.5 10 -117.5q0 -74 -17.5 -144.5q-17.5 -70.5 -51.5 -126q-34 -55.5 -84.5 -89.5q-50.5 -34 -117.5 -34q-43 0 -72 11.5q-29 11.5 -46.5 29.5q-17.5 18 -25 38.5q-7.5 20.5 -7.5 38.5q0 25 14 35.5q14 10.5 29 10.5q28 0 41.5 -15.5q13.5 -15.5 13.5 -38.5q0 -9 -1.5 -18q-1.5 -9 -1.5 -18q0 -6 2.5 -13.5q2.5 -7.5 8.5 -15q6 -7.5 16.5 -12.5q10.5 -5 27.5 -5q24 0 53 14.5q29 14.5 54.5 49.5q25.5 35 43.5 95q18 60 21 151zt0 0zM378 372q2 18 2.5 44q0.5 26 0.5 47q0 34 -6 73.5q-6 39.5 -21 72.5q-15 33 -41 55q-26 22 -65 22q-38 0 -60.5 -20q-22.5 -20 -35.5 -49.5q-13 -29.5 -17 -63.5q-4 -34 -4 -62q0 -56 11.5 -92.5q11.5 -36.5 29.5 -58q18 -21.5 39.5 -30q21.5 -8.5 41.5 -8.5q34 0 68 17.5t57 52.5z" />
<glyph unicode="&#58;" horiz-adv-x="228" d="M60 420q0 23 15.5 38.5q15.5 15.5 38.5 15.5q23 0 38.5 -15.5q15.5 -15.5 15.5 -38.5q0 -23 -15.5 -38.5q-15.5 -15.5 -38.5 -15.5q-23 0 -38.5 15.5q-15.5 15.5 -15.5 38.5zt0 0zM60 39q0 23 15.5 38.5q15.5 15.5 38.5 15.5q23 0 38.5 -15.5q15.5 -15.5 15.5 -38.5q0 -23 -15.5 -38.5q-15.5 -15.5 -38.5 -15.5q-23 0 -38.5 15.5t-15.5 38.5z" />
<glyph unicode="&#59;" horiz-adv-x="236" d="M60 -139q12 11 23.5 26q11.5 15 20.5 31.5q9 16.5 15 32q6 15.5 6 27.5q0 18 -11.5 24.5q-11.5 6.5 -20.5 11.5q-17 10 -23 22q-6 12 -6 29q0 26 17.5 37q17.5 11 36.5 11q26 0 42 -21.5q16 -21.5 16 -54.5q0 -17 -4 -37.5q-4 -20.5 -15 -44.5q-11 -24 -30.5 -51.5q-19.5 -27.5 -50.5 -57.5zM64 420q0 23 15.5 38.5q15.5 15.5 38.5 15.5q23 0 38.5 -15.5q15.5 -15.5 15.5 -38.5q0 -23 -15.5 -38.5q-15.5 -15.5 -38.5 -15.5q-23 0 -38.5 15.5t-15.5 38.5z" />
<glyph unicode="&#60;" horiz-adv-x="690" d="M627 605l18 -40l-522 -215l522 -215l-18 -40l-582 240l0 30z" />
<glyph unicode="&#61;" horiz-adv-x="640" d="M60 430h520v-40h-520zM60 310h520v-40l-520 0z" />
<glyph unicode="&#62;" horiz-adv-x="690" d="M63 95l-18 40l522 215l-522 215l18 40l582 -240l0 -30z" />
<glyph unicode="&#63;" horiz-adv-x="504" d="M198 140v119q0 26 13 52.5q13 26.5 48 58.5q16 15 36.5 31.5q20.5 16.5 38 37.5q17.5 21 29.5 47.5q12 26.5 12 61.5q0 21 -7 45q-7 24 -23.5 44.5q-16.5 20.5 -44.5 34.5q-28 14 -70 14q-38 0 -60 -16q-22 -16 -22 -30q0 -7 3.5 -13.5q3.5 -6.5 5.5 -14.5q2 -7 2.5 -13.5q0.5 -6.5 0.5 -13.5q0 -23 -17 -32.5q-17 -9.5 -33 -9.5q-20 0 -35 13.5q-15 13.5 -15 40.5q0 20 10.5 41q10.5 21 30.5 38q20 17 50 27.5q30 10.5 68 10.5q52 0 94 -15q42 -15 71 -43q29 -28 44.5 -67.5q15.5 -39.5 15.5 -87.5q0 -35 -9.5 -62q-9.5 -27 -25.5 -48q-16 -21 -37 -38q-21 -17 -43 -33q-21 -15 -40 -29.5q-19 -14.5 -33 -29q-14 -14.5 -22 -31q-8 -16.5 -8 -35.5v-55zM158 39q0 23 15.5 38.5q15.5 15.5 38.5 15.5q23 0 38.5 -15.5q15.5 -15.5 15.5 -38.5q0 -23 -15.5 -38.5q-15.5 -15.5 -38.5 -15.5q-23 0 -38.5 15.5t-15.5 38.5z" />
<glyph unicode="&#64;" horiz-adv-x="822" d="M617 541l-44 -317q-2 -9 -3 -17.5q-1 -8.5 -1 -17.5q0 -39 34 -39q21 0 44 10.5q23 10.5 42 36.5q19 26 31 71q12 45 12 113q0 84 -28.5 142q-28.5 58 -73.5 93.5q-45 35.5 -101 51q-56 15.5 -110 15.5q-73 0 -133.5 -25.5q-60.5 -25.5 -104 -70.5q-43.5 -45 -67.5 -107q-24 -62 -24 -135q0 -69 19.5 -129q19.5 -60 56.5 -104q37 -44 90 -69.5q53 -25.5 120 -25.5q51 0 105.5 12.5q54.5 12.5 92.5 35.5l15 -30q-56 -26 -109 -37.5q-53 -11.5 -109 -11.5q-75 0 -136.5 26q-61.5 26 -106 72q-44.5 46 -68.5 109.5q-24 63.5 -24 138.5q0 85 27.5 155q27.5 70 78 120.5q50.5 50.5 120.5 78.5q70 28 156 28q85 0 153 -24.5q68 -24.5 116 -69q48 -44.5 73.5 -106q25.5 -61.5 25.5 -135.5q0 -77 -20 -126.5q-20 -49.5 -50 -78.5q-30 -29 -66 -40.5q-36 -11.5 -68 -11.5q-37 0 -58.5 20q-21.5 20 -24.5 49l-5 1q-24 -31 -61.5 -50.5q-37.5 -19.5 -84.5 -19.5q-38 0 -67.5 13q-29.5 13 -50 35.5q-20.5 22.5 -31 53.5q-10.5 31 -10.5 67q0 64 21.5 114q21.5 50 56 84q34.5 34 77 51.5q42.5 17.5 83.5 17.5q9 0 22.5 -1.5q13.5 -1.5 29 -7q15.5 -5.5 32 -16q16.5 -10.5 30.5 -27.5l5 35zM360 148q36 0 66 20q30 20 51 55q21 35 33 83q12 48 12 105q0 13 -2.5 34q-2.5 21 -11.5 41.5q-9 20.5 -27 35q-18 14.5 -48 14.5q-41 0 -71.5 -24q-30.5 -24 -51 -61.5q-20.5 -37.5 -31 -83.5q-10.5 -46 -10.5 -91q0 -19 3.5 -41.5q3.5 -22.5 13.5 -41.5q10 -19 28 -32t46 -13z" />
<glyph unicode="&#65;" horiz-adv-x="715" d="M233 273l-23 -62q-11 -30 -19 -51q-8 -21 -13 -36.5q-5 -15.5 -7.5 -27.5q-2.5 -12 -2.5 -22q0 -20 8.5 -33q8.5 -13 20.5 -13h40v-28h-203v28h19q9 0 21.5 7q12.5 7 29.5 32q17 25 39.5 74q22.5 49 53.5 132l163 441h32l225 -625q3 -8 7 -18q4 -10 11.5 -20q7.5 -10 19.5 -16.5q12 -6.5 31 -6.5h22v-28h-256v28h40q16 0 28 4.5q12 4.5 12 24.5q0 14 -6.5 32q-6.5 18 -15.5 44l-50 140zM451 301l-104 288l-104 -288z" />
<glyph unicode="&#66;" horiz-adv-x="710" d="M67 28h57q5 0 11.5 1q6.5 1 12.5 5q6 4 10 13q4 9 4 26v555q0 6 -1 13.5q-1 7.5 -5 14q-4 6.5 -11.5 11.5q-7.5 5 -20.5 5h-57v28h321q29 0 70 -4q41 -4 78.5 -20.5q37.5 -16.5 64 -50q26.5 -33.5 26.5 -91.5q0 -42 -17 -69q-17 -27 -41.5 -44q-24.5 -17 -52.5 -24.5q-28 -7.5 -49 -10.5l0 -4q26 -3 59 -14q33 -11 62 -32.5q29 -21.5 49 -55.5q20 -34 20 -84q0 -38 -12.5 -73.5q-12.5 -35.5 -41 -62.5q-28.5 -27 -74.5 -43.5q-46 -16.5 -114 -16.5h-348zM370 398q5 0 19 0.5q14 0.5 32 4.5q18 4 37 12q19 8 35.5 23q16.5 15 27 38.5q10.5 23.5 10.5 58.5q0 38 -13 64q-13 26 -35.5 42.5q-22.5 16.5 -53 23.5q-30.5 7 -65.5 7q-34 0 -59.5 -5.5q-25.5 -5.5 -50.5 -16.5l0 -252zM254 58q29 -20 54.5 -25q25.5 -5 55.5 -5q8 0 25.5 1q17.5 1 39 5.5q21.5 4.5 44.5 14.5q23 10 41.5 28.5q18.5 18.5 30.5 46.5q12 28 12 70q0 46 -14 79q-14 33 -39 54q-25 21 -60 31q-35 10 -76 10l-114 0z" />
<glyph unicode="&#67;" horiz-adv-x="744" d="M655 700l14 -191h-32l-2 24q-2 28 -18.5 55q-16.5 27 -44.5 49q-28 22 -66.5 35.5q-38.5 13.5 -84.5 13.5q-66 0 -112.5 -31q-46.5 -31 -75 -80.5q-28.5 -49.5 -41.5 -111q-13 -61.5 -13 -122.5q0 -83 23 -143q23 -60 60.5 -99q37.5 -39 86.5 -57.5q49 -18.5 100 -18.5q72 0 129.5 42.5q57.5 42.5 101.5 133.5l25 -13q-26 -56 -58 -94.5q-32 -38.5 -69 -62q-37 -23.5 -77.5 -33.5q-40.5 -10 -83.5 -10q-68 0 -131 23q-63 23 -111 68q-48 45 -76.5 111.5q-28.5 66.5 -28.5 153.5q0 72 22.5 139q22.5 67 66.5 118.5q44 51.5 109.5 83q65.5 31.5 152.5 31.5q66 0 113.5 -11.5q47.5 -11.5 89.5 -37.5l-1 35z" />
<glyph unicode="&#68;" horiz-adv-x="820" d="M360 700q31 0 73.5 -3q42.5 -3 87.5 -14q45 -11 89 -33.5q44 -22.5 79 -62.5q35 -40 56.5 -99q21.5 -59 21.5 -144q0 -26 -4.5 -61q-4.5 -35 -18 -73.5q-13.5 -38.5 -39 -76q-25.5 -37.5 -67.5 -67q-42 -29.5 -103 -48q-61 -18.5 -145 -18.5h-323v28h57q5 0 11.5 1q6.5 1 12.5 5q6 4 10 13q4 9 4 26v554q0 16 -4 25.5q-4 9.5 -10 13.5q-6 4 -12.5 5q-6.5 1 -11.5 1h-57v28zM254 53q56 -25 132 -25q50 0 98.5 17q48.5 17 87 54.5q38.5 37.5 62.5 97.5q24 60 24 146q0 70 -17 130q-17 60 -49.5 104.5q-32.5 44.5 -79.5 69.5q-47 25 -107 25q-4 0 -17.5 -0.5q-13.5 -0.5 -33.5 -3.5q-20 -3 -46 -9q-26 -6 -54 -18z" />
<glyph unicode="&#69;" horiz-adv-x="679" d="M599 700l12 -142h-32l-4 30q-2 13 -12 27.5q-10 14.5 -37 27q-27 12.5 -75 21q-48 8.5 -124 8.5h-35q-21 0 -29.5 -12.5q-8.5 -12.5 -8.5 -32.5v-245h45q67 0 102.5 5.5q35.5 5.5 52 13.5q16.5 8 19 18.5q2.5 10.5 2.5 19.5v25h32v-192h-32v25q0 9 -2.5 19.5q-2.5 10.5 -19 18.5q-16.5 8 -52 13.5q-35.5 5.5 -102.5 5.5h-45v-281q0 -17 4 -26q4 -9 10 -13q6 -4 12.5 -5q6.5 -1 11.5 -1h14q77 0 131 8.5q54 8.5 89 22.5q35 14 52.5 32.5q17.5 18.5 21.5 38.5l5 25h32l-33 -155h-537v28h57q5 0 11.5 1q6.5 1 12.5 5q6 4 10 13q4 9 4 26v554q0 16 -4 25.5q-4 9.5 -10 13.5q-6 4 -12.5 5q-6.5 1 -11.5 1h-57l0 28z" />
<glyph unicode="&#70;" horiz-adv-x="643" d="M67 0v28h57q5 0 11.5 1q6.5 1 12.5 5q6 4 10 13q4 9 4 26v554q0 16 -4 25.5q-4 9.5 -10 13.5q-6 4 -12.5 5q-6.5 1 -11.5 1h-57v28h532l12 -142h-32l-4 30q-2 13 -12 27.5q-10 14.5 -37 27q-27 12.5 -75 21q-48 8.5 -124 8.5h-35q-21 0 -29.5 -12.5q-8.5 -12.5 -8.5 -32.5v-245h45q67 0 102.5 5.5q35.5 5.5 52 13.5q16.5 8 19 18.5q2.5 10.5 2.5 19.5v25h32v-192h-32v25q0 9 -2.5 19.5q-2.5 10.5 -19 18.5q-16.5 8 -52 13.5q-35.5 5.5 -102.5 5.5h-45v-281q0 -17 4 -26q4 -9 10 -13q6 -4 12.5 -5q6.5 -1 11.5 -1h77l0 -28z" />
<glyph unicode="&#71;" horiz-adv-x="795" d="M785 305v-28h-42q-5 0 -11.5 -1q-6.5 -1 -12.5 -5q-6 -4 -10 -13.5q-4 -9.5 -4 -25.5v-160q-63 -42 -133 -64q-70 -22 -139 -22q-93 0 -161 31.5q-68 31.5 -113 83q-45 51.5 -67 116.5q-22 65 -22 133q0 77 26 143.5q26 66.5 73 115.5q47 49 111 77q64 28 141 28q23 0 51 -1.5q28 -1.5 58.5 -7q30.5 -5.5 62 -15q31.5 -9.5 61.5 -25.5l-1 35h32l14 -191h-32l-2 24q-2 25 -21 52.5q-19 27.5 -51 49.5q-32 22 -76 36.5q-44 14.5 -96 14.5q-68 0 -114 -31.5q-46 -31.5 -74.5 -81q-28.5 -49.5 -41 -109.5q-12.5 -60 -12.5 -116q0 -101 25.5 -166q25.5 -65 63.5 -102.5q38 -37.5 82 -51.5q44 -14 81 -14q32 0 64.5 8.5q32.5 8.5 58.5 25q26 16.5 42.5 41q16.5 24.5 16.5 57.5v86q0 16 -4 25.5q-4 9.5 -10 13.5q-6 4 -12.5 5q-6.5 1 -11.5 1h-77l0 28z" />
<glyph unicode="&#72;" horiz-adv-x="846" d="M607 379v248q0 16 -4 25.5q-4 9.5 -10 13.5q-6 4 -12.5 5q-6.5 1 -11.5 1h-57v28h282v-28h-57q-5 0 -11.5 -1q-6.5 -1 -12.5 -5q-6 -4 -10 -13.5q-4 -9.5 -4 -25.5v-554q0 -17 4 -26q4 -9 10 -13q6 -4 12.5 -5q6.5 -1 11.5 -1h57v-28h-282v28h57q5 0 11.5 1q6.5 1 12.5 5q6 4 10 13q4 9 4 26v278h-353v-278q0 -17 4 -26q4 -9 10 -13q6 -4 12.5 -5q6.5 -1 11.5 -1h57v-28h-282v28h57q5 0 11.5 1q6.5 1 12.5 5q6 4 10 13q4 9 4 26v554q0 16 -4 25.5q-4 9.5 -10 13.5q-6 4 -12.5 5q-6.5 1 -11.5 1h-57v28h282v-28h-57q-5 0 -11.5 -1q-6.5 -1 -12.5 -5q-6 -4 -10 -13.5q-4 -9.5 -4 -25.5l0 -248z" />
<glyph unicode="&#73;" horiz-adv-x="401" d="M349 700v-28h-57q-5 0 -11.5 -1q-6.5 -1 -12.5 -5q-6 -4 -10 -13.5q-4 -9.5 -4 -25.5v-554q0 -17 4 -26q4 -9 10 -13q6 -4 12.5 -5q6.5 -1 11.5 -1h57v-28h-282v28h57q5 0 11.5 1q6.5 1 12.5 5q6 4 10 13q4 9 4 26v554q0 16 -4 25.5q-4 9.5 -10 13.5q-6 4 -12.5 5q-6.5 1 -11.5 1h-57l0 28z" />
<glyph unicode="&#74;" horiz-adv-x="430" d="M378 700v-28h-57q-5 0 -11.5 -1q-6.5 -1 -12.5 -5q-6 -4 -10 -13.5q-4 -9.5 -4 -25.5v-520q0 -96 -24.5 -160q-24.5 -64 -61 -102q-36.5 -38 -79 -53.5q-42.5 -15.5 -78.5 -15.5q-28 0 -50 7q-22 7 -37.5 19q-15.5 12 -24 28q-8.5 16 -8.5 34q0 29 16 42q16 13 34 13q22 0 39 -12.5q17 -12.5 17 -39.5q0 -6 -0.5 -11.5q-0.5 -5.5 -0.5 -11.5q0 -4 1 -10.5q1 -6.5 4.5 -13q3.5 -6.5 12 -11.5q8.5 -5 23.5 -5q21 0 43 11q22 11 40 38.5q18 27.5 30 75q12 47.5 12 119.5v579q0 16 -4 25.5q-4 9.5 -10 13.5q-6 4 -12.5 5q-6.5 1 -11.5 1h-57l0 28z" />
<glyph unicode="&#75;" horiz-adv-x="781" d="M162 627q0 16 -4 25.5q-4 9.5 -10 13.5q-6 4 -12.5 5q-6.5 1 -11.5 1h-57v28h282v-28h-57q-5 0 -11.5 -1q-6.5 -1 -12.5 -5q-6 -4 -10 -13.5q-4 -9.5 -4 -25.5v-271l208 193q11 10 25 23.5q14 13.5 26 28q12 14.5 20.5 28q8.5 13.5 8.5 22.5q0 9 -7.5 15q-7.5 6 -20.5 6h-49v28h262v-28h-24q-17 0 -37.5 -8.5q-20.5 -8.5 -40.5 -21q-20 -12.5 -38.5 -27.5q-18.5 -15 -31.5 -27l-192 -172l277 -323q28 -32 54.5 -48q26.5 -16 72.5 -17l0 -28h-169l-302 356l-42 -39v-244q0 -17 4 -26q4 -9 10 -13q6 -4 12.5 -5q6.5 -1 11.5 -1h57v-28h-282v28h57q5 0 11.5 1q6.5 1 12.5 5q6 4 10 13q4 9 4 26z" />
<glyph unicode="&#76;" horiz-adv-x="637" d="M349 700v-28h-57q-5 0 -11.5 -1q-6.5 -1 -12.5 -5q-6 -4 -10 -13.5q-4 -9.5 -4 -25.5v-554q0 -15 4 -24q4 -9 10 -13.5q6 -4.5 13.5 -6q7.5 -1.5 15.5 -1.5q15 -1 41.5 0.5q26.5 1.5 59 6q32.5 4.5 66 12q33.5 7.5 61 20q27.5 12.5 46 30q18.5 17.5 19.5 41.5l1 18h32l-12 -156h-544v28h57q5 0 11.5 1q6.5 1 12.5 5q6 4 10 13q4 9 4 26v554q0 16 -4 25.5q-4 9.5 -10 13.5q-6 4 -12.5 5q-6.5 1 -11.5 1h-57l0 28z" />
<glyph unicode="&#77;" horiz-adv-x="979" d="M269 700l237 -563l239 563h182v-28h-57q-5 0 -11.5 -1q-6.5 -1 -12.5 -5q-6 -4 -10 -13.5q-4 -9.5 -4 -25.5v-554q0 -17 4 -26q4 -9 10 -13q6 -4 12.5 -5q6.5 -1 11.5 -1h57v-28h-282v28h57q5 0 11.5 1q6.5 1 12.5 5q6 4 10 13q4 9 4 26v538l-257 -611h-26l-267 631v-333q0 -49 2 -97.5q2 -48.5 9 -86.5q7 -38 21 -62q14 -24 38 -24h23v-28h-216v28h19q24 0 38 24q14 24 21 62q7 38 9 86.5q2 48.5 2 97.5v324q0 18 -3.5 28.5q-3.5 10.5 -9.5 15q-6 4.5 -12.5 5.5q-6.5 1 -12.5 1h-51l0 28z" />
<glyph unicode="&#78;" horiz-adv-x="740" d="M164 700l428 -552v254q0 49 -2 97.5q-2 48.5 -9 86.5q-7 38 -21 62q-14 24 -38 24h-23v28h226v-28h-29q-24 0 -38 -24q-14 -24 -21 -62q-7 -38 -9 -86.5q-2 -48.5 -2 -97.5v-416h-36l-435 565v-253q0 -49 2 -97.5q2 -48.5 9 -86.5q7 -38 21 -62q14 -24 38 -24h23v-28h-216v28h19q24 0 38 24q14 24 21 62q7 38 9 86.5q2 48.5 2 97.5v294l-20 23q-25 29 -47 44q-22 15 -54 13l0 28z" />
<glyph unicode="&#79;" horiz-adv-x="823" d="M70 350q0 70 23 135.5q23 65.5 67 116.5q44 51 109.5 81.5q65.5 30.5 150.5 30.5q91 0 157 -33.5q66 -33.5 109 -86q43 -52.5 63.5 -117.5q20.5 -65 20.5 -127q0 -62 -20.5 -127q-20.5 -65 -63.5 -117.5q-43 -52.5 -109 -86q-66 -33.5 -157 -33.5q-85 0 -150.5 30.5q-65.5 30.5 -109.5 81.5q-44 51 -67 116.5q-23 65.5 -23 135.5zt0 0zM179 350q0 -57 13 -117q13 -60 42 -108.5q29 -48.5 75 -79.5q46 -31 111 -31q65 0 111 31q46 31 75 79.5q29 48.5 42 108.5q13 60 13 117q0 57 -13 117q-13 60 -42 108.5q-29 48.5 -75 79.5q-46 31 -111 31q-65 0 -111 -31q-46 -31 -75 -79.5q-29 -48.5 -42 -108.5t-13 -117z" />
<glyph unicode="&#80;" horiz-adv-x="673" d="M323 700q98 0 159 -20q61 -20 94.5 -51q33.5 -31 45.5 -69q12 -38 12 -74q0 -52 -21.5 -91.5q-21.5 -39.5 -59.5 -66.5q-38 -27 -91 -40.5q-53 -13.5 -116 -13.5q-24 0 -46 2q-22 2 -45 6l0 -209q0 -17 4 -26q4 -9 10 -13q6 -4 12.5 -5q6.5 -1 11.5 -1h77v-28h-302v28h57q5 0 11.5 1q6.5 1 12.5 5q6 4 10 13q4 9 4 26v554q0 16 -4 25.5q-4 9.5 -10 13.5q-6 4 -12.5 5q-6.5 1 -11.5 1h-58v28zM255 312q33 -10 73 -10q60 0 99.5 18q39.5 18 63 45.5q23.5 27.5 33.5 59.5q10 32 10 61q0 35 -9.5 68.5q-9.5 33.5 -30.5 59.5q-21 26 -56 42q-35 16 -86 16q-32 0 -55 -6q-23 -6 -42 -16z" />
<glyph unicode="&#81;" horiz-adv-x="823" d="M374 -12q-80 11 -137 46.5q-57 35.5 -94.5 86q-37.5 50.5 -55 111q-17.5 60.5 -17.5 120.5q0 61 20.5 125.5q20.5 64.5 63 117q42.5 52.5 108.5 86q66 33.5 158 33.5q91 0 157.5 -33.5q66.5 -33.5 109 -86q42.5 -52.5 63 -117q20.5 -64.5 20.5 -125.5q0 -63 -20.5 -128q-20.5 -65 -63.5 -118q-43 -53 -109.5 -86.5q-66.5 -33.5 -157.5 -33.5l-86 -54l3 -12q22 6 43 9.5q21 3.5 43 3.5q50 0 83.5 -11.5q33.5 -11.5 62 -25q28.5 -13.5 57 -25q28.5 -11.5 68.5 -11.5q35 0 76.5 17q41.5 17 72.5 59l18 -14q-19 -43 -40.5 -71q-21.5 -28 -44 -44.5q-22.5 -16.5 -45.5 -23.5q-23 -7 -46 -7q-24 0 -44.5 5.5q-20.5 5.5 -40.5 14.5q-20 9 -40.5 20.5q-20.5 11.5 -43.5 24.5q-35 19 -76 35q-41 16 -98 16q-48 0 -83 -16.5q-35 -16.5 -58 -36.5l-19 26zM179 352q0 -58 13 -118q13 -60 42 -109q29 -49 75 -80q46 -31 111 -31q65 0 111 31q46 31 75 80q29 49 42 109q13 60 13 118q0 56 -13 115.5q-13 59.5 -41.5 108q-28.5 48.5 -74.5 79.5q-46 31 -112 31q-46 0 -81.5 -15.5q-35.5 -15.5 -62.5 -41.5q-27 -26 -45.5 -60.5q-18.5 -34.5 -30 -71.5q-11.5 -37 -16.5 -74.5t-5 -70.5z" />
<glyph unicode="&#82;" horiz-adv-x="731" d="M368 700q41 0 85 -6q44 -6 80 -25q36 -19 59 -54.5q23 -35.5 23 -93.5q0 -55 -24.5 -90q-24.5 -35 -60.5 -55.5q-36 -20.5 -76.5 -28q-40.5 -7.5 -71.5 -7.5l0 -7q36 -4 63 -19.5q27 -15.5 49.5 -41q22.5 -25.5 43.5 -60.5q21 -35 44 -79q7 -14 16.5 -31.5q9.5 -17.5 20 -33q10.5 -15.5 22 -26.5q11.5 -11 23.5 -11q13 0 19.5 12q6.5 12 6.5 25v12h27v-14q0 -13 -5 -27q-5 -14 -14.5 -26q-9.5 -12 -24.5 -19.5q-15 -7.5 -36 -7.5q-28 0 -49.5 9.5q-21.5 9.5 -39.5 26q-18 16.5 -33 38.5q-15 22 -30 46q-11 17 -19.5 34.5q-8.5 17.5 -17.5 34.5q-20 39 -39.5 70.5q-19.5 31.5 -42 53q-22.5 21.5 -49.5 31.5q-27 10 -63 6l0 -263q0 -17 4 -26q4 -9 10 -13q6 -4 12.5 -5q6.5 -1 11.5 -1h57v-28h-282v28h57q5 0 11.5 1q6.5 1 12.5 5q6 4 10 13q4 9 4 26v554q0 16 -4 25.5q-4 9.5 -10 13.5q-6 4 -12.5 5q-6.5 1 -11.5 1h-57v28zM254 364q18 -2 36.5 -2.5q18.5 -0.5 36.5 -0.5q23 0 56 4.5q33 4.5 63 20.5q30 16 51.5 48q21.5 32 21.5 88q0 39 -14 67q-14 28 -38 46.5q-24 18.5 -55.5 27.5q-31.5 9 -66.5 9q-26 0 -47.5 -5q-21.5 -5 -43.5 -15z" />
<glyph unicode="&#83;" horiz-adv-x="589" d="M99 181l1 -13q2 -30 22 -58q20 -28 50 -49.5q30 -21.5 66.5 -34q36.5 -12.5 71.5 -12.5q40 0 69 14q29 14 47.5 35q18.5 21 27 47q8.5 26 8.5 50q0 39 -20 64q-20 25 -49 43l-179 108q-30 18 -55 33q-25 15 -43.5 32q-18.5 17 -28.5 38q-10 21 -10 51q0 27 9 59.5q9 32.5 32.5 60q23.5 27.5 64 46.5q40.5 19 104.5 19q31 0 75.5 -7.5q44.5 -7.5 104.5 -35.5l-1 29h32l6 -177h-32l-1 21q-2 31 -18.5 57q-16.5 26 -43.5 45q-27 19 -60.5 29.5q-33.5 10.5 -69.5 10.5q-56 0 -90 -28q-34 -28 -34 -73q0 -23 13 -51.5q13 -28.5 46 -48.5l207 -124q16 -9 36 -22q20 -13 38 -32.5q18 -19.5 30 -46.5q12 -27 12 -65q0 -33 -11 -69.5q-11 -36.5 -37 -67.5q-26 -31 -69.5 -51.5q-43.5 -20.5 -107.5 -20.5q-40 0 -91.5 8q-51.5 8 -110.5 39l2 -33h-32l-13 181z" />
<glyph unicode="&#84;" horiz-adv-x="682" d="M658 700v-156h-32v23q0 21 -17 40q-17 19 -44 33.5q-27 14.5 -60 23q-33 8.5 -65 8.5q-6 0 -13.5 -0.5q-7.5 -0.5 -15 -2q-7.5 -1.5 -12.5 -5.5q-5 -4 -5 -11v-580q0 -17 4 -26q4 -9 10 -13q6 -4 12.5 -5q6.5 -1 11.5 -1h57v-28h-282v28h57q5 0 11.5 1q6.5 1 12.5 5q6 4 10 13q4 9 4 26v580q0 7 -5 11q-5 4 -12.5 5.5q-7.5 1.5 -15 2q-7.5 0.5 -13.5 0.5q-32 0 -65 -8.5q-33 -8.5 -60 -23q-27 -14.5 -44 -33.5q-17 -19 -17 -40v-23h-32l0 156z" />
<glyph unicode="&#85;" horiz-adv-x="829" d="M349 700v-28h-57q-5 0 -11.5 -1q-6.5 -1 -12.5 -5q-6 -4 -10 -13.5q-4 -9.5 -4 -25.5v-393q0 -10 1 -30q1 -20 6.5 -44.5q5.5 -24.5 16.5 -49.5q11 -25 31.5 -46q20.5 -21 52 -34q31.5 -13 77.5 -13q20 0 55.5 5.5q35.5 5.5 70 28.5q34.5 23 59.5 69q25 46 25 126v156q0 49 -2 97.5q-2 48.5 -9 86.5q-7 38 -21 62q-14 24 -38 24h-28v28h226v-28h-24q-24 0 -38 -24q-14 -24 -21 -62q-7 -38 -9 -86.5q-2 -48.5 -2 -97.5v-157q0 -22 -3 -49.5q-3 -27.5 -12 -56.5q-9 -29 -25.5 -56.5q-16.5 -27.5 -43.5 -49q-27 -21.5 -66.5 -34.5q-39.5 -13 -93.5 -13q-68 0 -115 15.5q-47 15.5 -78 40q-31 24.5 -48 54q-17 29.5 -25 57q-8 27.5 -9.5 50q-1.5 22.5 -1.5 32.5v392q0 16 -4 25.5q-4 9.5 -10 13.5q-6 4 -12.5 5q-6.5 1 -11.5 1h-57l0 28z" />
<glyph unicode="&#86;" horiz-adv-x="764" d="M269 700v-28h-41q-21 0 -27 -8.5q-6 -8.5 -6 -20.5q0 -6 2.5 -11.5q2.5 -5.5 5.5 -12.5l203 -511l150 358q20 48 31.5 78q11.5 30 17.5 49q6 19 7.5 28.5q1.5 9.5 1.5 15.5q0 2 -0.5 8q-0.5 6 -3.5 12q-3 6 -9 10.5q-6 4.5 -16 4.5h-47v28h205v-28q-31 -1 -53 -20.5q-22 -19.5 -42 -55q-20 -35.5 -40.5 -86.5q-20.5 -51 -47.5 -115l-173 -409h-29l-251 633q-8 20 -24.5 36.5q-16.5 16.5 -51.5 16.5h-10l0 28z" />
<glyph unicode="&#87;" horiz-adv-x="1086" d="M288 700v-28h-49q-17 0 -24.5 -6q-7.5 -6 -9 -14q-1.5 -8 0.5 -17q2 -9 4 -16l168 -497l142 367l-43 130q-3 9 -7.5 18.5q-4.5 9.5 -12.5 17q-8 7.5 -21 12.5q-13 5 -34 5h-24v28h276v-28h-58q-16 0 -23 -8q-7 -8 -7 -19q0 -4 2 -12.5q2 -8.5 4 -13.5l167 -497l129 344q15 39 24 66.5q9 27.5 14 47.5q5 20 6.5 33q1.5 13 1.5 24q0 13 -3.5 20q-3.5 7 -9 10.5q-5.5 3.5 -11.5 4q-6 0.5 -10 0.5h-45v28h230v-28q-26 0 -48 -15q-22 -15 -43 -48q-21 -33 -44.5 -85.5q-23.5 -52.5 -52.5 -128.5l-157 -409h-28l-156 451l-175 -451h-29l-216 633q-17 53 -72 53h-23l0 28z" />
<glyph unicode="&#88;" horiz-adv-x="762" d="M332 700v-28h-63q-11 0 -15.5 -6q-4.5 -6 -4.5 -11q0 -7 5 -14.5q5 -7.5 12 -18.5l138 -210q26 33 53.5 70q27.5 37 50 70.5q22.5 33.5 36.5 60q14 26.5 14 38.5q0 8 -4 12.5q-4 4.5 -10 6.5q-6 2 -12.5 2q-6.5 0 -10.5 0h-48v28h248v-28h-22q-24 0 -50 -18q-26 -18 -58.5 -54q-32.5 -36 -73.5 -90q-41 -54 -95 -125l166 -249q17 -26 32 -47q15 -21 31 -35q16 -14 34.5 -21q18.5 -7 42.5 -5l0 -28h-273v28h57q8 0 13.5 5q5.5 5 7.5 10q1 5 0 11q-2 5 -5 9.5q-3 4.5 -7 10.5l-157 235q-59 -77 -93.5 -125.5q-34.5 -48.5 -52 -76.5q-17.5 -28 -22.5 -40.5q-5 -12.5 -5 -18.5q0 -15 8.5 -17.5q8.5 -2.5 15.5 -2.5h54v-28h-221v28q32 7 59 26.5q27 19.5 59.5 55q32.5 35.5 75 90.5q42.5 55 104.5 135l-167 252q-28 41 -55 62.5q-27 21.5 -68 22.5l0 28z" />
<glyph unicode="&#89;" horiz-adv-x="712" d="M292 700v-28h-55q-9 0 -15.5 -4.5q-6.5 -4.5 -6.5 -12.5q0 -2 0.5 -8q0.5 -6 5.5 -15l169 -307l76 129q16 27 31 56q15 29 26 55q11 26 18 48q7 22 7 36q0 12 -8 17.5q-8 5.5 -19 5.5h-56v28h226v-28q-25 1 -44 -9q-19 -10 -38.5 -34q-19.5 -24 -42.5 -62q-23 -38 -55 -92l-110 -183v-219q0 -17 4 -26q4 -9 10 -13q6 -4 12.5 -5q6.5 -1 11.5 -1h57v-28h-282v28h57q5 0 11.5 1q6.5 1 12.5 5q6 4 10 13q4 9 4 26v213l-180 327q-5 10 -13.5 20.5q-8.5 10.5 -21 19q-12.5 8.5 -30.5 14q-18 5.5 -43 5.5l0 28z" />
<glyph unicode="&#90;" horiz-adv-x="650" d="M577 700v-28l-401 -644h91q85 0 141.5 9q56.5 9 90.5 22.5q34 13.5 48.5 30.5q14.5 17 16.5 32l2 22h32l-21 -144h-510v28l404 644h-101q-59 0 -103 -7.5q-44 -7.5 -74 -19.5q-30 -12 -46 -27q-16 -15 -17 -30l-3 -32h-32l12 144z" />
<glyph unicode="&#91;" horiz-adv-x="376" d="M316 714v-22h-91q-5 0 -11.5 -1q-6.5 -1 -12.5 -5q-6 -4 -10 -13.5q-4 -9.5 -4 -25.5v-804q0 -17 4 -26q4 -9 10 -13q6 -4 12.5 -5q6.5 -1 11.5 -1h91v-22h-216l0 938z" />
<glyph unicode="&#92;" horiz-adv-x="500" d="M40 700l460 -914h-40l-460 914z" />
<glyph unicode="&#93;" horiz-adv-x="376" d="M276 714v-938h-216v22h91q5 0 11.5 1q6.5 1 12.5 5q6 4 10 13q4 9 4 26v804q0 16 -4 25.5q-4 9.5 -10 13.5q-6 4 -12.5 5q-6.5 1 -11.5 1h-91l0 22z" />
<glyph unicode="&#94;" horiz-adv-x="488" d="M458 400h-45l-169 249l-169 -249h-45l214 314z" />
<glyph unicode="&#95;" horiz-adv-x="580" d="M0 -174h580v-40l-580 0z" />
<glyph unicode="&#96;" horiz-adv-x="370" d="M252 560l-177 132q-10 7 -17.5 15q-7.5 8 -7.5 22q0 19 15 33q13 12 29 12q17 0 26.5 -8.5q9.5 -8.5 16.5 -17.5l133 -170z" />
<glyph unicode="&#97;" horiz-adv-x="468" d="M305 328q0 16 -1.5 37q-1.5 21 -12 40q-10.5 19 -32.5 32.5q-22 13.5 -64 13.5q-34 0 -46 -10q-12 -10 -12 -21q0 -6 2 -16q1 -5 2 -10.5q1 -5.5 1 -10.5q0 -22 -13 -33q-13 -11 -32 -11q-20 0 -31.5 14q-11.5 14 -11.5 34q0 16 8.5 31.5q8.5 15.5 25.5 27.5q17 12 43 19.5q26 7.5 61 7.5q69 0 107.5 -18q38.5 -18 56.5 -42q18 -24 21.5 -48q3.5 -24 3.5 -37v-261q0 -14 4 -26.5q4 -12.5 18 -12.5q12 0 22 11q10 11 15 28l22 -9q-3 -10 -9.5 -22q-6.5 -12 -16.5 -22.5q-10 -10.5 -24.5 -17.5q-14.5 -7 -35.5 -7q-21 0 -34.5 8.5q-13.5 8.5 -22 21q-8.5 12.5 -11.5 28q-3 15.5 -3 29.5q-32 -39 -72.5 -63q-40.5 -24 -94.5 -24q-27 0 -47 8.5q-20 8.5 -33 22.5q-13 14 -19.5 31.5q-6.5 17.5 -6.5 36.5q0 46 25.5 78q25.5 32 65 53.5q39.5 21.5 88 34.5q48.5 13 94.5 22zM305 254q-57 -11 -93 -27q-36 -16 -57 -36q-21 -20 -28.5 -42q-7.5 -22 -7.5 -45q0 -33 15.5 -54.5q15.5 -21.5 46.5 -21.5q35 0 67 24q32 24 57 53z" />
<glyph unicode="&#98;" horiz-adv-x="538" d="M87 -11v710q0 14 -17 17.5q-17 3.5 -46 3.5h-12v22q12 1 48.5 7q36.5 6 102.5 31l0 -349q32 25 67.5 33.5q35.5 8.5 64.5 8.5q54 0 93 -21.5q39 -21.5 64.5 -55q25.5 -33.5 37.5 -75.5q12 -42 12 -83q0 -70 -24.5 -117.5q-24.5 -47.5 -60 -77q-35.5 -29.5 -75.5 -42q-40 -12.5 -71 -12.5q-14 0 -32 2.5q-18 2.5 -36.5 8.5q-18.5 6 -36 15.5q-17.5 9.5 -32.5 23.5l-25 -50zM163 113q0 -26 9.5 -45q9.5 -19 24.5 -32q15 -13 34.5 -19q19.5 -6 40.5 -6q22 0 47 9.5q25 9.5 46.5 35q21.5 25.5 35.5 69q14 43.5 14 112.5q0 54 -11.5 93.5q-11.5 39.5 -32 65.5q-20.5 26 -47.5 38.5q-27 12.5 -57 12.5q-32 0 -56.5 -15q-24.5 -15 -47.5 -38z" />
<glyph unicode="&#99;" horiz-adv-x="460" d="M430 131q-6 -21 -19 -45.5q-13 -24.5 -35 -46q-22 -21.5 -55 -36q-33 -14.5 -78 -14.5q-45 0 -83 16q-38 16 -65.5 46.5q-27.5 30.5 -43 74.5q-15.5 44 -15.5 99q0 48 14.5 92.5q14.5 44.5 43.5 79q29 34.5 72 55.5q43 21 101 21q63 0 101 -24q38 -24 38 -62q0 -25 -14.5 -38.5q-14.5 -13.5 -33.5 -13.5q-14 0 -30 10.5q-16 10.5 -16 33.5q0 11 2.5 21q2.5 10 2.5 16q0 12 -13 23.5q-13 11.5 -42 11.5q-39 0 -65.5 -21q-26.5 -21 -43 -54q-16.5 -33 -23.5 -73q-7 -40 -7 -78q0 -46 10.5 -83.5q10.5 -37.5 29.5 -64q19 -26.5 46.5 -41q27.5 -14.5 60.5 -14.5q31 0 55 11q24 11 41 28q17 17 28 37q11 20 16 38z" />
<glyph unicode="&#100;" horiz-adv-x="558" d="M398 0l-15 43q-33 -26 -63.5 -40q-30.5 -14 -71.5 -14q-47 0 -86 17q-39 17 -67 48.5q-28 31.5 -43.5 75q-15.5 43.5 -15.5 96.5q0 57 18.5 102.5q18.5 45.5 50 78q31.5 32.5 74 49.5q42.5 17 89.5 17q40 0 69.5 -8q29.5 -8 37.5 -11l0 245q0 14 -17 17.5q-17 3.5 -46 3.5h-12v22q12 1 48.5 7q36.5 6 102.5 31l0 -669q0 -18 1.5 -34q1.5 -16 6 -28q4.5 -12 14 -19.5q9.5 -7.5 26.5 -7.5h27v-22zM375 394q-9 21 -24.5 32.5q-15.5 11.5 -31 17q-15.5 5.5 -28 6.5q-12.5 1 -15.5 1q-35 0 -63 -16q-28 -16 -48 -45.5q-20 -29.5 -31 -71q-11 -41.5 -11 -91.5q0 -99 39.5 -154q39.5 -55 99.5 -55q32 0 62.5 15q30.5 15 50.5 42z" />
<glyph unicode="&#101;" horiz-adv-x="457" d="M124 264q-1 -9 -1 -18.5q0 -9.5 0 -18.5q0 -65 14 -104.5q14 -39.5 35.5 -61.5q21.5 -22 46.5 -29q25 -7 47 -7q37 0 74 20q37 20 65 73l18 -10q-32 -60 -73 -89.5q-41 -29.5 -103 -29.5q-47 0 -86 17q-39 17 -66.5 47.5q-27.5 30.5 -43 73.5q-15.5 43 -15.5 95q0 46 12.5 91q12.5 45 38 80.5q25.5 35.5 65.5 57.5q40 22 95 22q46 0 80.5 -18q34.5 -18 57 -47.5q22.5 -29.5 33 -67q10.5 -37.5 9.5 -76.5zM345 286v14q0 46 -9.5 75.5q-9.5 29.5 -24.5 46.5q-15 17 -32.5 23q-17.5 6 -33.5 6q-10 0 -28.5 -4q-18.5 -4 -37.5 -20.5q-19 -16.5 -34.5 -49.5q-15.5 -33 -20.5 -91z" />
<glyph unicode="&#102;" horiz-adv-x="303" d="M32 429v33h75v15q0 61 14 114q14 53 38 93q24 40 56.5 63q32.5 23 68.5 23q32 0 50.5 -16.5q18.5 -16.5 18.5 -39.5q0 -20 -11.5 -32.5q-11.5 -12.5 -29.5 -12.5q-20 0 -33.5 12q-13.5 12 -13.5 33q0 6 -1.5 15.5q-1.5 9.5 -16.5 9.5q-25 0 -38 -27q-13 -27 -19 -64q-6 -37 -6.5 -77q-0.5 -40 -0.5 -65v-44h118v-33h-118v-383q0 -16 9.5 -20q9.5 -4 26.5 -4h39v-22h-226v22h39q17 0 26.5 4q9.5 4 9.5 20l0 383z" />
<glyph unicode="&#103;" horiz-adv-x="508" d="M163 203q-25 3 -46 14.5q-21 11.5 -36 28.5q-15 17 -23.5 37.5q-8.5 20.5 -8.5 43.5q0 24 11 50q11 26 35 47.5q24 21.5 62 35q38 13.5 92 13.5q33 0 56 -6q23 -6 40 -13q4 9 11.5 21.5q7.5 12.5 18.5 23q11 10.5 25.5 18q14.5 7.5 34.5 7.5q26 0 37.5 -12.5q11.5 -12.5 11.5 -26.5q0 -13 -9 -24q-9 -11 -23 -11q-9 0 -18 2.5q-9 2.5 -15 9.5q-5 5 -10 10.5q-5 5.5 -16 5.5q-11 0 -19.5 -9.5q-8.5 -9.5 -12.5 -20.5q40 -22 62 -51.5q22 -29.5 22 -69.5q0 -27 -12 -52.5q-12 -25.5 -36.5 -46q-24.5 -20.5 -63 -32.5q-38.5 -12 -91.5 -12q-14 0 -26.5 1q-12.5 1 -26.5 1q-18 0 -29 -4q-11 -4 -17 -10.5q-6 -6.5 -8 -13.5q-2 -7 -2 -13q0 -11 8 -19q8 -8 20.5 -13.5q12.5 -5.5 28.5 -9q16 -3.5 32 -5.5l118 -18q48 -7 78 -22.5q30 -15.5 47 -35q17 -19.5 23 -42q6 -22.5 6 -43.5q0 -22 -10 -50q-10 -28 -37 -52.5q-27 -24.5 -75.5 -41.5q-48.5 -17 -126.5 -17q-51 0 -93.5 11q-42.5 11 -73 31q-30.5 20 -47.5 48q-17 28 -17 62q0 27 10.5 48.5q10.5 21.5 27.5 36q17 14.5 40 23q23 8.5 47 10.5l0 6q-35 7 -54 28.5q-19 21.5 -19 43.5q0 13 7.5 25.5q7.5 12.5 20.5 23q13 10.5 30.5 17.5q17.5 7 38.5 9zM246 451q-29 0 -49.5 -10.5q-20.5 -10.5 -34 -27.5q-13.5 -17 -20 -38.5q-6.5 -21.5 -6.5 -43.5q0 -18 4.5 -40q4.5 -22 16.5 -40.5q12 -18.5 33 -31.5q21 -13 54 -13q31 0 52.5 10.5q21.5 10.5 35 28q13.5 17.5 20 40q6.5 22.5 6.5 46.5q0 53 -30 86.5q-30 33.5 -82 33.5zt0 0zM180 31q-23 -3 -41 -13.5q-18 -10.5 -30 -25.5q-12 -15 -18.5 -33.5q-6.5 -18.5 -6.5 -37.5q0 -61 44.5 -92q44.5 -31 116.5 -31q91 0 139.5 34.5q48.5 34.5 48.5 83.5q0 28 -13.5 45.5q-13.5 17.5 -32 27.5q-18.5 10 -38.5 14.5q-20 4.5 -33 6.5z" />
<glyph unicode="&#104;" horiz-adv-x="560" d="M32 0v22h39q17 0 26.5 4q9.5 4 9.5 20v653q0 14 -17 17.5q-17 3.5 -46 3.5h-12v22q44 5 77 14q33 9 74 24l0 -358q35 25 69 38q34 13 71 13q53 0 81.5 -23.5q28.5 -23.5 41.5 -54q13 -30.5 15 -58.5q2 -28 2 -37v-254q0 -16 9.5 -20q9.5 -4 26.5 -4h39v-22h-226v22h39q17 0 26.5 4q9.5 4 9.5 20v263q0 36 -8 61q-8 25 -22 40q-14 15 -32.5 22q-18.5 7 -39.5 7q-29 0 -56.5 -15.5q-27.5 -15.5 -45.5 -35.5l0 -342q0 -16 9.5 -20q9.5 -4 26.5 -4h39l0 -22z" />
<glyph unicode="&#105;" horiz-adv-x="290" d="M32 0v22h39q17 0 26.5 4q9.5 4 9.5 20v355q0 14 -17 17.5q-17 3.5 -46 3.5h-12v22q12 1 48.5 7q36.5 6 102.5 31l0 -436q0 -16 9.5 -20q9.5 -4 26.5 -4h39v-22zM94 650q0 22 14 36q14 14 36 14q22 0 36 -14q14 -14 14 -36q0 -22 -14 -36q-14 -14 -36 -14q-22 0 -36 14t-14 36z" />
<glyph unicode="&#106;" horiz-adv-x="283" d="M107 401q0 14 -17 17.5q-17 3.5 -46 3.5h-12v22q12 1 48.5 7q36.5 6 102.5 31l0 -481q0 -54 -15.5 -95.5q-15.5 -41.5 -40 -70.5q-24.5 -29 -56 -44q-31.5 -15 -63.5 -15q-36 0 -56 21.5q-20 21.5 -20 47.5q0 20 13.5 32q13.5 12 27.5 12q20 0 32.5 -12.5q12.5 -12.5 12.5 -36.5q0 -4 -1 -7q-1 -3 -1 -7q0 -10 4.5 -17q4.5 -7 15.5 -7q14 0 27 7q13 7 22.5 25q9.5 18 15.5 47.5q6 29.5 6 74.5zM95 650q0 22 14 36q14 14 36 14q22 0 36 -14q14 -14 14 -36q0 -22 -14 -36q-14 -14 -36 -14q-22 0 -36 14t-14 36z" />
<glyph unicode="&#107;" horiz-adv-x="540" d="M22 0v22h39q17 0 26.5 4q9.5 4 9.5 20v653q0 14 -17 17.5q-17 3.5 -46 3.5h-12v22q12 1 48.5 7q36.5 6 102.5 31l0 -593q59 67 92.5 109q33.5 42 50.5 66.5q17 24.5 21.5 36q4.5 11.5 4.5 18.5q0 16 -13 19.5q-13 3.5 -28 3.5h-20v22h202v-22h-21q-14 0 -24 -5q-10 -5 -27.5 -22q-17.5 -17 -47.5 -49q-30 -32 -82 -86l170 -220q21 -27 34.5 -31.5q13.5 -4.5 29.5 -4.5h13v-22h-226v22h35q20 0 28 10q8 10 -4 26l-124 165l-64 -71v-106q0 -16 9.5 -20q9.5 -4 26.5 -4h39l0 -22z" />
<glyph unicode="&#108;" horiz-adv-x="290" d="M32 0v22h39q17 0 26.5 4q9.5 4 9.5 20v653q0 14 -17 17.5q-17 3.5 -46 3.5h-12v22q12 1 48.5 7q36.5 6 102.5 31l0 -734q0 -16 9.5 -20q9.5 -4 26.5 -4h39l0 -22z" />
<glyph unicode="&#109;" horiz-adv-x="806" d="M32 0v22h39q17 0 26.5 4q9.5 4 9.5 20v355q0 14 -17 17.5q-17 3.5 -46 3.5h-12v22q12 1 48.5 7q36.5 6 102.5 31l0 -58q35 25 64.5 37q29.5 12 60.5 12q37 0 67 -13.5q30 -13.5 48 -42.5q42 33 77 44.5q35 11.5 64 11.5q27 0 53 -9.5q26 -9.5 46.5 -29q20.5 -19.5 33 -48.5q12.5 -29 12.5 -68v-272q0 -16 9.5 -20q9.5 -4 26.5 -4h39v-22h-215v22h28q17 0 26.5 4q9.5 4 9.5 20v269q0 35 -9 59q-9 24 -23 39q-14 15 -32 22q-18 7 -37 7q-19 0 -42.5 -9q-23.5 -9 -55.5 -39q7 -19 9.5 -36q2.5 -17 2.5 -38v-274q0 -16 9.5 -20q9.5 -4 26.5 -4h28v-22h-205v22h29q17 0 26.5 4q9.5 4 9.5 20v274q0 24 -5 46q-5 22 -15.5 39q-10.5 17 -27.5 27q-17 10 -41 10q-28 0 -53.5 -14q-25.5 -14 -44.5 -34l0 -348q0 -16 9.5 -20q9.5 -4 26.5 -4h28l0 -22z" />
<glyph unicode="&#110;" horiz-adv-x="560" d="M32 0v22h39q17 0 26.5 4q9.5 4 9.5 20v355q0 14 -17 17.5q-17 3.5 -46 3.5h-12v22q44 5 77 14q33 9 74 24l0 -60q35 25 69 38q34 13 71 13q53 0 81.5 -23.5q28.5 -23.5 41.5 -54q13 -30.5 15 -58.5q2 -28 2 -37v-254q0 -16 9.5 -20q9.5 -4 26.5 -4h39v-22h-226v22h39q17 0 26.5 4q9.5 4 9.5 20v263q0 36 -8 61q-8 25 -22 40q-14 15 -32.5 22q-18.5 7 -39.5 7q-29 0 -56.5 -15.5q-27.5 -15.5 -45.5 -35.5l0 -342q0 -16 9.5 -20q9.5 -4 26.5 -4h39l0 -22z" />
<glyph unicode="&#111;" horiz-adv-x="520" d="M36 231q0 45 13 88q13 43 40 77.5q27 34.5 69.5 55.5q42.5 21 101.5 21q59 0 101.5 -21q42.5 -21 69.5 -55.5q27 -34.5 40 -77.5q13 -43 13 -88q0 -45 -13 -88q-13 -43 -40 -77.5q-27 -34.5 -69.5 -55.5q-42.5 -21 -101.5 -21q-59 0 -101.5 21q-42.5 21 -69.5 55.5q-27 34.5 -40 77.5q-13 43 -13 88zt0 0zM123 231q0 -72 14.5 -115.5q14.5 -43.5 35.5 -66.5q21 -23 45 -30.5q24 -7.5 42 -7.5q18 0 42 7.5q24 7.5 45 30.5q21 23 35.5 66.5q14.5 43.5 14.5 115.5q0 72 -14.5 115.5q-14.5 43.5 -35.5 66.5q-21 23 -45 30.5q-24 7.5 -42 7.5q-18 0 -42 -7.5q-24 -7.5 -45 -30.5q-21 -23 -35.5 -66.5t-14.5 -115.5z" />
<glyph unicode="&#112;" horiz-adv-x="538" d="M22 -214v22h39q17 0 26.5 4q9.5 4 9.5 20v569q0 14 -17 17.5q-17 3.5 -46 3.5h-12v22q12 1 48.5 7q36.5 6 102.5 31l0 -56q23 17 54 32q31 15 70 15q45 0 82.5 -17.5q37.5 -17.5 65 -49q27.5 -31.5 42.5 -76q15 -44.5 15 -98.5q0 -51 -15.5 -95.5q-15.5 -44.5 -43 -77.5q-27.5 -33 -66.5 -51.5q-39 -18.5 -86 -18.5q-48 0 -75.5 9q-27.5 9 -42.5 20l0 -186q0 -16 9.5 -20q9.5 -4 26.5 -4h39v-22zM173 81q0 -8 5.5 -20q5.5 -12 18.5 -23q13 -11 33.5 -19q20.5 -8 49.5 -8q28 0 53 15q25 15 43 43.5q18 28.5 28.5 69q10.5 40.5 10.5 91.5q0 38 -7 75.5q-7 37.5 -24 67q-17 29.5 -44.5 48q-27.5 18.5 -69.5 18.5q-26 0 -51.5 -8.5q-25.5 -8.5 -45.5 -30.5z" />
<glyph unicode="&#113;" horiz-adv-x="528" d="M290 -214v22h39q17 0 26.5 4q9.5 4 9.5 20v203q-29 -22 -64 -34q-35 -12 -72 -12q-35 0 -69 15q-34 15 -62 45q-28 30 -45 75.5q-17 45.5 -17 106.5q0 52 16.5 96q16.5 44 45.5 76.5q29 32.5 70 51q41 18.5 89 18.5q43 0 75 -11q32 -11 61 -37l27 48h21v-641q0 -16 9.5 -20q9.5 -4 26.5 -4h39v-22zM365 368q0 15 -7 30q-7 15 -20.5 26.5q-13.5 11.5 -33.5 19q-20 7.5 -47 7.5q-32 0 -57 -17q-25 -17 -42 -47q-17 -30 -26 -71q-9 -41 -9 -88q0 -57 12 -97q12 -40 31 -65q19 -25 43 -36.5q24 -11.5 49 -11.5q26 0 55.5 13.5q29.5 13.5 51.5 37.5z" />
<glyph unicode="&#114;" horiz-adv-x="389" d="M32 0v22h39q17 0 26.5 4q9.5 4 9.5 20v355q0 14 -17 17.5q-17 3.5 -46 3.5h-12v22q12 1 48.5 7q36.5 6 102.5 31l0 -105q7 17 17.5 34q10.5 17 24.5 31q14 14 32 22.5q18 8.5 40 8.5q33 0 56.5 -15.5q23.5 -15.5 23.5 -44.5q0 -18 -10.5 -34.5q-10.5 -16.5 -31.5 -16.5q-21 0 -31.5 14q-10.5 14 -11.5 27q0 4 -0.5 9q-0.5 5 -3 10q-2.5 5 -7.5 8.5q-5 3.5 -15 3.5q-15 0 -29.5 -13.5q-14.5 -13.5 -26.5 -35q-12 -21.5 -19.5 -47.5q-7.5 -26 -7.5 -50v-242q0 -16 9.5 -20q9.5 -4 26.5 -4h39l0 -22z" />
<glyph unicode="&#115;" horiz-adv-x="390" d="M327 462l4 -125h-25v16q0 16 -10.5 33q-10.5 17 -29 31.5q-18.5 14.5 -42.5 24q-24 9.5 -51 9.5q-21 0 -35.5 -7q-14.5 -7 -23 -18q-8.5 -11 -12 -23.5q-3.5 -12.5 -3.5 -24.5q0 -18 10.5 -32q10.5 -14 27 -25q16.5 -11 37 -20q20.5 -9 41.5 -19q22 -11 46.5 -24.5q24.5 -13.5 45 -32q20.5 -18.5 34 -43q13.5 -24.5 13.5 -56.5q0 -20 -8.5 -44q-8.5 -24 -27.5 -44.5q-19 -20.5 -49 -34.5q-30 -14 -73 -14q-39 0 -73 11q-34 11 -57 22l0 -22h-25l-5 131h25q1 -26 14 -48q13 -22 33 -38q20 -16 44 -25q24 -9 48 -9q44 0 66.5 26.5q22.5 26.5 22.5 61.5q0 24 -11.5 41.5q-11.5 17.5 -31 31q-19.5 13.5 -45.5 26q-26 12.5 -54 27.5q-50 26 -77 53.5q-27 27.5 -27 71.5q0 55 39 89q39 34 106 34q20 0 51 -5.5q31 -5.5 63 -23.5l0 18z" />
<glyph unicode="&#116;" horiz-adv-x="379" d="M17 437v25q18 1 40 7q22 6 41.5 22.5q19.5 16.5 32.5 45q13 28.5 13 74.5v11h24v-160q26 0 44.5 0.5q18.5 0.5 35 2q16.5 1.5 34.5 4.5q18 3 44 8l0 -40h-158v-321q0 -28 7.5 -46q7.5 -18 19 -28q11.5 -10 24.5 -13.5q13 -3.5 24 -3.5q17 0 32 8q15 8 27.5 21q12.5 13 21 29.5q8.5 16.5 11.5 34.5l22 -9q-12 -39 -28.5 -62.5q-16.5 -23.5 -34.5 -36q-18 -12.5 -37 -17q-19 -4.5 -36 -4.5q-63 0 -96 40.5q-33 40.5 -33 104.5l0 303z" />
<glyph unicode="&#117;" horiz-adv-x="557" d="M374 0v63q-28 -25 -51 -40q-23 -15 -42.5 -22.5q-19.5 -7.5 -36.5 -9.5q-17 -2 -33 -2q-11 0 -30 3.5q-19 3.5 -38 18q-19 14.5 -32.5 44q-13.5 29.5 -13.5 81.5v265q0 14 -17 17.5q-17 3.5 -46 3.5h-12v22q12 1 48.5 7q36.5 6 102.5 31l0 -346q0 -51 17 -80q17 -29 62 -29q16 0 33.5 6q17.5 6 34 15q16.5 9 30.5 20.5q14 11.5 24 22.5l0 310q0 14 -17 17.5q-17 3.5 -46 3.5h-12v22q12 1 48.5 7q36.5 6 102.5 31l0 -436q0 -16 9.5 -20q9.5 -4 26.5 -4h39l0 -22z" />
<glyph unicode="&#118;" horiz-adv-x="526" d="M229 462v-22h-35q-7 0 -14.5 -2q-7.5 -2 -12.5 -6.5q-5 -4.5 -6.5 -12.5q-1.5 -8 3.5 -20l125 -301l63 160q4 10 12 31.5q8 21.5 16 45q8 23.5 14 44.5q6 21 6 30q0 20 -13 25.5q-13 5.5 -35 5.5h-22v22h184v-22h-23q-11 0 -21.5 -8.5q-10.5 -8.5 -23.5 -29.5q-13 -21 -29 -56q-16 -35 -37 -88l-108 -269h-18l-170 410q-10 24 -21.5 32.5q-11.5 8.5 -24.5 8.5h-26l0 22z" />
<glyph unicode="&#119;" horiz-adv-x="749" d="M198 462v-22h-8q-17 0 -26 -3q-9 -3 -12 -8q-3 -5 -1.5 -11q1.5 -6 3.5 -12l121 -310l87 227l-30 83q-13 34 -51 34h-11v22h186v-22h-20q-16 0 -23 -3.5q-7 -3.5 -8.5 -8.5q-1.5 -5 0.5 -11q2 -6 4 -11l115 -310l65 167q19 48 29 77q10 29 14.5 45q4.5 16 5.5 22.5q1 6.5 1 8.5q0 16 -8 20q-8 4 -25 4h-31v22h162v-22h-17q-15 0 -29 -15q-14 -15 -27.5 -41.5q-13.5 -26.5 -27.5 -62.5q-14 -36 -30 -78l-97 -254h-20l-114 304l-112 -304h-25l-162 417q-8 23 -22 28.5q-14 5.5 -25 5.5h-17l0 22z" />
<glyph unicode="&#120;" horiz-adv-x="516" d="M112 391q-10 14 -30 31q-20 17 -60 18l0 22h214v-22h-34q-6 0 -14 -0.5q-8 -0.5 -8 -10.5q0 -5 2.5 -10.5q2.5 -5.5 4.5 -9.5l87 -130l59 82q14 19 21 33q7 14 7 28q0 11 -6 14.5q-6 3.5 -14 3.5h-37v22h180v-22h-18q-29 0 -53.5 -25.5q-24.5 -25.5 -49.5 -57.5l-75 -97l136 -198q13 -18 33 -29q20 -11 45 -11l0 -22h-228v22h42q15 0 21 5.5q6 5.5 6 11.5q0 4 -1 9.5q-1 5.5 -6 13.5l-93 141l-66 -88q-24 -32 -28.5 -46.5q-4.5 -14.5 -4.5 -21.5q0 -10 4.5 -15q4.5 -5 11.5 -7.5q7 -2.5 15 -2.5q8 0 14 0h22v-22h-189v22h12q12 0 27.5 11q15.5 11 32.5 28q17 17 34 36.5q17 19.5 31 37.5l69 88z" />
<glyph unicode="&#121;" horiz-adv-x="528" d="M514 440h-15q-17 0 -29 -13q-12 -13 -23 -37q-11 -24 -23.5 -58q-12.5 -34 -29.5 -77l-133 -336q-9 -22 -21.5 -47q-12.5 -25 -31 -46.5q-18.5 -21.5 -43.5 -35.5q-25 -14 -57 -14q-36 0 -58.5 19.5q-22.5 19.5 -22.5 46.5q0 18 10.5 32.5q10.5 14.5 32.5 14.5q14 0 23 -5q9 -5 14 -11q5 -6 7 -12q2 -6 2 -9q1 -6 1.5 -13q0.5 -7 3 -13q2.5 -6 7 -10q4.5 -4 13.5 -4q21 0 47 28.5q26 28.5 49 86.5l25 65l-174 412q-5 11 -16 23.5q-11 12.5 -38 12.5h-20v22h206v-22h-34q-14 0 -19.5 -5q-5.5 -5 -6 -11q-0.5 -6 1 -12q1.5 -6 2.5 -8l135 -321l42 116q20 55 31.5 92q11.5 37 17.5 61q6 24 8 36.5q2 12.5 2 20.5q0 4 -1 9q-1 5 -4 10q-3 5 -9 8.5q-6 3.5 -17 3.5h-27v22l172 0z" />
<glyph unicode="&#122;" horiz-adv-x="421" d="M387 462v-22l-280 -418h48q32 0 68 2.5q36 2.5 66 10q30 7.5 50.5 22q20.5 14.5 22.5 38.5l2 28h25l-9 -123h-358v22l273 418h-34q-98 0 -143.5 -23.5q-45.5 -23.5 -46.5 -53.5l-1 -24h-25l7 123z" />
<glyph unicode="&#123;" horiz-adv-x="351" d="M295 686q-24 -4 -39 -16.5q-15 -12.5 -23 -29.5q-8 -17 -10.5 -36q-2.5 -19 -2.5 -34q0 -31 2.5 -65q2.5 -34 2.5 -54q0 -34 -7 -66q-7 -32 -21.5 -59q-14.5 -27 -37 -48q-22.5 -21 -52.5 -33q30 -12 52.5 -33q22.5 -21 37 -48q14.5 -27 21.5 -59q7 -32 7 -66q0 -20 -2.5 -54q-2.5 -34 -2.5 -65q0 -15 2.5 -34q2.5 -19 10.5 -36q8 -17 23 -29.5q15 -12.5 39 -16.5l0 -28q-24 2 -50.5 12q-26.5 10 -48 32.5q-21.5 22.5 -36 60.5q-14.5 38 -14.5 95q0 18 1.5 36.5q1.5 18.5 1.5 36.5q0 57 -9 92q-9 35 -23 54.5q-14 19.5 -30.5 26.5q-16.5 7 -30.5 8l0 30q14 1 30.5 8q16.5 7 30.5 26.5q14 19.5 23 54.5q9 35 9 92q0 18 -1.5 36.5q-1.5 18.5 -1.5 36.5q0 57 14.5 95q14.5 38 36 60.5q21.5 22.5 48 32.5q26.5 10 50.5 12z" />
<glyph unicode="&#124;" horiz-adv-x="152" d="M56 829h40v-1053l-40 0z" />
<glyph unicode="&#125;" horiz-adv-x="351" d="M56 -196q24 4 39 16.5q15 12.5 23 29.5q8 17 10.5 36q2.5 19 2.5 34q0 31 -2.5 65q-2.5 34 -2.5 54q0 34 7 66q7 32 21.5 59q14.5 27 37 48q22.5 21 52.5 33q-30 12 -52.5 33q-22.5 21 -37 48q-14.5 27 -21.5 59q-7 32 -7 66q0 20 2.5 54q2.5 34 2.5 65q0 15 -2.5 34q-2.5 19 -10.5 36q-8 17 -23 29.5q-15 12.5 -39 16.5l0 28q24 -2 50.5 -12q26.5 -10 48 -32.5q21.5 -22.5 36 -60.5q14.5 -38 14.5 -95q0 -18 -1.5 -36.5q-1.5 -18.5 -1.5 -36.5q0 -57 9 -92q9 -35 23 -54.5q14 -19.5 30.5 -26.5q16.5 -7 30.5 -8l0 -30q-14 -1 -30.5 -8q-16.5 -7 -30.5 -26.5q-14 -19.5 -23 -54.5q-9 -35 -9 -92q0 -18 1.5 -36.5q1.5 -18.5 1.5 -36.5q0 -57 -14.5 -95q-14.5 -38 -36 -60.5q-21.5 -22.5 -48 -32.5q-26.5 -10 -50.5 -12z" />
<glyph unicode="&#126;" horiz-adv-x="542" d="M60 254q7 26 22 46.5q15 20.5 34 35q19 14.5 40 22q21 7.5 42 7.5q26 0 49 -7.5q23 -7.5 46 -15.5q45 -17 65 -20q20 -3 30 -3q26 0 41.5 16q15.5 16 22.5 30l30 0q-15 -33 -30 -54.5q-15 -21.5 -30 -34q-15 -12.5 -31 -17.5q-16 -5 -33 -5q-30 0 -52.5 6.5q-22.5 6.5 -42.5 13.5q-44 16 -64.5 21q-20.5 5 -32.5 5q-25 0 -46.5 -13.5q-21.5 -13.5 -29.5 -32.5z" />
<glyph unicode="&#160;" horiz-adv-x="233" />
<glyph unicode="&#161;" horiz-adv-x="310" d="M169 350l5 -136q3 -74 9 -134.5q6 -60.5 12 -108.5q6 -48 10.5 -84.5q4.5 -36.5 4.5 -61.5q0 -17 -6.5 -26.5q-6.5 -9.5 -15.5 -14.5q-9 -5 -18 -6.5q-9 -1.5 -15 -1.5q-6 0 -15 1.5q-9 1.5 -18 6.5q-9 5 -15.5 14.5q-6.5 9.5 -6.5 26.5q0 25 4.5 61.5q4.5 36.5 10.5 84.5q6 48 12 108.5q6 60.5 9 134.5l5 136zM101 451q0 23 15.5 38.5q15.5 15.5 38.5 15.5q23 0 38.5 -15.5q15.5 -15.5 15.5 -38.5q0 -23 -15.5 -38.5q-15.5 -15.5 -38.5 -15.5q-23 0 -38.5 15.5t-15.5 38.5z" />
<glyph unicode="&#162;" horiz-adv-x="526" d="M273 -61v50q-40 2 -76.5 17q-36.5 15 -64 44.5q-27.5 29.5 -44 73q-16.5 43.5 -16.5 101.5q0 49 14 92q14 43 40.5 75.5q26.5 32.5 63.5 53q37 20.5 83 25.5l0 51h28v-49q26 1 51 -4q25 -5 45 -16q20 -11 32.5 -27.5q12.5 -16.5 12.5 -38.5q0 -25 -14.5 -38.5q-14.5 -13.5 -33.5 -13.5q-14 0 -30 10.5q-16 10.5 -16 33.5q0 11 2.5 21q2.5 10 2.5 16q0 12 -14 24.5q-14 12.5 -38 10.5l0 -429q39 0 65.5 13.5q26.5 13.5 43 32q16.5 18.5 25 38q8.5 19.5 11.5 30.5l20 -5q-8 -26 -21.5 -50.5q-13.5 -24.5 -34 -44q-20.5 -19.5 -48 -32.5q-27.5 -13 -61.5 -14l0 -51zM273 448q-32 -7 -54 -30.5q-22 -23.5 -35.5 -55.5q-13.5 -32 -19 -68q-5.5 -36 -5.5 -69q0 -33 6.5 -65q6.5 -32 20.5 -59.5q14 -27.5 35.5 -47q21.5 -19.5 51.5 -26.5z" />
<glyph unicode="&#163;" horiz-adv-x="526" d="M74 366q-8 28 -13.5 65q-5.5 37 -5.5 68q0 47 16 86.5q16 39.5 45.5 68q29.5 28.5 71.5 44.5q42 16 93 16q46 0 81.5 -12q35.5 -12 58.5 -31q23 -19 35 -43q12 -24 12 -49q0 -37 -16 -53.5q-16 -16.5 -35 -16.5q-21 0 -38.5 14.5q-17.5 14.5 -17.5 42.5q0 8 2 14.5q2 6.5 5 13.5q3 7 7 13.5q4 6.5 4 13.5q0 10 -5.5 21.5q-5.5 11.5 -17.5 21q-12 9.5 -31 16q-19 6.5 -46 6.5q-37 0 -63 -11q-26 -11 -43 -29q-17 -18 -25 -41.5q-8 -23.5 -8 -47.5q0 -22 5 -43.5q5 -21.5 12 -44q7 -22.5 14.5 -48q7.5 -25.5 11.5 -55.5l109 0v-28h-105q2 -10 2 -19q0 -9 0 -19q0 -22 -4.5 -50.5q-4.5 -28.5 -17 -59.5q-12.5 -31 -34 -64q-21.5 -33 -54.5 -64l9 -9q26 20 67 39q41 19 89 19q23 0 40.5 -4.5q17.5 -4.5 37.5 -14.5q14 -7 32.5 -15.5q18.5 -8.5 37.5 -8.5q15 0 30 6q15 6 27.5 17.5q12.5 11.5 20.5 28.5q8 17 8 38l28 0q-2 -24 -9 -54q-7 -30 -23.5 -56q-16.5 -26 -43.5 -44q-27 -18 -68 -18q-36 0 -59 9q-23 9 -48 21q-24 11 -43.5 16.5q-19.5 5.5 -45.5 5.5q-31 0 -67.5 -10.5q-36.5 -10.5 -78.5 -41.5l-22 33q30 25 48.5 55.5q18.5 30.5 28.5 62q10 31.5 13 61.5q3 30 3 53q0 41 -11 87l-98 0l0 28z" />
<glyph unicode="&#164;" horiz-adv-x="526" d="M481 540l-66 -66q20 -26 32 -58q12 -32 12 -66q0 -34 -12 -66q-12 -32 -32 -58l66 -66l-28 -28l-66 66q-26 -20 -58 -32q-32 -12 -66 -12q-34 0 -66 12q-32 12 -58 32l-66 -66l-28 28l66 66q-20 26 -32 58q-12 32 -12 66q0 34 12 66q12 32 32 58l-66 66l28 28l66 -66q26 20 58 32q32 12 66 12q34 0 66 -12q32 -12 58 -32l66 66zM107 350q0 -32 12.5 -60.5q12.5 -28.5 33.5 -49.5q21 -21 49.5 -33.5q28.5 -12.5 60.5 -12.5q32 0 60.5 12.5q28.5 12.5 49.5 33.5q21 21 33.5 49.5q12.5 28.5 12.5 60.5q0 32 -12.5 60.5q-12.5 28.5 -33.5 49.5q-21 21 -49.5 33.5q-28.5 12.5 -60.5 12.5q-32 0 -60.5 -12.5q-28.5 -12.5 -49.5 -33.5q-21 -21 -33.5 -49.5t-12.5 -60.5z" />
<glyph unicode="&#165;" horiz-adv-x="526" d="M352 496q4 9 12 30.5q8 21.5 16 45.5q8 24 14 45q6 21 6 30q0 20 -13 25.5q-13 5.5 -35 5.5h-22v22h184v-22h-19q-16 0 -30 -13.5q-14 -13.5 -27.5 -37.5q-13.5 -24 -27.5 -57.5q-14 -33.5 -30 -73.5l-71 -177h132v-22h-140v-58h140v-22h-140v-171q0 -6 3.5 -15q3.5 -9 19.5 -9h52v-22h-226v22h52q16 0 19.5 9q3.5 9 3.5 15v171h-140v22h140v58h-140v22h131l-132 318q-10 24 -21.5 32.5q-11.5 8.5 -24.5 8.5h-26v22h217v-22h-35q-7 0 -14.5 -2q-7.5 -2 -12.5 -6.5q-5 -4.5 -6.5 -12.5q-1.5 -8 3.5 -20l121 -301z" />
<glyph unicode="&#166;" horiz-adv-x="152" d="M56 829h40v-400h-40zM56 176h40v-400l-40 0z" />
<glyph unicode="&#167;" horiz-adv-x="539" d="M395 389q17 -13 33 -28.5q16 -15.5 28 -33.5q12 -18 19.5 -40q7.5 -22 7.5 -49q0 -52 -29.5 -94.5q-29.5 -42.5 -78.5 -80.5q32 -30 39.5 -60.5q7.5 -30.5 7.5 -46.5q0 -24 -9 -51.5q-9 -27.5 -28 -50.5q-19 -23 -47 -38.5q-28 -15.5 -66 -15.5q-32 0 -60 9q-28 9 -48.5 24q-20.5 15 -32 35q-11.5 20 -11.5 43q0 15 5 25q5 10 12 16.5q7 6.5 15.5 9q8.5 2.5 15.5 2.5q23 0 37 -13.5q14 -13.5 14 -29.5q0 -9 -1 -18q-1 -9 -1 -19q0 -56 55 -56q23 0 39 9.5q16 9.5 26.5 23.5q10.5 14 15.5 31q5 17 5 32q0 37 -16 57.5q-16 20.5 -32 33.5l-171 133q-25 19 -41 39.5q-16 20.5 -25.5 40.5q-9.5 20 -13 38.5q-3.5 18.5 -3.5 34.5q0 22 8 45.5q8 23.5 22 46q14 22.5 32.5 42.5q18.5 20 39.5 35q-13 17 -19.5 33q-6.5 16 -9.5 29q-3 13 -3.5 22q-0.5 9 -0.5 12q0 22 9.5 47.5q9.5 25.5 30.5 48q21 22.5 53.5 37.5q32.5 15 77.5 15q25 0 49.5 -6q24.5 -6 43 -17.5q18.5 -11.5 30 -27q11.5 -15.5 11.5 -34.5q0 -26 -14.5 -39q-14.5 -13 -33.5 -13q-12 0 -27 9.5q-15 9.5 -20 35.5q-2 10 -2.5 21q-0.5 11 -5 20.5q-4.5 9.5 -16 16q-11.5 6.5 -34.5 6.5q-22 0 -38.5 -7.5q-16.5 -7.5 -27.5 -19q-11 -11.5 -16.5 -24.5q-5.5 -13 -5.5 -24q0 -22 7 -40.5q7 -18.5 17 -33q10 -14.5 20 -24.5q10 -10 15 -14zM176 453q-33 -23 -49.5 -55q-16.5 -32 -16.5 -66q0 -40 23.5 -68.5q23.5 -28.5 58.5 -54.5l166 -128q30 20 47 50q17 30 17 58q0 25 -7 45.5q-7 20.5 -17.5 37q-10.5 16.5 -23.5 29q-13 12.5 -25 21.5z" />
<glyph unicode="&#168;" horiz-adv-x="360" d="M50 650q0 22 14 36q14 14 36 14q22 0 36 -14q14 -14 14 -36q0 -22 -14 -36q-14 -14 -36 -14q-22 0 -36 14q-14 14 -14 36zt0 0zM210 650q0 22 14 36q14 14 36 14q22 0 36 -14q14 -14 14 -36q0 -22 -14 -36q-14 -14 -36 -14q-22 0 -36 14t-14 36z" />
<glyph unicode="&#169;" horiz-adv-x="800" d="M36 350q0 75 28.5 141q28.5 66 78 115.5q49.5 49.5 116 78.5q66.5 29 141.5 29q75 0 141 -29q66 -29 115.5 -78.5q49.5 -49.5 78.5 -115.5q29 -66 29 -141q0 -75 -29 -141.5q-29 -66.5 -78.5 -116q-49.5 -49.5 -115.5 -78q-66 -28.5 -141 -28.5q-75 0 -141.5 28.5q-66.5 28.5 -116 78q-49.5 49.5 -78 116q-28.5 66.5 -28.5 141.5zt0 0zM76 350q0 -68 25.5 -127q25.5 -59 69 -102.5q43.5 -43.5 102.5 -69q59 -25.5 127 -25.5q67 0 126.5 25.5q59.5 25.5 103 69q43.5 43.5 69 102.5q25.5 59 25.5 127q0 67 -25.5 126.5q-25.5 59.5 -69 103q-43.5 43.5 -103 69q-59.5 25.5 -126.5 25.5q-68 0 -127 -25.5q-59 -25.5 -102.5 -69q-43.5 -43.5 -69 -103q-25.5 -59.5 -25.5 -126.5zt0 0zM543 560l8 -111h-22l-2 26q-7 18 -20 31.5q-13 13.5 -29.5 22q-16.5 8.5 -35 13q-18.5 4.5 -35.5 4.5q-24 0 -49 -11.5q-25 -11.5 -45 -36q-20 -24.5 -33 -62q-13 -37.5 -13 -88.5q0 -51 13.5 -87q13.5 -36 35 -58.5q21.5 -22.5 48.5 -32.5q27 -10 55 -10q39 0 74 22q35 22 58 77l22 -7q-22 -54 -62.5 -87q-40.5 -33 -110.5 -33q-52 0 -91 18.5q-39 18.5 -65 49q-26 30.5 -39 69.5q-13 39 -13 80q0 40 13 79q13 39 40 70q27 31 67.5 50.5q40.5 19.5 96.5 19.5q26 0 54 -5.5q28 -5.5 58 -19.5l0 17z" />
<glyph unicode="&#170;" horiz-adv-x="468" d="M277 627q0 12 -1.5 25.5q-1.5 13.5 -8.5 24q-7 10.5 -20 17.5q-13 7 -36 7q-18 0 -26.5 -5.5q-8.5 -5.5 -8.5 -13.5q0 -5 1.5 -9.5q1.5 -4.5 1.5 -12.5q0 -10 -6.5 -18.5q-6.5 -8.5 -20.5 -8.5q-10 0 -18 7.5q-8 7.5 -8 21.5q0 8 4 17.5q4 9.5 14 17q10 7.5 26 12.5q16 5 39 5q10 0 28.5 -1.5q18.5 -1.5 37.5 -9.5q19 -8 33 -25.5q14 -17.5 14 -50.5v-157q0 -7 1.5 -15q1.5 -8 11.5 -8q8 0 14.5 7.5q6.5 7.5 8.5 15.5l13 -5q-8 -20 -20.5 -31q-12.5 -11 -31.5 -11q-25 0 -34 18q-9 18 -8 35q-27 -32 -52.5 -42.5q-25.5 -10.5 -48.5 -10.5q-19 0 -31 6.5q-12 6.5 -19 15.5q-7 9 -10 19.5q-3 10.5 -3 18.5q0 28 15 47q15 19 39 32q24 13 53 21q29 8 57 13zM277 582q-13 -2 -32 -7q-19 -5 -37 -15q-18 -10 -30.5 -26.5q-12.5 -16.5 -12.5 -41.5q0 -15 8 -30q8 -15 29 -15q12 0 23 5q11 5 21 12q10 7 18 15q8 8 13 14zM60 346h348v-24l-348 0z" />
<glyph unicode="&#171;" horiz-adv-x="526" d="M380 16l-15 -16q-38 33 -72.5 62q-34.5 29 -70.5 56.5q-36 27.5 -75.5 55q-39.5 27.5 -86.5 57.5q47 30 86.5 57.5q39.5 27.5 75.5 55q36 27.5 70.5 56.5q34.5 29 72.5 62l15 -16l-196 -215zM466 80l-15 -14q-27 26 -48.5 46q-21.5 20 -43 38.5q-21.5 18.5 -45.5 37.5q-24 19 -56 43q32 24 56 43q24 19 45.5 37.5q21.5 18.5 43 38.5q21.5 20 48.5 46l15 -14l-119 -151z" />
<glyph unicode="&#172;" horiz-adv-x="640" d="M60 420h520v-190h-40v150l-480 0z" />
<glyph unicode="&#173;" horiz-adv-x="360" d="M300 239h-240v60l240 0z" />
<glyph unicode="&#174;" horiz-adv-x="800" d="M36 350q0 75 28.5 141q28.5 66 78 115.5q49.5 49.5 116 78.5q66.5 29 141.5 29q75 0 141 -29q66 -29 115.5 -78.5q49.5 -49.5 78.5 -115.5q29 -66 29 -141q0 -75 -29 -141.5q-29 -66.5 -78.5 -116q-49.5 -49.5 -115.5 -78q-66 -28.5 -141 -28.5q-75 0 -141.5 28.5q-66.5 28.5 -116 78q-49.5 49.5 -78 116q-28.5 66.5 -28.5 141.5zt0 0zM76 350q0 -68 25.5 -127q25.5 -59 69 -102.5q43.5 -43.5 102.5 -69q59 -25.5 127 -25.5q67 0 126.5 25.5q59.5 25.5 103 69q43.5 43.5 69 102.5q25.5 59 25.5 127q0 67 -25.5 126.5q-25.5 59.5 -69 103q-43.5 43.5 -103 69q-59.5 25.5 -126.5 25.5q-68 0 -127 -25.5q-59 -25.5 -102.5 -69q-43.5 -43.5 -69 -103q-25.5 -59.5 -25.5 -126.5zt0 0zM386 560q24 0 55.5 -2q31.5 -2 59.5 -12.5q28 -10.5 47.5 -32q19.5 -21.5 19.5 -60.5q0 -29 -13.5 -50.5q-13.5 -21.5 -34.5 -35q-21 -13.5 -47.5 -19.5q-26.5 -6 -52.5 -6l0 -4q32 -9 54.5 -24.5q22.5 -15.5 39 -35.5q16.5 -20 27.5 -42.5q11 -22.5 19 -43.5q4 -9 10.5 -21.5q6.5 -12.5 17.5 -12.5q3 0 5 1l0 -22q-13 -5 -24 -5q-22 0 -39 11.5q-17 11.5 -30 28q-13 16.5 -22.5 35q-9.5 18.5 -15.5 32.5q-7 17 -15 34q-8 17 -21 31.5q-13 14.5 -33 24q-20 9.5 -51 10.5l0 -150q0 -11 4.5 -19q4.5 -8 18.5 -8h34v-22h-179v22h34q6 0 14.5 3.5q8.5 3.5 8.5 23.5v322q0 20 -8.5 23.5q-8.5 3.5 -14.5 3.5h-34v22zM342 361q17 -3 30 -3.5q13 -0.5 19 -0.5q33 0 54 9.5q21 9.5 32 24q11 14.5 15 31q4 16.5 4 31.5q0 12 -4 27q-4 15 -15.5 28q-11.5 13 -31.5 21.5q-20 8.5 -53 8.5q-28 0 -50 -7z" />
<glyph unicode="&#175;" horiz-adv-x="380" d="M316 657q8 0 11 -6q3 -6 3 -12q0 -8 -4 -13.5q-4 -5.5 -10 -5.5h-252q-6 0 -10 5.5q-4 5.5 -4 13.5q0 6 3 12q3 6 11 6z" />
<glyph unicode="&#176;" horiz-adv-x="332" d="M60 607q0 45 30.5 75.5q30.5 30.5 75.5 30.5q45 0 75.5 -30.5q30.5 -30.5 30.5 -75.5q0 -45 -30.5 -75.5q-30.5 -30.5 -75.5 -30.5q-45 0 -75.5 30.5q-30.5 30.5 -30.5 75.5zt0 0zM96 607q0 -29 20.5 -49.5q20.5 -20.5 49.5 -20.5q29 0 49.5 20.5q20.5 20.5 20.5 49.5q0 29 -20.5 49.5q-20.5 20.5 -49.5 20.5q-29 0 -49.5 -20.5t-20.5 -49.5z" />
<glyph unicode="&#177;" horiz-adv-x="640" d="M60 420h240v220h40v-220h240v-40h-240v-210h-40v210h-240zM60 90h520v-40l-520 0z" />
<glyph unicode="&#178;" horiz-adv-x="372" d="M306 430h-262v22l101 103q55 55 75.5 98.5q20.5 43.5 20.5 86.5q0 45 -16.5 69.5q-16.5 24.5 -47.5 24.5q-27 0 -40 -17q-13 -17 -13 -31q0 -8 3.5 -16.5q3.5 -8.5 3.5 -19.5q0 -16 -10.5 -25q-10.5 -9 -24.5 -9q-10 0 -22.5 9q-12.5 9 -12.5 36q0 17 7.5 34.5q7.5 17.5 22.5 31.5q15 14 37 22.5q22 8.5 51 8.5q60 0 97 -31.5q37 -31.5 37 -84.5q0 -23 -8 -43.5q-8 -20.5 -21 -39q-13 -18.5 -29.5 -35.5q-16.5 -17 -33.5 -33l-105 -101h109q22 0 43.5 5q21.5 5 22.5 20l1 15l22 0z" />
<glyph unicode="&#179;" horiz-adv-x="372" d="M112 671q8 -2 20 -3q12 -1 25 -1q29 0 45.5 10.5q16.5 10.5 25 25q8.5 14.5 10.5 30q2 15.5 2 25.5q0 37 -15.5 57.5q-15.5 20.5 -48.5 20.5q-24 0 -39 -10q-15 -10 -15 -24q0 -11 2.5 -14.5q2.5 -3.5 2.5 -13.5q0 -11 -8 -20.5q-8 -9.5 -23 -9.5q-12 0 -23.5 7q-11.5 7 -11.5 27q0 32 30.5 56q30.5 24 84.5 24q34 0 59 -9q25 -9 41 -23.5q16 -14.5 24 -33.5q8 -19 8 -38q0 -42 -26 -65.5q-26 -23.5 -61 -28.5l0 -4q18 -2 36.5 -9.5q18.5 -7.5 33.5 -21q15 -13.5 24 -32.5q9 -19 9 -45q0 -25 -10.5 -48q-10.5 -23 -30 -40q-19.5 -17 -47.5 -27.5q-28 -10.5 -63 -10.5q-38 0 -63.5 7.5q-25.5 7.5 -41 18.5q-15.5 11 -22 25q-6.5 14 -6.5 26q0 26 12 35.5q12 9.5 25 9.5q14 0 23.5 -9.5q9.5 -9.5 9.5 -26.5q0 -7 -1 -9.5q-1 -2.5 -2 -4.5q-1 -2 -2 -5q-1 -3 -1 -11q0 -3 2 -9q2 -6 8 -11.5q6 -5.5 18 -9.5q12 -4 32 -4q23 0 40 9q17 9 27.5 24q10.5 15 15.5 34.5q5 19.5 5 41.5q0 17 -3.5 33.5q-3.5 16.5 -14 29.5q-10.5 13 -29 21q-18.5 8 -49.5 8q-13 0 -24.5 -2q-11.5 -2 -19.5 -4z" />
<glyph unicode="&#180;" horiz-adv-x="370" d="M233 748q7 9 16.5 17.5q9.5 8.5 26.5 8.5q19 0 31.5 -14.5q12.5 -14.5 12.5 -30.5q0 -14 -7.5 -22q-7.5 -8 -17.5 -15l-177 -132l-18 18z" />
<glyph unicode="&#181;" horiz-adv-x="592" d="M479 462v-395q0 -14 4 -26.5q4 -12.5 18 -12.5q12 0 22 11q10 11 15 28l22 -9q-2 -5 -7 -16.5q-5 -11.5 -15 -23q-10 -11.5 -25.5 -20.5q-15.5 -9 -38.5 -9q-20 0 -33 9.5q-13 9.5 -20.5 23.5q-7.5 14 -10 31q-2.5 17 -0.5 31l-6 0q-6 -16 -16.5 -32.5q-10.5 -16.5 -25.5 -30.5q-15 -14 -35.5 -23q-20.5 -9 -46.5 -9q-28 0 -48.5 9.5q-20.5 9.5 -34.5 23q-14 13.5 -22.5 29q-8.5 15.5 -12.5 28.5l-7 0q1 -48 3.5 -75.5q2.5 -27.5 6 -43.5q3.5 -16 7 -25.5q3.5 -9.5 6.5 -21.5q3 -12 5 -32q2 -20 2 -56q0 -15 -5 -24.5q-5 -9.5 -13 -15q-8 -5.5 -17 -7.5q-9 -2 -18 -2q-16 0 -34 10q-18 10 -18 39q0 18 3 38q5 31 10.5 62.5q5.5 31.5 10.5 72q5 40.5 8.5 92.5q3.5 52 3.5 124v248h76v-326q0 -42 24.5 -65.5q24.5 -23.5 64.5 -23.5q30 0 53 12.5q23 12.5 38 31.5q15 19 23 41.5q8 22.5 8 41.5l0 288z" />
<glyph unicode="&#182;" horiz-adv-x="584" d="M250 -214v564q-9 0 -28 1.5q-19 1.5 -42 6.5q-23 5 -47.5 16q-24.5 11 -44.5 29.5q-20 18.5 -33 47q-13 28.5 -13 69.5q0 21 6.5 52q6.5 31 29 59.5q22.5 28.5 66 48.5q43.5 20 118.5 20h280v-28h-112v-886h-40v886h-100l0 -886z" />
<glyph unicode="&#183;" horiz-adv-x="233" d="M62 269q0 23 15.5 38.5q15.5 15.5 38.5 15.5q23 0 38.5 -15.5q15.5 -15.5 15.5 -38.5q0 -23 -15.5 -38.5q-15.5 -15.5 -38.5 -15.5q-23 0 -38.5 15.5t-15.5 38.5z" />
<glyph unicode="&#184;" horiz-adv-x="315" d="M161 0l-12 -47h17q13 0 32 -2q19 -2 36.5 -10q17.5 -8 29.5 -24.5q12 -16.5 12 -45.5q0 -27 -14.5 -44q-14.5 -17 -38 -26.5q-23.5 -9.5 -52 -13.5q-28.5 -4 -55.5 -4q-24 0 -46 3l0 22q5 -1 9.5 -1q4.5 0 9.5 0q35 0 56.5 5.5q21.5 5.5 33.5 14q12 8.5 16.5 18.5q4.5 10 4.5 18q0 16 -7.5 25q-7.5 9 -18 13.5q-10.5 4.5 -22 6q-11.5 1.5 -20.5 1.5h-23l27 91z" />
<glyph unicode="&#185;" horiz-adv-x="372" d="M232 858v-371q0 -25 6.5 -30q6.5 -5 16.5 -5h37v-22h-188v22h37q10 0 16.5 5q6.5 5 6.5 30v266q-16 -11 -34.5 -22.5q-18.5 -11.5 -33.5 -19.5l-10 16q35 26 69 61q34 35 51 70z" />
<glyph unicode="&#186;" horiz-adv-x="520" d="M126 569q0 39 12 67q12 28 31 45q19 17 43 25q24 8 48 8q24 0 48 -8q24 -8 43 -25q19 -17 31 -45q12 -28 12 -67q0 -39 -12 -66.5q-12 -27.5 -31.5 -45.5q-19.5 -18 -43 -26q-23.5 -8 -47.5 -8q-24 0 -47.5 8q-23.5 8 -43 25.5q-19.5 17.5 -31.5 45.5q-12 28 -12 67zt0 0zM178 569q0 -21 3 -44.5q3 -23.5 12 -43q9 -19.5 25 -32q16 -12.5 42 -12.5q29 0 45.5 16q16.5 16 24.5 37.5q8 21.5 10 44q2 22.5 2 34.5q0 43 -8.5 69q-8.5 26 -21.5 40q-13 14 -27 18.5q-14 4.5 -25 4.5q-11 0 -25.5 -4.5q-14.5 -4.5 -27 -18.5q-12.5 -14 -21 -40q-8.5 -26 -8.5 -69zt0 0zM86 346h348v-24l-348 0z" />
<glyph unicode="&#187;" horiz-adv-x="526" d="M146 446l15 16q37 -33 72 -62q35 -29 71 -56.5q36 -27.5 75.5 -55q39.5 -27.5 86.5 -57.5q-47 -30 -86.5 -57.5q-39.5 -27.5 -75.5 -55q-36 -27.5 -71 -56.5q-35 -29 -72 -62l-15 16l196 215zM60 382l15 14q27 -26 48.5 -46q21.5 -20 43 -38.5q21.5 -18.5 45.5 -37.5q24 -19 56 -43q-32 -24 -56 -43q-24 -19 -45.5 -37.5q-21.5 -18.5 -43 -38.5q-21.5 -20 -48.5 -46l-15 14l119 151z" />
<glyph unicode="&#188;" horiz-adv-x="840" d="M232 708v-371q0 -25 6.5 -30q6.5 -5 16.5 -5h37v-22h-188v22h37q10 0 16.5 5q6.5 5 6.5 30v266q-16 -11 -34.5 -22.5q-18.5 -11.5 -33.5 -19.5l-10 16q35 26 69 61q34 35 51 70zM233 -50l-31 20l485 780l31 -19zM504 89v20q24 33 51.5 76q27.5 43 53.5 87q26 44 48 85q22 41 36 71l69 -40l-230 -277h142v137l65 42v-179h55v-22h-55v-32q0 -25 6.5 -30q6.5 -5 16.5 -5h32v-22h-175v22h32q10 0 16.5 5q6.5 5 6.5 30l0 32z" />
<glyph unicode="&#189;" horiz-adv-x="840" d="M232 708v-371q0 -25 6.5 -30q6.5 -5 16.5 -5h37v-22h-188v22h37q10 0 16.5 5q6.5 5 6.5 30v266q-16 -11 -34.5 -22.5q-18.5 -11.5 -33.5 -19.5l-10 16q35 26 69 61q34 35 51 70zM193 -50l-31 20l485 780l31 -19zM774 0h-262v22l101 103q55 55 75.5 98.5q20.5 43.5 20.5 86.5q0 45 -16.5 69.5q-16.5 24.5 -47.5 24.5q-27 0 -40 -17q-13 -17 -13 -31q0 -8 3.5 -16.5q3.5 -8.5 3.5 -19.5q0 -16 -10.5 -25q-10.5 -9 -24.5 -9q-10 0 -22.5 9q-12.5 9 -12.5 36q0 17 7.5 34.5q7.5 17.5 22.5 31.5q15 14 37 22.5q22 8.5 51 8.5q60 0 97 -31.5q37 -31.5 37 -84.5q0 -23 -8 -43.5q-8 -20.5 -21 -39q-13 -18.5 -29.5 -35.5q-16.5 -17 -33.5 -33l-105 -101h109q22 0 43.5 5q21.5 5 22.5 20l1 15l22 0z" />
<glyph unicode="&#190;" horiz-adv-x="840" d="M112 521q8 -2 20 -3q12 -1 25 -1q29 0 45.5 10.5q16.5 10.5 25 25q8.5 14.5 10.5 30q2 15.5 2 25.5q0 37 -15.5 57.5q-15.5 20.5 -48.5 20.5q-24 0 -39 -10q-15 -10 -15 -24q0 -11 2.5 -14.5q2.5 -3.5 2.5 -13.5q0 -11 -8 -20.5q-8 -9.5 -23 -9.5q-12 0 -23.5 7q-11.5 7 -11.5 27q0 32 30.5 56q30.5 24 84.5 24q34 0 59 -9q25 -9 41 -23.5q16 -14.5 24 -33.5q8 -19 8 -38q0 -42 -26 -65.5q-26 -23.5 -61 -28.5l0 -4q18 -2 36.5 -9.5q18.5 -7.5 33.5 -21q15 -13.5 24 -32.5q9 -19 9 -45q0 -25 -10.5 -48q-10.5 -23 -30 -40q-19.5 -17 -47.5 -27.5q-28 -10.5 -63 -10.5q-38 0 -63.5 7.5q-25.5 7.5 -41 18.5q-15.5 11 -22 25q-6.5 14 -6.5 26q0 26 12 35.5q12 9.5 25 9.5q14 0 23.5 -9.5q9.5 -9.5 9.5 -26.5q0 -7 -1 -9.5q-1 -2.5 -2 -4.5q-1 -2 -2 -5q-1 -3 -1 -11q0 -3 2 -9q2 -6 8 -11.5q6 -5.5 18 -9.5q12 -4 32 -4q23 0 40 9q17 9 27.5 24q10.5 15 15.5 34.5q5 19.5 5 41.5q0 17 -3.5 33.5q-3.5 16.5 -14 29.5q-10.5 13 -29 21q-18.5 8 -49.5 8q-13 0 -24.5 -2q-11.5 -2 -19.5 -4zM233 -50l-31 20l485 780l31 -19zM504 89v20q24 33 51.5 76q27.5 43 53.5 87q26 44 48 85q22 41 36 71l69 -40l-230 -277h142v137l65 42v-179h55v-22h-55v-32q0 -25 6.5 -30q6.5 -5 16.5 -5h32v-22h-175v22h32q10 0 16.5 5q6.5 5 6.5 30l0 32z" />
<glyph unicode="&#191;" horiz-adv-x="504" d="M306 350v-119q0 -26 -13 -52.5q-13 -26.5 -48 -58.5q-17 -15 -37 -31.5q-20 -16.5 -37.5 -37.5q-17.5 -21 -29.5 -47.5q-12 -26.5 -12 -61.5q0 -21 7 -45q7 -24 23.5 -44.5q16.5 -20.5 44.5 -34.5q28 -14 70 -14q38 0 60 16q22 16 22 30q0 7 -3.5 13.5q-3.5 6.5 -5.5 14.5q-2 7 -2.5 13.5q-0.5 6.5 -0.5 13.5q0 23 17 32.5q17 9.5 33 9.5q20 0 35 -13.5q15 -13.5 15 -40.5q0 -20 -10.5 -41q-10.5 -21 -31 -38q-20.5 -17 -50 -27.5q-29.5 -10.5 -67.5 -10.5q-53 0 -94.5 15q-41.5 15 -70.5 43q-29 28 -44.5 67.5q-15.5 39.5 -15.5 87.5q0 35 9.5 62q9.5 27 25.5 48q16 21 36.5 38q20.5 17 43.5 33q21 15 40 29.5q19 14.5 33 29q14 14.5 22 30.5q8 16 8 36v55zM238 451q0 23 15.5 38.5q15.5 15.5 38.5 15.5q23 0 38.5 -15.5q15.5 -15.5 15.5 -38.5q0 -23 -15.5 -38.5q-15.5 -15.5 -38.5 -15.5q-23 0 -38.5 15.5t-15.5 38.5z" />
<glyph unicode="&#192;" horiz-adv-x="715" d="M233 273l-23 -62q-11 -30 -19 -51q-8 -21 -13 -36.5q-5 -15.5 -7.5 -27.5q-2.5 -12 -2.5 -22q0 -20 8.5 -33q8.5 -13 20.5 -13h40v-28h-203v28h19q9 0 21.5 7q12.5 7 29.5 32q17 25 39.5 74q22.5 49 53.5 132l163 441h32l225 -625q3 -8 7 -18q4 -10 11.5 -20q7.5 -10 19.5 -16.5q12 -6.5 31 -6.5h22v-28h-256v28h40q16 0 28 4.5q12 4.5 12 24.5q0 14 -6.5 32q-6.5 18 -15.5 44l-50 140zM451 301l-104 288l-104 -288zM436 750l-182 86q-5 2 -9 4.5q-4 2.5 -8 4.5q-10 6 -18.5 17q-8.5 11 -8.5 28q0 20 15 35q13 15 34 15q15 0 29 -10q5 -4 9.5 -8q4.5 -4 9.5 -9l143 -143z" />
<glyph unicode="&#193;" horiz-adv-x="715" d="M233 273l-23 -62q-11 -30 -19 -51q-8 -21 -13 -36.5q-5 -15.5 -7.5 -27.5q-2.5 -12 -2.5 -22q0 -20 8.5 -33q8.5 -13 20.5 -13h40v-28h-203v28h19q9 0 21.5 7q12.5 7 29.5 32q17 25 39.5 74q22.5 49 53.5 132l163 441h32l225 -625q3 -8 7 -18q4 -10 11.5 -20q7.5 -10 19.5 -16.5q12 -6.5 31 -6.5h22v-28h-256v28h40q16 0 28 4.5q12 4.5 12 24.5q0 14 -6.5 32q-6.5 18 -15.5 44l-50 140zM451 301l-104 288l-104 -288zM443 913q8 8 16 15q8 7 19 10q8 2 13 2q20 0 34 -15q4 -4 6.5 -8q2.5 -4 4.5 -9q2 -5 3 -9q1 -4 1 -9q0 -23 -15 -35q-15 -12 -29 -19l-182 -86l-14 20z" />
<glyph unicode="&#194;" horiz-adv-x="715" d="M233 273l-23 -62q-11 -30 -19 -51q-8 -21 -13 -36.5q-5 -15.5 -7.5 -27.5q-2.5 -12 -2.5 -22q0 -20 8.5 -33q8.5 -13 20.5 -13h40v-28h-203v28h19q9 0 21.5 7q12.5 7 29.5 32q17 25 39.5 74q22.5 49 53.5 132l163 441h32l225 -625q3 -8 7 -18q4 -10 11.5 -20q7.5 -10 19.5 -16.5q12 -6.5 31 -6.5h22v-28h-256v28h40q16 0 28 4.5q12 4.5 12 24.5q0 14 -6.5 32q-6.5 18 -15.5 44l-50 140zM451 301l-104 288l-104 -288zM198 750l-18 20l142 170h96l142 -170l-18 -20l-172 126z" />
<glyph unicode="&#195;" horiz-adv-x="715" d="M233 273l-23 -62q-11 -30 -19 -51q-8 -21 -13 -36.5q-5 -15.5 -7.5 -27.5q-2.5 -12 -2.5 -22q0 -20 8.5 -33q8.5 -13 20.5 -13h40v-28h-203v28h19q9 0 21.5 7q12.5 7 29.5 32q17 25 39.5 74q22.5 49 53.5 132l163 441h32l225 -625q3 -8 7 -18q4 -10 11.5 -20q7.5 -10 19.5 -16.5q12 -6.5 31 -6.5h22v-28h-256v28h40q16 0 28 4.5q12 4.5 12 24.5q0 14 -6.5 32q-6.5 18 -15.5 44l-50 140zM451 301l-104 288l-104 -288zM170 780q15 22 30 39q15 17 34 32q15 12 34 21.5q19 9.5 42 9.5q17 0 39.5 -7q22.5 -7 59.5 -24q20 -9 45.5 -20q25.5 -11 46.5 -11q15 0 25.5 5.5q10.5 5.5 19.5 12.5q11 8 19 16q8 8 13 13l19 -22q-4 -6 -10 -14q-6 -8 -12.5 -16.5q-6.5 -8.5 -13.5 -16q-7 -7.5 -13 -13.5q-16 -16 -33 -25.5q-17 -9.5 -44 -9.5q-23 0 -44 8.5q-21 8.5 -53 23.5q-20 9 -43.5 19.5q-23.5 10.5 -43.5 10.5q-8 0 -23 -2.5q-15 -2.5 -36 -16.5q-2 -2 -12.5 -9.5q-10.5 -7.5 -28.5 -24.5z" />
<glyph unicode="&#196;" horiz-adv-x="715" d="M233 273l-23 -62q-11 -30 -19 -51q-8 -21 -13 -36.5q-5 -15.5 -7.5 -27.5q-2.5 -12 -2.5 -22q0 -20 8.5 -33q8.5 -13 20.5 -13h40v-28h-203v28h19q9 0 21.5 7q12.5 7 29.5 32q17 25 39.5 74q22.5 49 53.5 132l163 441h32l225 -625q3 -8 7 -18q4 -10 11.5 -20q7.5 -10 19.5 -16.5q12 -6.5 31 -6.5h22v-28h-256v28h40q16 0 28 4.5q12 4.5 12 24.5q0 14 -6.5 32q-6.5 18 -15.5 44l-50 140zM451 301l-104 288l-104 -288zM200 810q0 25 17.5 42.5q17.5 17.5 42.5 17.5q25 0 42.5 -17.5q17.5 -17.5 17.5 -42.5q0 -25 -17.5 -42.5q-17.5 -17.5 -42.5 -17.5q-25 0 -42.5 17.5q-17.5 17.5 -17.5 42.5zt0 0zM430 810q0 25 17.5 42.5q17.5 17.5 42.5 17.5q25 0 42.5 -17.5q17.5 -17.5 17.5 -42.5q0 -25 -17.5 -42.5q-17.5 -17.5 -42.5 -17.5q-25 0 -42.5 17.5t-17.5 42.5z" />
<glyph unicode="&#197;" horiz-adv-x="715" d="M233 273l-23 -62q-11 -30 -19 -51q-8 -21 -13 -36.5q-5 -15.5 -7.5 -27.5q-2.5 -12 -2.5 -22q0 -20 8.5 -33q8.5 -13 20.5 -13h40v-28h-203v28h19q9 0 21.5 7q12.5 7 29.5 32q17 25 39.5 74q22.5 49 53.5 132l163 441h32l225 -625q3 -8 7 -18q4 -10 11.5 -20q7.5 -10 19.5 -16.5q12 -6.5 31 -6.5h22v-28h-256v28h40q16 0 28 4.5q12 4.5 12 24.5q0 14 -6.5 32q-6.5 18 -15.5 44l-50 140zM451 301l-104 288l-104 -288zM260 846q0 24 9.5 45q9.5 21 25 36.5q15.5 15.5 36.5 25q21 9.5 45 9.5q24 0 45 -9.5q21 -9.5 36.5 -25q15.5 -15.5 25 -36.5q9.5 -21 9.5 -45q0 -24 -9.5 -45q-9.5 -21 -25 -36.5q-15.5 -15.5 -36.5 -25q-21 -9.5 -45 -9.5q-24 0 -45 9.5q-21 9.5 -36.5 25q-15.5 15.5 -25 36.5q-9.5 21 -9.5 45zt0 0zM300 846q0 -32 22 -54q22 -22 54 -22q32 0 54 22q22 22 22 54q0 32 -22 54q-22 22 -54 22q-32 0 -54 -22t-22 -54z" />
<glyph unicode="&#198;" horiz-adv-x="1030" d="M291 273l-67 -109q-18 -29 -29 -48.5q-11 -19.5 -17 -32q-6 -12.5 -8.5 -20.5q-2.5 -8 -2.5 -14q0 -6 5 -13.5q5 -7.5 16 -7.5h37v-28h-205v28h15q9 0 22.5 5q13.5 5 33 23q19.5 18 47 53q27.5 35 66.5 95l253 395q7 11 10 19q3 8 3 21q0 18 -11.5 25.5q-11.5 7.5 -25.5 7.5h-57v28h574l12 -142h-32l-4 30q-2 13 -12 27.5q-10 14.5 -37 27q-27 12.5 -75 21q-48 8.5 -124 8.5h-35q-21 0 -29.5 -12.5q-8.5 -12.5 -8.5 -32.5v-245h45q67 0 102.5 5.5q35.5 5.5 52 13.5q16.5 8 19 18.5q2.5 10.5 2.5 19.5v25h32v-193h-32v26q0 10 -3.5 20.5q-3.5 10.5 -20.5 18.5q-17 8 -52.5 13q-35.5 5 -99.5 5h-45v-281q0 -17 4 -26q4 -9 10 -13q6 -4 12.5 -5q6.5 -1 11.5 -1h14q77 0 131 8.5q54 8.5 89 22.5q35 14 52.5 32.5q17.5 18.5 21.5 38.5l5 25h32l-33 -155h-537v28h57q5 0 11.5 1q6.5 1 12.5 5q6 4 10 13q4 9 4 26v200zM513 622l-202 -321l202 0z" />
<glyph unicode="&#199;" horiz-adv-x="744" d="M655 700l14 -191h-32l-2 24q-2 28 -20.5 56q-18.5 28 -38.5 45q-36 32 -76 42q-40 10 -79 10q-33 0 -71.5 -12q-38.5 -12 -78.5 -52q-48 -49 -70 -122.5q-22 -73.5 -22 -158.5q0 -42 8.5 -92.5q8.5 -50.5 37.5 -100.5q22 -37 49.5 -61q27.5 -24 57.5 -38.5q30 -14.5 60 -20q30 -5.5 57 -5.5q52 0 93 20.5q41 20.5 74 57.5q12 13 22 27q10 14 19 29q6 11 12 21q6 10 11 21l25 -13q-11 -23 -29 -53q-18 -30 -41 -55q-41 -44 -97 -69q-53 -23 -120 -23l-9 -34h17q9 0 18 0q9 0 18 -2q11 -2 21.5 -4.5q10.5 -2.5 20.5 -8.5q19 -11 27 -32q5 -11 5 -28q0 -11 -2 -21.5q-2 -10.5 -7 -20.5q-7 -13 -18 -22.5q-11 -9.5 -25 -16.5q-26 -14 -52.5 -17q-26.5 -3 -50.5 -3q-8 0 -14.5 0q-6.5 0 -14.5 1q-5 0 -11 0.5q-6 0.5 -11 1.5l0 22q5 -1 11 -1q6 0 11 0q29 0 46.5 4q17.5 4 28.5 9q15 8 23 18.5q8 10.5 8 27.5q0 18 -8 28q-8 10 -19 14.5q-11 4.5 -23.5 5.5q-12.5 1 -21.5 1h-20l22 79q-48 3 -87 15.5q-39 12.5 -70.5 31.5q-31.5 19 -54.5 41.5q-23 22.5 -39 43.5q-28 38 -47.5 93q-19.5 55 -19.5 130q0 60 14 110q14 50 36.5 90.5q22.5 40.5 51 70.5q28.5 30 56.5 49q50 33 99 42.5q49 9.5 94 9.5q66 0 113.5 -11.5q47.5 -11.5 89.5 -37.5l-1 35z" />
<glyph unicode="&#200;" horiz-adv-x="679" d="M599 700l12 -142h-32l-4 30q-2 13 -12 27.5q-10 14.5 -37 27q-27 12.5 -75 21q-48 8.5 -124 8.5h-35q-21 0 -29.5 -12.5q-8.5 -12.5 -8.5 -32.5v-245h45q67 0 102.5 5.5q35.5 5.5 52 13.5q16.5 8 19 18.5q2.5 10.5 2.5 19.5v25h32v-192h-32v25q0 9 -2.5 19.5q-2.5 10.5 -19 18.5q-16.5 8 -52 13.5q-35.5 5.5 -102.5 5.5h-45v-281q0 -17 4 -26q4 -9 10 -13q6 -4 12.5 -5q6.5 -1 11.5 -1h14q77 0 131 8.5q54 8.5 89 22.5q35 14 52.5 32.5q17.5 18.5 21.5 38.5l5 25h32l-33 -155h-537v28h57q5 0 11.5 1q6.5 1 12.5 5q6 4 10 13q4 9 4 26v554q0 16 -4 25.5q-4 9.5 -10 13.5q-6 4 -12.5 5q-6.5 1 -11.5 1h-57v28zM426 750l-182 86q-5 2 -9 4.5q-4 2.5 -8 4.5q-10 6 -18.5 17q-8.5 11 -8.5 28q0 20 15 35q13 15 34 15q15 0 29 -10q5 -4 9.5 -8q4.5 -4 9.5 -9l143 -143z" />
<glyph unicode="&#201;" horiz-adv-x="679" d="M599 700l12 -142h-32l-4 30q-2 13 -12 27.5q-10 14.5 -37 27q-27 12.5 -75 21q-48 8.5 -124 8.5h-35q-21 0 -29.5 -12.5q-8.5 -12.5 -8.5 -32.5v-245h45q67 0 102.5 5.5q35.5 5.5 52 13.5q16.5 8 19 18.5q2.5 10.5 2.5 19.5v25h32v-192h-32v25q0 9 -2.5 19.5q-2.5 10.5 -19 18.5q-16.5 8 -52 13.5q-35.5 5.5 -102.5 5.5h-45v-281q0 -17 4 -26q4 -9 10 -13q6 -4 12.5 -5q6.5 -1 11.5 -1h14q77 0 131 8.5q54 8.5 89 22.5q35 14 52.5 32.5q17.5 18.5 21.5 38.5l5 25h32l-33 -155h-537v28h57q5 0 11.5 1q6.5 1 12.5 5q6 4 10 13q4 9 4 26v554q0 16 -4 25.5q-4 9.5 -10 13.5q-6 4 -12.5 5q-6.5 1 -11.5 1h-57v28zM433 913q8 8 16 15q8 7 19 10q8 2 13 2q20 0 34 -15q4 -4 6.5 -8q2.5 -4 4.5 -9q2 -5 3 -9q1 -4 1 -9q0 -23 -15 -35q-15 -12 -29 -19l-182 -86l-14 20z" />
<glyph unicode="&#202;" horiz-adv-x="679" d="M599 700l12 -142h-32l-4 30q-2 13 -12 27.5q-10 14.5 -37 27q-27 12.5 -75 21q-48 8.5 -124 8.5h-35q-21 0 -29.5 -12.5q-8.5 -12.5 -8.5 -32.5v-245h45q67 0 102.5 5.5q35.5 5.5 52 13.5q16.5 8 19 18.5q2.5 10.5 2.5 19.5v25h32v-192h-32v25q0 9 -2.5 19.5q-2.5 10.5 -19 18.5q-16.5 8 -52 13.5q-35.5 5.5 -102.5 5.5h-45v-281q0 -17 4 -26q4 -9 10 -13q6 -4 12.5 -5q6.5 -1 11.5 -1h14q77 0 131 8.5q54 8.5 89 22.5q35 14 52.5 32.5q17.5 18.5 21.5 38.5l5 25h32l-33 -155h-537v28h57q5 0 11.5 1q6.5 1 12.5 5q6 4 10 13q4 9 4 26v554q0 16 -4 25.5q-4 9.5 -10 13.5q-6 4 -12.5 5q-6.5 1 -11.5 1h-57v28zM178 750l-18 20l142 170h96l142 -170l-18 -20l-172 126z" />
<glyph unicode="&#203;" horiz-adv-x="679" d="M599 700l12 -142h-32l-4 30q-2 13 -12 27.5q-10 14.5 -37 27q-27 12.5 -75 21q-48 8.5 -124 8.5h-35q-21 0 -29.5 -12.5q-8.5 -12.5 -8.5 -32.5v-245h45q67 0 102.5 5.5q35.5 5.5 52 13.5q16.5 8 19 18.5q2.5 10.5 2.5 19.5v25h32v-192h-32v25q0 9 -2.5 19.5q-2.5 10.5 -19 18.5q-16.5 8 -52 13.5q-35.5 5.5 -102.5 5.5h-45v-281q0 -17 4 -26q4 -9 10 -13q6 -4 12.5 -5q6.5 -1 11.5 -1h14q77 0 131 8.5q54 8.5 89 22.5q35 14 52.5 32.5q17.5 18.5 21.5 38.5l5 25h32l-33 -155h-537v28h57q5 0 11.5 1q6.5 1 12.5 5q6 4 10 13q4 9 4 26v554q0 16 -4 25.5q-4 9.5 -10 13.5q-6 4 -12.5 5q-6.5 1 -11.5 1h-57v28zM179 810q0 25 17.5 42.5q17.5 17.5 42.5 17.5q25 0 42.5 -17.5q17.5 -17.5 17.5 -42.5q0 -25 -17.5 -42.5q-17.5 -17.5 -42.5 -17.5q-25 0 -42.5 17.5q-17.5 17.5 -17.5 42.5zt0 0zM409 810q0 25 17.5 42.5q17.5 17.5 42.5 17.5q25 0 42.5 -17.5q17.5 -17.5 17.5 -42.5q0 -25 -17.5 -42.5q-17.5 -17.5 -42.5 -17.5q-25 0 -42.5 17.5t-17.5 42.5z" />
<glyph unicode="&#204;" horiz-adv-x="401" d="M349 700v-28h-57q-5 0 -11.5 -1q-6.5 -1 -12.5 -5q-6 -4 -10 -13.5q-4 -9.5 -4 -25.5v-554q0 -17 4 -26q4 -9 10 -13q6 -4 12.5 -5q6.5 -1 11.5 -1h57v-28h-282v28h57q5 0 11.5 1q6.5 1 12.5 5q6 4 10 13q4 9 4 26v554q0 16 -4 25.5q-4 9.5 -10 13.5q-6 4 -12.5 5q-6.5 1 -11.5 1h-57v28zM286 750l-182 86q-5 2 -9 4.5q-4 2.5 -8 4.5q-10 6 -18.5 17q-8.5 11 -8.5 28q0 20 15 35q13 15 34 15q15 0 29 -10q5 -4 9.5 -8q4.5 -4 9.5 -9l143 -143z" />
<glyph unicode="&#205;" horiz-adv-x="401" d="M349 700v-28h-57q-5 0 -11.5 -1q-6.5 -1 -12.5 -5q-6 -4 -10 -13.5q-4 -9.5 -4 -25.5v-554q0 -17 4 -26q4 -9 10 -13q6 -4 12.5 -5q6.5 -1 11.5 -1h57v-28h-282v28h57q5 0 11.5 1q6.5 1 12.5 5q6 4 10 13q4 9 4 26v554q0 16 -4 25.5q-4 9.5 -10 13.5q-6 4 -12.5 5q-6.5 1 -11.5 1h-57v28zM263 913q8 8 16 15q8 7 19 10q8 2 13 2q20 0 34 -15q4 -4 6.5 -8q2.5 -4 4.5 -9q2 -5 3 -9q1 -4 1 -9q0 -23 -15 -35q-15 -12 -29 -19l-182 -86l-14 20z" />
<glyph unicode="&#206;" horiz-adv-x="401" d="M349 700v-28h-57q-5 0 -11.5 -1q-6.5 -1 -12.5 -5q-6 -4 -10 -13.5q-4 -9.5 -4 -25.5v-554q0 -17 4 -26q4 -9 10 -13q6 -4 12.5 -5q6.5 -1 11.5 -1h57v-28h-282v28h57q5 0 11.5 1q6.5 1 12.5 5q6 4 10 13q4 9 4 26v554q0 16 -4 25.5q-4 9.5 -10 13.5q-6 4 -12.5 5q-6.5 1 -11.5 1h-57v28zM38 750l-18 20l142 170h96l142 -170l-18 -20l-172 126z" />
<glyph unicode="&#207;" horiz-adv-x="401" d="M349 700v-28h-57q-5 0 -11.5 -1q-6.5 -1 -12.5 -5q-6 -4 -10 -13.5q-4 -9.5 -4 -25.5v-554q0 -17 4 -26q4 -9 10 -13q6 -4 12.5 -5q6.5 -1 11.5 -1h57v-28h-282v28h57q5 0 11.5 1q6.5 1 12.5 5q6 4 10 13q4 9 4 26v554q0 16 -4 25.5q-4 9.5 -10 13.5q-6 4 -12.5 5q-6.5 1 -11.5 1h-57v28zM40 810q0 25 17.5 42.5q17.5 17.5 42.5 17.5q25 0 42.5 -17.5q17.5 -17.5 17.5 -42.5q0 -25 -17.5 -42.5q-17.5 -17.5 -42.5 -17.5q-25 0 -42.5 17.5q-17.5 17.5 -17.5 42.5zt0 0zM270 810q0 25 17.5 42.5q17.5 17.5 42.5 17.5q25 0 42.5 -17.5q17.5 -17.5 17.5 -42.5q0 -25 -17.5 -42.5q-17.5 -17.5 -42.5 -17.5q-25 0 -42.5 17.5t-17.5 42.5z" />
<glyph unicode="&#208;" horiz-adv-x="820" d="M67 28h57q5 0 11.5 1q6.5 1 12.5 5q6 4 10 13q4 9 4 26v281h-95v28h95v245q0 16 -4 25.5q-4 9.5 -10 13.5q-6 4 -12.5 5q-6.5 1 -11.5 1h-57v28h293q31 0 73.5 -3q42.5 -3 87.5 -14q45 -11 89 -33.5q44 -22.5 79 -62.5q35 -40 56.5 -99q21.5 -59 21.5 -144q0 -26 -4.5 -61q-4.5 -35 -18 -73.5q-13.5 -38.5 -39 -76q-25.5 -37.5 -67.5 -67q-42 -29.5 -103 -48q-61 -18.5 -145 -18.5h-323zM254 382h113v-28h-113v-301q56 -25 132 -25q55 0 97 15q42 15 72 40.5q30 25.5 50 58q20 32.5 31.5 67.5q11.5 35 16.5 70q5 35 5 64q0 56 -13 114.5q-13 58.5 -42.5 106q-29.5 47.5 -78 78q-48.5 30.5 -119.5 30.5q-35 0 -73.5 -7q-38.5 -7 -77.5 -24z" />
<glyph unicode="&#209;" horiz-adv-x="740" d="M164 700l428 -552v254q0 49 -2 97.5q-2 48.5 -9 86.5q-7 38 -21 62q-14 24 -38 24h-23v28h226v-28h-29q-24 0 -38 -24q-14 -24 -21 -62q-7 -38 -9 -86.5q-2 -48.5 -2 -97.5v-416h-36l-435 565v-253q0 -49 2 -97.5q2 -48.5 9 -86.5q7 -38 21 -62q14 -24 38 -24h23v-28h-216v28h19q24 0 38 24q14 24 21 62q7 38 9 86.5q2 48.5 2 97.5v294l-20 23q-25 29 -47 44q-22 15 -54 13l0 28zM160 780q15 22 30 39q15 17 34 32q15 12 34 21.5q19 9.5 42 9.5q17 0 39.5 -7q22.5 -7 59.5 -24q20 -9 45.5 -20q25.5 -11 46.5 -11q15 0 25.5 5.5q10.5 5.5 19.5 12.5q11 8 19 16q8 8 13 13l19 -22q-4 -6 -10 -14q-6 -8 -12.5 -16.5q-6.5 -8.5 -13.5 -16q-7 -7.5 -13 -13.5q-16 -16 -33 -25.5q-17 -9.5 -44 -9.5q-23 0 -44 8.5q-21 8.5 -53 23.5q-20 9 -43.5 19.5q-23.5 10.5 -43.5 10.5q-8 0 -23 -2.5q-15 -2.5 -36 -16.5q-2 -2 -12.5 -9.5q-10.5 -7.5 -28.5 -24.5z" />
<glyph unicode="&#210;" horiz-adv-x="823" d="M70 350q0 70 23 135.5q23 65.5 67 116.5q44 51 109.5 81.5q65.5 30.5 150.5 30.5q91 0 157 -33.5q66 -33.5 109 -86q43 -52.5 63.5 -117.5q20.5 -65 20.5 -127q0 -62 -20.5 -127q-20.5 -65 -63.5 -117.5q-43 -52.5 -109 -86q-66 -33.5 -157 -33.5q-85 0 -150.5 30.5q-65.5 30.5 -109.5 81.5q-44 51 -67 116.5q-23 65.5 -23 135.5zt0 0zM179 350q0 -57 13 -117q13 -60 42 -108.5q29 -48.5 75 -79.5q46 -31 111 -31q65 0 111 31q46 31 75 79.5q29 48.5 42 108.5q13 60 13 117q0 57 -13 117q-13 60 -42 108.5q-29 48.5 -75 79.5q-46 31 -111 31q-65 0 -111 -31q-46 -31 -75 -79.5q-29 -48.5 -42 -108.5q-13 -60 -13 -117zt0 0zM496 750l-182 86q-5 2 -9 4.5q-4 2.5 -8 4.5q-10 6 -18.5 17q-8.5 11 -8.5 28q0 20 15 35q13 15 34 15q15 0 29 -10q5 -4 9.5 -8q4.5 -4 9.5 -9l143 -143z" />
<glyph unicode="&#211;" horiz-adv-x="823" d="M70 350q0 70 23 135.5q23 65.5 67 116.5q44 51 109.5 81.5q65.5 30.5 150.5 30.5q91 0 157 -33.5q66 -33.5 109 -86q43 -52.5 63.5 -117.5q20.5 -65 20.5 -127q0 -62 -20.5 -127q-20.5 -65 -63.5 -117.5q-43 -52.5 -109 -86q-66 -33.5 -157 -33.5q-85 0 -150.5 30.5q-65.5 30.5 -109.5 81.5q-44 51 -67 116.5q-23 65.5 -23 135.5zt0 0zM179 350q0 -57 13 -117q13 -60 42 -108.5q29 -48.5 75 -79.5q46 -31 111 -31q65 0 111 31q46 31 75 79.5q29 48.5 42 108.5q13 60 13 117q0 57 -13 117q-13 60 -42 108.5q-29 48.5 -75 79.5q-46 31 -111 31q-65 0 -111 -31q-46 -31 -75 -79.5q-29 -48.5 -42 -108.5q-13 -60 -13 -117zt0 0zM463 913q8 8 16 15q8 7 19 10q8 2 13 2q20 0 34 -15q4 -4 6.5 -8q2.5 -4 4.5 -9q2 -5 3 -9q1 -4 1 -9q0 -23 -15 -35q-15 -12 -29 -19l-182 -86l-14 20z" />
<glyph unicode="&#212;" horiz-adv-x="823" d="M70 350q0 70 23 135.5q23 65.5 67 116.5q44 51 109.5 81.5q65.5 30.5 150.5 30.5q91 0 157 -33.5q66 -33.5 109 -86q43 -52.5 63.5 -117.5q20.5 -65 20.5 -127q0 -62 -20.5 -127q-20.5 -65 -63.5 -117.5q-43 -52.5 -109 -86q-66 -33.5 -157 -33.5q-85 0 -150.5 30.5q-65.5 30.5 -109.5 81.5q-44 51 -67 116.5q-23 65.5 -23 135.5zt0 0zM179 350q0 -57 13 -117q13 -60 42 -108.5q29 -48.5 75 -79.5q46 -31 111 -31q65 0 111 31q46 31 75 79.5q29 48.5 42 108.5q13 60 13 117q0 57 -13 117q-13 60 -42 108.5q-29 48.5 -75 79.5q-46 31 -111 31q-65 0 -111 -31q-46 -31 -75 -79.5q-29 -48.5 -42 -108.5q-13 -60 -13 -117zt0 0zM248 750l-18 20l142 170h96l142 -170l-18 -20l-172 126z" />
<glyph unicode="&#213;" horiz-adv-x="823" d="M70 350q0 70 23 135.5q23 65.5 67 116.5q44 51 109.5 81.5q65.5 30.5 150.5 30.5q91 0 157 -33.5q66 -33.5 109 -86q43 -52.5 63.5 -117.5q20.5 -65 20.5 -127q0 -62 -20.5 -127q-20.5 -65 -63.5 -117.5q-43 -52.5 -109 -86q-66 -33.5 -157 -33.5q-85 0 -150.5 30.5q-65.5 30.5 -109.5 81.5q-44 51 -67 116.5q-23 65.5 -23 135.5zt0 0zM179 350q0 -57 13 -117q13 -60 42 -108.5q29 -48.5 75 -79.5q46 -31 111 -31q65 0 111 31q46 31 75 79.5q29 48.5 42 108.5q13 60 13 117q0 57 -13 117q-13 60 -42 108.5q-29 48.5 -75 79.5q-46 31 -111 31q-65 0 -111 -31q-46 -31 -75 -79.5q-29 -48.5 -42 -108.5q-13 -60 -13 -117zt0 0zM210 780q15 22 30 39q15 17 34 32q15 12 34 21.5q19 9.5 42 9.5q17 0 39.5 -7q22.5 -7 59.5 -24q20 -9 45.5 -20q25.5 -11 46.5 -11q15 0 25.5 5.5q10.5 5.5 19.5 12.5q11 8 19 16q8 8 13 13l19 -22q-4 -6 -10 -14q-6 -8 -12.5 -16.5q-6.5 -8.5 -13.5 -16q-7 -7.5 -13 -13.5q-16 -16 -33 -25.5q-17 -9.5 -44 -9.5q-23 0 -44 8.5q-21 8.5 -53 23.5q-20 9 -43.5 19.5q-23.5 10.5 -43.5 10.5q-8 0 -23 -2.5q-15 -2.5 -36 -16.5q-2 -2 -12.5 -9.5q-10.5 -7.5 -28.5 -24.5z" />
<glyph unicode="&#214;" horiz-adv-x="823" d="M70 350q0 70 23 135.5q23 65.5 67 116.5q44 51 109.5 81.5q65.5 30.5 150.5 30.5q91 0 157 -33.5q66 -33.5 109 -86q43 -52.5 63.5 -117.5q20.5 -65 20.5 -127q0 -62 -20.5 -127q-20.5 -65 -63.5 -117.5q-43 -52.5 -109 -86q-66 -33.5 -157 -33.5q-85 0 -150.5 30.5q-65.5 30.5 -109.5 81.5q-44 51 -67 116.5q-23 65.5 -23 135.5zt0 0zM179 350q0 -57 13 -117q13 -60 42 -108.5q29 -48.5 75 -79.5q46 -31 111 -31q65 0 111 31q46 31 75 79.5q29 48.5 42 108.5q13 60 13 117q0 57 -13 117q-13 60 -42 108.5q-29 48.5 -75 79.5q-46 31 -111 31q-65 0 -111 -31q-46 -31 -75 -79.5q-29 -48.5 -42 -108.5q-13 -60 -13 -117zt0 0zM250 810q0 25 17.5 42.5q17.5 17.5 42.5 17.5q25 0 42.5 -17.5q17.5 -17.5 17.5 -42.5q0 -25 -17.5 -42.5q-17.5 -17.5 -42.5 -17.5q-25 0 -42.5 17.5q-17.5 17.5 -17.5 42.5zt0 0zM480 810q0 25 17.5 42.5q17.5 17.5 42.5 17.5q25 0 42.5 -17.5q17.5 -17.5 17.5 -42.5q0 -25 -17.5 -42.5q-17.5 -17.5 -42.5 -17.5q-25 0 -42.5 17.5t-17.5 42.5z" />
<glyph unicode="&#215;" horiz-adv-x="572" d="M88 124l-28 28l198 198l-198 198l28 28l198 -198l198 198l28 -28l-198 -198l198 -198l-28 -28l-198 198z" />
<glyph unicode="&#216;" horiz-adv-x="823" d="M190 68q-64 58 -92 133q-28 75 -28 149q0 58 17 117q17 58 48.5 103q31.5 45 69.5 75q42 33 95 51q53 18 120 18q19 0 35 -1.5q16 -1.5 30 -3.5q39 -6 73 -19.5q34 -13.5 68 -38.5l58 77l24 -20l-58 -77q32 -29 59 -68.5q27 -39.5 44 -95.5q17 -59 17 -117q0 -39 -8 -79.5q-8 -40.5 -24.5 -79q-16.5 -38.5 -42 -73.5q-25.5 -35 -61.5 -63q-39 -31 -83.5 -47.5q-44.5 -16.5 -101.5 -20.5q-8 -1 -14.5 -1q-6.5 0 -14.5 0q-74 0 -123.5 19q-49.5 19 -82.5 43l-58 -78l-24 20zM589 601q-27 36 -60.5 55.5q-33.5 19.5 -64.5 25.5q-19 4 -44 4q-26 0 -60 -8q-34 -8 -69 -36q-32 -26 -60.5 -72.5q-28.5 -46.5 -42.5 -123.5q-9 -48 -9 -96q0 -23 2.5 -51q2.5 -28 9 -57.5q6.5 -29.5 17 -59.5q10.5 -30 26.5 -56zM252 98q22 -29 47 -46q25 -17 48 -25.5q23 -8.5 42.5 -10.5q19.5 -2 30.5 -2q26 0 60 8q34 8 69 36q31 25 52.5 60q21.5 35 35 74.5q13.5 39.5 19 80.5q5.5 41 5.5 77q0 24 -2.5 52q-2.5 28 -8.5 57q-6 29 -16.5 58.5q-10.5 29.5 -26.5 55.5z" />
<glyph unicode="&#217;" horiz-adv-x="829" d="M349 700v-28h-57q-5 0 -11.5 -1q-6.5 -1 -12.5 -5q-6 -4 -10 -13.5q-4 -9.5 -4 -25.5v-393q0 -10 1 -30q1 -20 6.5 -44.5q5.5 -24.5 16.5 -49.5q11 -25 31.5 -46q20.5 -21 52 -34q31.5 -13 77.5 -13q20 0 55.5 5.5q35.5 5.5 70 28.5q34.5 23 59.5 69q25 46 25 126v156q0 49 -2 97.5q-2 48.5 -9 86.5q-7 38 -21 62q-14 24 -38 24h-28v28h226v-28h-24q-24 0 -38 -24q-14 -24 -21 -62q-7 -38 -9 -86.5q-2 -48.5 -2 -97.5v-157q0 -22 -3 -49.5q-3 -27.5 -12 -56.5q-9 -29 -25.5 -56.5q-16.5 -27.5 -43.5 -49q-27 -21.5 -66.5 -34.5q-39.5 -13 -93.5 -13q-68 0 -115 15.5q-47 15.5 -78 40q-31 24.5 -48 54q-17 29.5 -25 57q-8 27.5 -9.5 50q-1.5 22.5 -1.5 32.5v392q0 16 -4 25.5q-4 9.5 -10 13.5q-6 4 -12.5 5q-6.5 1 -11.5 1h-57v28zM496 750l-182 86q-5 2 -9 4.5q-4 2.5 -8 4.5q-10 6 -18.5 17q-8.5 11 -8.5 28q0 20 15 35q13 15 34 15q15 0 29 -10q5 -4 9.5 -8q4.5 -4 9.5 -9l143 -143z" />
<glyph unicode="&#218;" horiz-adv-x="829" d="M349 700v-28h-57q-5 0 -11.5 -1q-6.5 -1 -12.5 -5q-6 -4 -10 -13.5q-4 -9.5 -4 -25.5v-393q0 -10 1 -30q1 -20 6.5 -44.5q5.5 -24.5 16.5 -49.5q11 -25 31.5 -46q20.5 -21 52 -34q31.5 -13 77.5 -13q20 0 55.5 5.5q35.5 5.5 70 28.5q34.5 23 59.5 69q25 46 25 126v156q0 49 -2 97.5q-2 48.5 -9 86.5q-7 38 -21 62q-14 24 -38 24h-28v28h226v-28h-24q-24 0 -38 -24q-14 -24 -21 -62q-7 -38 -9 -86.5q-2 -48.5 -2 -97.5v-157q0 -22 -3 -49.5q-3 -27.5 -12 -56.5q-9 -29 -25.5 -56.5q-16.5 -27.5 -43.5 -49q-27 -21.5 -66.5 -34.5q-39.5 -13 -93.5 -13q-68 0 -115 15.5q-47 15.5 -78 40q-31 24.5 -48 54q-17 29.5 -25 57q-8 27.5 -9.5 50q-1.5 22.5 -1.5 32.5v392q0 16 -4 25.5q-4 9.5 -10 13.5q-6 4 -12.5 5q-6.5 1 -11.5 1h-57v28zM533 913q8 8 16 15q8 7 19 10q8 2 13 2q20 0 34 -15q4 -4 6.5 -8q2.5 -4 4.5 -9q2 -5 3 -9q1 -4 1 -9q0 -23 -15 -35q-15 -12 -29 -19l-182 -86l-14 20z" />
<glyph unicode="&#219;" horiz-adv-x="829" d="M349 700v-28h-57q-5 0 -11.5 -1q-6.5 -1 -12.5 -5q-6 -4 -10 -13.5q-4 -9.5 -4 -25.5v-393q0 -10 1 -30q1 -20 6.5 -44.5q5.5 -24.5 16.5 -49.5q11 -25 31.5 -46q20.5 -21 52 -34q31.5 -13 77.5 -13q20 0 55.5 5.5q35.5 5.5 70 28.5q34.5 23 59.5 69q25 46 25 126v156q0 49 -2 97.5q-2 48.5 -9 86.5q-7 38 -21 62q-14 24 -38 24h-28v28h226v-28h-24q-24 0 -38 -24q-14 -24 -21 -62q-7 -38 -9 -86.5q-2 -48.5 -2 -97.5v-157q0 -22 -3 -49.5q-3 -27.5 -12 -56.5q-9 -29 -25.5 -56.5q-16.5 -27.5 -43.5 -49q-27 -21.5 -66.5 -34.5q-39.5 -13 -93.5 -13q-68 0 -115 15.5q-47 15.5 -78 40q-31 24.5 -48 54q-17 29.5 -25 57q-8 27.5 -9.5 50q-1.5 22.5 -1.5 32.5v392q0 16 -4 25.5q-4 9.5 -10 13.5q-6 4 -12.5 5q-6.5 1 -11.5 1h-57v28zM268 750l-18 20l142 170h96l142 -170l-18 -20l-172 126z" />
<glyph unicode="&#220;" horiz-adv-x="829" d="M349 700v-28h-57q-5 0 -11.5 -1q-6.5 -1 -12.5 -5q-6 -4 -10 -13.5q-4 -9.5 -4 -25.5v-393q0 -10 1 -30q1 -20 6.5 -44.5q5.5 -24.5 16.5 -49.5q11 -25 31.5 -46q20.5 -21 52 -34q31.5 -13 77.5 -13q20 0 55.5 5.5q35.5 5.5 70 28.5q34.5 23 59.5 69q25 46 25 126v156q0 49 -2 97.5q-2 48.5 -9 86.5q-7 38 -21 62q-14 24 -38 24h-28v28h226v-28h-24q-24 0 -38 -24q-14 -24 -21 -62q-7 -38 -9 -86.5q-2 -48.5 -2 -97.5v-157q0 -22 -3 -49.5q-3 -27.5 -12 -56.5q-9 -29 -25.5 -56.5q-16.5 -27.5 -43.5 -49q-27 -21.5 -66.5 -34.5q-39.5 -13 -93.5 -13q-68 0 -115 15.5q-47 15.5 -78 40q-31 24.5 -48 54q-17 29.5 -25 57q-8 27.5 -9.5 50q-1.5 22.5 -1.5 32.5v392q0 16 -4 25.5q-4 9.5 -10 13.5q-6 4 -12.5 5q-6.5 1 -11.5 1h-57v28zM270 810q0 25 17.5 42.5q17.5 17.5 42.5 17.5q25 0 42.5 -17.5q17.5 -17.5 17.5 -42.5q0 -25 -17.5 -42.5q-17.5 -17.5 -42.5 -17.5q-25 0 -42.5 17.5q-17.5 17.5 -17.5 42.5zt0 0zM500 810q0 25 17.5 42.5q17.5 17.5 42.5 17.5q25 0 42.5 -17.5q17.5 -17.5 17.5 -42.5q0 -25 -17.5 -42.5q-17.5 -17.5 -42.5 -17.5q-25 0 -42.5 17.5t-17.5 42.5z" />
<glyph unicode="&#221;" horiz-adv-x="712" d="M292 700v-28h-55q-9 0 -15.5 -4.5q-6.5 -4.5 -6.5 -12.5q0 -2 0.5 -8q0.5 -6 5.5 -15l169 -307l76 129q16 27 31 56q15 29 26 55q11 26 18 48q7 22 7 36q0 12 -8 17.5q-8 5.5 -19 5.5h-56v28h226v-28q-25 1 -44 -9q-19 -10 -38.5 -34q-19.5 -24 -42.5 -62q-23 -38 -55 -92l-110 -183v-219q0 -17 4 -26q4 -9 10 -13q6 -4 12.5 -5q6.5 -1 11.5 -1h57v-28h-282v28h57q5 0 11.5 1q6.5 1 12.5 5q6 4 10 13q4 9 4 26v213l-180 327q-5 10 -13.5 20.5q-8.5 10.5 -21 19q-12.5 8.5 -30.5 14q-18 5.5 -43 5.5l0 28zM473 913q8 8 16 15q8 7 19 10q8 2 13 2q20 0 34 -15q4 -4 6.5 -8q2.5 -4 4.5 -9q2 -5 3 -9q1 -4 1 -9q0 -23 -15 -35q-15 -12 -29 -19l-182 -86l-14 20z" />
<glyph unicode="&#222;" horiz-adv-x="656" d="M255 73q0 -17 4 -26q4 -9 10 -13q6 -4 12.5 -5q6.5 -1 11.5 -1h77v-28h-302v28h57q5 0 11.5 1q6.5 1 12.5 5q6 4 10 13q4 9 4 26v554q0 16 -4 25.5q-4 9.5 -10 13.5q-6 4 -12.5 5q-6.5 1 -11.5 1h-58v28h284v-28h-58q-5 0 -11.5 -1q-6.5 -1 -12.5 -5q-6 -4 -10 -13.5q-4 -9.5 -4 -25.5v-47h71q26 0 58 -2.5q32 -2.5 64 -9.5q32 -7 62.5 -20.5q30.5 -13.5 54 -36.5q23.5 -23 38 -56q14.5 -33 14.5 -79q0 -43 -15 -83q-15 -40 -49.5 -71q-34.5 -31 -90 -49.5q-55.5 -18.5 -136.5 -18.5h-71zM255 182h53q70 0 110 22q40 22 60 53q20 31 25 64q5 33 5 55q0 61 -19.5 96q-19.5 35 -49.5 53q-30 18 -65 22.5q-35 4.5 -66 4.5l-53 0z" />
<glyph unicode="&#223;" horiz-adv-x="558" d="M22 0v22h60q5 0 11.5 1q6.5 1 12.5 5q6 4 10 13q4 9 4 26v365q0 25 1.5 56q1.5 31 8.5 62.5q7 31.5 20 61.5q13 30 35.5 53.5q22.5 23.5 56.5 37.5q34 14 82 14q42 0 74 -12q32 -12 53.5 -32.5q21.5 -20.5 32.5 -47q11 -26.5 11 -54.5q0 -48 -18 -78q-18 -30 -43 -47q-25 -17 -52 -24.5q-27 -7.5 -45 -8.5l0 -9q29 0 61.5 -9.5q32.5 -9.5 60 -33q27.5 -23.5 45.5 -64.5q18 -41 18 -105q0 -52 -15 -90.5q-15 -38.5 -39 -63.5q-24 -25 -55 -37q-31 -12 -62 -12q-55 0 -85.5 26.5q-30.5 26.5 -30.5 59.5q0 20 11 34q11 14 30 14q18 0 31 -11q13 -11 13 -33q0 -10 -1 -15q-1 -5 -1.5 -8q-0.5 -3 -1.5 -6q-1 -3 -1 -8q0 -16 11 -23.5q11 -7.5 23 -7.5q11 0 26 6q15 6 28.5 25.5q13.5 19.5 22.5 55.5q9 36 9 96q0 57 -12.5 95q-12.5 38 -34.5 61q-22 23 -52 33q-30 10 -64 10h-33v22h33q22 0 48 7.5q26 7.5 48 25q22 17.5 36.5 46.5q14.5 29 14.5 73q0 40 -9.5 65q-9.5 25 -24 39q-14.5 14 -32 19q-17.5 5 -33.5 5q-24 0 -46.5 -9.5q-22.5 -9.5 -40 -28.5q-17.5 -19 -27.5 -48q-10 -29 -10 -67l0 -542z" />
<glyph unicode="&#224;" horiz-adv-x="468" d="M305 328q0 16 -1.5 37q-1.5 21 -12 40q-10.5 19 -32.5 32.5q-22 13.5 -64 13.5q-34 0 -46 -10q-12 -10 -12 -21q0 -6 2 -16q1 -5 2 -10.5q1 -5.5 1 -10.5q0 -22 -13 -33q-13 -11 -32 -11q-20 0 -31.5 14q-11.5 14 -11.5 34q0 16 8.5 31.5q8.5 15.5 25.5 27.5q17 12 43 19.5q26 7.5 61 7.5q69 0 107.5 -18q38.5 -18 56.5 -42q18 -24 21.5 -48q3.5 -24 3.5 -37v-261q0 -14 4 -26.5q4 -12.5 18 -12.5q12 0 22 11q10 11 15 28l22 -9q-3 -10 -9.5 -22q-6.5 -12 -16.5 -22.5q-10 -10.5 -24.5 -17.5q-14.5 -7 -35.5 -7q-21 0 -34.5 8.5q-13.5 8.5 -22 21q-8.5 12.5 -11.5 28q-3 15.5 -3 29.5q-32 -39 -72.5 -63q-40.5 -24 -94.5 -24q-27 0 -47 8.5q-20 8.5 -33 22.5q-13 14 -19.5 31.5q-6.5 17.5 -6.5 36.5q0 46 25.5 78q25.5 32 65 53.5q39.5 21.5 88 34.5q48.5 13 94.5 22zM305 254q-57 -11 -93 -27q-36 -16 -57 -36q-21 -20 -28.5 -42q-7.5 -22 -7.5 -45q0 -33 15.5 -54.5q15.5 -21.5 46.5 -21.5q35 0 67 24q32 24 57 53zM262 560l-177 132q-10 7 -17.5 15q-7.5 8 -7.5 22q0 19 15 33q13 12 29 12q17 0 26.5 -8.5q9.5 -8.5 16.5 -17.5l133 -170z" />
<glyph unicode="&#225;" horiz-adv-x="468" d="M305 328q0 16 -1.5 37q-1.5 21 -12 40q-10.5 19 -32.5 32.5q-22 13.5 -64 13.5q-34 0 -46 -10q-12 -10 -12 -21q0 -6 2 -16q1 -5 2 -10.5q1 -5.5 1 -10.5q0 -22 -13 -33q-13 -11 -32 -11q-20 0 -31.5 14q-11.5 14 -11.5 34q0 16 8.5 31.5q8.5 15.5 25.5 27.5q17 12 43 19.5q26 7.5 61 7.5q69 0 107.5 -18q38.5 -18 56.5 -42q18 -24 21.5 -48q3.5 -24 3.5 -37v-261q0 -14 4 -26.5q4 -12.5 18 -12.5q12 0 22 11q10 11 15 28l22 -9q-3 -10 -9.5 -22q-6.5 -12 -16.5 -22.5q-10 -10.5 -24.5 -17.5q-14.5 -7 -35.5 -7q-21 0 -34.5 8.5q-13.5 8.5 -22 21q-8.5 12.5 -11.5 28q-3 15.5 -3 29.5q-32 -39 -72.5 -63q-40.5 -24 -94.5 -24q-27 0 -47 8.5q-20 8.5 -33 22.5q-13 14 -19.5 31.5q-6.5 17.5 -6.5 36.5q0 46 25.5 78q25.5 32 65 53.5q39.5 21.5 88 34.5q48.5 13 94.5 22zM305 254q-57 -11 -93 -27q-36 -16 -57 -36q-21 -20 -28.5 -42q-7.5 -22 -7.5 -45q0 -33 15.5 -54.5q15.5 -21.5 46.5 -21.5q35 0 67 24q32 24 57 53zM283 748q7 9 16.5 17.5q9.5 8.5 26.5 8.5q19 0 31.5 -14.5q12.5 -14.5 12.5 -30.5q0 -14 -7.5 -22q-7.5 -8 -17.5 -15l-177 -132l-18 18z" />
<glyph unicode="&#226;" horiz-adv-x="468" d="M305 328q0 16 -1.5 37q-1.5 21 -12 40q-10.5 19 -32.5 32.5q-22 13.5 -64 13.5q-34 0 -46 -10q-12 -10 -12 -21q0 -6 2 -16q1 -5 2 -10.5q1 -5.5 1 -10.5q0 -22 -13 -33q-13 -11 -32 -11q-20 0 -31.5 14q-11.5 14 -11.5 34q0 16 8.5 31.5q8.5 15.5 25.5 27.5q17 12 43 19.5q26 7.5 61 7.5q69 0 107.5 -18q38.5 -18 56.5 -42q18 -24 21.5 -48q3.5 -24 3.5 -37v-261q0 -14 4 -26.5q4 -12.5 18 -12.5q12 0 22 11q10 11 15 28l22 -9q-3 -10 -9.5 -22q-6.5 -12 -16.5 -22.5q-10 -10.5 -24.5 -17.5q-14.5 -7 -35.5 -7q-21 0 -34.5 8.5q-13.5 8.5 -22 21q-8.5 12.5 -11.5 28q-3 15.5 -3 29.5q-32 -39 -72.5 -63q-40.5 -24 -94.5 -24q-27 0 -47 8.5q-20 8.5 -33 22.5q-13 14 -19.5 31.5q-6.5 17.5 -6.5 36.5q0 46 25.5 78q25.5 32 65 53.5q39.5 21.5 88 34.5q48.5 13 94.5 22zM305 254q-57 -11 -93 -27q-36 -16 -57 -36q-21 -20 -28.5 -42q-7.5 -22 -7.5 -45q0 -33 15.5 -54.5q15.5 -21.5 46.5 -21.5q35 0 67 24q32 24 57 53zM208 754q6 8 12 14q6 6 14 6q8 0 14 -6q6 -6 12 -14l138 -176l-18 -18l-146 119l-146 -119l-18 18z" />
<glyph unicode="&#227;" horiz-adv-x="468" d="M305 328q0 16 -1.5 37q-1.5 21 -12 40q-10.5 19 -32.5 32.5q-22 13.5 -64 13.5q-34 0 -46 -10q-12 -10 -12 -21q0 -6 2 -16q1 -5 2 -10.5q1 -5.5 1 -10.5q0 -22 -13 -33q-13 -11 -32 -11q-20 0 -31.5 14q-11.5 14 -11.5 34q0 16 8.5 31.5q8.5 15.5 25.5 27.5q17 12 43 19.5q26 7.5 61 7.5q69 0 107.5 -18q38.5 -18 56.5 -42q18 -24 21.5 -48q3.5 -24 3.5 -37v-261q0 -14 4 -26.5q4 -12.5 18 -12.5q12 0 22 11q10 11 15 28l22 -9q-3 -10 -9.5 -22q-6.5 -12 -16.5 -22.5q-10 -10.5 -24.5 -17.5q-14.5 -7 -35.5 -7q-21 0 -34.5 8.5q-13.5 8.5 -22 21q-8.5 12.5 -11.5 28q-3 15.5 -3 29.5q-32 -39 -72.5 -63q-40.5 -24 -94.5 -24q-27 0 -47 8.5q-20 8.5 -33 22.5q-13 14 -19.5 31.5q-6.5 17.5 -6.5 36.5q0 46 25.5 78q25.5 32 65 53.5q39.5 21.5 88 34.5q48.5 13 94.5 22zM305 254q-57 -11 -93 -27q-36 -16 -57 -36q-21 -20 -28.5 -42q-7.5 -22 -7.5 -45q0 -33 15.5 -54.5q15.5 -21.5 46.5 -21.5q35 0 67 24q32 24 57 53zM385 674q-4 -7 -9 -15.5q-5 -8.5 -11 -16.5q-16 -23 -33.5 -35.5q-17.5 -12.5 -41.5 -12.5q-23 0 -44.5 8q-21.5 8 -38.5 16q-14 7 -27.5 11.5q-13.5 4.5 -24.5 4.5q-11 0 -18 -4q-7 -4 -15 -11q-7 -6 -12 -11.5q-5 -5.5 -10 -12.5l-20 13q7 14 17 31q10 17 22 28q26 23 58 23q17 0 39.5 -7.5q22.5 -7.5 51.5 -18.5q35 -13 46 -13q11 0 19.5 6.5q8.5 6.5 13.5 10.5q7 6 18 21z" />
<glyph unicode="&#228;" horiz-adv-x="468" d="M305 328q0 16 -1.5 37q-1.5 21 -12 40q-10.5 19 -32.5 32.5q-22 13.5 -64 13.5q-34 0 -46 -10q-12 -10 -12 -21q0 -6 2 -16q1 -5 2 -10.5q1 -5.5 1 -10.5q0 -22 -13 -33q-13 -11 -32 -11q-20 0 -31.5 14q-11.5 14 -11.5 34q0 16 8.5 31.5q8.5 15.5 25.5 27.5q17 12 43 19.5q26 7.5 61 7.5q69 0 107.5 -18q38.5 -18 56.5 -42q18 -24 21.5 -48q3.5 -24 3.5 -37v-261q0 -14 4 -26.5q4 -12.5 18 -12.5q12 0 22 11q10 11 15 28l22 -9q-3 -10 -9.5 -22q-6.5 -12 -16.5 -22.5q-10 -10.5 -24.5 -17.5q-14.5 -7 -35.5 -7q-21 0 -34.5 8.5q-13.5 8.5 -22 21q-8.5 12.5 -11.5 28q-3 15.5 -3 29.5q-32 -39 -72.5 -63q-40.5 -24 -94.5 -24q-27 0 -47 8.5q-20 8.5 -33 22.5q-13 14 -19.5 31.5q-6.5 17.5 -6.5 36.5q0 46 25.5 78q25.5 32 65 53.5q39.5 21.5 88 34.5q48.5 13 94.5 22zM305 254q-57 -11 -93 -27q-36 -16 -57 -36q-21 -20 -28.5 -42q-7.5 -22 -7.5 -45q0 -33 15.5 -54.5q15.5 -21.5 46.5 -21.5q35 0 67 24q32 24 57 53zM90 650q0 22 14 36q14 14 36 14q22 0 36 -14q14 -14 14 -36q0 -22 -14 -36q-14 -14 -36 -14q-22 0 -36 14q-14 14 -14 36zt0 0zM250 650q0 22 14 36q14 14 36 14q22 0 36 -14q14 -14 14 -36q0 -22 -14 -36q-14 -14 -36 -14q-22 0 -36 14t-14 36z" />
<glyph unicode="&#229;" horiz-adv-x="468" d="M305 328q0 16 -1.5 37q-1.5 21 -12 40q-10.5 19 -32.5 32.5q-22 13.5 -64 13.5q-34 0 -46 -10q-12 -10 -12 -21q0 -6 2 -16q1 -5 2 -10.5q1 -5.5 1 -10.5q0 -22 -13 -33q-13 -11 -32 -11q-20 0 -31.5 14q-11.5 14 -11.5 34q0 16 8.5 31.5q8.5 15.5 25.5 27.5q17 12 43 19.5q26 7.5 61 7.5q69 0 107.5 -18q38.5 -18 56.5 -42q18 -24 21.5 -48q3.5 -24 3.5 -37v-261q0 -14 4 -26.5q4 -12.5 18 -12.5q12 0 22 11q10 11 15 28l22 -9q-3 -10 -9.5 -22q-6.5 -12 -16.5 -22.5q-10 -10.5 -24.5 -17.5q-14.5 -7 -35.5 -7q-21 0 -34.5 8.5q-13.5 8.5 -22 21q-8.5 12.5 -11.5 28q-3 15.5 -3 29.5q-32 -39 -72.5 -63q-40.5 -24 -94.5 -24q-27 0 -47 8.5q-20 8.5 -33 22.5q-13 14 -19.5 31.5q-6.5 17.5 -6.5 36.5q0 46 25.5 78q25.5 32 65 53.5q39.5 21.5 88 34.5q48.5 13 94.5 22zM305 254q-57 -11 -93 -27q-36 -16 -57 -36q-21 -20 -28.5 -42q-7.5 -22 -7.5 -45q0 -33 15.5 -54.5q15.5 -21.5 46.5 -21.5q35 0 67 24q32 24 57 53zM110 674q0 45 30.5 75.5q30.5 30.5 75.5 30.5q45 0 75.5 -30.5q30.5 -30.5 30.5 -75.5q0 -45 -30.5 -75.5q-30.5 -30.5 -75.5 -30.5q-45 0 -75.5 30.5q-30.5 30.5 -30.5 75.5zt0 0zM150 674q0 -27 19.5 -46.5q19.5 -19.5 46.5 -19.5q27 0 46.5 19.5q19.5 19.5 19.5 46.5q0 27 -19.5 46.5q-19.5 19.5 -46.5 19.5q-27 0 -46.5 -19.5t-19.5 -46.5z" />
</font>
</defs>
</svg>
