<?xml version="1.0" encoding="UTF-8" standalone="no"?>
<!DOCTYPE svg PUBLIC "-//W3C//DTD SVG 1.1//EN" "http://www.w3.org/Graphics/SVG/1.1/DTD/svg11.dtd" >
<svg xmlns="http://www.w3.org/2000/svg">
<metadata>
Generated by SVGconv.
Copyright   : Copyright  2011 ParaType Inc., ParaType Ltd. All rights reserved.
Designer    : Natalia Vasilyeva
Foundry     : ParaType, Inc.
Foundry URL : http://www.paratype.com
</metadata>
<defs>
<font id="Margon360Web-Regular" horiz-adv-x="521" >
<font-face units-per-em="1000" ascent="1032" descent="339" >
<font-face-src>
<font-face-name/>
</font-face-src>
</font-face>
<missing-glyph horiz-adv-x="500" />
<glyph unicode="&#13;" horiz-adv-x="409" />
<glyph unicode="&#32;" horiz-adv-x="409" />
<glyph unicode="&#33;" horiz-adv-x="265" d="M82 597q-2 17 -3 32q-1 15 -1 36q0 29 13 41.5q13 12.5 39 12.5q26 0 39.5 -12.5q13.5 -12.5 13.5 -41.5q0 -13 -1 -30q-1 -17 -3 -38l-31 -400q-1 -9 -5 -11.5q-4 -2.5 -11 -2.5q-6 0 -11 2.5q-5 2.5 -6 11.5zM189 46q0 -9 -2 -20q-2 -11 -8.5 -20q-6.5 -9 -18 -15.5q-11.5 -6.5 -30.5 -6.5q-32 0 -43.5 19.5q-11.5 19.5 -11.5 42.5q0 8 2 18.5q2 10.5 8 20.5q6 10 17.5 16.5q11.5 6.5 31.5 6.5q31 0 43 -19.5t12 -42.5z" />
<glyph unicode="&#34;" horiz-adv-x="318" d="M270 701q0 -11 -2 -22q-2 -11 -4 -25l-24 -131h-28l-25 131q-2 12 -3.5 24.5q-1.5 12.5 -1.5 22.5q0 51 44 51q44 0 44 -51zt0 0zM136 701q0 -11 -2 -22q-2 -11 -4 -25l-24 -131h-28l-25 131q-2 12 -3.5 24.5q-1.5 12.5 -1.5 22.5q0 51 44 51q44 0 44 -51z" />
<glyph unicode="&#35;" horiz-adv-x="510" d="M511 550l-5 -60h-89l-15 -254h90l-5 -60h-90l-10 -176h-57l10 176h-170l-11 -176h-57l11 176h-95l5 60h94l16 254h-96l4 60h95l11 170h57l-11 -170h171l11 170h57l-11 -170zM361 490h-171l-16 -254l171 0z" />
<glyph unicode="&#36;" horiz-adv-x="510" d="M462 181q0 -39 -14.5 -74.5q-14.5 -35.5 -40 -62q-25.5 -26.5 -60 -42q-34.5 -15.5 -74.5 -15.5l0 -93h-41v91q-51 0 -87.5 13q-36.5 13 -60.5 34q-24 21 -35 46.5q-11 25.5 -11 49.5q0 23 11.5 38q11.5 15 31.5 15q16 0 25.5 -5.5q9.5 -5.5 15 -14.5q5.5 -9 7 -20q1.5 -11 1.5 -22q0 -45 22.5 -70.5q22.5 -25.5 79.5 -25.5l0 289l-67 42q-67 42 -92.5 84q-25.5 42 -25.5 90q0 38 16 67.5q16 29.5 42 49.5q26 20 59 30.5q33 10.5 68 10.5l0 84h41v-84q50 0 83 -15q33 -15 53 -37.5q20 -22.5 28.5 -47.5q8.5 -25 8.5 -45q0 -17 -8.5 -34.5q-8.5 -17.5 -31.5 -17.5q-18 0 -28 6.5q-10 6.5 -14.5 16q-4.5 9.5 -5.5 20q-1 10.5 -1 18.5q0 16 -1.5 33q-1.5 17 -9 31.5q-7.5 14.5 -25 24q-17.5 9.5 -48.5 9.5l0 -253l57 -32q66 -37 99 -79.5q33 -42.5 33 -102.5zt0 0zM232 648q-12 0 -29.5 -3.5q-17.5 -3.5 -33.5 -14q-16 -10.5 -27.5 -30q-11.5 -19.5 -11.5 -52.5q0 -38 25 -68q25 -30 77 -62zM380 146q0 22 -5 40.5q-5 18.5 -17 35q-12 16.5 -33 32.5q-21 16 -52 35l0 -264q15 0 33.5 6q18.5 6 35 20q16.5 14 27.5 37t11 58z" />
<glyph unicode="&#37;" horiz-adv-x="687" d="M347 556q0 -36 -13 -64.5q-13 -28.5 -34 -48.5q-21 -20 -47 -30.5q-26 -10.5 -52 -10.5q-35 0 -62.5 11.5q-27.5 11.5 -46 32.5q-18.5 21 -28.5 49.5q-10 28.5 -10 61.5q0 38 12.5 66.5q12.5 28.5 33 48q20.5 19.5 46.5 29.5q26 10 54 10q72 0 109.5 -43q37.5 -43 37.5 -112zt0 0zM667 139q0 -36 -13 -65q-13 -29 -34 -49q-21 -20 -47 -31q-26 -11 -52 -11q-36 0 -63.5 11.5q-27.5 11.5 -46 32.5q-18.5 21 -28.5 50q-10 29 -10 63q0 38 12.5 66.5q12.5 28.5 33 48q20.5 19.5 47 29q26.5 9.5 54.5 9.5q72 0 109.5 -42.5q37.5 -42.5 37.5 -111.5zt0 0zM277 547q0 60 -19 96q-19 36 -60 36q-32 0 -52 -26.5q-20 -26.5 -20 -83.5q0 -61 20.5 -98.5q20.5 -37.5 55.5 -37.5q31 0 53 28.5q22 28.5 22 85.5zt0 0zM595 129q0 60 -18.5 96.5q-18.5 36.5 -59.5 36.5q-32 0 -52 -27q-20 -27 -20 -84q0 -60 20.5 -98q20.5 -38 55.5 -38q32 0 53 28.5q21 28.5 21 85.5zt0 0zM596 687q0 -4 -2 -7.5q-2 -3.5 -5 -8.5l-430 -677q-7 -11 -9.5 -15q-2.5 -4 -11.5 -4q-5 0 -14.5 6.5q-9.5 6.5 -9.5 14.5q0 5 2 9q2 4 5 9l429 677q10 17 18 17q9 0 18.5 -7t9.5 -14z" />
<glyph unicode="&#38;" horiz-adv-x="740" d="M726 110q0 -8 -12.5 -34q-12.5 -26 -35.5 -51q-17 -19 -40.5 -29.5q-23.5 -10.5 -44.5 -10.5q-19 0 -36.5 4q-17.5 4 -35.5 14q-18 10 -37.5 27q-19.5 17 -42.5 44q-26 -25 -50.5 -42q-24.5 -17 -51 -27.5q-26.5 -10.5 -55 -15q-28.5 -4.5 -62.5 -4.5q-34 0 -71.5 8.5q-37.5 8.5 -69 29.5q-31.5 21 -52 56q-20.5 35 -20.5 88q0 45 17 79q17 34 43 59.5q26 25.5 57.5 43q31.5 17.5 60.5 28.5l-34 42q-30 38 -46 74q-16 36 -16 72q0 38 16.5 67q16.5 29 43 48.5q26.5 19.5 60.5 29q34 9.5 69 9.5q33 0 66 -6.5q33 -6.5 59 -21.5q26 -15 42.5 -40.5q16.5 -25.5 16.5 -62.5q0 -37 -15.5 -66q-15.5 -29 -40 -52.5q-24.5 -23.5 -56 -43q-31.5 -19.5 -63.5 -36.5l186 -223q4 7 8.5 19q4.5 12 7.5 24.5q3 12.5 5 23.5q2 11 2 18q0 29 -7.5 38.5q-7.5 9.5 -26.5 9.5h-11q-6 0 -8.5 1.5q-2.5 1.5 -2.5 8.5v17q0 8 3 9q3 1 8 1h144q5 0 8.5 -1q3.5 -1 3.5 -9v-17q0 -7 -3.5 -8.5q-3.5 -1.5 -8.5 -1.5h-14q-9 0 -14 -2.5q-5 -2.5 -8 -9q-3 -6.5 -6 -19q-3 -12.5 -9 -31.5q-11 -33 -22.5 -58.5q-11.5 -25.5 -21.5 -41.5q11 -14 24.5 -29q13.5 -15 28.5 -27.5q15 -12.5 30.5 -20.5q15.5 -8 30.5 -8q26 0 39.5 11q13.5 11 22.5 24q13 17 19 27.5q6 10.5 15 10.5q14 0 14 -16zt0 0zM385 580q0 28 -9 47.5q-9 19.5 -23.5 31.5q-14.5 12 -33.5 17q-19 5 -39 5q-15 0 -34 -3.5q-19 -3.5 -35.5 -14.5q-16.5 -11 -27.5 -30.5q-11 -19.5 -11 -52.5q0 -30 13 -58q13 -28 42 -61l36 -42q18 9 39 22.5q21 13.5 39.5 33q18.5 19.5 31 45.5q12.5 26 12.5 60zt0 0zM212 351q-10 -5 -28.5 -16q-18.5 -11 -37 -30.5q-18.5 -19.5 -32 -49.5q-13.5 -30 -13.5 -72q0 -46 13.5 -75.5q13.5 -29.5 36 -46.5q22.5 -17 51 -23.5q28.5 -6.5 58.5 -6.5q30 0 55.5 8q25.5 8 45.5 19.5q20 11.5 34 23q14 11.5 22 18.5z" />
<glyph unicode="&#39;" horiz-adv-x="185" d="M135 698q0 -11 -1.5 -21q-1.5 -10 -3.5 -23l-24 -131h-28l-24 131q-2 13 -3.5 23q-1.5 10 -1.5 21q0 54 43 54q43 0 43 -54z" />
<glyph unicode="&#40;" horiz-adv-x="321" d="M128 289q0 -128 35.5 -237q35.5 -109 118.5 -204q10 -11 10 -18q0 -5 -5 -9.5q-5 -4.5 -10 -4.5q-10 0 -17 5q-37 28 -82 78.5q-45 50.5 -88 140.5q-28 59 -39.5 117q-11.5 58 -11.5 132q0 74 11.5 132q11.5 58 39.5 117q21 45 43.5 79.5q22.5 34.5 44.5 60.5q22 26 43 45.5q21 19.5 39 33.5q7 5 17 5q5 0 10 -4.5q5 -4.5 5 -9.5q0 -7 -10 -18q-84 -96 -119 -207t-35 -234z" />
<glyph unicode="&#41;" horiz-adv-x="321" d="M35 -154q31 31 59.5 70q28.5 39 50.5 91.5q22 52.5 34.5 121q12.5 68.5 12.5 160.5q0 92 -12.5 161q-12.5 69 -34.5 121.5q-22 52.5 -50.5 91q-28.5 38.5 -59.5 69.5l25 25q42 -36 82 -86q40 -50 71 -110.5q31 -60.5 49.5 -129.5q18.5 -69 18.5 -142q0 -77 -18.5 -146.5q-18.5 -69.5 -49.5 -129q-31 -59.5 -71 -108q-40 -48.5 -82 -83.5z" />
<glyph unicode="&#42;" horiz-adv-x="424" d="M389 463q0 -15 -11 -25.5q-11 -10.5 -26 -10.5q-17 0 -29 9.5q-12 9.5 -23 20.5l-65 67l-14 -10l24 -89q2 -7 3.5 -17q1.5 -10 1.5 -15q0 -46 -38 -46q-38 0 -38 43q0 11 1.5 18.5q1.5 7.5 3.5 16.5l24 89l-14 10l-65 -67q-11 -11 -23 -20.5q-12 -9.5 -29 -9.5q-15 0 -26 10.5q-11 10.5 -11 25.5q0 20 13.5 32q13.5 12 42.5 20l89 24v16l-89 24q-29 8 -42.5 20q-13.5 12 -13.5 32q0 15 11 25.5q11 10.5 26 10.5q17 0 29 -9.5q12 -9.5 23 -20.5l65 -67l14 10l-24 89q-3 10 -4 17q-1 7 -1 18q0 43 38 43q38 0 38 -46q0 -5 -1.5 -15q-1.5 -10 -3.5 -17l-24 -89l14 -10l65 67q11 11 23 20.5q12 9.5 29 9.5q15 0 26 -10.5q11 -10.5 11 -25.5q0 -20 -13.5 -32q-13.5 -12 -42.5 -20l-89 -24v-16l89 -24q29 -8 42.5 -20t13.5 -32z" />
<glyph unicode="&#43;" horiz-adv-x="610" d="M332 286v-213h-54v213h-213v54h213v213h54v-213h213l0 -54z" />
<glyph unicode="&#44;" horiz-adv-x="221" d="M170 32q0 -35 -13.5 -69.5q-13.5 -34.5 -35.5 -61.5q-26 -32 -49.5 -50.5q-23.5 -18.5 -33.5 -18.5q-4 0 -10 3q-6 3 -6 13q0 5 11 15q11 10 24.5 25q13.5 15 25 34.5q11.5 19.5 11.5 43.5q0 14 -6.5 23q-6.5 9 -15 17.5q-8.5 8.5 -15 19q-6.5 10.5 -6.5 28.5q0 5 3 14.5q3 9.5 9.5 19q6.5 9.5 18.5 16.5q12 7 30 7q22 0 40 -21t18 -58z" />
<glyph unicode="&#45;" horiz-adv-x="345" d="M299 258q0 -15 -14 -15h-225q-6 0 -9.5 2q-3.5 2 -3.5 13v33q0 11 2.5 13q2.5 2 10.5 2h225q14 0 14 -15z" />
<glyph unicode="&#46;" horiz-adv-x="221" d="M168 46q0 -9 -2 -20q-2 -11 -8.5 -20q-6.5 -9 -18 -15.5q-11.5 -6.5 -30.5 -6.5q-32 0 -43.5 19.5q-11.5 19.5 -11.5 42.5q0 8 2 18.5q2 10.5 8 20.5q6 10 17.5 16.5q11.5 6.5 31.5 6.5q31 0 43 -19.5t12 -42.5z" />
<glyph unicode="&#47;" horiz-adv-x="414" d="M40 -240l-43 16l372 993l45 -15z" />
<glyph unicode="&#48;" horiz-adv-x="510" d="M476 356q0 -83 -15 -151q-15 -68 -43.5 -117q-28.5 -49 -69 -76q-40.5 -27 -92.5 -27q-57 0 -98.5 26.5q-41.5 26.5 -68.5 75.5q-27 49 -40.5 117.5q-13.5 68.5 -13.5 151.5q0 174 57 268.5q57 94.5 164 94.5q105 0 162.5 -94.5q57.5 -94.5 57.5 -268.5zt0 0zM379 377q0 102 -11 162q-11 60 -28 91.5q-17 31.5 -39.5 41q-22.5 9.5 -44.5 9.5q-22 0 -44 -9.5q-22 -9.5 -39.5 -41q-17.5 -31.5 -28.5 -91.5q-11 -60 -11 -162v-38q0 -105 11 -167.5q11 -62.5 29 -95.5q18 -33 40 -43q22 -10 43 -10q21 0 42.5 10q21.5 10 39.5 43q18 33 29.5 95.5q11.5 62.5 11.5 167.5z" />
<glyph unicode="&#49;" horiz-adv-x="510" d="M354 38q4 0 7.5 -1.5q3.5 -1.5 3.5 -8.5v-18q0 -7 -3 -8.5q-3 -1.5 -7 -1.5h-191q-4 0 -7 1.5q-3 1.5 -3 8.5v18q0 7 3.5 8.5q3.5 1.5 7.5 1.5h19q23 0 27 19.5q4 19.5 4 47.5v442q0 28 -8.5 45q-8.5 17 -34.5 17h-43q-4 0 -8.5 1.5q-4.5 1.5 -4.5 6.5v10q0 13 23 19.5q23 6.5 66 24.5q38 16 51.5 25.5q13.5 9.5 22.5 9.5h8q8 0 12.5 -4q4.5 -4 4.5 -17v-582q0 -35 6 -50q6 -15 25 -15z" />
<glyph unicode="&#50;" horiz-adv-x="510" d="M65 0q-9 0 -13 7q-4 7 -4 17v18q0 42 48 102.5q48 60.5 131 145.5q30 31 55 58q25 27 43 55q18 28 28 60q10 32 10 74q0 51 -10 80q-10 29 -25.5 44q-15.5 15 -34.5 19q-19 4 -36 4q-38 0 -58.5 -15q-20.5 -15 -30.5 -36q-10 -21 -11.5 -44.5q-1.5 -23.5 -1.5 -41.5q0 -6 -1.5 -17q-1.5 -11 -6.5 -21q-5 -10 -15.5 -17.5q-10.5 -7.5 -29.5 -7.5q-23 0 -33 16q-10 16 -10 37q0 35 14 67.5q14 32.5 41 58q27 25.5 67.5 41q40.5 15.5 93.5 15.5q86 0 138 -42.5q52 -42.5 52 -121.5q0 -35 -6.5 -61q-6.5 -26 -19.5 -49q-13 -23 -32 -44.5q-19 -21.5 -44 -46.5q-26 -26 -49.5 -47.5q-23.5 -21.5 -46 -41.5q-22.5 -20 -44.5 -40.5q-22 -20.5 -45 -43.5q-22 -22 -40.5 -45.5q-18.5 -23.5 -18.5 -38.5q0 -5 4 -6q4 -1 10 -1h240q17 0 28 10.5q11 10.5 20 25.5l7 12q4 7 6.5 9.5q2.5 2.5 9.5 2.5h9q12 0 12 -12q0 -5 -1.5 -13.5q-1.5 -8.5 -6.5 -27.5l-18 -79q-2 -11 -5.5 -14.5q-3.5 -3.5 -15.5 -3.5z" />
<glyph unicode="&#51;" horiz-adv-x="510" d="M461 191q0 -54 -19.5 -93q-19.5 -39 -51.5 -64q-32 -25 -73 -37q-41 -12 -84 -12q-53 0 -89.5 14q-36.5 14 -59.5 34q-23 20 -33.5 43.5q-10.5 23.5 -10.5 42.5q0 23 10.5 38q10.5 15 33.5 15q19 0 29 -5.5q10 -5.5 15 -14.5q5 -9 6 -20q1 -11 1 -22q0 -35 21.5 -60.5q21.5 -25.5 72.5 -25.5q28 0 53 7.5q25 7.5 43 25q18 17.5 28.5 47.5q10.5 30 10.5 75q0 43 -11 74q-11 31 -30.5 51q-19.5 20 -45.5 30q-26 10 -57 10h-54q-13 0 -13 11v19q0 11 13 11h49q20 0 44.5 6.5q24.5 6.5 46 23.5q21.5 17 36 47.5q14.5 30.5 14.5 78.5q0 43 -9 70q-9 27 -24 42.5q-15 15.5 -34.5 21.5q-19.5 6 -39.5 6q-32 0 -51.5 -10q-19.5 -10 -30 -25.5q-10.5 -15.5 -14 -34q-3.5 -18.5 -3.5 -35.5q0 -8 -1 -18.5q-1 -10.5 -6 -20q-5 -9.5 -15 -16q-10 -6.5 -29 -6.5q-23 0 -32.5 15q-9.5 15 -9.5 37q0 19 10.5 45.5q10.5 26.5 34.5 50q24 23.5 62 40q38 16.5 94 16.5q27 0 61 -6.5q34 -6.5 63.5 -26q29.5 -19.5 49.5 -54.5q20 -35 20 -91q0 -38 -13.5 -67q-13.5 -29 -34.5 -49.5q-21 -20.5 -47 -33.5q-26 -13 -52 -20l0 -6q24 -3 51 -13q27 -10 50.5 -30.5q23.5 -20.5 39 -52t15.5 -78.5z" />
<glyph unicode="&#52;" horiz-adv-x="510" d="M321 575l-224 -354h224zM410 105q0 -28 4 -47.5q4 -19.5 27 -19.5h15q4 0 7.5 -1.5q3.5 -1.5 3.5 -8.5v-18q0 -7 -3 -8.5q-3 -1.5 -7 -1.5h-183q-4 0 -7 1.5q-3 1.5 -3 8.5v18q0 7 3.5 8.5q3.5 1.5 7.5 1.5h15q23 0 27 19.5q4 19.5 4 47.5v61h-275q-11 0 -12.5 6q-1.5 6 -1.5 18q0 12 2 17.5q2 5.5 7 13.5l286 449q13 20 20 28q7 8 17 8h25q8 0 14.5 -6q6.5 -6 6.5 -19v-460h49q11 0 13 -5q2 -5 2 -14v-20q0 -16 -15 -16l-49 0z" />
<glyph unicode="&#53;" horiz-adv-x="510" d="M464 234q0 -61 -19 -107.5q-19 -46.5 -50.5 -78q-31.5 -31.5 -72 -47.5q-40.5 -16 -83.5 -16q-57 0 -95 13q-38 13 -61 34q-23 21 -32.5 46.5q-9.5 25.5 -9.5 50.5q0 23 11 38q11 15 34 15q19 0 29 -5.5q10 -5.5 15 -14.5q5 -9 6 -20q1 -11 1 -22q0 -42 21.5 -69.5q21.5 -27.5 75.5 -27.5q63 0 97.5 49.5q34.5 49.5 34.5 146.5q0 81 -31.5 123q-31.5 42 -97.5 42q-30 0 -52 -8q-22 -8 -38.5 -17q-16.5 -9 -29.5 -17q-13 -8 -23 -8h-4q-9 0 -9 11q0 5 0.5 12q0.5 7 0.5 12l21 315q1 13 4.5 17.5q3.5 4.5 17.5 4.5h223q12 0 20.5 2q8.5 2 17.5 14q7 9 10.5 13.5q3.5 4.5 10.5 4.5h9q11 0 11 -13q0 -9 -2 -17.5q-2 -8.5 -4 -22.5l-6 -33q-5 -25 -13 -31.5q-8 -6.5 -28 -6.5h-227l-14 -216q22 13 57 22q35 9 80 9q40 0 75.5 -11.5q35.5 -11.5 61.5 -35.5q26 -24 41.5 -61.5t15.5 -88.5z" />
<glyph unicode="&#54;" horiz-adv-x="510" d="M485 228q0 -63 -20 -109q-20 -46 -50.5 -76q-30.5 -30 -67.5 -44q-37 -14 -71 -14q-48 0 -83.5 14q-35.5 14 -60.5 38.5q-25 24.5 -40.5 56q-15.5 31.5 -24.5 67q-9 35.5 -12 72q-3 36.5 -3 69.5q0 99 18 177q18 78 52 131q34 53 83 81q49 28 111 28q39 0 65.5 -10q26.5 -10 42 -24q15.5 -14 22 -29.5q6.5 -15.5 6.5 -26.5q0 -20 -10 -34.5q-10 -14.5 -35 -14.5q-15 0 -26 9.5q-11 9.5 -19 34.5q-3 10 -8 20.5q-5 10.5 -12.5 18.5q-7.5 8 -19.5 13q-12 5 -29 5q-31 0 -53.5 -16.5q-22.5 -16.5 -39 -43q-16.5 -26.5 -27 -60q-10.5 -33.5 -16 -67q-5.5 -33.5 -8 -64q-2.5 -30.5 -2.5 -51.5q25 26 64.5 43.5q39.5 17.5 81.5 17.5q31 0 64.5 -10q33.5 -10 62 -34.5q28.5 -24.5 47 -65.5q18.5 -41 18.5 -102zt0 0zM391 207q0 52 -9 87.5q-9 35.5 -25 57.5q-16 22 -38.5 31.5q-22.5 9.5 -50.5 9.5q-39 0 -63 -15q-24 -15 -37 -33q-16 -21 -22 -47q0 -43 4 -91.5q4 -48.5 18 -89q14 -40.5 40.5 -67q26.5 -26.5 71.5 -26.5q54 0 82.5 50t28.5 133z" />
<glyph unicode="&#55;" horiz-adv-x="510" d="M143 616q-17 0 -28 -10.5q-11 -10.5 -20 -25.5l-7 -12q-4 -7 -6.5 -9.5q-2.5 -2.5 -9.5 -2.5h-9q-12 0 -12 12q0 5 1.5 13.5q1.5 8.5 6.5 27.5l18 79q2 11 5.5 14.5q3.5 3.5 15.5 3.5h334q20 0 25.5 -9.5q5.5 -9.5 5.5 -28.5q0 -19 -8 -40q-8 -21 -19 -50l-212 -549q-6 -16 -10.5 -24.5q-4.5 -8.5 -11 -13q-6.5 -4.5 -16 -5.5q-9.5 -1 -25.5 -1q-35 0 -35 15q0 7 12 33l265 583z" />
<glyph unicode="&#56;" horiz-adv-x="510" d="M470 190q0 -42 -14 -79.5q-14 -37.5 -41 -65q-27 -27.5 -67 -44q-40 -16.5 -92 -16.5q-56 0 -96.5 15.5q-40.5 15.5 -67 43q-26.5 27.5 -39 65q-12.5 37.5 -12.5 80.5q0 45 12 76.5q12 31.5 32 52.5q20 21 45.5 33q25.5 12 52.5 19l0 5q-20 6 -42.5 17q-22.5 11 -42 30q-19.5 19 -32 47.5q-12.5 28.5 -12.5 67.5q0 54 20.5 89q20.5 35 51.5 55.5q31 20.5 66 29q35 8.5 64 8.5q30 0 65 -7.5q35 -7.5 65 -27.5q30 -20 50.5 -55.5q20.5 -35.5 20.5 -91.5q0 -39 -12.5 -67.5q-12.5 -28.5 -31.5 -48q-19 -19.5 -41 -30.5q-22 -11 -41 -16l0 -5q25 -7 50 -17.5q25 -10.5 44.5 -30.5q19.5 -20 32 -52q12.5 -32 12.5 -80zt0 0zM365 540q0 41 -8.5 68q-8.5 27 -23 43.5q-14.5 16.5 -34.5 23q-20 6.5 -43 6.5q-23 0 -43 -6.5q-20 -6.5 -35 -22.5q-15 -16 -23.5 -43q-8.5 -27 -8.5 -69q0 -48 11.5 -78q11.5 -30 28.5 -46.5q17 -16.5 37 -22q20 -5.5 37 -5.5q18 0 36.5 7.5q18.5 7.5 33.5 25q15 17.5 25 46.5q10 29 10 73zt0 0zM376 193q0 51 -10.5 82q-10.5 31 -27 47.5q-16.5 16.5 -37 22q-20.5 5.5 -41.5 5.5q-21 0 -43.5 -5q-22.5 -5 -40.5 -21q-18 -16 -29.5 -47.5q-11.5 -31.5 -11.5 -83.5q0 -51 9.5 -83.5q9.5 -32.5 26 -51.5q16.5 -19 38.5 -26.5q22 -7.5 47 -7.5q24 0 46 7.5q22 7.5 38.5 27q16.5 19.5 26 52t9.5 82.5z" />
<glyph unicode="&#57;" horiz-adv-x="510" d="M471 393q0 -92 -17 -167q-17 -75 -49.5 -128.5q-32.5 -53.5 -79.5 -83q-47 -29.5 -107 -29.5q-39 0 -65.5 9q-26.5 9 -42 22.5q-15.5 13.5 -22 29q-6.5 15.5 -6.5 27.5q0 25 12 36.5q12 11.5 32 11.5q15 0 24.5 -7q9.5 -7 20.5 -34q5 -13 9.5 -23.5q4.5 -10.5 11.5 -18q7 -7.5 18.5 -11.5q11.5 -4 30.5 -4q47 0 74 31.5q27 31.5 40.5 78q13.5 46.5 17 98.5q3.5 52 3.5 94q-17 -18 -37 -31q-17 -11 -41 -20.5q-24 -9.5 -53 -9.5q-40 0 -76 11.5q-36 11.5 -63.5 37q-27.5 25.5 -44 66q-16.5 40.5 -16.5 97.5q0 62 19 108q19 46 50 76q31 30 70 44.5q39 14.5 78 14.5q74 0 116 -32.5q42 -32.5 62.5 -81.5q20.5 -49 25.5 -106q5 -57 5 -106zt0 0zM377 406q0 25 -0.5 54.5q-0.5 29.5 -4 60q-3.5 30.5 -10.5 59q-7 28.5 -20.5 51q-13.5 22.5 -34 36q-20.5 13.5 -49.5 13.5q-59 0 -89 -46.5q-30 -46.5 -30 -129.5q0 -104 30.5 -148.5q30.5 -44.5 92.5 -44.5q34 0 55.5 14.5q21.5 14.5 35.5 32.5q15 21 24 48z" />
<glyph unicode="&#58;" horiz-adv-x="226" d="M169 431q0 -9 -2 -19q-2 -10 -8.5 -19q-6.5 -9 -18 -15q-11.5 -6 -29.5 -6q-31 0 -42 18.5q-11 18.5 -11 40.5q0 7 1.5 17.5q1.5 10.5 7.5 20.5q6 10 17 16.5q11 6.5 31 6.5q30 0 42 -19q12 -19 12 -42zt0 0zM169 51q0 -9 -2 -19.5q-2 -10.5 -8.5 -19.5q-6.5 -9 -18 -15.5q-11.5 -6.5 -29.5 -6.5q-31 0 -42 19.5q-11 19.5 -11 41.5q0 8 1.5 18q1.5 10 7.5 19q6 9 17 15.5q11 6.5 31 6.5q30 0 42 -18.5t12 -40.5z" />
<glyph unicode="&#59;" horiz-adv-x="226" d="M172 431q0 -9 -2 -19q-2 -10 -8.5 -19q-6.5 -9 -18 -15q-11.5 -6 -29.5 -6q-31 0 -42 18.5q-11 18.5 -11 40.5q0 7 1.5 17.5q1.5 10.5 7.5 20.5q6 10 17 16.5q11 6.5 31 6.5q30 0 42 -19q12 -19 12 -42zt0 0zM170 32q0 -35 -13.5 -69.5q-13.5 -34.5 -35.5 -61.5q-26 -32 -49.5 -50.5q-23.5 -18.5 -33.5 -18.5q-4 0 -10 3q-6 3 -6 13q0 5 11 15q11 10 24.5 25q13.5 15 25 34.5q11.5 19.5 11.5 43.5q0 14 -6.5 23q-6.5 9 -15 17.5q-8.5 8.5 -15 19q-6.5 10.5 -6.5 28.5q0 5 3 14.5q3 9.5 9.5 19q6.5 9.5 18.5 16.5q12 7 30 7q22 0 40 -21t18 -58z" />
<glyph unicode="&#60;" horiz-adv-x="610" d="M497 59l-400 263l400 259l23 -45l-335 -214l335 -216z" />
<glyph unicode="&#61;" horiz-adv-x="610" d="M65 367v54h480v-54zM65 206v54h480l0 -54z" />
<glyph unicode="&#62;" horiz-adv-x="610" d="M97 106l335 216l-335 214l23 45l400 -259l-400 -263z" />
<glyph unicode="&#63;" horiz-adv-x="449" d="M412 560q0 -55 -25 -97.5q-25 -42.5 -73 -87.5q-44 -41 -63.5 -74q-19.5 -33 -25.5 -69q-4 -23 -6 -36q-2 -13 -16 -13q-18 0 -18 28q0 14 3.5 33.5q3.5 19.5 11 40.5q7.5 21 19 43q11.5 22 26.5 41q24 30 38.5 54q14.5 24 22.5 46q8 22 10.5 43.5q2.5 21.5 2.5 46.5q0 35 -8 58.5q-8 23.5 -21 37.5q-13 14 -29.5 20q-16.5 6 -33.5 6q-32 0 -51 -10.5q-19 -10.5 -29.5 -27.5q-10.5 -17 -14 -40q-3.5 -23 -3.5 -48q0 -6 -1 -17q-1 -11 -6.5 -21q-5.5 -10 -15.5 -17.5q-10 -7.5 -28 -7.5q-23 0 -32 16q-9 16 -9 37q0 40 15 72.5q15 32.5 41.5 55q26.5 22.5 63 34.5q36.5 12 79.5 12q31 0 62.5 -6.5q31.5 -6.5 56.5 -24.5q25 -18 41 -49q16 -31 16 -79zt0 0zM268 46q0 -9 -2 -20q-2 -11 -8.5 -20q-6.5 -9 -18 -15.5q-11.5 -6.5 -30.5 -6.5q-32 0 -43.5 19.5q-11.5 19.5 -11.5 42.5q0 8 2 18.5q2 10.5 8 20.5q6 10 17.5 16.5q11.5 6.5 31.5 6.5q31 0 43 -19.5t12 -42.5z" />
<glyph unicode="&#64;" horiz-adv-x="817" d="M800 420q0 -71 -28 -126.5q-28 -55.5 -68.5 -93q-40.5 -37.5 -85.5 -57q-45 -19.5 -79 -19.5q-38 0 -52 20q-14 20 -14 66q-27 -38 -65 -63.5q-38 -25.5 -81 -25.5q-42 0 -67 31.5q-25 31.5 -25 88.5q0 54 17.5 104.5q17.5 50.5 48 89.5q30.5 39 71 63q40.5 24 86.5 24q24 0 39.5 -2q15.5 -2 25.5 -4q10 -2 16.5 -4q6.5 -2 13.5 -2q10 0 19.5 2q9.5 2 17.5 2q11 0 11 -12q0 -7 -5 -32l-48 -221q-5 -25 -5 -45q0 -16 9 -25.5q9 -9.5 25 -9.5q22 0 52 13q30 13 57 43q27 30 45.5 78q18.5 48 18.5 117q0 67 -22 118.5q-22 51.5 -62.5 87q-40.5 35.5 -96.5 54q-56 18.5 -123 18.5q-84 0 -150.5 -29.5q-66.5 -29.5 -112.5 -81q-46 -51.5 -70.5 -122.5q-24.5 -71 -24.5 -153q0 -81 21 -149q21 -68 62.5 -116.5q41.5 -48.5 103 -76q61.5 -27.5 143.5 -27.5q51 0 94 13.5q43 13.5 80.5 37q37.5 23.5 68.5 55.5q31 32 58 70q6 8 10 13.5q4 5.5 10 5.5q5 0 9 -2q4 -2 4 -10q0 -5 -4 -11.5q-4 -6.5 -6 -10.5q-13 -21 -39.5 -54.5q-26.5 -33.5 -68.5 -65.5q-42 -32 -100 -55.5q-58 -23.5 -133 -23.5q-87 0 -157 27.5q-70 27.5 -119 78.5q-49 51 -75.5 123.5q-26.5 72.5 -26.5 162.5q0 115 39.5 197.5q39.5 82.5 101 135q61.5 52.5 136 77q74.5 24.5 143.5 24.5q76 0 141.5 -20.5q65.5 -20.5 113.5 -60q48 -39.5 75 -97.5q27 -58 27 -133zt0 0zM519 465q0 14 -14.5 20q-14.5 6 -40.5 6q-32 0 -62 -20q-30 -20 -53 -62q-17 -31 -28.5 -68.5q-11.5 -37.5 -11.5 -91.5q0 -22 5 -36.5q5 -14.5 13 -23.5q8 -9 18 -12.5q10 -3.5 20 -3.5q22 0 43 13q21 13 38.5 35.5q17.5 22.5 30.5 53.5q13 31 21 67l12 59q2 11 5.5 30.5t3.5 33.5z" />
<glyph unicode="&#65;" horiz-adv-x="621" d="M614 10q0 -5 -1.5 -7.5q-1.5 -2.5 -7.5 -2.5h-183q-10 0 -10 10v18q0 5 1.5 7.5q1.5 2.5 8.5 2.5h19q9 0 14 7.5q5 7.5 5 18.5q0 12 -2.5 23.5q-2.5 11.5 -5.5 22.5l-37 128h-239l-32 -95q-8 -23 -13.5 -45.5q-5.5 -22.5 -5.5 -33.5q0 -17 10 -21.5q10 -4.5 18 -4.5h11q5 0 7 -1.5q2 -1.5 2 -8.5v-18q0 -10 -9 -10h-149q-9 0 -9 10v18q0 7 1.5 8.5q1.5 1.5 6.5 1.5h7q7 0 14 3q7 3 14 12.5q7 9.5 15.5 26.5q8.5 17 18.5 45l201 551q8 20 13 25q5 5 17 5h31q14 0 19.5 -5q5.5 -5 11.5 -25l172 -566q11 -35 20.5 -53.5q9.5 -18.5 29.5 -18.5h6q10 0 10 -10zM306 617l-116 -340l213 0z" />
<glyph unicode="&#66;" horiz-adv-x="604" d="M563 197q0 -45 -14.5 -77.5q-14.5 -32.5 -37.5 -54q-23 -21.5 -51 -34.5q-28 -13 -55.5 -20q-27.5 -7 -51.5 -9q-24 -2 -38 -2h-265q-5 0 -7.5 1.5q-2.5 1.5 -2.5 8.5v18q0 7 2.5 8.5q2.5 1.5 8.5 1.5h14q24 0 28 19.5q4 19.5 4 47.5v497q0 21 -1 34q-1 13 -4 20q-3 7 -9 9.5q-6 2.5 -16 2.5h-16q-6 0 -8.5 1.5q-2.5 1.5 -2.5 8.5v18q0 7 2.5 8.5q2.5 1.5 7.5 1.5h240q42 0 86 -4.5q44 -4.5 80.5 -21q36.5 -16.5 60 -48q23.5 -31.5 23.5 -86.5q0 -45 -17 -75q-17 -30 -40.5 -49.5q-23.5 -19.5 -49 -29.5q-25.5 -10 -43.5 -14l0 -6q35 -6 66.5 -18.5q31.5 -12.5 55 -33.5q23.5 -21 37.5 -51.5q14 -30.5 14 -71.5zt0 0zM443 534q0 47 -15 73.5q-15 26.5 -38.5 39q-23.5 12.5 -52 15q-28.5 2.5 -55.5 2.5h-67q-20 0 -24.5 -4q-4.5 -4 -4.5 -24v-245h104q22 0 48.5 4.5q26.5 4.5 50 19.5q23.5 15 39 43.5q15.5 28.5 15.5 75.5zt0 0zM466 192q0 52 -16 83q-16 31 -42.5 47.5q-26.5 16.5 -60.5 21.5q-34 5 -70 5h-91v-243q0 -31 9.5 -47.5q9.5 -16.5 45.5 -16.5h70q22 0 49.5 5q27.5 5 50.5 20.5q23 15.5 39 45t16 79.5z" />
<glyph unicode="&#67;" horiz-adv-x="596" d="M561 166q0 -6 -4 -19q-4 -13 -13 -29.5q-9 -16.5 -23 -35q-14 -18.5 -33 -36.5q-26 -24 -66.5 -42q-40.5 -18 -102.5 -18q-47 0 -96 17q-49 17 -88.5 58.5q-39.5 41.5 -64.5 112.5q-25 71 -25 179q0 70 18.5 136q18.5 66 55.5 117q37 51 92.5 82q55.5 31 130.5 31q36 0 59 -3q23 -3 38 -6.5q15 -3.5 24.5 -6.5q9.5 -3 18.5 -3q14 0 23.5 6q9.5 6 22.5 6q11 0 15 -4q4 -4 4 -16l4 -164q0 -6 -2.5 -14q-2.5 -8 -12.5 -8h-11q-7 0 -10.5 6q-3.5 6 -10.5 29l-13 42q-5 17 -14 34.5q-9 17.5 -25 31.5q-16 14 -41.5 23q-25.5 9 -64.5 9q-12 0 -32 -3q-20 -3 -42.5 -13.5q-22.5 -10.5 -45.5 -31q-23 -20.5 -41.5 -55.5q-18.5 -35 -30.5 -88q-12 -53 -12 -127q0 -95 18.5 -156q18.5 -61 47.5 -96q29 -35 63.5 -48q34.5 -13 67.5 -13q59 0 98.5 23.5q39.5 23.5 70.5 66.5q14 19 21.5 30q7.5 11 14.5 11q7 0 12 -3t5 -12z" />
<glyph unicode="&#68;" horiz-adv-x="660" d="M616 393q0 -199 -103.5 -296q-103.5 -97 -291.5 -97h-171q-4 0 -7 1.5q-3 1.5 -3 8.5v18q0 7 3.5 8.5q3.5 1.5 7.5 1.5h15q20 0 25.5 20.5q5.5 20.5 5.5 46.5v496q0 28 -4 47.5q-4 19.5 -27 19.5h-15q-11 0 -11 10v18q0 10 10 10h225q108 0 174.5 -30.5q66.5 -30.5 103.5 -76.5q37 -46 50 -101.5q13 -55.5 13 -104.5zt0 0zM519 367q0 99 -24.5 157.5q-24.5 58.5 -63.5 89.5q-39 31 -86.5 40.5q-47.5 9.5 -93.5 9.5h-36q-18 0 -23.5 -4.5q-5.5 -4.5 -5.5 -27.5v-558q0 -19 4.5 -25.5q4.5 -6.5 24.5 -6.5h31q25 0 55 5q30 5 60.5 18q30.5 13 59 36q28.5 23 50.5 59q22 36 35 87t13 120z" />
<glyph unicode="&#69;" horiz-adv-x="564" d="M50 0q-4 0 -7 1.5q-3 1.5 -3 8.5v18q0 7 3.5 8.5q3.5 1.5 7.5 1.5h15q23 0 27.5 19.5q4.5 19.5 4.5 47.5v496q0 28 -4 47.5q-4 19.5 -27 19.5h-15q-11 0 -11 10v18q0 10 10 10h422q14 0 19 -4.5q5 -4.5 5 -15.5l4 -147q0 -7 -2.5 -11q-2.5 -4 -10.5 -4h-16q-10 0 -13 18l-6 32q-5 24 -11.5 41q-6.5 17 -19.5 28q-13 11 -34.5 16q-21.5 5 -54.5 5h-122q-11 0 -17.5 -5q-6.5 -5 -6.5 -26v-247h73q18 0 34.5 1.5q16.5 1.5 29 6.5q12.5 5 19.5 16q7 11 7 30v21q0 11 10 11h18q8 0 9.5 -3q1.5 -3 1.5 -8v-191q0 -13 -11 -13h-18q-10 0 -10 13v19q0 19 -7.5 30.5q-7.5 11.5 -20 16.5q-12.5 5 -28.5 6.5q-16 1.5 -34 1.5h-73v-270q0 -20 6.5 -26q6.5 -6 17.5 -6h135q59 0 87.5 25.5q28.5 25.5 39.5 70.5l8 33q2 11 5 14.5q3 3.5 10 3.5h14q13 0 13 -13q0 -4 -1 -19q-1 -15 -2 -29l-7 -97q-1 -11 -8 -21q-7 -10 -30 -10z" />
<glyph unicode="&#70;" horiz-adv-x="509" d="M97 603q0 28 -4 46.5q-4 18.5 -27 18.5h-15q-11 0 -11 10v18q0 10 10 10h411q14 0 19 -4.5q5 -4.5 5 -15.5l4 -147q0 -7 -2.5 -11q-2.5 -4 -10.5 -4h-16q-10 0 -13 18l-6 32q-5 24 -11 41q-6 17 -18.5 28q-12.5 11 -33 16q-20.5 5 -53.5 5h-115q-11 0 -17.5 -5q-6.5 -5 -6.5 -26v-255h74q18 0 34.5 1.5q16.5 1.5 29 6.5q12.5 5 19.5 16q7 11 7 30v21q0 11 11 11h18q10 0 10 -11v-191q0 -13 -11 -13h-18q-10 0 -10 13v19q0 19 -7.5 30.5q-7.5 11.5 -20 16.5q-12.5 5 -28.5 6.5q-16 1.5 -34 1.5h-74v-231q0 -28 4 -47.5q4 -19.5 27 -19.5h19q4 0 7.5 -1.5q3.5 -1.5 3.5 -8.5v-18q0 -10 -10 -10h-187q-4 0 -7 1.5q-3 1.5 -3 8.5v18q0 7 3.5 8.5q3.5 1.5 7.5 1.5h15q23 0 27 19.5q4 19.5 4 47.5z" />
<glyph unicode="&#71;" horiz-adv-x="637" d="M617 316q0 -12 -11 -12h-11q-21 0 -26 -16q-5 -16 -5 -51v-113q0 -16 -12 -39.5q-12 -23.5 -39.5 -45.5q-27.5 -22 -72.5 -37.5q-45 -15.5 -110 -15.5q-46 0 -96 16q-50 16 -92 57q-42 41 -69.5 111.5q-27.5 70.5 -27.5 179.5q0 69 18 135.5q18 66.5 54 118.5q36 52 91 83.5q55 31.5 130 31.5q34 0 59 -3q25 -3 43 -6.5q18 -3.5 30 -6.5q12 -3 21 -3q9 0 20.5 6q11.5 6 25.5 6q11 0 15 -4.5q4 -4.5 4 -15.5q0 -2 0.5 -26q0.5 -24 1.5 -53.5q1 -29.5 1.5 -55q0.5 -25.5 0.5 -29.5q0 -11 -2.5 -16.5q-2.5 -5.5 -12.5 -5.5h-11q-8 0 -10.5 5.5q-2.5 5.5 -10.5 29.5l-13 42q-14 47 -51 72.5q-37 25.5 -99 25.5q-33 0 -69.5 -10.5q-36.5 -10.5 -67.5 -44q-31 -33.5 -51 -96.5q-20 -63 -20 -167v-18q0 -99 20 -160.5q20 -61.5 50 -96q30 -34.5 64 -46.5q34 -12 62 -12q65 0 101 24q36 24 36 57v126q0 41 -7 54q-7 13 -24 13h-25q-4 0 -7.5 1.5q-3.5 1.5 -3.5 8.5v18q0 7 3 8.5q3 1.5 7 1.5h189q4 0 7 -1.5q3 -1.5 3 -8.5l0 -16z" />
<glyph unicode="&#72;" horiz-adv-x="691" d="M594 105q0 -28 4 -47.5q4 -19.5 27 -19.5h17q9 0 9 -10v-18q0 -10 -9 -10h-185q-9 0 -9 10v18q0 10 9 10h17q23 0 27 19.5q4 19.5 4 47.5v239h-319v-239q0 -28 4 -47.5q4 -19.5 27 -19.5h17q9 0 9 -10v-18q0 -10 -9 -10h-185q-9 0 -9 10v18q0 10 9 10h17q23 0 27 19.5q4 19.5 4 47.5v496q0 28 -4 47.5q-4 19.5 -27 19.5h-17q-9 0 -9 10v18q0 10 9 10h185q9 0 9 -10v-18q0 -10 -9 -10h-17q-23 0 -27 -19.5q-4 -19.5 -4 -47.5v-215h319v215q0 28 -4 47.5q-4 19.5 -27 19.5h-17q-9 0 -9 10v18q0 10 9 10h185q9 0 9 -10v-18q0 -10 -9 -10h-17q-23 0 -27 -19.5q-4 -19.5 -4 -47.5z" />
<glyph unicode="&#73;" horiz-adv-x="283" d="M186 105q0 -28 4 -47.5q4 -19.5 27 -19.5h17q9 0 9 -10v-18q0 -10 -9 -10h-185q-9 0 -9 10v18q0 10 9 10h17q23 0 27 19.5q4 19.5 4 47.5v496q0 28 -4 47.5q-4 19.5 -27 19.5h-17q-9 0 -9 10v18q0 10 9 10h185q9 0 9 -10v-18q0 -10 -9 -10h-17q-23 0 -27 -19.5q-4 -19.5 -4 -47.5z" />
<glyph unicode="&#74;" horiz-adv-x="287" d="M190 275q0 -65 -15 -135.5q-15 -70.5 -38.5 -129q-23.5 -58.5 -53 -96.5q-29.5 -38 -57.5 -38q-7 0 -14.5 1.5q-7.5 1.5 -14 6q-6.5 4.5 -11 13.5q-4.5 9 -4.5 24q0 16 5 25q5 9 14 13.5q9 4.5 21 5q12 0.5 27 0.5q19 0 29.5 17q10.5 17 15.5 48.5q5 31.5 6 74.5q1 43 1 96v400q0 28 -4 47.5q-4 19.5 -27 19.5h-17q-9 0 -9 10v18q0 10 9 10h185q9 0 9 -10v-18q0 -10 -9 -10h-17q-23 0 -27 -19.5q-4 -19.5 -4 -47.5z" />
<glyph unicode="&#75;" horiz-adv-x="612" d="M186 105q0 -28 4 -47.5q4 -19.5 27 -19.5h15q5 0 8 -1.5q3 -1.5 3 -8.5v-17q0 -11 -11 -11h-181q-11 0 -11 11v17q0 7 3 8.5q3 1.5 8 1.5h15q23 0 27 19.5q4 19.5 4 47.5v496q0 28 -4 47.5q-4 19.5 -27 19.5h-15q-4 0 -7.5 1.5q-3.5 1.5 -3.5 8.5v18q0 7 3 8.5q3 1.5 7 1.5h183q4 0 7 -1.5q3 -1.5 3 -8.5v-18q0 -7 -3.5 -8.5q-3.5 -1.5 -7.5 -1.5h-15q-23 0 -27 -19.5q-4 -19.5 -4 -47.5v-234l142 154q49 53 69.5 83q20.5 30 20.5 46q0 11 -6.5 14.5q-6.5 3.5 -12.5 3.5h-10q-4 0 -7.5 1.5q-3.5 1.5 -3.5 8.5v18q0 7 3 8.5q3 1.5 7 1.5h177q4 0 7 -1.5q3 -1.5 3 -8.5v-18q0 -7 -3.5 -8.5q-3.5 -1.5 -7.5 -1.5h-11q-10 0 -19 -4q-9 -4 -25 -17.5q-16 -13.5 -41.5 -40q-25.5 -26.5 -68.5 -71.5l-126 -133l259 -322q12 -15 19.5 -23.5q7.5 -8.5 13 -12.5q5.5 -4 10 -5q4.5 -1 9.5 -1h8q5 0 7.5 -1.5q2.5 -1.5 2.5 -8.5v-18q0 -7 -3 -8.5q-3 -1.5 -8 -1.5h-87q-17 0 -25 4.5q-8 4.5 -19 18.5l-249 322l-25 -28z" />
<glyph unicode="&#76;" horiz-adv-x="530" d="M514 172q0 -4 0 -11.5q0 -7.5 -1 -15.5l-10 -125q-1 -11 -5.5 -15.5q-4.5 -4.5 -18.5 -4.5h-429q-10 0 -10 10v18q0 10 10 10h16q22 0 26.5 17.5q4.5 17.5 4.5 49.5v496q0 28 -4 47.5q-4 19.5 -27 19.5h-15q-4 0 -7.5 1.5q-3.5 1.5 -3.5 8.5v18q0 7 3 8.5q3 1.5 7 1.5h183q4 0 7 -1.5q3 -1.5 3 -8.5v-18q0 -7 -3.5 -8.5q-3.5 -1.5 -7.5 -1.5h-15q-23 0 -27 -19.5q-4 -19.5 -4 -47.5v-528q0 -20 5 -25.5q5 -5.5 19 -5.5h132q31 0 52 6.5q21 6.5 35 18.5q14 12 22 29q8 17 14 38q2 8 4.5 21q2.5 13 4.5 19q2 7 5.5 8.5q3.5 1.5 8.5 1.5h15q11 0 11 -12z" />
<glyph unicode="&#77;" horiz-adv-x="841" d="M748 105q1 -37 6.5 -52q5.5 -15 24.5 -15h17q9 0 9 -10v-18q0 -10 -9 -10h-185q-9 0 -9 10v18q0 10 9 10h17q23 0 27 19.5q4 19.5 4 47.5q0 8 0 14.5q0 6.5 0 15q0 8.5 -0.5 20q-0.5 11.5 -0.5 29.5l-7 433l-225 -580q-10 -26 -17.5 -31.5q-7.5 -5.5 -17.5 -5.5q-12 0 -18 8q-6 8 -14 30l-216 579l-9 -443q-1 -28 -1.5 -51q-0.5 -23 -0.5 -30q0 -29 5.5 -42q5.5 -13 22.5 -13h14q5 0 9 -1q4 -1 4 -8v-19q0 -10 -10 -10h-145q-10 0 -10 10v18q0 10 11 10h15q14 0 20.5 17q6.5 17 8.5 48l20 425q2 33 3 52.5q1 19.5 1 36.5q0 24 -6.5 37.5q-6.5 13.5 -23.5 13.5h-15q-4 0 -7.5 1.5q-3.5 1.5 -3.5 8.5v18q0 7 3 8.5q3 1.5 7 1.5h125q14 0 19 -4q5 -4 13 -23l206 -540l200 514q7 18 11.5 28.5q4.5 10.5 9 16q4.5 5.5 10 7q5.5 1.5 13.5 1.5h122q4 0 7 -1.5q3 -1.5 3 -8.5v-18q0 -7 -3.5 -8.5q-3.5 -1.5 -7.5 -1.5h-15q-20 0 -25.5 -14.5q-5.5 -14.5 -5.5 -37.5q0 -7 0 -18q0 -11 0 -22.5q0 -11.5 0.5 -23q0.5 -11.5 0.5 -20.5z" />
<glyph unicode="&#78;" horiz-adv-x="663" d="M627 678q0 -7 -3 -8.5q-3 -1.5 -7 -1.5h-19q-19 0 -24 -16q-5 -16 -6 -50l-6 -521q-1 -46 -5 -67q-4 -21 -27 -21q-11 0 -18 7q-7 7 -15 20l-365 591l5 -508q0 -35 6 -50q6 -15 24 -15h13q9 0 9 -9v-19q0 -5 -1.5 -7.5q-1.5 -2.5 -7.5 -2.5h-142q-9 0 -9 10v18q0 10 10 10h16q14 0 21.5 15q7.5 15 7.5 50l5 499q0 32 -4 49q-4 17 -27 17h-15q-4 0 -7.5 1.5q-3.5 1.5 -3.5 8.5v18q0 7 3 8.5q3 1.5 7 1.5h121q14 0 21 -8.5q7 -8.5 12 -17.5l322 -517l-3 438q0 28 -4 47.5q-4 19.5 -27 19.5h-15q-4 0 -7.5 1.5q-3.5 1.5 -3.5 8.5v18q0 7 2.5 8.5q2.5 1.5 8.5 1.5h149q4 0 6.5 -1q2.5 -1 2.5 -9l0 -18z" />
<glyph unicode="&#79;" horiz-adv-x="683" d="M639 352q0 -87 -22.5 -155q-22.5 -68 -62.5 -115.5q-40 -47.5 -94 -72q-54 -24.5 -118 -24.5q-74 0 -129.5 25.5q-55.5 25.5 -93 73q-37.5 47.5 -56 115.5q-18.5 68 -18.5 153q0 180 77 273.5q77 93.5 220 93.5q143 0 220 -94q77 -94 77 -273zt0 0zM542 373q0 101 -19.5 162q-19.5 61 -49.5 93.5q-30 32.5 -65 42.5q-35 10 -66 10q-32 0 -67 -10q-35 -10 -64.5 -42.5q-29.5 -32.5 -49 -93.5q-19.5 -61 -19.5 -162v-38q0 -101 22.5 -162.5q22.5 -61.5 54 -94.5q31.5 -33 65.5 -44q34 -11 58 -11q25 0 59.5 11q34.5 11 65.5 44q31 33 53 94.5q22 61.5 22 162.5z" />
<glyph unicode="&#80;" horiz-adv-x="562" d="M434 516q0 54 -17.5 84q-17.5 30 -44.5 44q-27 14 -59 17q-32 3 -60 3h-38q-20 0 -24.5 -7q-4.5 -7 -4.5 -22v-294h77q32 0 62.5 6q30.5 6 54.5 24.5q24 18.5 39 53q15 34.5 15 91.5zt0 0zM257 706q43 0 91.5 -4q48.5 -4 89 -22q40.5 -18 67 -56q26.5 -38 26.5 -106q0 -106 -70.5 -161.5q-70.5 -55.5 -197.5 -55.5h-77v-196q0 -28 4 -47.5q4 -19.5 27 -19.5h23q4 0 7.5 -1.5q3.5 -1.5 3.5 -8.5v-16q0 -8 -2.5 -10q-2.5 -2 -7.5 -2h-191q-4 0 -7 1.5q-3 1.5 -3 8.5v18q0 7 3.5 8.5q3.5 1.5 7.5 1.5h15q23 0 27 19.5q4 19.5 4 47.5v496q0 28 -4 47.5q-4 19.5 -27 19.5h-17q-9 0 -9 10v18q0 10 9 10z" />
<glyph unicode="&#81;" horiz-adv-x="683" d="M660 -69q0 -6 -2 -9.5q-2 -3.5 -7 -8.5q-27 -28 -55 -42q-28 -14 -63 -14q-31 0 -54 12q-23 12 -44 26q-21 14 -44 26q-23 12 -55 12q-31 0 -46.5 -7.5q-15.5 -7.5 -25.5 -7.5q-3 0 -9.5 2q-6.5 2 -6.5 13q0 8 6 14q6 6 14 10q16 7 41 13q25 6 54 6q45 0 74 -9q29 -9 51.5 -20q22.5 -11 43 -20q20.5 -9 48.5 -9q16 0 25.5 3.5q9.5 3.5 20.5 11.5q4 3 10 7q6 4 11 4q5 0 9 -4.5q4 -4.5 4 -8.5zt0 0zM639 352q0 -87 -22.5 -155q-22.5 -68 -62.5 -115.5q-40 -47.5 -94 -72q-54 -24.5 -118 -24.5q-74 0 -129.5 25.5q-55.5 25.5 -93 73q-37.5 47.5 -56 115.5q-18.5 68 -18.5 153q0 180 77 273.5q77 93.5 220 93.5q143 0 220 -94q77 -94 77 -273zt0 0zM542 373q0 101 -19.5 162q-19.5 61 -49.5 93.5q-30 32.5 -65 42.5q-35 10 -66 10q-32 0 -67 -10q-35 -10 -64.5 -42.5q-29.5 -32.5 -49 -93.5q-19.5 -61 -19.5 -162v-38q0 -101 22.5 -162.5q22.5 -61.5 54 -94.5q31.5 -33 65.5 -44q34 -11 58 -11q25 0 59.5 11q34.5 11 65.5 44q31 33 53 94.5q22 61.5 22 162.5z" />
<glyph unicode="&#82;" horiz-adv-x="623" d="M438 516q0 55 -18 85q-18 30 -44 44q-26 14 -56.5 16.5q-30.5 2.5 -54.5 2.5h-55q-15 0 -19.5 -4.5q-4.5 -4.5 -4.5 -19.5v-282h83q24 0 53 5.5q29 5.5 55 22q26 16.5 43.5 47.5q17.5 31 17.5 83zt0 0zM268 706q60 0 108.5 -8.5q48.5 -8.5 82.5 -30q34 -21.5 52.5 -57.5q18.5 -36 18.5 -91q0 -39 -14.5 -69.5q-14.5 -30.5 -38.5 -53q-24 -22.5 -56 -37.5q-32 -15 -67 -22l0 -4q21 -6 38.5 -16q17.5 -10 33 -25.5q15.5 -15.5 29 -38q13.5 -22.5 27.5 -54.5q6 -14 15 -39q9 -25 21 -53q18 -41 28 -54.5q10 -13.5 24 -13.5q8 0 14 1.5q6 1.5 9 1.5q4 0 7.5 -2.5q3.5 -2.5 3.5 -8.5v-5q0 -12 -20 -23q-20 -11 -58 -11q-37 0 -56 16q-19 16 -32 42q-11 22 -22 56q-11 34 -26 78q-14 39 -26 65.5q-12 26.5 -27 42q-15 15.5 -34 22q-19 6.5 -45 6.5h-72v-215q0 -28 4 -47.5q4 -19.5 27 -19.5h15q5 0 8 -1.5q3 -1.5 3 -8.5v-17q0 -11 -11 -11h-183q-9 0 -9 10v18q0 10 9 10h17q23 0 27 19.5q4 19.5 4 47.5v496q0 28 -4 47.5q-4 19.5 -27 19.5h-17q-9 0 -9 10v18q0 10 9 10z" />
<glyph unicode="&#83;" horiz-adv-x="529" d="M253 719q28 0 50.5 -4.5q22.5 -4.5 41 -9.5q18.5 -5 33.5 -9.5q15 -4.5 27 -4.5q15 0 23 6q8 6 22 6q15 0 15 -19q1 -10 1.5 -34q0.5 -24 1 -50.5q0.5 -26.5 1 -49.5q0.5 -23 0.5 -30q0 -9 -2.5 -15.5q-2.5 -6.5 -13.5 -6.5h-8q-11 0 -15 16q-3 13 -8.5 30.5q-5.5 17.5 -17.5 45.5q-6 15 -16.5 31.5q-10.5 16.5 -27.5 29.5q-17 13 -42.5 21.5q-25.5 8.5 -62.5 8.5q-16 0 -35.5 -5q-19.5 -5 -37 -17.5q-17.5 -12.5 -29 -35q-11.5 -22.5 -11.5 -58.5q0 -17 3.5 -34.5q3.5 -17.5 16 -35.5q12.5 -18 37 -37q24.5 -19 66.5 -41l95 -49q82 -42 113.5 -89q31.5 -47 31.5 -104q0 -41 -15.5 -75.5q-15.5 -34.5 -45.5 -60q-30 -25.5 -74.5 -40q-44.5 -14.5 -102.5 -14.5q-32 0 -57 4.5q-25 4.5 -44.5 9.5q-19.5 5 -34 9.5q-14.5 4.5 -23.5 4.5q-13 0 -20 -8q-7 -8 -18 -8h-5q-14 0 -15 20l-8 172q0 6 2.5 14q2.5 8 14.5 8h10q6 0 9 -4q3 -4 6 -14q5 -14 12 -35q7 -21 18 -43q19 -36 56.5 -64q37.5 -28 96.5 -28q40 0 68 13q28 13 45 32.5q17 19.5 24.5 43q7.5 23.5 7.5 44.5q0 28 -9 50q-9 22 -26 39.5q-17 17.5 -41 32.5q-24 15 -53 30l-88 44q-44 22 -72 46q-28 24 -44 49q-16 25 -22 49.5q-6 24.5 -6 47.5q0 39 13 71q13 32 38.5 55q25.5 23 63.5 36t87 13z" />
<glyph unicode="&#84;" horiz-adv-x="567" d="M328 105q0 -28 4 -47.5q4 -19.5 27 -19.5h17q9 0 9 -10v-18q0 -10 -9 -10h-185q-9 0 -9 10v18q0 10 9 10h17q23 0 27 19.5q4 19.5 4 47.5v559h-70q-29 0 -46.5 -6q-17.5 -6 -27.5 -17.5q-10 -11.5 -15 -28q-5 -16.5 -9 -37.5l-6 -30q-3 -14 -5.5 -17q-2.5 -3 -10.5 -3h-15q-6 0 -8.5 3q-2.5 3 -2.5 12v146q0 20 19 20h483q19 0 19 -20v-146q0 -9 -3 -12q-3 -3 -8 -3h-15q-7 0 -10.5 3.5q-3.5 3.5 -5.5 16.5l-6 30q-4 21 -9 37.5q-5 16.5 -15 28q-10 11.5 -27.5 17.5q-17.5 6 -46.5 6l-70 0z" />
<glyph unicode="&#85;" horiz-adv-x="653" d="M569 205q0 -38 -12 -76q-12 -38 -39 -68.5q-27 -30.5 -71 -50q-44 -19.5 -109 -19.5q-81 0 -128.5 22.5q-47.5 22.5 -71.5 55q-24 32.5 -30.5 67.5q-6.5 35 -6.5 59v406q0 28 -4 47.5q-4 19.5 -27 19.5h-17q-9 0 -9 10v18q0 10 9 10h185q9 0 9 -10v-18q0 -10 -9 -10h-17q-23 0 -27 -19.5q-4 -19.5 -4 -47.5v-387q0 -32 8 -62q8 -30 27 -53q19 -23 51.5 -36.5q32.5 -13.5 82.5 -13.5q46 0 76.5 14.5q30.5 14.5 49 37q18.5 22.5 26 50q7.5 27.5 7.5 54.5v396q0 28 -4 47.5q-4 19.5 -27 19.5h-17q-9 0 -9 10v18q0 10 9 10h147q9 0 9 -10v-18q0 -10 -9 -10h-17q-23 0 -27 -19.5q-4 -19.5 -4 -47.5z" />
<glyph unicode="&#86;" horiz-adv-x="634" d="M605 668q-8 0 -14.5 -3.5q-6.5 -3.5 -13.5 -13q-7 -9.5 -14.5 -27.5q-7.5 -18 -17.5 -48l-180 -524q-6 -18 -10 -28q-4 -10 -8.5 -15.5q-4.5 -5.5 -10 -7q-5.5 -1.5 -14.5 -1.5h-32q-8 0 -12.5 1.5q-4.5 1.5 -8 6.5q-3.5 5 -7 14q-3.5 9 -8.5 25l-166 553q-11 37 -22.5 52.5q-11.5 15.5 -31.5 15.5h-10q-9 0 -9 10v18q0 10 8 10h180q9 0 9 -10v-18q0 -10 -8 -10h-15q-8 0 -13.5 -3.5q-5.5 -3.5 -5.5 -17.5q0 -10 3.5 -26q3.5 -16 8.5 -31l151 -500l151 470q8 26 14 50q6 24 6 37q0 14 -7.5 17.5q-7.5 3.5 -15.5 3.5h-9q-9 0 -9 10v18q0 10 9 10h146q9 0 9 -10v-18q0 -10 -9 -10z" />
<glyph unicode="&#87;" horiz-adv-x="864" d="M723 556q7 32 9 51.5q2 19.5 2 32.5q0 16 -10 22q-10 6 -18 6h-14q-9 0 -9 10v18q0 10 9 10h157q9 0 9 -10v-18q0 -10 -9 -10h-13q-8 0 -15 -3q-7 -3 -13.5 -13.5q-6.5 -10.5 -14 -31.5q-7.5 -21 -15.5 -58l-108 -467q-8 -33 -13.5 -52q-5.5 -19 -11 -28.5q-5.5 -9.5 -11 -12q-5.5 -2.5 -14.5 -2.5h-26q-17 0 -23 9q-6 9 -13 38l-129 540l-163 -533q-6 -19 -10 -30q-4 -11 -8 -16q-4 -5 -8.5 -6.5q-4.5 -1.5 -11.5 -1.5h-38q-20 0 -24 30l-93 564q-8 46 -17 60q-9 14 -23 14h-14q-9 0 -9 10v18q0 10 8 10h176q9 0 9 -10v-18q0 -10 -8 -10h-12q-11 0 -17 -5.5q-6 -5.5 -6 -21.5q0 -13 1 -25q1 -12 3 -29l74 -477l172 578q4 14 9.5 16q5.5 2 16.5 2h31q10 0 16 -2q6 -2 9 -16l138 -578z" />
<glyph unicode="&#88;" horiz-adv-x="595" d="M397 668q-6 0 -7.5 2.5q-1.5 2.5 -1.5 7.5v18q0 10 9 10h166q10 0 10 -9v-19q0 -7 -2 -8.5q-2 -1.5 -8 -1.5h-13q-7 0 -14.5 -2.5q-7.5 -2.5 -19 -14q-11.5 -11.5 -28 -34.5q-16.5 -23 -42.5 -63l-111 -173l142 -252q20 -36 40 -63.5q20 -27.5 40 -27.5h15q4 0 7.5 -1.5q3.5 -1.5 3.5 -8.5v-18q0 -7 -4 -8.5q-4 -1.5 -8 -1.5h-199q-5 0 -8.5 1q-3.5 1 -3.5 9v19q0 7 4 8q4 1 8 1h13q20 0 20 23q0 11 -8.5 30.5q-8.5 19.5 -22.5 45.5l-88 168l-83 -141q-15 -26 -25 -43.5q-10 -17.5 -15.5 -28.5q-5.5 -11 -7.5 -18.5q-2 -7.5 -2 -14.5q0 -21 22 -21h16q5 0 8.5 -1q3.5 -1 3.5 -8v-18q0 -8 -3 -9.5q-3 -1.5 -9 -1.5h-171q-11 0 -11 10v19q0 7 3 8q3 1 8 1h7q38 0 108 107l129 198l-146 257q-13 23 -23 36.5q-10 13.5 -18 20.5q-8 7 -15 9q-7 2 -15 2h-9q-5 0 -8.5 1.5q-3.5 1.5 -3.5 8.5v19q0 7 3.5 8q3.5 1 8.5 1h192q7 0 10 -1q3 -1 3 -8v-19q0 -7 -2.5 -8.5q-2.5 -1.5 -8.5 -1.5h-16q-8 0 -15 -3q-7 -3 -7 -12q0 -11 6 -26q6 -15 19 -38l94 -171l70 122q15 25 24.5 42.5q9.5 17.5 15 29.5q5.5 12 7.5 20q2 8 2 15q0 14 -8 17.5q-8 3.5 -18 3.5z" />
<glyph unicode="&#89;" horiz-adv-x="578" d="M333 105q0 -28 4 -47.5q4 -19.5 27 -19.5h17q9 0 9 -10v-18q0 -10 -9 -10h-185q-9 0 -9 10v18q0 10 9 10h17q23 0 27 19.5q4 19.5 4 47.5v147l-165 361q-8 18 -15 29q-7 11 -13 17q-6 6 -12 7.5q-6 1.5 -13 1.5h-7q-9 0 -9 10v18q0 10 8 10h180q9 0 9 -10v-18q0 -10 -8 -10h-15q-8 0 -13.5 -3.5q-5.5 -3.5 -5.5 -17.5q0 -10 5.5 -24.5q5.5 -14.5 12.5 -28.5l129 -287l105 243q11 24 20.5 51.5q9.5 27.5 9.5 41.5q0 17 -7.5 21q-7.5 4 -15.5 4h-11q-9 0 -9 10v18q0 10 9 10h146q9 0 9 -10v-18q0 -10 -9 -10h-11q-8 0 -14 -3q-6 -3 -12 -11.5q-6 -8.5 -13.5 -23q-7.5 -14.5 -18.5 -38.5l-157 -340z" />
<glyph unicode="&#90;" horiz-adv-x="527" d="M501 172q0 -4 0 -12.5q0 -8.5 -1 -14.5l-10 -125q-1 -11 -5.5 -15.5q-4.5 -4.5 -18.5 -4.5h-427q-11 0 -16.5 3.5q-5.5 3.5 -5.5 15.5q0 8 1 14.5q1 6.5 4 14q3 7.5 8.5 16.5q5.5 9 13.5 23l336 549q8 12 8 21q0 5 -4 6q-4 1 -7 1h-156q-31 0 -51.5 -6q-20.5 -6 -33.5 -18q-13 -12 -20.5 -28.5q-7.5 -16.5 -12.5 -37.5q-2 -7 -3 -16q-1 -9 -3 -16.5q-2 -7.5 -5 -12.5q-3 -5 -9 -5h-17q-7 0 -9 5q-2 5 -2 10l5 147q0 11 4.5 15.5q4.5 4.5 18.5 4.5h398q11 0 14 -4q3 -4 3 -12q0 -15 -5.5 -27q-5.5 -12 -16.5 -29l-344 -562q-9 -14 -9 -23q0 -5 4 -6q4 -1 9 -1h193q31 0 52.5 6.5q21.5 6.5 35.5 18.5q14 12 22 29q8 17 13 38l9 40q2 7 5.5 8.5q3.5 1.5 8.5 1.5h15q11 0 11 -12z" />
<glyph unicode="&#91;" horiz-adv-x="299" d="M91 -112v829h158v-33h-87v-763h87l0 -33z" />
<glyph unicode="&#92;" horiz-adv-x="424" d="M-4 754l45 15l372 -993l-43 -16z" />
<glyph unicode="&#93;" horiz-adv-x="299" d="M50 -112v33h87v763h-87v33h158l0 -829z" />
<glyph unicode="&#94;" horiz-adv-x="443" d="M365 491l-143 173l-142 -173h-44l186 278l187 -278z" />
<glyph unicode="&#95;" horiz-adv-x="540" d="M5 -198v35h533l0 -35z" />
<glyph unicode="&#96;" horiz-adv-x="283" d="M40 720q0 14 10 27q10 13 35 13q13 0 25.5 -9.5q12.5 -9.5 34.5 -42.5l87 -130l-23 -9l-116 84q-30 22 -41.5 35t-11.5 32z" />
<glyph unicode="&#97;" horiz-adv-x="500" d="M469 24q0 -8 -14 -17.5q-14 -9.5 -47 -9.5q-33 0 -46.5 23q-13.5 23 -13.5 58q-26 -42 -68 -65q-42 -23 -105 -23q-67 0 -97.5 38q-30.5 38 -30.5 98q0 39 12.5 64.5q12.5 25.5 34.5 41.5q22 16 51.5 24.5q29.5 8.5 63.5 13.5q26 4 51.5 7.5q25.5 3.5 52.5 11.5q23 7 28.5 16q5.5 9 5.5 18v48q0 30 -7.5 49q-7.5 19 -19.5 29q-12 10 -27.5 13.5q-15.5 3.5 -31.5 3.5q-32 0 -52.5 -11.5q-20.5 -11.5 -32.5 -45.5q-13 -37 -25 -51q-12 -14 -28 -14q-8 0 -16.5 2q-8.5 2 -16 7.5q-7.5 5.5 -12.5 14.5q-5 9 -5 23q0 31 21.5 52q21.5 21 53 34.5q31.5 13.5 68 19.5q36.5 6 66.5 6q24 0 50 -3.5q26 -3.5 48 -16.5q22 -13 36 -37q14 -24 14 -65v-274q0 -24 5 -41.5q5 -17.5 18 -22.5q7 -3 11.5 -4.5q4.5 -1.5 4.5 -6.5zM347 269q-14 -12 -41 -17.5q-27 -5.5 -65 -13.5q-59 -12 -82.5 -35q-23.5 -23 -23.5 -68q0 -17 4.5 -33.5q4.5 -16.5 14.5 -30q10 -13.5 25.5 -21.5q15.5 -8 37.5 -8q30 0 54 10.5q24 10.5 41 27.5q17 17 26 38q9 21 9 42z" />
<glyph unicode="&#98;" horiz-adv-x="554" d="M174 428q8 12 21.5 25q13.5 13 33 23.5q19.5 10.5 44 17.5q24.5 7 53.5 7q90 0 138 -61q48 -61 48 -179q0 -60 -15 -110.5q-15 -50.5 -44 -87q-29 -36.5 -71 -57q-42 -20.5 -95 -20.5q-29 0 -50 3.5q-21 3.5 -36.5 7.5q-15.5 4 -26.5 7.5q-11 3.5 -21 3.5q-14 0 -24.5 -4q-10.5 -4 -17.5 -4h-5q-11 0 -13 10q-2 10 -2 30v614q0 18 -9.5 25q-9.5 7 -24.5 7h-7q-6 0 -8.5 2q-2.5 2 -2.5 10v7q0 8 5.5 11.5q5.5 3.5 22.5 6.5l74 15q10 2 15 2q9 0 13.5 -6.5q4.5 -6.5 4.5 -28.5zM424 241q0 58 -11 97.5q-11 39.5 -29 63.5q-18 24 -41.5 34.5q-23.5 10.5 -48.5 10.5q-60 0 -90 -36q-30 -36 -30 -90v-232q0 -26 24 -46q24 -20 78 -20q66 0 107 54.5t41 163.5z" />
<glyph unicode="&#99;" horiz-adv-x="474" d="M439 113q0 -6 -7.5 -25q-7.5 -19 -36.5 -48q-20 -20 -54 -37q-34 -17 -91 -17q-48 0 -86 18q-38 18 -65 50.5q-27 32.5 -41 78.5q-14 46 -14 102q0 66 17 116q17 50 47 84q30 34 72 51q42 17 92 17q43 0 74.5 -10.5q31.5 -10.5 52.5 -28q21 -17.5 31 -39.5q10 -22 10 -45q0 -21 -12 -37q-12 -16 -43 -16q-28 0 -37 19q-9 19 -9 51q0 32 -16 50.5q-16 18.5 -58 18.5q-29 0 -53.5 -12q-24.5 -12 -42.5 -38q-18 -26 -28 -67q-10 -41 -10 -99q0 -55 13 -93.5q13 -38.5 33.5 -63q20.5 -24.5 46 -35.5q25.5 -11 49.5 -11q37 0 63.5 12q26.5 12 47.5 33q13 13 22 24q9 11 19 11q14 0 14 -14z" />
<glyph unicode="&#100;" horiz-adv-x="558" d="M384 382q0 46 -26.5 65q-26.5 19 -68.5 19q-75 0 -115 -53q-40 -53 -40 -153v-44q0 -33 8.5 -65q8.5 -32 25 -57q16.5 -25 40.5 -40q24 -15 56 -15q25 0 47 9.5q22 9.5 38 26.5q16 17 25.5 42q9.5 25 9.5 57zM467 77q0 -23 4.5 -29.5q4.5 -6.5 12.5 -6.5q7 0 15 1q8 1 11 1q5 0 7.5 -3.5q2.5 -3.5 2.5 -8.5q0 -7 -6 -12.5q-6 -5.5 -14 -8.5q-22 -9 -36 -12.5q-14 -3.5 -34 -3.5q-23 0 -31.5 14.5q-8.5 14.5 -13.5 55.5q-12 -17 -25 -31q-13 -14 -30.5 -24q-17.5 -10 -41 -15.5q-23.5 -5.5 -56.5 -5.5q-42 0 -76 16.5q-34 16.5 -59 47.5q-25 31 -38.5 76q-13.5 45 -13.5 101q0 72 18.5 123.5q18.5 51.5 50 85q31.5 33.5 72.5 49q41 15.5 85 15.5q30 0 58.5 -5q28.5 -5 54.5 -22l0 179q0 18 -9.5 25q-9.5 7 -24.5 7h-7q-6 0 -8.5 2q-2.5 2 -2.5 10v7q0 8 5.5 11.5q5.5 3.5 22.5 6.5l74 15q10 2 15 2q9 0 13.5 -6.5q4.5 -6.5 4.5 -28.5z" />
<glyph unicode="&#101;" horiz-adv-x="477" d="M449 321q0 -33 -9.5 -42.5q-9.5 -9.5 -23.5 -9.5h-281q-1 -9 -1 -16q0 -7 0 -15q0 -48 11 -84q11 -36 30 -59.5q19 -23.5 44.5 -35.5q25.5 -12 55.5 -12q40 0 67 11.5q27 11.5 53 36.5q13 13 20.5 22.5q7.5 9.5 16.5 9.5q15 0 15 -14q0 -9 -8.5 -27.5q-8.5 -18.5 -34.5 -44.5q-27 -26 -63 -40.5q-36 -14.5 -84 -14.5q-46 0 -85 17q-39 17 -67.5 50q-28.5 33 -44.5 80.5q-16 47.5 -16 108.5q0 55 13.5 102.5q13.5 47.5 41.5 83q28 35.5 71 55.5q43 20 101 20q43 0 76 -13.5q33 -13.5 55.5 -38q22.5 -24.5 34.5 -58q12 -33.5 12 -72.5zt0 0zM363 347q0 21 -6 42q-6 21 -18 38.5q-12 17.5 -31.5 28q-19.5 10.5 -46.5 10.5q-52 0 -85 -40.5q-33 -40.5 -38 -117.5l191 0q24 0 29 8t5 31z" />
<glyph unicode="&#102;" horiz-adv-x="328" d="M174 84q0 -29 5 -38.5q5 -9.5 22 -9.5h20q9 0 9 -9v-18q0 -9 -9 -9h-173q-9 0 -9 9v18q0 9 9 9h16q17 0 22 9.5q5 9.5 5 38.5v365h-48q-11 0 -11 11v19q0 10 11 10h48v31q0 58 18 101q18 43 47 71.5q29 28.5 65.5 43q36.5 14.5 73.5 14.5q31 0 44 -13.5q13 -13.5 13 -34.5q0 -21 -9 -30.5q-9 -9.5 -21 -9.5q-12 0 -23.5 6q-11.5 6 -23 12.5q-11.5 6.5 -23.5 12.5q-12 6 -25 6q-6 0 -15 -3q-9 -3 -17.5 -18q-8.5 -15 -14.5 -46q-6 -31 -6 -86v-57h119q10 0 10 -10v-19q0 -11 -10 -11l-119 0z" />
<glyph unicode="&#103;" horiz-adv-x="489" d="M481 485q0 -10 -5 -14q-5 -4 -20 -6q-11 -2 -26 -3q-15 -1 -31 -5l-19 -4q6 -6 13 -15q7 -9 14 -22.5q7 -13.5 11.5 -32q4.5 -18.5 4.5 -43.5q0 -36 -13.5 -66.5q-13.5 -30.5 -39 -52q-25.5 -21.5 -62 -34q-36.5 -12.5 -82.5 -12.5h-20q-8 -1 -19.5 -5.5q-11.5 -4.5 -22.5 -12q-11 -7.5 -19 -17.5q-8 -10 -8 -23q0 -15 12 -23.5q12 -8.5 33.5 -14q21.5 -5.5 50 -9q28.5 -3.5 61.5 -9.5q51 -9 85.5 -19q34.5 -10 54.5 -24q20 -14 28.5 -34q8.5 -20 8.5 -49q0 -79 -62.5 -126.5q-62.5 -47.5 -178.5 -47.5q-23 0 -57 4q-34 4 -66 17.5q-32 13.5 -55 40q-23 26.5 -23 71.5q0 30 9 49.5q9 19.5 22 32.5q13 13 28.5 22q15.5 9 27.5 18q-27 13 -37 29q-10 16 -10 36q0 41 25 65q25 24 62 41q-22 5 -42 15.5q-20 10.5 -35 28.5q-15 18 -24 44.5q-9 26.5 -9 62.5q0 46 16 77.5q16 31.5 42 51q26 19.5 60 28q34 8.5 69 8.5q35 0 66.5 -7q31.5 -7 52.5 -19l11 7q38 24 57 31.5q19 7.5 30 7.5q13 0 22 -7.5q9 -7.5 9 -30.5zt0 0zM335 351q0 21 -5 41.5q-5 20.5 -16.5 37q-11.5 16.5 -31 26.5q-19.5 10 -49.5 10q-29 0 -48.5 -10q-19.5 -10 -30.5 -26.5q-11 -16.5 -15.5 -37q-4.5 -20.5 -4.5 -41.5v-23q0 -20 4.5 -40.5q4.5 -20.5 16 -37q11.5 -16.5 31 -27.5q19.5 -11 48.5 -11q30 0 49.5 11q19.5 11 31 27.5q11.5 16.5 16 37q4.5 20.5 4.5 40.5zM399 -98q0 15 -5 26.5q-5 11.5 -18.5 21q-13.5 9.5 -37.5 17q-24 7.5 -63 13.5q-16 3 -29.5 5q-13.5 2 -28.5 4.5q-15 2.5 -32 6q-17 3.5 -41 8.5q-22 -23 -32.5 -43q-10.5 -20 -10.5 -53q0 -57 36 -83.5q36 -26.5 94 -26.5q39 0 70 8q31 8 52.5 22.5q21.5 14.5 33.5 33.5t12 40z" />
<glyph unicode="&#104;" horiz-adv-x="571" d="M174 400q24 30 48.5 48.5q24.5 18.5 47.5 29.5q23 11 44.5 15q21.5 4 40.5 4q40 0 65 -14q25 -14 38.5 -33.5q13.5 -19.5 18 -41.5q4.5 -22 4.5 -38v-286q0 -29 5 -38.5q5 -9.5 22 -9.5h15q10 0 10 -9v-18q0 -9 -10 -9h-167q-10 0 -10 9v18q0 9 10 9h15q17 0 22 9.5q5 9.5 5 38.5v232q0 56 -18.5 87q-18.5 31 -70.5 31q-32 0 -57 -11.5q-25 -11.5 -42.5 -31.5q-17.5 -20 -26.5 -47.5q-9 -27.5 -9 -60.5v-199q0 -29 5 -38.5q5 -9.5 22 -9.5h16q9 0 9 -9v-18q0 -9 -9 -9h-169q-9 0 -9 9v18q0 9 9 9h16q17 0 22 9q5 9 5 38v571q0 18 -9.5 25q-9.5 7 -24.5 7h-7q-6 0 -8.5 2q-2.5 2 -2.5 10v7q0 8 5.5 11.5q5.5 3.5 22.5 6.5l74 15q10 2 15 2q9 0 13.5 -6.5q4.5 -6.5 4.5 -28.5z" />
<glyph unicode="&#105;" horiz-adv-x="265" d="M178 645q0 -8 -1.5 -18q-1.5 -10 -7.5 -19q-6 -9 -17 -15q-11 -6 -29 -6q-14 0 -23.5 5.5q-9.5 5.5 -15.5 14q-6 8.5 -8.5 18.5q-2.5 10 -2.5 20q0 8 1.5 17.5q1.5 9.5 7 18q5.5 8.5 16.5 14.5q11 6 29 6q32 0 41.5 -17q9.5 -17 9.5 -39zt0 0zM174 84q0 -29 5 -38.5q5 -9.5 22 -9.5h16q9 0 9 -9v-18q0 -9 -9 -9h-169q-9 0 -9 9v18q0 9 9 9h16q17 0 22 9.5q5 9.5 5 38.5v326q0 18 -9.5 25q-9.5 7 -24.5 7h-7q-6 0 -8.5 2q-2.5 2 -2.5 10v7q0 8 5.5 11.5q5.5 3.5 22.5 6.5l74 15q10 2 15 2q9 0 13.5 -6.5q4.5 -6.5 4.5 -28.5z" />
<glyph unicode="&#106;" horiz-adv-x="255" d="M184 645q0 -8 -1.5 -18q-1.5 -10 -7.5 -19q-6 -9 -17 -15q-11 -6 -29 -6q-14 0 -23.5 5.5q-9.5 5.5 -15.5 14q-6 8.5 -8.5 18.5q-2.5 10 -2.5 20q0 8 1.5 17.5q1.5 9.5 7 18q5.5 8.5 16.5 14.5q11 6 29 6q32 0 41.5 -17q9.5 -17 9.5 -39zt0 0zM184 202q0 -44 -6.5 -93q-6.5 -49 -18.5 -97.5q-12 -48.5 -28 -93q-16 -44.5 -35 -78.5q-19 -34 -40.5 -54q-21.5 -20 -43.5 -20q-15 0 -29 8q-14 8 -14 40q0 14 4 21.5q4 7.5 12.5 12q8.5 4.5 21 7q12.5 2.5 30.5 6.5q21 4 34 16.5q13 12.5 19.5 45.5q6.5 33 8.5 93q2 60 2 160v234q0 18 -9.5 25q-9.5 7 -24.5 7h-14q-8 0 -8 10v9q0 9 8 12q8 3 24 6l74 15q4 1 7 1.5q3 0.5 8 0.5q14 0 16 -12.5q2 -12.5 2 -26.5z" />
<glyph unicode="&#107;" horiz-adv-x="520" d="M174 262l86 86q6 6 17.5 18.5q11.5 12.5 22.5 26q11 13.5 19 26.5q8 13 8 21q0 8 -2.5 11q-2.5 3 -10.5 3h-16q-9 0 -9 9v17q0 7 2.5 8q2.5 1 6.5 1h169q2 0 5 -0.5q3 -0.5 3 -5.5v-15q0 -5 -2.5 -8.5q-2.5 -3.5 -10.5 -5.5l-21 -6q-11 -3 -23.5 -11q-12.5 -8 -28.5 -21.5q-16 -13.5 -37.5 -33.5q-21.5 -20 -50.5 -48l-47 -45l90 -105q42 -49 67.5 -77q25.5 -28 40.5 -43q15 -15 23.5 -19.5q8.5 -4.5 17.5 -6.5q12 -2 17 -4.5q5 -2.5 5 -10.5q0 -14 -21.5 -20.5q-21.5 -6.5 -60.5 -6.5q-29 0 -43.5 10.5q-14.5 10.5 -31.5 31.5l-184 223v-177q0 -29 5 -38.5q5 -9.5 22 -9.5h16q9 0 9 -9v-18q0 -9 -9 -9h-169q-9 0 -9 9v18q0 9 9 9h16q17 0 22 9.5q5 9.5 5 38.5v570q0 18 -9.5 25q-9.5 7 -24.5 7h-7q-6 0 -8.5 2q-2.5 2 -2.5 10v7q0 8 5.5 11.5q5.5 3.5 22.5 6.5l74 15q10 2 15 2q9 0 13.5 -6.5q4.5 -6.5 4.5 -28.5z" />
<glyph unicode="&#108;" horiz-adv-x="264" d="M174 84q0 -29 5 -38.5q5 -9.5 22 -9.5h16q9 0 9 -9v-18q0 -9 -9 -9h-169q-9 0 -9 9v18q0 9 9 9h16q17 0 22 9.5q5 9.5 5 38.5v570q0 18 -9.5 25q-9.5 7 -24.5 7h-7q-6 0 -8.5 2q-2.5 2 -2.5 10v7q0 8 5.5 11.5q5.5 3.5 22.5 6.5l74 15q10 2 15 2q9 0 13.5 -6.5q4.5 -6.5 4.5 -28.5z" />
<glyph unicode="&#109;" horiz-adv-x="840" d="M174 413q25 40 66.5 62q41.5 22 80.5 22q36 0 58.5 -9.5q22.5 -9.5 36.5 -24q14 -14.5 21.5 -32q7.5 -17.5 12.5 -34.5q18 33 41.5 52.5q23.5 19.5 46.5 30q23 10.5 43.5 14q20.5 3.5 33.5 3.5q40 0 66.5 -12q26.5 -12 41.5 -31.5q15 -19.5 21 -43.5q6 -24 6 -49v-277q0 -29 5 -38.5q5 -9.5 22 -9.5h16q9 0 9 -9v-18q0 -9 -9 -9h-169q-9 0 -9 9v18q0 9 9 9h16q17 0 22 9.5q5 9.5 5 38.5v234q0 36 -6.5 59q-6.5 23 -19 36.5q-12.5 13.5 -29.5 18.5q-17 5 -38 5q-20 0 -39.5 -7.5q-19.5 -7.5 -36 -24q-16.5 -16.5 -26.5 -42.5q-10 -26 -10 -63v-216q0 -29 5 -38.5q5 -9.5 22 -9.5h16q9 0 9 -9v-18q0 -9 -9 -9h-169q-9 0 -9 9v18q0 9 9 9h16q17 0 22 9.5q5 9.5 5 38.5v234q0 36 -9 59q-9 23 -22.5 36.5q-13.5 13.5 -31 18.5q-17.5 5 -33.5 5q-17 0 -36 -6.5q-19 -6.5 -35.5 -23q-16.5 -16.5 -27 -43.5q-10.5 -27 -10.5 -69v-211q0 -29 5 -38.5q5 -9.5 22 -9.5h16q9 0 9 -9v-18q0 -9 -9 -9h-169q-9 0 -9 9v18q0 9 9 9h16q17 0 22 9.5q5 9.5 5 38.5v326q0 18 -9.5 25q-9.5 7 -24.5 7h-7q-6 0 -8.5 2q-2.5 2 -2.5 10v7q0 8 5.5 11.5q5.5 3.5 22.5 6.5l74 15q10 2 15 2q9 0 13.5 -6.5q4.5 -6.5 4.5 -28.5z" />
<glyph unicode="&#110;" horiz-adv-x="571" d="M48 0q-9 0 -9 9v18q0 9 9 9h16q17 0 22 9.5q5 9.5 5 38.5v326q0 18 -9.5 25q-9.5 7 -24.5 7h-7q-6 0 -8.5 2q-2.5 2 -2.5 10v7q0 8 5.5 11.5q5.5 3.5 22.5 6.5l74 15q10 2 15 2q9 0 13.5 -6.5q4.5 -6.5 4.5 -28.5v-61q24 30 48.5 48.5q24.5 18.5 47.5 29.5q23 11 44.5 15q21.5 4 40.5 4q40 0 65 -14q25 -14 38.5 -33.5q13.5 -19.5 18 -41.5q4.5 -22 4.5 -38v-286q0 -29 5 -38.5q5 -9.5 22 -9.5h15q10 0 10 -9v-18q0 -9 -10 -9h-167q-10 0 -10 9v18q0 9 10 9h15q17 0 22 9.5q5 9.5 5 38.5v232q0 56 -18.5 87q-18.5 31 -70.5 31q-32 0 -57 -11.5q-25 -11.5 -42.5 -31.5q-17.5 -20 -26.5 -47.5q-9 -27.5 -9 -60.5v-199q0 -29 5 -38.5q5 -9.5 22 -9.5h16q9 0 9 -9v-18q0 -9 -9 -9z" />
<glyph unicode="&#111;" horiz-adv-x="544" d="M501 250q0 -64 -17.5 -113q-17.5 -49 -48.5 -82.5q-31 -33.5 -72.5 -51q-41.5 -17.5 -89.5 -17.5q-112 0 -170.5 67.5q-58.5 67.5 -58.5 196.5q0 61 17 108.5q17 47.5 47 79.5q30 32 72 48.5q42 16.5 93 16.5q112 0 170 -65.5q58 -65.5 58 -187.5zt0 0zM412 250q0 66 -12 108q-12 42 -31.5 66q-19.5 24 -44.5 33q-25 9 -51 9q-27 0 -52.5 -8.5q-25.5 -8.5 -45 -32q-19.5 -23.5 -31 -66q-11.5 -42.5 -11.5 -109.5q0 -69 11.5 -113.5q11.5 -44.5 31 -69.5q19.5 -25 44.5 -34.5q25 -9.5 52 -9.5q30 0 55.5 11.5q25.5 11.5 44 38q18.5 26.5 29.5 70t11 107.5z" />
<glyph unicode="&#112;" horiz-adv-x="556" d="M425 249q0 58 -12 96q-12 38 -31 60.5q-19 22.5 -43.5 32q-24.5 9.5 -49.5 9.5q-28 0 -49.5 -9.5q-21.5 -9.5 -36 -24q-14.5 -14.5 -22 -33q-7.5 -18.5 -7.5 -36.5v-247q0 -16 8.5 -29.5q8.5 -13.5 23.5 -23q15 -9.5 34 -15q19 -5.5 40 -5.5q35 0 62 17q27 17 45.5 47.5q18.5 30.5 28 71.5q9.5 41 9.5 89zt0 0zM174 431q25 38 64.5 55q39.5 17 85.5 17q88 0 139 -60.5q51 -60.5 51 -181.5q0 -68 -18 -119.5q-18 -51.5 -49 -86q-31 -34.5 -71.5 -52q-40.5 -17.5 -85.5 -17.5q-47 0 -71.5 7.5q-24.5 7.5 -44.5 20.5l0 -169q0 -29 5 -38.5q5 -9.5 22 -9.5h20q9 0 9 -9v-18q0 -9 -9 -9h-173q-9 0 -9 9v18q0 9 9 9h16q17 0 22 9.5q5 9.5 5 38.5v565q0 18 -9.5 25q-9.5 7 -24.5 7h-7q-6 0 -8.5 2q-2.5 2 -2.5 10v7q0 8 5.5 11.5q5.5 3.5 22.5 6.5l74 15q10 2 15 2q9 0 13.5 -6.5q4.5 -6.5 4.5 -28.5z" />
<glyph unicode="&#113;" horiz-adv-x="544" d="M383 393q0 27 -24 50q-24 23 -81 23q-71 0 -108 -55q-37 -55 -37 -165v-21q0 -35 8 -68.5q8 -33.5 24.5 -60q16.5 -26.5 40.5 -43q24 -16.5 57 -16.5q21 0 42.5 8.5q21.5 8.5 39 23.5q17.5 15 28 36.5q10.5 21.5 10.5 47.5zM466 -155q0 -29 5 -38.5q5 -9.5 22 -9.5h16q9 0 9 -9v-18q0 -9 -9 -9h-173q-9 0 -9 9v18q0 9 9 9h20q17 0 22 9.5q5 9.5 5 38.5v216q-26 -39 -61 -57q-35 -18 -94 -18q-41 0 -74.5 19q-33.5 19 -58 52q-24.5 33 -38 77.5q-13.5 44.5 -13.5 94.5q0 69 18 120.5q18 51.5 49.5 85.5q31.5 34 73.5 51q42 17 90 17q30 0 51 -3.5q21 -3.5 36 -7.5q15 -4 24 -7.5q9 -3.5 15 -3.5q14 0 26 7.5q12 7.5 25 7.5q6 0 10 -3q4 -3 4 -12z" />
<glyph unicode="&#114;" horiz-adv-x="397" d="M388 444q0 -20 -12 -37q-12 -17 -29 -17q-14 0 -23 5.5q-9 5.5 -20 13.5q-12 9 -22.5 14.5q-10.5 5.5 -24.5 5.5q-15 0 -30 -11.5q-15 -11.5 -27 -31q-12 -19.5 -19 -44.5q-7 -25 -7 -53v-205q0 -30 5 -39q5 -9 22 -9h14q11 0 11 -9v-18q0 -9 -11 -9h-161q-8 0 -9.5 2q-1.5 2 -1.5 7v18q0 9 11 9h12q17 0 21 13q4 13 4 35v326q0 18 -9.5 25q-9.5 7 -24.5 7h-14q-8 0 -8 10v9q0 8 8 11.5q8 3.5 24 6.5l74 15q10 2 15 2q9 0 13.5 -7q4.5 -7 4.5 -28v-64q10 21 25 39.5q15 18.5 33 32.5q18 14 38 22q20 8 39 8q35 0 57 -13t22 -42z" />
<glyph unicode="&#115;" horiz-adv-x="433" d="M398 136q0 -27 -9 -54q-9 -27 -29 -48q-20 -21 -51.5 -34q-31.5 -13 -75.5 -13q-24 0 -41.5 2.5q-17.5 2.5 -31.5 5q-14 2.5 -25.5 5q-11.5 2.5 -24.5 2.5q-11 0 -16.5 -4q-5.5 -4 -19.5 -4q-11 0 -15.5 5q-4.5 5 -5.5 20l-3 93q0 8 -0.5 16q-0.5 8 -0.5 18q0 16 16 16q8 0 11 -3.5q3 -3.5 9 -17.5l21 -46q19 -42 53.5 -56.5q34.5 -14.5 74.5 -14.5q35 0 62 20q27 20 27 65q0 20 -6 34q-6 14 -18.5 25q-12.5 11 -32 20q-19.5 9 -45.5 19l-51 20q-51 20 -85.5 51q-34.5 31 -34.5 87q0 72 44 105q44 33 114 33q24 0 41.5 -2.5q17.5 -2.5 29.5 -5.5q12 -3 21 -5.5q9 -2.5 17 -2.5q12 0 17.5 4.5q5.5 4.5 17.5 4.5q11 0 14.5 -4.5q3.5 -4.5 3.5 -17.5l2 -113q0 -18 -4 -22q-4 -4 -13 -4q-7 0 -11.5 2.5q-4.5 2.5 -9.5 18.5q-4 11 -9 24.5q-5 13.5 -14 28.5q-21 35 -46.5 46q-25.5 11 -59.5 11q-14 0 -28 -4q-14 -4 -26 -13q-12 -9 -19.5 -23.5q-7.5 -14.5 -7.5 -36.5q0 -33 20.5 -53q20.5 -20 71.5 -37l61 -21q62 -21 91.5 -53t29.5 -89z" />
<glyph unicode="&#116;" horiz-adv-x="304" d="M177 112q0 -34 8.5 -50q8.5 -16 30.5 -16q29 0 41.5 3q12.5 3 23.5 3q11 0 11 -13v-8q0 -7 -4.5 -11q-4.5 -4 -9.5 -6q-17 -8 -40 -14.5q-23 -6.5 -47 -6.5q-36 0 -56 11.5q-20 11.5 -29 29q-9 17.5 -10.5 37q-1.5 19.5 -1.5 34.5v336h-48q-5 0 -8 1.5q-3 1.5 -3 9.5q0 9 5 14q14 14 28.5 30.5q14.5 16.5 27.5 38.5q11 20 19.5 41.5q8.5 21.5 17.5 49.5q4 13 8 17q4 4 14 4q16 0 19 -5.5q3 -5.5 3 -19.5v-133h87q5 0 7.5 -1.5q2.5 -1.5 2.5 -10.5v-25q0 -11 -10 -11l-87 0z" />
<glyph unicode="&#117;" horiz-adv-x="571" d="M431 0q-21 0 -27 8q-6 8 -6 28v59q-26 -33 -51.5 -53q-25.5 -20 -49.5 -31q-24 -11 -46 -14.5q-22 -3.5 -39 -3.5q-43 0 -67.5 16.5q-24.5 16.5 -36.5 42q-12 25.5 -14.5 57q-2.5 31.5 -2.5 61.5v235q0 29 -5 38.5q-5 9.5 -22 9.5h-16q-9 0 -9 9v18q0 9 9 9h108q10 0 14 -4.5q4 -4.5 4 -16.5v-310q0 -32 6.5 -51.5q6.5 -19.5 18.5 -30.5q12 -11 27.5 -15q15.5 -4 33.5 -4q21 0 45.5 8.5q24.5 8.5 45 26.5q20.5 18 34 44.5q13.5 26.5 13.5 62.5v206q0 29 -5 38.5q-5 9.5 -22 9.5h-16q-9 0 -9 9v18q0 9 9 9h108q10 0 14 -4.5q4 -4.5 4 -16.5v-384q0 -29 5 -38.5q5 -9.5 22 -9.5h15q10 0 10 -9v-18q0 -9 -10 -9z" />
<glyph unicode="&#118;" horiz-adv-x="503" d="M496 463q0 -7 -3 -8.5q-3 -1.5 -8 -1.5h-8q-8 0 -14.5 -4q-6.5 -4 -15 -17.5q-8.5 -13.5 -20.5 -41q-12 -27.5 -30 -73.5l-111 -282q-5 -13 -8.5 -20q-3.5 -7 -8 -10.5q-4.5 -3.5 -11.5 -4.5q-7 -1 -17 -1q-10 0 -16 1q-6 1 -10.5 4.5q-4.5 3.5 -8 10.5q-3.5 7 -7.5 19l-137 380q-8 23 -15.5 31q-7.5 8 -19.5 8h-8q-4 0 -7 1.5q-3 1.5 -3 8.5v17q0 7 3 8q3 1 7 1h151q5 0 7.5 -1q2.5 -1 2.5 -8v-17q0 -7 -2.5 -8.5q-2.5 -1.5 -6.5 -1.5h-13q-8 0 -11 -4.5q-3 -4.5 -3 -9.5q0 -8 2.5 -16q2.5 -8 7.5 -21l108 -312l86 227q17 48 23.5 75q6.5 27 6.5 38q0 15 -7.5 19q-7.5 4 -18.5 4h-10q-11 0 -11 9v18q0 7 3 8q3 1 8 1h143q5 0 8 -1q3 -1 3 -8z" />
<glyph unicode="&#119;" horiz-adv-x="731" d="M723 463q0 -10 -10 -10h-9q-9 0 -15.5 -3q-6.5 -3 -12.5 -13.5q-6 -10.5 -13 -32q-7 -21.5 -17 -57.5l-78 -295q-5 -19 -9.5 -29.5q-4.5 -10.5 -10 -16q-5.5 -5.5 -13 -6.5q-7.5 -1 -19.5 -1q-13 0 -20.5 2.5q-7.5 2.5 -12.5 9q-5 6.5 -9 16.5q-4 10 -8 25l-101 339l-120 -338q-6 -18 -11 -28.5q-5 -10.5 -11 -16q-6 -5.5 -13.5 -7.5q-7.5 -2 -19.5 -2q-22 0 -30.5 8q-8.5 8 -14.5 37l-74 368q-5 28 -13 34.5q-8 6.5 -25 6.5h-7q-4 0 -6.5 1.5q-2.5 1.5 -2.5 8.5v17q0 9 9 9h156q5 0 8 -1.5q3 -1.5 3 -7.5v-17q0 -7 -3 -8.5q-3 -1.5 -7 -1.5h-12q-17 0 -17 -16q0 -8 2 -18.5q2 -10.5 4 -23.5l56 -299l133 371q6 16 11 19q5 3 14 3h29q10 0 14 -3q4 -3 9 -19l112 -371l56 235q17 74 17 99q0 24 -23 24h-9q-5 0 -8 1.5q-3 1.5 -3 7.5v16q0 10 11 10h134q5 0 7.5 -1.5q2.5 -1.5 2.5 -7.5l0 -17z" />
<glyph unicode="&#120;" horiz-adv-x="506" d="M486 10q0 -10 -11 -10h-162q-11 0 -11 10v15q0 11 11 11h8q5 0 10 1.5q5 1.5 5 12.5q0 8 -7.5 19.5q-7.5 11.5 -15.5 24.5l-73 112l-45 -65q-23 -34 -37.5 -57q-14.5 -23 -14.5 -34q0 -9 5.5 -11.5q5.5 -2.5 11.5 -2.5h10q11 0 11 -9v-17q0 -10 -11 -10h-143q-8 0 -8 10v18q0 8 11 8h9q14 0 32 15.5q18 15.5 53 61.5l93 122l-126 191q-12 18 -21.5 22.5q-9.5 4.5 -17.5 4.5h-9q-4 0 -6.5 1.5q-2.5 1.5 -2.5 8.5v17q0 9 9 9h159q9 0 9 -9v-17q0 -10 -9 -10h-8q-14 0 -14 -11q0 -4 5.5 -13.5q5.5 -9.5 19.5 -32.5l62 -99l42 66q17 27 25.5 46q8.5 19 8.5 27q0 8 -3.5 13q-3.5 5 -16.5 5h-6q-12 0 -12 9v17q0 9 8 9h152q5 0 8 -1q3 -1 3 -8v-17q0 -10 -9 -10h-7q-26 0 -52 -29.5q-26 -29.5 -72 -93.5l-46 -63l129 -190q13 -19 24.5 -30q11.5 -11 24.5 -11h7q4 0 7.5 -1q3.5 -1 3.5 -8l0 -17z" />
<glyph unicode="&#121;" horiz-adv-x="541" d="M526 463q0 -7 -3.5 -8.5q-3.5 -1.5 -7.5 -1.5h-8q-8 0 -14.5 -3q-6.5 -3 -13 -12.5q-6.5 -9.5 -14 -27q-7.5 -17.5 -17.5 -45.5l-118 -341q-11 -32 -18.5 -53.5q-7.5 -21.5 -14 -38q-6.5 -16.5 -12.5 -31q-6 -14.5 -15 -33.5q-23 -51 -50 -77q-27 -26 -59 -26q-23 0 -41.5 12.5q-18.5 12.5 -18.5 46.5q0 25 13 37q13 12 28 12q11 0 24.5 -5q13.5 -5 32.5 -5q16 0 27.5 8.5q11.5 8.5 18 21.5q6.5 13 9.5 26.5q3 13.5 3 24.5q0 19 -7 41q-7 22 -16 44l-156 384q-12 29 -23 34.5q-11 5.5 -23 5.5h-7q-4 0 -6.5 1.5q-2.5 1.5 -2.5 8.5v17q0 9 10 9h173q11 0 11 -9v-18q0 -9 -11 -9h-14q-12 0 -16 -4q-4 -4 -4 -10q0 -8 3.5 -21.5q3.5 -13.5 11.5 -33.5l125 -317l77 255q10 32 17 63.5q7 31.5 7 44.5q0 14 -5.5 19q-5.5 5 -16.5 5h-8q-5 0 -8.5 1q-3.5 1 -3.5 8v17q0 7 3 8q3 1 9 1h139q5 0 8 -1q3 -1 3 -8l0 -17z" />
<glyph unicode="&#122;" horiz-adv-x="444" d="M407 20q-1 -11 -5 -15.5q-4 -4.5 -19 -4.5h-341q-5 0 -8.5 3q-3.5 3 -3.5 13q0 12 4 20q4 8 11 19l252 367q7 10 8 14q1 4 1 9q0 3 -1.5 4.5q-1.5 1.5 -7.5 1.5h-116q-26 0 -41.5 -10q-15.5 -10 -25 -25q-9.5 -15 -14 -32q-4.5 -17 -7.5 -31q-2 -7 -4.5 -18q-2.5 -11 -13.5 -11h-7q-11 0 -14 8q-3 8 -3 16v121q0 9 3 14.5q3 5.5 21 5.5h324q5 0 9 -2q4 -2 4 -14q0 -8 -2 -16q-2 -8 -7 -16l-257 -374q-10 -16 -10 -24q0 -5 10 -5h131q26 0 42 8.5q16 8.5 25.5 22q9.5 13.5 15 31.5q5.5 18 10.5 36q5 18 8.5 23.5q3.5 5.5 9.5 5.5h11q13 0 13 -15q0 -7 0 -16.5q0 -9.5 -1 -24.5z" />
<glyph unicode="&#123;" horiz-adv-x="341" d="M105 289q42 -7 67.5 -22.5q25.5 -15.5 39.5 -36.5q14 -21 18.5 -47q4.5 -26 4.5 -54q0 -51 -2.5 -97.5q-2.5 -46.5 -2.5 -92.5q0 -51 19 -77q19 -26 54 -34q7 -2 12.5 -3q5.5 -1 5.5 -12q0 -8 -6.5 -9q-6.5 -1 -11.5 -1q-42 0 -71 12q-29 12 -46 33q-17 21 -24.5 50.5q-7.5 29.5 -7.5 65.5q0 4 0.5 26.5q0.5 22.5 1.5 52q1 29.5 1.5 58.5q0.5 29 0.5 46q0 21 -6 43.5q-6 22.5 -17.5 41q-11.5 18.5 -28.5 30q-17 11.5 -39 11.5q-6 0 -10 2.5q-4 2.5 -4 16.5q0 13 4 16q4 3 10 3q22 0 39 11.5q17 11.5 28.5 30q11.5 18.5 17.5 41q6 22.5 6 43.5q0 16 -0.5 45.5q-0.5 29.5 -1.5 58.5q-1 29 -1.5 52q-0.5 23 -0.5 27q0 36 7.5 65.5q7.5 29.5 24.5 50.5q17 21 46 33q29 12 71 12q5 0 11.5 -1q6.5 -1 6.5 -9q0 -11 -5.5 -12q-5.5 -1 -12.5 -3q-35 -8 -54 -34q-19 -26 -19 -77q0 -46 2.5 -92.5q2.5 -46.5 2.5 -97.5q0 -29 -4.5 -54.5q-4.5 -25.5 -18.5 -46.5q-14 -21 -39.5 -36.5q-25.5 -15.5 -67.5 -22.5z" />
<glyph unicode="&#124;" horiz-adv-x="165" d="M59 -232v1001h47l0 -1001z" />
<glyph unicode="&#125;" horiz-adv-x="341" d="M236 289q-42 -7 -67.5 -22.5q-25.5 -15.5 -39.5 -36.5q-14 -21 -18.5 -47q-4.5 -26 -4.5 -54q0 -51 2.5 -97.5q2.5 -46.5 2.5 -92.5q0 -51 -19 -77q-19 -26 -54 -34q-7 -2 -12.5 -3q-5.5 -1 -5.5 -12q0 -8 6.5 -9q6.5 -1 11.5 -1q42 0 71 12q29 12 46 33q17 21 24.5 50.5q7.5 29.5 7.5 65.5q0 4 -0.5 26.5q-0.5 22.5 -1.5 52q-1 29.5 -1.5 58.5q-0.5 29 -0.5 46q0 21 6 43.5q6 22.5 17.5 41q11.5 18.5 28.5 30q17 11.5 39 11.5q6 0 10 2.5q4 2.5 4 16.5q0 13 -4 16q-4 3 -10 3q-22 0 -39 11.5q-17 11.5 -28.5 30q-11.5 18.5 -17.5 41q-6 22.5 -6 43.5q0 16 0.5 45.5q0.5 29.5 1.5 58.5q1 29 1.5 52q0.5 23 0.5 27q0 36 -7.5 65.5q-7.5 29.5 -24.5 50.5q-17 21 -46 33q-29 12 -71 12q-5 0 -11.5 -1q-6.5 -1 -6.5 -9q0 -11 5.5 -12q5.5 -1 12.5 -3q35 -8 54 -34q19 -26 19 -77q0 -46 -2.5 -92.5q-2.5 -46.5 -2.5 -97.5q0 -29 4.5 -54.5q4.5 -25.5 18.5 -46.5q14 -21 39.5 -36.5q25.5 -15.5 67.5 -22.5z" />
<glyph unicode="&#126;" horiz-adv-x="636" d="M426 232q-33 0 -62 11q-29 11 -57 23.5q-28 12.5 -56.5 23.5q-28.5 11 -60.5 11q-26 0 -44.5 -10q-18.5 -10 -37.5 -29q-11 -11 -18.5 -18.5q-7.5 -7.5 -12 -11.5q-4.5 -4 -7.5 -5.5q-3 -1.5 -6 -1.5q-6 0 -9.5 4.5q-3.5 4.5 -3.5 9.5q0 5 2.5 10q2.5 5 4.5 9q14 20 30.5 38q16.5 18 35.5 31.5q19 13.5 42 21q23 7.5 51 7.5q36 0 66 -11q30 -11 58 -23.5q28 -12.5 55.5 -23.5q27.5 -11 56.5 -11q26 0 44.5 10q18.5 10 37.5 29q22 22 30.5 29.5q8.5 7.5 13.5 7.5q6 0 9.5 -4.5q3.5 -4.5 3.5 -9.5q0 -5 -2.5 -10q-2.5 -5 -4.5 -9q-29 -41 -66.5 -69.5t-92.5 -28.5z" />
<glyph unicode="&#160;" horiz-adv-x="409" />
<glyph unicode="&#161;" horiz-adv-x="265" d="M182 -98q2 -17 3 -32q1 -15 1 -36q0 -29 -13 -41.5q-13 -12.5 -39 -12.5q-26 0 -39.5 12.5q-13.5 12.5 -13.5 41.5q0 13 1 30q1 17 3 38l31 400q1 9 5 11.5q4 2.5 11 2.5q6 0 11 -2.5q5 -2.5 6 -11.5zM75 453q0 9 2 20q2 11 8.5 20q6.5 9 18 15.5q11.5 6.5 30.5 6.5q32 0 43.5 -19.5q11.5 -19.5 11.5 -42.5q0 -8 -2 -18.5q-2 -10.5 -8 -20.5q-6 -10 -17.5 -16.5q-11.5 -6.5 -31.5 -6.5q-31 0 -43 19.5t-12 42.5z" />
<glyph unicode="&#162;" horiz-adv-x="510" d="M256 -154v139q-48 1 -85.5 21.5q-37.5 20.5 -63 54.5q-25.5 34 -38.5 79q-13 45 -13 97q0 49 11.5 93q11.5 44 36 79.5q24.5 35.5 62 59q37.5 23.5 90.5 31.5l0 134h37v-133q41 -2 70.5 -13q29.5 -11 48 -28q18.5 -17 27.5 -38q9 -21 9 -43q0 -21 -11 -37q-11 -16 -37 -16q-16 0 -25.5 5.5q-9.5 5.5 -15 16q-5.5 10.5 -7 25q-1.5 14.5 -1.5 31.5q0 24 -11.5 40.5q-11.5 16.5 -46.5 19.5l0 -418q42 1 67.5 15.5q25.5 14.5 44.5 32.5q14 12 22 22q8 10 15 10q15 0 15 -14q0 -6 -7.5 -22.5q-7.5 -16.5 -36.5 -45.5q-20 -19 -47.5 -35.5q-27.5 -16.5 -72.5 -21.5l0 -141zM143 257q0 -51 10 -87.5q10 -36.5 26 -61.5q16 -25 36 -38.5q20 -13.5 41 -19.5l0 412q-23 -5 -43 -19q-20 -14 -36 -39q-16 -25 -25 -61.5t-9 -85.5z" />
<glyph unicode="&#163;" horiz-adv-x="510" d="M256 328q-1 -43 -9.5 -80.5q-8.5 -37.5 -22 -69.5q-13.5 -32 -31 -58.5q-17.5 -26.5 -35.5 -48.5q29 12 56 18q27 6 50 6q16 0 36 -2q20 -2 39.5 -5q19.5 -3 36 -5q16.5 -2 24.5 -2q26 0 41.5 5.5q15.5 5.5 25.5 31.5q5 15 9 19q4 4 12 4q8 0 11 -6q3 -6 3 -11q0 -20 -4.5 -42q-4.5 -22 -15.5 -41q-11 -19 -29 -31.5q-18 -12.5 -46 -12.5q-31 0 -59.5 3.5q-28.5 3.5 -56 7q-27.5 3.5 -54 7q-26.5 3.5 -54.5 3.5q-25 0 -41 -3.5q-16 -3.5 -26.5 -7q-10.5 -3.5 -16.5 -7q-6 -3.5 -11 -3.5q-13 0 -16.5 6q-3.5 6 -3.5 14q0 7 6 13q6 6 15 13.5q9 7.5 20 18q11 10.5 20 26.5q18 31 29 83.5q11 52.5 11 112.5q0 11 -0.5 22q-0.5 11 -1.5 22l-72 0q-6 0 -9.5 2q-3.5 2 -3.5 13v21q0 11 2.5 13q2.5 2 10.5 2h68q-3 31 -5.5 59.5q-2.5 28.5 -2.5 47.5q0 61 15.5 105.5q15.5 44.5 40.5 72.5q25 28 57.5 41.5q32.5 13.5 65.5 13.5q52 0 84.5 -27q32.5 -27 32.5 -71q0 -36 -16.5 -54q-16.5 -18 -42.5 -18q-18 0 -28 10.5q-10 10.5 -10 27.5q0 17 8.5 29q8.5 12 8.5 25q0 17 -13 28.5q-13 11.5 -34 11.5q-49 0 -68.5 -38q-19.5 -38 -19.5 -112q0 -14 1.5 -32q1.5 -18 3.5 -38.5q2 -20.5 5 -41.5q3 -21 5 -40l94 0q8 0 10.5 -2q2.5 -2 2.5 -13v-21q0 -11 -3.5 -13q-3.5 -2 -9.5 -2z" />
<glyph unicode="&#164;" horiz-adv-x="510" d="M483 169l-35 -35l-71 72q-29 -23 -62.5 -33.5q-33.5 -10.5 -59.5 -10.5q-27 0 -60.5 9q-33.5 9 -62.5 35l-72 -72l-34 35l71 71q-23 29 -32.5 62.5q-9.5 33.5 -9.5 60.5q0 27 9.5 60q9.5 33 32.5 62l-71 72l34 35l72 -73q32 27 64 35.5q32 8.5 59 8.5q27 0 59.5 -9.5q32.5 -9.5 62.5 -34.5l71 73l35 -35l-73 -72q23 -29 34.5 -62q11.5 -33 11.5 -60q0 -29 -10 -61q-10 -32 -36 -63zM406 363q0 32 -12 60q-12 28 -32.5 49q-20.5 21 -48 33q-27.5 12 -58.5 12q-32 0 -59 -12q-27 -12 -47.5 -33q-20.5 -21 -32 -49q-11.5 -28 -11.5 -60q0 -32 12.5 -60q12.5 -28 33 -49q20.5 -21 47.5 -33q27 -12 57 -12q31 0 58.5 12q27.5 12 48 33q20.5 21 32.5 49t12 60z" />
<glyph unicode="&#165;" horiz-adv-x="510" d="M403 160q0 -8 -3 -10.5q-3 -2.5 -9 -2.5h-81v-42q0 -28 4 -47.5q4 -19.5 27 -19.5h15q4 0 7.5 -1.5q3.5 -1.5 3.5 -8.5v-18q0 -7 -3 -8.5q-3 -1.5 -7 -1.5h-183q-4 0 -7 1.5q-3 1.5 -3 8.5v18q0 7 3.5 8.5q3.5 1.5 7.5 1.5h15q23 0 27 19.5q4 19.5 4 47.5v42h-78q-6 0 -9.5 2.5q-3.5 2.5 -3.5 10.5v13q0 9 2.5 11.5q2.5 2.5 10.5 2.5h78v51h-78q-6 0 -9.5 2.5q-3.5 2.5 -3.5 10.5v13q0 9 2.5 11.5q2.5 2.5 10.5 2.5h78v7l-132 328q-12 31 -23.5 43q-11.5 12 -23.5 12h-12q-5 0 -8.5 1.5q-3.5 1.5 -3.5 8.5v19q0 7 3.5 8q3.5 1 8.5 1h173q15 0 15 -9v-19q0 -7 -4 -8.5q-4 -1.5 -10 -1.5h-13q-8 0 -12 -4q-4 -4 -4 -16q0 -8 5 -22.5q5 -14.5 12 -31.5l97 -256l58 177q6 19 12 39q6 20 10 38q4 18 6.5 32q2.5 14 2.5 21q0 15 -5 19q-5 4 -13 4h-18q-4 0 -6.5 1.5q-2.5 1.5 -2.5 8.5v19q0 6 2.5 7.5q2.5 1.5 7.5 1.5h149q7 0 8.5 -2q1.5 -2 1.5 -7v-19q0 -7 -3 -8.5q-3 -1.5 -8 -1.5h-7q-6 0 -13 -2q-7 -2 -14.5 -10q-7.5 -8 -16 -23q-8.5 -15 -18.5 -42l-112 -306v-7h81q6 0 9 -2.5q3 -2.5 3 -10.5v-14q0 -8 -3 -10.5q-3 -2.5 -9 -2.5h-81v-51h81q6 0 9 -2.5q3 -2.5 3 -10.5z" />
<glyph unicode="&#166;" horiz-adv-x="165" d="M59 359v410h47v-410zM59 -232v410h47l0 -410z" />
<glyph unicode="&#167;" horiz-adv-x="472" d="M434 330q0 -29 -10 -51.5q-10 -22.5 -25 -40q-15 -17.5 -33.5 -31.5q-18.5 -14 -35.5 -24q22 -17 36.5 -31.5q14.5 -14.5 23 -29.5q8.5 -15 12 -30.5q3.5 -15.5 3.5 -33.5q0 -32 -14.5 -56.5q-14.5 -24.5 -38.5 -41.5q-24 -17 -55 -26q-31 -9 -63 -9q-32 0 -59.5 7q-27.5 7 -47.5 20q-20 13 -32 31.5q-12 18.5 -12 42.5q0 22 12 34q12 12 31 12q26 0 34 -14.5q8 -14.5 8 -31.5q0 -20 8 -32q8 -12 19.5 -19.5q11.5 -7.5 24.5 -10q13 -2.5 23 -2.5q15 0 32.5 4q17.5 4 32 13q14.5 9 24.5 23.5q10 14.5 10 36.5q0 18 -6 30.5q-6 12.5 -18 23.5q-12 11 -30.5 21.5q-18.5 10.5 -43.5 23.5l-77 39q-65 33 -90.5 66.5q-25.5 33.5 -25.5 75.5q0 28 10 51q10 23 25 40.5q15 17.5 33.5 31q18.5 13.5 35.5 24.5q-44 28 -58.5 57q-14.5 29 -14.5 66q0 33 14.5 58q14.5 25 38.5 41.5q24 16.5 54.5 25q30.5 8.5 62.5 8.5q31 0 59 -7q28 -7 48.5 -20q20.5 -13 32.5 -31.5q12 -18.5 12 -42.5q0 -22 -12.5 -34q-12.5 -12 -31.5 -12q-25 0 -33 14.5q-8 14.5 -8 31.5q0 19 -8 31.5q-8 12.5 -19.5 20q-11.5 7.5 -24.5 10q-13 2.5 -23 2.5q-17 0 -34.5 -4q-17.5 -4 -31.5 -13q-14 -9 -23.5 -23.5q-9.5 -14.5 -9.5 -36.5q0 -17 5.5 -29.5q5.5 -12.5 17.5 -23q12 -10.5 30 -21q18 -10.5 44 -23.5l77 -39q32 -17 54 -32.5q22 -15.5 35.5 -32q13.5 -16.5 19.5 -35.5q6 -19 6 -42zt0 0zM360 295q0 22 -8.5 39q-8.5 17 -23 31q-14.5 14 -34 25.5q-19.5 11.5 -42.5 23.5l-62 33q-29 -14 -47 -40q-18 -26 -18 -53q0 -45 28 -70.5q28 -25.5 75 -48.5l67 -33q29 14 47 40t18 53z" />
<glyph unicode="&#168;" horiz-adv-x="409" d="M178 645q0 -8 -1.5 -18q-1.5 -10 -7.5 -19q-6 -9 -17 -15q-11 -6 -29 -6q-14 0 -23.5 5.5q-9.5 5.5 -15.5 14q-6 8.5 -8.5 18.5q-2.5 10 -2.5 20q0 8 1.5 17.5q1.5 9.5 7 18q5.5 8.5 16.5 14.5q11 6 29 6q32 0 41.5 -17q9.5 -17 9.5 -39zt0 0zM344 645q0 -8 -1.5 -18q-1.5 -10 -7.5 -19q-6 -9 -17 -15q-11 -6 -29 -6q-14 0 -23.5 5.5q-9.5 5.5 -15.5 14q-6 8.5 -8.5 18.5q-2.5 10 -2.5 20q0 8 1.5 17.5q1.5 9.5 7 18q5.5 8.5 16.5 14.5q11 6 29 6q32 0 41.5 -17t9.5 -39z" />
<glyph unicode="&#169;" horiz-adv-x="803" d="M774 366q0 -76 -28.5 -146q-28.5 -70 -79 -123.5q-50.5 -53.5 -118.5 -85.5q-68 -32 -146 -32q-78 0 -146 31q-68 31 -118.5 84q-50.5 53 -79 123.5q-28.5 70.5 -28.5 148.5q0 78 28.5 148.5q28.5 70.5 79 123.5q50.5 53 118.5 84q68 31 146 31q78 0 146 -32q68 -32 118.5 -85.5q50.5 -53.5 79 -123.5q28.5 -70 28.5 -146zt0 0zM740 366q0 69 -26 133q-26 64 -71.5 113q-45.5 49 -107.5 78q-62 29 -133 29q-71 0 -133 -28.5q-62 -28.5 -107.5 -77q-45.5 -48.5 -71.5 -112.5q-26 -64 -26 -135q0 -71 26 -135q26 -64 71.5 -112.5q45.5 -48.5 107.5 -77q62 -28.5 133 -28.5q71 0 133 29q62 29 107.5 78q45.5 49 71.5 113q26 64 26 133zt0 0zM572 239q0 -8 -12.5 -30.5q-12.5 -22.5 -38.5 -42.5q-20 -16 -49 -28q-29 -12 -77 -12q-35 0 -69 10.5q-34 10.5 -61 37.5q-27 27 -43.5 73q-16.5 46 -16.5 117q0 51 11.5 96.5q11.5 45.5 36.5 79.5q25 34 64.5 53.5q39.5 19.5 94.5 19.5q23 0 39.5 -2.5q16.5 -2.5 29 -6q12.5 -3.5 21 -6q8.5 -2.5 15.5 -2.5q6 0 12.5 5q6.5 5 11.5 5h6q12 0 12 -14l3 -108q0 -5 -1.5 -10q-1.5 -5 -10.5 -5h-8q-4 0 -6.5 2.5q-2.5 2.5 -4.5 10.5q-8 25 -14 45q-11 32 -34 46.5q-23 14.5 -65 14.5q-14 0 -37.5 -5q-23.5 -5 -46 -26q-22.5 -21 -39 -65q-16.5 -44 -16.5 -122v-18q0 -56 13 -92q13 -36 32.5 -57q19.5 -21 41.5 -29q22 -8 41 -8q45 0 73.5 14q28.5 14 52.5 43q11 12 17 20q6 8 11 8q11 0 11 -12z" />
<glyph unicode="&#170;" horiz-adv-x="342" d="M315 412q0 -9 -9.5 -17.5q-9.5 -8.5 -33.5 -8.5q-19 0 -29 12q-10 12 -12 29q-20 -24 -46.5 -34.5q-26.5 -10.5 -57.5 -10.5q-42 0 -64 25q-22 25 -22 65q0 26 9.5 44q9.5 18 26.5 30q13 9 29 12.5q16 3.5 33 6q17 2.5 35.5 5.5q18.5 3 36.5 9q11 4 14.5 8q3.5 4 3.5 9v33q0 32 -15 42q-15 10 -34 10q-17 0 -29 -6.5q-12 -6.5 -20 -26.5q-7 -17 -15 -30.5q-8 -13.5 -26 -13.5q-13 0 -22.5 8q-9.5 8 -9.5 26q0 14 8.5 26.5q8.5 12.5 22.5 20.5q20 13 46 21q26 8 58 8q16 0 33 -2.5q17 -2.5 31.5 -10.5q14.5 -8 24 -23.5q9.5 -15.5 9.5 -40.5v-177q0 -20 2.5 -26.5q2.5 -6.5 10.5 -9.5q5 -2 8 -3q3 -1 3 -9zt0 0zM229 552q-8 -4 -20.5 -6.5q-12.5 -2.5 -40.5 -8.5q-32 -8 -47 -19.5q-15 -11.5 -15 -40.5q0 -9 2.5 -19q2.5 -10 9 -18.5q6.5 -8.5 18 -13.5q11.5 -5 29.5 -5q24 0 44 19.5q20 19.5 20 47.5z" />
<glyph unicode="&#171;" horiz-adv-x="367" d="M328 78l-122 123q-14 14 -22.5 22.5q-8.5 8.5 -13 14q-4.5 5.5 -6 10.5q-1.5 5 -1.5 11q0 11 8.5 21.5q8.5 10.5 34.5 37.5l122 123l12 -11l-102 -171l102 -170zM205 59l-135 137q-25 25 -36 38q-11 13 -11 25q0 12 12 26.5q12 14.5 35 37.5l135 136l13 -11l-113 -186l113 -191z" />
<glyph unicode="&#172;" horiz-adv-x="610" d="M506 184v109h-448v44h494l0 -153z" />
<glyph unicode="&#173;" horiz-adv-x="345" d="M299 258q0 -15 -14 -15h-225q-6 0 -9.5 2q-3.5 2 -3.5 13v33q0 11 2.5 13q2.5 2 10.5 2h225q14 0 14 -15z" />
<glyph unicode="&#174;" horiz-adv-x="799" d="M774 366q0 -76 -28.5 -146q-28.5 -70 -79 -123.5q-50.5 -53.5 -118.5 -85.5q-68 -32 -146 -32q-78 0 -146 31q-68 31 -118.5 84q-50.5 53 -79 123.5q-28.5 70.5 -28.5 148.5q0 78 28.5 148.5q28.5 70.5 79 123.5q50.5 53 118.5 84q68 31 146 31q78 0 146 -32q68 -32 118.5 -85.5q50.5 -53.5 79 -123.5q28.5 -70 28.5 -146zt0 0zM740 366q0 69 -26 133q-26 64 -71.5 113q-45.5 49 -107.5 78q-62 29 -133 29q-71 0 -133 -28.5q-62 -28.5 -107.5 -77q-45.5 -48.5 -71.5 -112.5q-26 -64 -26 -135q0 -71 26 -135q26 -64 71.5 -112.5q45.5 -48.5 107.5 -77q62 -28.5 133 -28.5q71 0 133 29q62 29 107.5 78q45.5 49 71.5 113q26 64 26 133zt0 0zM595 154q0 -8 -15 -13.5q-15 -5.5 -33 -5.5q-12 0 -26.5 3q-14.5 3 -24.5 16q-14 20 -21.5 43.5q-7.5 23.5 -18.5 52.5q-9 26 -17.5 44.5q-8.5 18.5 -18.5 30.5q-10 12 -22 18q-12 6 -30 6h-45v-142q0 -23 2.5 -32.5q2.5 -9.5 18.5 -9.5h8q9 0 9 -7v-11q0 -5 -3 -5.5q-3 -0.5 -6 -0.5h-120q-3 0 -6 0.5q-3 0.5 -3 5.5v11q0 7 9 7h8q14 0 17.5 11q3.5 11 3.5 31v326q0 26 -4 34q-4 8 -17 8h-8q-9 0 -9 7v11q0 5 3 5.5q3 0.5 6 0.5h146q34 0 65.5 -4.5q31.5 -4.5 55.5 -17q24 -12.5 38.5 -35q14.5 -22.5 14.5 -59.5q0 -53 -31.5 -83q-31.5 -30 -83.5 -38l0 -2q15 -5 26 -13.5q11 -8.5 20.5 -21.5q9.5 -13 19 -31.5q9.5 -18.5 21.5 -43.5q4 -9 10.5 -23.5q6.5 -14.5 13.5 -28q7 -13.5 14.5 -23.5q7.5 -10 15.5 -10h8q3 0 6 -0.5q3 -0.5 3 -4.5zM489 477q0 35 -10.5 54.5q-10.5 19.5 -25.5 28.5q-15 9 -31.5 11q-16.5 2 -28.5 2h-51q-13 0 -16 -5q-3 -5 -3 -16v-179h59q16 0 35 3.5q19 3.5 35 14.5q16 11 26.5 31.5t10.5 54.5z" />
<glyph unicode="&#175;" horiz-adv-x="332" d="M310 618q0 -7 -2.5 -9.5q-2.5 -2.5 -10.5 -2.5h-244q-7 0 -9.5 2q-2.5 2 -2.5 10v27q0 10 3 11.5q3 1.5 9 1.5h244q13 0 13 -13l0 -27z" />
<glyph unicode="&#176;" horiz-adv-x="410" d="M360 563q0 -33 -12 -62.5q-12 -29.5 -32.5 -52q-20.5 -22.5 -49 -36q-28.5 -13.5 -61.5 -13.5q-33 0 -61.5 13.5q-28.5 13.5 -49.5 36q-21 22.5 -32.5 52q-11.5 29.5 -11.5 62.5q0 34 12 64q12 30 32.5 52q20.5 22 49 35q28.5 13 61.5 13q34 0 63 -13q29 -13 49 -35q20 -22 31.5 -52q11.5 -30 11.5 -64zt0 0zM303 564q0 47 -28 76.5q-28 29.5 -70 29.5q-40 0 -69 -29q-29 -29 -29 -77q0 -46 26 -77q26 -31 72 -31q46 0 72 31t26 77z" />
<glyph unicode="&#177;" horiz-adv-x="610" d="M65 92v54h480v-54zM332 363v-163h-54v163h-213v54h213v163h54v-163h213l0 -54z" />
<glyph unicode="&#178;" horiz-adv-x="306" d="M271 628q0 -36 -15 -60.5q-15 -24.5 -40 -48.5q-14 -14 -31.5 -28q-17.5 -14 -35.5 -29.5q-18 -15.5 -34 -32.5q-16 -17 -27 -36l113 0q15 0 24 3.5q9 3.5 14.5 7.5q5.5 4 10 7.5q4.5 3.5 10.5 3.5q10 0 10 -8q0 -5 -1 -11q-1 -6 -2 -10l-9 -41q-2 -9 -5 -12q-3 -3 -13 -3h-191q-8 0 -10 3.5q-2 3.5 -2 11.5v11q0 23 26 58q26 35 71 80q17 17 30 30.5q13 13.5 21.5 27.5q8.5 14 13 30q4.5 16 4.5 38q0 24 -4.5 38q-4.5 14 -11.5 21q-7 7 -15.5 8.5q-8.5 1.5 -15.5 1.5q-18 0 -27.5 -7q-9.5 -7 -14 -17q-4.5 -10 -5.5 -21q-1 -11 -1 -20q0 -4 -0.5 -10.5q-0.5 -6.5 -4 -13q-3.5 -6.5 -10.5 -11q-7 -4.5 -19 -4.5q-17 0 -24 10q-7 10 -7 25q0 19 8 37.5q8 18.5 23 33q15 14.5 37.5 23q22.5 8.5 52.5 8.5q48 0 77.5 -24.5t29.5 -69.5z" />
<glyph unicode="&#179;" horiz-adv-x="306" d="M283 430q0 -29 -11 -50q-11 -21 -29 -34.5q-18 -13.5 -41 -20q-23 -6.5 -47 -6.5q-30 0 -51 8q-21 8 -34 19.5q-13 11.5 -19 25q-6 13.5 -6 24.5q0 15 8 25.5q8 10.5 23 10.5q25 0 29.5 -13q4.5 -13 4.5 -28q0 -15 10 -26.5q10 -11.5 33 -11.5q27 0 45.5 15.5q18.5 15.5 18.5 59.5q0 42 -16 60.5q-16 18.5 -53 18.5h-31q-8 0 -10 2q-2 2 -2 10v12q0 7 3.5 8.5q3.5 1.5 8.5 1.5h22q16 0 29 1.5q13 1.5 22.5 9q9.5 7.5 14.5 23.5q5 16 5 45q0 41 -15 54q-15 13 -34 13q-29 0 -37.5 -16q-8.5 -16 -8.5 -32q0 -5 -0.5 -12q-0.5 -7 -3.5 -13q-3 -6 -10 -10.5q-7 -4.5 -20 -4.5q-16 0 -23 10q-7 10 -7 25q0 11 6 26.5q6 15.5 19.5 29q13.5 13.5 35.5 23q22 9.5 54 9.5q15 0 34 -3.5q19 -3.5 35.5 -14.5q16.5 -11 28 -31q11.5 -20 11.5 -53q0 -35 -19.5 -57q-19.5 -22 -50.5 -36q11 -4 24.5 -10.5q13.5 -6.5 25.5 -18q12 -11.5 20 -28t8 -40.5z" />
<glyph unicode="&#180;" horiz-adv-x="319" d="M267 720q0 -19 -11.5 -32q-11.5 -13 -41.5 -35l-116 -84l-23 9l87 130q22 33 34.5 42.5q12.5 9.5 25.5 9.5q25 0 35 -13t10 -27z" />
<glyph unicode="&#181;" horiz-adv-x="568" d="M553 121q0 -14 -5 -36.5q-5 -22.5 -16.5 -44q-11.5 -21.5 -31 -37q-19.5 -15.5 -48.5 -15.5q-24 0 -41.5 12.5q-17.5 12.5 -28 33q-10.5 20.5 -15.5 46.5q-5 26 -5 52l-8 0q-10 -30 -23 -56.5q-13 -26.5 -31 -46q-18 -19.5 -40 -30.5q-22 -11 -50 -11q-45 0 -69.5 19q-24.5 19 -45.5 66l-6 0q0 -44 3.5 -74q3.5 -30 8 -53.5q4.5 -23.5 8.5 -42q4 -18.5 4 -39.5q0 -19 -5 -31q-5 -12 -11.5 -18.5q-6.5 -6.5 -14 -8.5q-7.5 -2 -13.5 -2q-20 0 -32.5 14.5q-12.5 14.5 -12.5 45.5q0 16 4.5 46q4.5 30 9.5 70q5 40 9.5 89q4.5 49 4.5 105v306q0 7 3.5 8q3.5 1 7.5 1h60q4 0 7.5 -1q3.5 -1 3.5 -8v-247q0 -33 3.5 -64q3.5 -31 13.5 -55q10 -24 28 -38q18 -14 46 -14q45 0 76.5 35.5q31.5 35.5 31.5 104.5v278q0 7 3.5 8q3.5 1 7.5 1h60q4 0 7.5 -1q3.5 -1 3.5 -8v-321q0 -44 11.5 -70.5q11.5 -26.5 42.5 -26.5q29 0 39.5 14.5q10.5 14.5 16.5 46.5q2 12 4.5 17.5q2.5 5.5 11.5 5.5q6 0 9 -5.5t3 -19.5z" />
<glyph unicode="&#182;" horiz-adv-x="517" d="M378 694v-882h-46v882h-105v-882h-46v600q-20 0 -45 6.5q-25 6.5 -46.5 24q-21.5 17.5 -36.5 47.5q-15 30 -15 77q0 43 14 74.5q14 31.5 38 51q24 19.5 55 29q31 9.5 65 9.5h259l0 -37z" />
<glyph unicode="&#183;" horiz-adv-x="221" d="M165 283q0 -23 -15.5 -38.5q-15.5 -15.5 -38.5 -15.5q-23 0 -38.5 15.5q-15.5 15.5 -15.5 38.5q0 23 15.5 38.5q15.5 15.5 38.5 15.5q23 0 38.5 -15.5t15.5 -38.5z" />
<glyph unicode="&#184;" horiz-adv-x="333" d="M166 -31q-1 -2 -4.5 -11.5q-3.5 -9.5 -3.5 -14.5q0 -5 9 -6q9 -1 23 -3q38 -6 59 -19q21 -13 21 -49q0 -44 -34.5 -68q-34.5 -24 -85.5 -24q-14 0 -30 2.5q-16 2.5 -29.5 6.5q-13.5 4 -22.5 10q-9 6 -9 13q0 8 3.5 10q3.5 2 7.5 2q7 0 23 -7.5q16 -7.5 51 -7.5q55 0 55 46q0 18 -10 26.5q-10 8.5 -30 13.5q-26 6 -37.5 8q-11.5 2 -11.5 8q0 4 4 13l37 89l31 0z" />
<glyph unicode="&#185;" horiz-adv-x="306" d="M186 391q0 -12 2.5 -20q2.5 -8 10.5 -8h9q5 0 7 -1q2 -1 2 -9v-13q0 -9 -9 -9h-106q-8 0 -8 9v13q0 10 9 10h9q12 0 12 28v241q0 24 -14 24h-22q-14 0 -14 11q0 3 1 5.5q1 2.5 6 6q5 3.5 15 8.5q10 5 28 14q23 11 32 15q9 4 17 4q6 0 9.5 -3.5q3.5 -3.5 3.5 -15.5z" />
<glyph unicode="&#186;" horiz-adv-x="390" d="M342 550q0 -41 -12 -72.5q-12 -31.5 -32 -52.5q-20 -21 -46.5 -32q-26.5 -11 -55.5 -11q-71 0 -109.5 44q-38.5 44 -38.5 124q0 39 11.5 69.5q11.5 30.5 31 51q19.5 20.5 46.5 31q27 10.5 59 10.5q69 0 107.5 -42q38.5 -42 38.5 -120zt0 0zM274 550q0 38 -6 62.5q-6 24.5 -16 38.5q-10 14 -24.5 19.5q-14.5 5.5 -31.5 5.5q-16 0 -30.5 -5q-14.5 -5 -25.5 -19q-11 -14 -17.5 -38.5q-6.5 -24.5 -6.5 -63.5q0 -42 7 -68q7 -26 18.5 -40.5q11.5 -14.5 26.5 -19.5q15 -5 30 -5q15 0 28.5 6q13.5 6 24 21q10.5 15 17 41t6.5 65z" />
<glyph unicode="&#187;" horiz-adv-x="367" d="M27 89l102 170l-102 171l12 11l122 -123q26 -27 34.5 -37.5q8.5 -10.5 8.5 -21.5q0 -6 -1.5 -11q-1.5 -5 -6 -10.5q-4.5 -5.5 -13 -14q-8.5 -8.5 -22.5 -22.5l-122 -123zM149 71l113 191l-113 186l13 11l135 -136q28 -29 37.5 -41q9.5 -12 9.5 -23q0 -8 -9 -20.5q-9 -12.5 -38 -42.5l-135 -137z" />
<glyph unicode="&#188;" horiz-adv-x="633" d="M565 687q0 -4 -2 -7.5q-2 -3.5 -5 -8.5l-430 -677q-7 -11 -9.5 -15q-2.5 -4 -11.5 -4q-5 0 -14.5 6.5q-9.5 6.5 -9.5 14.5q0 5 2 9q2 4 5 9l429 677q10 17 18 17q9 0 18.5 -7q9.5 -7 9.5 -14zt0 0zM186 391q0 -12 2.5 -20q2.5 -8 10.5 -8h9q5 0 7 -1q2 -1 2 -9v-13q0 -9 -9 -9h-106q-8 0 -8 9v13q0 10 9 10h9q12 0 12 28v241q0 24 -14 24h-22q-14 0 -14 11q0 3 1 5.5q1 2.5 6 6q5 3.5 15 8.5q10 5 28 14q23 11 32 15q9 4 17 4q6 0 9.5 -3.5q3.5 -3.5 3.5 -15.5zM471 291l-104 -166h104zM533 52q0 -12 2.5 -20q2.5 -8 10.5 -8h9q5 0 7 -1q2 -1 2 -9v-13q0 -9 -9 -9h-106q-8 0 -8 9v13q0 10 9 10h9q12 0 12 28v29h-140q-11 0 -12.5 4.5q-1.5 4.5 -1.5 15.5q0 6 2.5 11q2.5 5 4.5 9l151 238q9 14 14 19q5 5 13 5h18q7 0 10 -2.5q3 -2.5 3 -13.5v-242h23q8 0 9.5 -3q1.5 -3 1.5 -12v-14q0 -8 -1.5 -11.5q-1.5 -3.5 -9.5 -3.5l-23 0z" />
<glyph unicode="&#189;" horiz-adv-x="633" d="M609 284q0 -36 -15 -60.5q-15 -24.5 -40 -48.5q-14 -14 -31.5 -28q-17.5 -14 -35.5 -29.5q-18 -15.5 -34 -32.5q-16 -17 -27 -36l113 0q15 0 24 3.5q9 3.5 14.5 7.5q5.5 4 10 7.5q4.5 3.5 10.5 3.5q10 0 10 -8q0 -5 -1 -11q-1 -6 -2 -10l-9 -41q-2 -9 -5 -12q-3 -3 -13 -3h-191q-8 0 -10 3.5q-2 3.5 -2 11.5v11q0 23 26 58q26 35 71 80q17 17 30 30.5q13 13.5 21.5 27.5q8.5 14 13 30q4.5 16 4.5 38q0 24 -4.5 38q-4.5 14 -11.5 21q-7 7 -15.5 8.5q-8.5 1.5 -15.5 1.5q-18 0 -27.5 -7q-9.5 -7 -14 -17q-4.5 -10 -5.5 -21q-1 -11 -1 -20q0 -4 -0.5 -10.5q-0.5 -6.5 -4 -13q-3.5 -6.5 -10.5 -11q-7 -4.5 -19 -4.5q-17 0 -24 10q-7 10 -7 25q0 19 8 37.5q8 18.5 23 33q15 14.5 37.5 23q22.5 8.5 52.5 8.5q48 0 77.5 -24.5q29.5 -24.5 29.5 -69.5zt0 0zM556 687q0 -4 -2 -7.5q-2 -3.5 -5 -8.5l-430 -677q-7 -11 -9.5 -15q-2.5 -4 -11.5 -4q-5 0 -14.5 6.5q-9.5 6.5 -9.5 14.5q0 5 2 9q2 4 5 9l429 677q10 17 18 17q9 0 18.5 -7q9.5 -7 9.5 -14zt0 0zM186 391q0 -12 2.5 -20q2.5 -8 10.5 -8h9q5 0 7 -1q2 -1 2 -9v-13q0 -9 -9 -9h-106q-8 0 -8 9v13q0 10 9 10h9q12 0 12 28v241q0 24 -14 24h-22q-14 0 -14 11q0 3 1 5.5q1 2.5 6 6q5 3.5 15 8.5q10 5 28 14q23 11 32 15q9 4 17 4q6 0 9.5 -3.5q3.5 -3.5 3.5 -15.5z" />
<glyph unicode="&#190;" horiz-adv-x="633" d="M271 430q0 -29 -11 -50q-11 -21 -29 -34.5q-18 -13.5 -41 -20q-23 -6.5 -47 -6.5q-30 0 -51 8q-21 8 -34 19.5q-13 11.5 -19 25q-6 13.5 -6 24.5q0 15 8 25.5q8 10.5 23 10.5q25 0 29.5 -13q4.5 -13 4.5 -28q0 -15 10 -26.5q10 -11.5 33 -11.5q27 0 45.5 15.5q18.5 15.5 18.5 59.5q0 42 -16 60.5q-16 18.5 -53 18.5h-31q-8 0 -10 2q-2 2 -2 10v12q0 7 3.5 8.5q3.5 1.5 8.5 1.5h22q16 0 29 1.5q13 1.5 22.5 9q9.5 7.5 14.5 23.5q5 16 5 45q0 41 -15 54q-15 13 -34 13q-29 0 -37.5 -16q-8.5 -16 -8.5 -32q0 -5 -0.5 -12q-0.5 -7 -3.5 -13q-3 -6 -10 -10.5q-7 -4.5 -20 -4.5q-16 0 -23 10q-7 10 -7 25q0 11 6 26.5q6 15.5 19.5 29q13.5 13.5 35.5 23q22 9.5 54 9.5q15 0 34 -3.5q19 -3.5 35.5 -14.5q16.5 -11 28 -31q11.5 -20 11.5 -53q0 -35 -19.5 -57q-19.5 -22 -50.5 -36q11 -4 24.5 -10.5q13.5 -6.5 25.5 -18q12 -11.5 20 -28q8 -16.5 8 -40.5zt0 0zM502 291l-104 -166h104zM564 52q0 -12 2.5 -20q2.5 -8 10.5 -8h9q5 0 7 -1q2 -1 2 -9v-13q0 -9 -9 -9h-106q-8 0 -8 9v13q0 10 9 10h9q12 0 12 28v29h-140q-11 0 -12.5 4.5q-1.5 4.5 -1.5 15.5q0 6 2.5 11q2.5 5 4.5 9l151 238q9 14 14 19q5 5 13 5h18q7 0 10 -2.5q3 -2.5 3 -13.5v-242h23q8 0 9.5 -3q1.5 -3 1.5 -12v-14q0 -8 -1.5 -11.5q-1.5 -3.5 -9.5 -3.5h-23zM596 687q0 -4 -2 -7.5q-2 -3.5 -5 -8.5l-430 -677q-7 -11 -9.5 -15q-2.5 -4 -11.5 -4q-5 0 -14.5 6.5q-9.5 6.5 -9.5 14.5q0 5 2 9q2 4 5 9l429 677q10 17 18 17q9 0 18.5 -7t9.5 -14z" />
<glyph unicode="&#191;" horiz-adv-x="449" d="M37 -61q0 55 25 97.5q25 42.5 73 87.5q44 41 63.5 74q19.5 33 25.5 69q4 23 6 36q2 13 16 13q18 0 18 -28q0 -14 -3.5 -33.5q-3.5 -19.5 -11 -40.5q-7.5 -21 -19 -43q-11.5 -22 -26.5 -41q-24 -30 -38.5 -54q-14.5 -24 -22.5 -46q-8 -22 -10.5 -43.5q-2.5 -21.5 -2.5 -46.5q0 -35 8 -58.5q8 -23.5 21 -37.5q13 -14 29.5 -20q16.5 -6 33.5 -6q32 0 51 10.5q19 10.5 29.5 27.5q10.5 17 14 40q3.5 23 3.5 48q0 6 1 17q1 11 6.5 21q5.5 10 15.5 17.5q10 7.5 28 7.5q23 0 32 -16q9 -16 9 -37q0 -40 -15 -72.5q-15 -32.5 -41.5 -55q-26.5 -22.5 -63 -34.5q-36.5 -12 -79.5 -12q-31 0 -62.5 6.5q-31.5 6.5 -56.5 24.5q-25 18 -41 49q-16 31 -16 79zt0 0zM181 453q0 9 2 20q2 11 8.5 20q6.5 9 18 15.5q11.5 6.5 30.5 6.5q32 0 43.5 -19.5q11.5 -19.5 11.5 -42.5q0 -8 -2 -18.5q-2 -10.5 -8 -20.5q-6 -10 -17.5 -16.5q-11.5 -6.5 -31.5 -6.5q-31 0 -43 19.5t-12 42.5z" />
<glyph unicode="&#192;" horiz-adv-x="621" d="M614 10q0 -5 -1.5 -7.5q-1.5 -2.5 -7.5 -2.5h-183q-10 0 -10 10v18q0 5 1.5 7.5q1.5 2.5 8.5 2.5h19q9 0 14 7.5q5 7.5 5 18.5q0 12 -2.5 23.5q-2.5 11.5 -5.5 22.5l-37 128h-239l-32 -95q-8 -23 -13.5 -45.5q-5.5 -22.5 -5.5 -33.5q0 -17 10 -21.5q10 -4.5 18 -4.5h11q5 0 7 -1.5q2 -1.5 2 -8.5v-18q0 -10 -9 -10h-149q-9 0 -9 10v18q0 7 1.5 8.5q1.5 1.5 6.5 1.5h7q7 0 14 3q7 3 14 12.5q7 9.5 15.5 26.5q8.5 17 18.5 45l201 551q8 20 13 25q5 5 17 5h31q14 0 19.5 -5q5.5 -5 11.5 -25l172 -566q11 -35 20.5 -53.5q9.5 -18.5 29.5 -18.5h6q10 0 10 -10zM306 617l-116 -340h213zM183 869q0 13 10.5 27.5q10.5 14.5 29.5 14.5q14 0 28 -6.5q14 -6.5 39 -30.5l117 -113l-29 -9l-139 63q-17 8 -28 14q-11 6 -17 12q-6 6 -8.5 12.5t-2.5 15.5z" />
<glyph unicode="&#193;" horiz-adv-x="621" d="M614 10q0 -5 -1.5 -7.5q-1.5 -2.5 -7.5 -2.5h-183q-10 0 -10 10v18q0 5 1.5 7.5q1.5 2.5 8.5 2.5h19q9 0 14 7.5q5 7.5 5 18.5q0 12 -2.5 23.5q-2.5 11.5 -5.5 22.5l-37 128h-239l-32 -95q-8 -23 -13.5 -45.5q-5.5 -22.5 -5.5 -33.5q0 -17 10 -21.5q10 -4.5 18 -4.5h11q5 0 7 -1.5q2 -1.5 2 -8.5v-18q0 -10 -9 -10h-149q-9 0 -9 10v18q0 7 1.5 8.5q1.5 1.5 6.5 1.5h7q7 0 14 3q7 3 14 12.5q7 9.5 15.5 26.5q8.5 17 18.5 45l201 551q8 20 13 25q5 5 17 5h31q14 0 19.5 -5q5.5 -5 11.5 -25l172 -566q11 -35 20.5 -53.5q9.5 -18.5 29.5 -18.5h6q10 0 10 -10zM306 617l-116 -340h213zM458 869q0 -17 -10.5 -28q-10.5 -11 -45.5 -26l-148 -62l-20 8l117 113q25 24 39 30.5q14 6.5 28 6.5q19 0 29.5 -14.5t10.5 -27.5z" />
<glyph unicode="&#194;" horiz-adv-x="621" d="M614 10q0 -5 -1.5 -7.5q-1.5 -2.5 -7.5 -2.5h-183q-10 0 -10 10v18q0 5 1.5 7.5q1.5 2.5 8.5 2.5h19q9 0 14 7.5q5 7.5 5 18.5q0 12 -2.5 23.5q-2.5 11.5 -5.5 22.5l-37 128h-239l-32 -95q-8 -23 -13.5 -45.5q-5.5 -22.5 -5.5 -33.5q0 -17 10 -21.5q10 -4.5 18 -4.5h11q5 0 7 -1.5q2 -1.5 2 -8.5v-18q0 -10 -9 -10h-149q-9 0 -9 10v18q0 7 1.5 8.5q1.5 1.5 6.5 1.5h7q7 0 14 3q7 3 14 12.5q7 9.5 15.5 26.5q8.5 17 18.5 45l201 551q8 20 13 25q5 5 17 5h31q14 0 19.5 -5q5.5 -5 11.5 -25l172 -566q11 -35 20.5 -53.5q9.5 -18.5 29.5 -18.5h6q10 0 10 -10zM306 617l-116 -340h213zM339 892q25 -29 44.5 -49q19.5 -20 35 -35.5q15.5 -15.5 30 -27q14.5 -11.5 29.5 -23.5l-18 -10q-35 11 -66 26q-31 15 -73 39q-42 -24 -73.5 -39q-31.5 -15 -66.5 -26l-18 10q15 12 28.5 23q13.5 11 29 25.5q15.5 14.5 35 35q19.5 20.5 47.5 51.5l36 0z" />
<glyph unicode="&#195;" horiz-adv-x="621" d="M614 10q0 -5 -1.5 -7.5q-1.5 -2.5 -7.5 -2.5h-183q-10 0 -10 10v18q0 5 1.5 7.5q1.5 2.5 8.5 2.5h19q9 0 14 7.5q5 7.5 5 18.5q0 12 -2.5 23.5q-2.5 11.5 -5.5 22.5l-37 128h-239l-32 -95q-8 -23 -13.5 -45.5q-5.5 -22.5 -5.5 -33.5q0 -17 10 -21.5q10 -4.5 18 -4.5h11q5 0 7 -1.5q2 -1.5 2 -8.5v-18q0 -10 -9 -10h-149q-9 0 -9 10v18q0 7 1.5 8.5q1.5 1.5 6.5 1.5h7q7 0 14 3q7 3 14 12.5q7 9.5 15.5 26.5q8.5 17 18.5 45l201 551q8 20 13 25q5 5 17 5h31q14 0 19.5 -5q5.5 -5 11.5 -25l172 -566q11 -35 20.5 -53.5q9.5 -18.5 29.5 -18.5h6q10 0 10 -10zM306 617l-116 -340h213zM388 755q-25 0 -43 7.5q-18 7.5 -33 16.5q-15 9 -28.5 16.5q-13.5 7.5 -29.5 7.5q-18 0 -29.5 -8q-11.5 -8 -18.5 -17q-7 -9 -11.5 -17q-4.5 -8 -10.5 -8q-5 0 -8.5 3.5q-3.5 3.5 -3.5 11.5q0 12 7.5 28.5q7.5 16.5 20.5 31.5q13 15 30.5 25.5q17.5 10.5 38.5 10.5q21 0 38.5 -7.5q17.5 -7.5 33.5 -16.5q16 -9 30.5 -16.5q14.5 -7.5 31.5 -7.5q18 0 29.5 8q11.5 8 18.5 17q7 9 11.5 17q4.5 8 10.5 8q5 0 8.5 -3.5q3.5 -3.5 3.5 -11.5q0 -12 -7.5 -28.5q-7.5 -16.5 -20.5 -31.5q-13 -15 -30.5 -25.5t-38.5 -10.5z" />
<glyph unicode="&#196;" horiz-adv-x="621" d="M614 10q0 -5 -1.5 -7.5q-1.5 -2.5 -7.5 -2.5h-183q-10 0 -10 10v18q0 5 1.5 7.5q1.5 2.5 8.5 2.5h19q9 0 14 7.5q5 7.5 5 18.5q0 12 -2.5 23.5q-2.5 11.5 -5.5 22.5l-37 128h-239l-32 -95q-8 -23 -13.5 -45.5q-5.5 -22.5 -5.5 -33.5q0 -17 10 -21.5q10 -4.5 18 -4.5h11q5 0 7 -1.5q2 -1.5 2 -8.5v-18q0 -10 -9 -10h-149q-9 0 -9 10v18q0 7 1.5 8.5q1.5 1.5 6.5 1.5h7q7 0 14 3q7 3 14 12.5q7 9.5 15.5 26.5q8.5 17 18.5 45l201 551q8 20 13 25q5 5 17 5h31q14 0 19.5 -5q5.5 -5 11.5 -25l172 -566q11 -35 20.5 -53.5q9.5 -18.5 29.5 -18.5h6q10 0 10 -10zM306 617l-116 -340h213zM302 817q0 -8 -1.5 -16.5q-1.5 -8.5 -7 -16.5q-5.5 -8 -16 -13q-10.5 -5 -27.5 -5q-26 0 -37.5 16q-11.5 16 -11.5 35q0 16 10 32.5q10 16.5 43 16.5q29 0 38.5 -16q9.5 -16 9.5 -33zt0 0zM459 817q0 -8 -1.5 -16.5q-1.5 -8.5 -7 -16.5q-5.5 -8 -16 -13q-10.5 -5 -27.5 -5q-26 0 -37.5 16q-11.5 16 -11.5 35q0 16 10 32.5q10 16.5 43 16.5q29 0 38.5 -16t9.5 -33z" />
<glyph unicode="&#197;" horiz-adv-x="621" d="M614 10q0 -5 -1.5 -7.5q-1.5 -2.5 -7.5 -2.5h-183q-10 0 -10 10v18q0 5 1.5 7.5q1.5 2.5 8.5 2.5h19q9 0 14 7.5q5 7.5 5 18.5q0 12 -2.5 23.5q-2.5 11.5 -5.5 22.5l-37 128h-239l-32 -95q-8 -23 -13.5 -45.5q-5.5 -22.5 -5.5 -33.5q0 -17 10 -21.5q10 -4.5 18 -4.5h11q5 0 7 -1.5q2 -1.5 2 -8.5v-18q0 -10 -9 -10h-149q-9 0 -9 10v18q0 7 1.5 8.5q1.5 1.5 6.5 1.5h7q7 0 14 3q7 3 14 12.5q7 9.5 15.5 26.5q8.5 17 18.5 45l201 551q8 20 13 25q5 5 17 5h31q14 0 19.5 -5q5.5 -5 11.5 -25l172 -566q11 -35 20.5 -53.5q9.5 -18.5 29.5 -18.5h6q10 0 10 -10zM306 617l-116 -340h213zM428 811q0 -20 -8 -38q-8 -18 -21.5 -31.5q-13.5 -13.5 -31.5 -21.5q-18 -8 -38 -8q-20 0 -38.5 8q-18.5 8 -32 21.5q-13.5 13.5 -21.5 31.5q-8 18 -8 38q0 20 8 38q8 18 21.5 32q13.5 14 32 22q18.5 8 38.5 8q20 0 38 -8q18 -8 31.5 -21.5q13.5 -13.5 21.5 -32q8 -18.5 8 -38.5zt0 0zM382 811q0 21 -15.5 37.5q-15.5 16.5 -37.5 16.5q-22 0 -38.5 -16q-16.5 -16 -16.5 -38q0 -22 17 -38q17 -16 38 -16q21 0 37 16.5t16 37.5z" />
<glyph unicode="&#198;" horiz-adv-x="895" d="M844 31q-1 -11 -8 -21q-7 -10 -30 -10h-425q-4 0 -7 1.5q-3 1.5 -3 8.5v18q0 7 3.5 8.5q3.5 1.5 7.5 1.5h15q23 0 27.5 19.5q4.5 19.5 4.5 47.5v133h-210l-50 -95q-31 -58 -31 -79q0 -17 10 -21.5q10 -4.5 18 -4.5h11q5 0 7 -1.5q2 -1.5 2 -8.5v-18q0 -10 -9 -10h-156q-9 0 -9 10v18q0 7 1.5 8.5q1.5 1.5 6.5 1.5h7q14 0 29.5 18.5q15.5 18.5 45.5 68.5l317 535q-8 8 -21 8h-15q-4 0 -7.5 1.5q-3.5 1.5 -3.5 8.5v18q0 7 3 8.5q3 1.5 7 1.5h422q14 0 19 -4.5q5 -4.5 5 -15.5l4 -147q0 -7 -2.5 -11q-2.5 -4 -10.5 -4h-16q-10 0 -13 18l-6 32q-5 24 -11.5 41q-6.5 17 -19.5 28.5q-13 11.5 -34.5 17q-21.5 5.5 -54.5 5.5h-122q-7 0 -15.5 -3.5q-8.5 -3.5 -8.5 -23.5v-253h73q18 0 34.5 1.5q16.5 1.5 29 6.5q12.5 5 19.5 16q7 11 7 30v21q0 11 10 11h18q8 0 9.5 -3q1.5 -3 1.5 -8v-191q0 -13 -11 -13h-18q-10 0 -10 13v19q0 19 -7.5 30.5q-7.5 11.5 -20 16.5q-12.5 5 -28.5 6.5q-16 1.5 -34 1.5h-73v-270q0 -20 6.5 -26q6.5 -6 17.5 -6h135q59 0 87.5 25.5q28.5 25.5 39.5 70.5l8 33q2 11 5 14.5q3 3.5 10 3.5h14q13 0 13 -13q0 -4 -1 -19q-1 -15 -2 -29zM429 605l-188 -328l188 0z" />
<glyph unicode="&#199;" horiz-adv-x="596" d="M561 166q0 -6 -4 -19q-4 -13 -13 -29.5q-9 -16.5 -23 -35q-14 -18.5 -33 -36.5q-21 -20 -53 -36q-32 -16 -77 -21l-9 -24q-1 -2 -5 -12.5q-4 -10.5 -4 -15.5q0 -5 9.5 -6.5q9.5 -1.5 25.5 -3.5q42 -7 65 -21q23 -14 23 -54q0 -24 -10 -42.5q-10 -18.5 -28 -31q-18 -12.5 -42 -19.5q-24 -7 -52 -7q-15 0 -32.5 2.5q-17.5 2.5 -32.5 7q-15 4.5 -24.5 11q-9.5 6.5 -9.5 14.5q0 8 3.5 10.5q3.5 2.5 8.5 2.5q7 0 24.5 -8.5q17.5 -8.5 56.5 -8.5q29 0 44.5 13.5q15.5 13.5 15.5 37.5q0 20 -11 29.5q-11 9.5 -33 14.5q-29 6 -41.5 8q-12.5 2 -12.5 9q0 2 5 14l31 77h-4q-47 0 -96 17q-49 17 -88.5 58.5q-39.5 41.5 -64.5 112.5q-25 71 -25 179q0 70 18.5 136q18.5 66 55.5 117q37 51 92.5 82q55.5 31 130.5 31q36 0 59 -3q23 -3 38 -6.5q15 -3.5 24.5 -6.5q9.5 -3 18.5 -3q14 0 23.5 6q9.5 6 22.5 6q11 0 15 -4q4 -4 4 -16l4 -164q0 -6 -2.5 -14q-2.5 -8 -12.5 -8h-11q-7 0 -10.5 6q-3.5 6 -10.5 29l-13 42q-5 17 -14 34.5q-9 17.5 -25 31.5q-16 14 -41.5 23q-25.5 9 -64.5 9q-12 0 -32 -3q-20 -3 -42.5 -13.5q-22.5 -10.5 -45.5 -31q-23 -20.5 -41.5 -55.5q-18.5 -35 -30.5 -88q-12 -53 -12 -127q0 -95 18.5 -156q18.5 -61 47.5 -96q29 -35 63.5 -48q34.5 -13 67.5 -13q59 0 98.5 23.5q39.5 23.5 70.5 66.5q14 19 21.5 30q7.5 11 14.5 11q7 0 12 -3t5 -12z" />
<glyph unicode="&#200;" horiz-adv-x="564" d="M50 0q-4 0 -7 1.5q-3 1.5 -3 8.5v18q0 7 3.5 8.5q3.5 1.5 7.5 1.5h15q23 0 27.5 19.5q4.5 19.5 4.5 47.5v496q0 28 -4 47.5q-4 19.5 -27 19.5h-15q-11 0 -11 10v18q0 10 10 10h422q14 0 19 -4.5q5 -4.5 5 -15.5l4 -147q0 -7 -2.5 -11q-2.5 -4 -10.5 -4h-16q-10 0 -13 18l-6 32q-5 24 -11.5 41q-6.5 17 -19.5 28q-13 11 -34.5 16q-21.5 5 -54.5 5h-122q-11 0 -17.5 -5q-6.5 -5 -6.5 -26v-247h73q18 0 34.5 1.5q16.5 1.5 29 6.5q12.5 5 19.5 16q7 11 7 30v21q0 11 10 11h18q8 0 9.5 -3q1.5 -3 1.5 -8v-191q0 -13 -11 -13h-18q-10 0 -10 13v19q0 19 -7.5 30.5q-7.5 11.5 -20 16.5q-12.5 5 -28.5 6.5q-16 1.5 -34 1.5h-73v-270q0 -20 6.5 -26q6.5 -6 17.5 -6h135q59 0 87.5 25.5q28.5 25.5 39.5 70.5l8 33q2 11 5 14.5q3 3.5 10 3.5h14q13 0 13 -13q0 -4 -1 -19q-1 -15 -2 -29l-7 -97q-1 -11 -8 -21q-7 -10 -30 -10zM146 869q0 13 10.5 27.5q10.5 14.5 29.5 14.5q14 0 28 -6.5q14 -6.5 39 -30.5l117 -113l-29 -9l-139 63q-17 8 -28 14q-11 6 -17 12q-6 6 -8.5 12.5t-2.5 15.5z" />
<glyph unicode="&#201;" horiz-adv-x="564" d="M50 0q-4 0 -7 1.5q-3 1.5 -3 8.5v18q0 7 3.5 8.5q3.5 1.5 7.5 1.5h15q23 0 27.5 19.5q4.5 19.5 4.5 47.5v496q0 28 -4 47.5q-4 19.5 -27 19.5h-15q-11 0 -11 10v18q0 10 10 10h422q14 0 19 -4.5q5 -4.5 5 -15.5l4 -147q0 -7 -2.5 -11q-2.5 -4 -10.5 -4h-16q-10 0 -13 18l-6 32q-5 24 -11.5 41q-6.5 17 -19.5 28q-13 11 -34.5 16q-21.5 5 -54.5 5h-122q-11 0 -17.5 -5q-6.5 -5 -6.5 -26v-247h73q18 0 34.5 1.5q16.5 1.5 29 6.5q12.5 5 19.5 16q7 11 7 30v21q0 11 10 11h18q8 0 9.5 -3q1.5 -3 1.5 -8v-191q0 -13 -11 -13h-18q-10 0 -10 13v19q0 19 -7.5 30.5q-7.5 11.5 -20 16.5q-12.5 5 -28.5 6.5q-16 1.5 -34 1.5h-73v-270q0 -20 6.5 -26q6.5 -6 17.5 -6h135q59 0 87.5 25.5q28.5 25.5 39.5 70.5l8 33q2 11 5 14.5q3 3.5 10 3.5h14q13 0 13 -13q0 -4 -1 -19q-1 -15 -2 -29l-7 -97q-1 -11 -8 -21q-7 -10 -30 -10zM424 869q0 -17 -10.5 -28q-10.5 -11 -45.5 -26l-148 -62l-20 8l117 113q25 24 39 30.5q14 6.5 28 6.5q19 0 29.5 -14.5t10.5 -27.5z" />
<glyph unicode="&#202;" horiz-adv-x="564" d="M50 0q-4 0 -7 1.5q-3 1.5 -3 8.5v18q0 7 3.5 8.5q3.5 1.5 7.5 1.5h15q23 0 27.5 19.5q4.5 19.5 4.5 47.5v496q0 28 -4 47.5q-4 19.5 -27 19.5h-15q-11 0 -11 10v18q0 10 10 10h422q14 0 19 -4.5q5 -4.5 5 -15.5l4 -147q0 -7 -2.5 -11q-2.5 -4 -10.5 -4h-16q-10 0 -13 18l-6 32q-5 24 -11.5 41q-6.5 17 -19.5 28q-13 11 -34.5 16q-21.5 5 -54.5 5h-122q-11 0 -17.5 -5q-6.5 -5 -6.5 -26v-247h73q18 0 34.5 1.5q16.5 1.5 29 6.5q12.5 5 19.5 16q7 11 7 30v21q0 11 10 11h18q8 0 9.5 -3q1.5 -3 1.5 -8v-191q0 -13 -11 -13h-18q-10 0 -10 13v19q0 19 -7.5 30.5q-7.5 11.5 -20 16.5q-12.5 5 -28.5 6.5q-16 1.5 -34 1.5h-73v-270q0 -20 6.5 -26q6.5 -6 17.5 -6h135q59 0 87.5 25.5q28.5 25.5 39.5 70.5l8 33q2 11 5 14.5q3 3.5 10 3.5h14q13 0 13 -13q0 -4 -1 -19q-1 -15 -2 -29l-7 -97q-1 -11 -8 -21q-7 -10 -30 -10zM305 892q25 -29 44.5 -49q19.5 -20 35 -35.5q15.5 -15.5 30 -27q14.5 -11.5 29.5 -23.5l-18 -10q-35 11 -66 26q-31 15 -73 39q-42 -24 -73.5 -39q-31.5 -15 -66.5 -26l-18 10q15 12 28.5 23q13.5 11 29 25.5q15.5 14.5 35 35q19.5 20.5 47.5 51.5l36 0z" />
<glyph unicode="&#203;" horiz-adv-x="564" d="M50 0q-4 0 -7 1.5q-3 1.5 -3 8.5v18q0 7 3.5 8.5q3.5 1.5 7.5 1.5h15q23 0 27.5 19.5q4.5 19.5 4.5 47.5v496q0 28 -4 47.5q-4 19.5 -27 19.5h-15q-11 0 -11 10v18q0 10 10 10h422q14 0 19 -4.5q5 -4.5 5 -15.5l4 -147q0 -7 -2.5 -11q-2.5 -4 -10.5 -4h-16q-10 0 -13 18l-6 32q-5 24 -11.5 41q-6.5 17 -19.5 28q-13 11 -34.5 16q-21.5 5 -54.5 5h-122q-11 0 -17.5 -5q-6.5 -5 -6.5 -26v-247h73q18 0 34.5 1.5q16.5 1.5 29 6.5q12.5 5 19.5 16q7 11 7 30v21q0 11 10 11h18q8 0 9.5 -3q1.5 -3 1.5 -8v-191q0 -13 -11 -13h-18q-10 0 -10 13v19q0 19 -7.5 30.5q-7.5 11.5 -20 16.5q-12.5 5 -28.5 6.5q-16 1.5 -34 1.5h-73v-270q0 -20 6.5 -26q6.5 -6 17.5 -6h135q59 0 87.5 25.5q28.5 25.5 39.5 70.5l8 33q2 11 5 14.5q3 3.5 10 3.5h14q13 0 13 -13q0 -4 -1 -19q-1 -15 -2 -29l-7 -97q-1 -11 -8 -21q-7 -10 -30 -10zM252 817q0 -8 -1.5 -16.5q-1.5 -8.5 -7 -16.5q-5.5 -8 -16 -13q-10.5 -5 -27.5 -5q-26 0 -37.5 16q-11.5 16 -11.5 35q0 16 10 32.5q10 16.5 43 16.5q29 0 38.5 -16q9.5 -16 9.5 -33zt0 0zM409 817q0 -8 -1.5 -16.5q-1.5 -8.5 -7 -16.5q-5.5 -8 -16 -13q-10.5 -5 -27.5 -5q-26 0 -37.5 16q-11.5 16 -11.5 35q0 16 10 32.5q10 16.5 43 16.5q29 0 38.5 -16t9.5 -33z" />
<glyph unicode="&#204;" horiz-adv-x="283" d="M186 105q0 -28 4 -47.5q4 -19.5 27 -19.5h17q9 0 9 -10v-18q0 -10 -9 -10h-185q-9 0 -9 10v18q0 10 9 10h17q23 0 27 19.5q4 19.5 4 47.5v496q0 28 -4 47.5q-4 19.5 -27 19.5h-17q-9 0 -9 10v18q0 10 9 10h185q9 0 9 -10v-18q0 -10 -9 -10h-17q-23 0 -27 -19.5q-4 -19.5 -4 -47.5zM12 869q0 13 10.5 27.5q10.5 14.5 29.5 14.5q14 0 28 -6.5q14 -6.5 39 -30.5l117 -113l-29 -9l-139 63q-17 8 -28 14q-11 6 -17 12q-6 6 -8.5 12.5t-2.5 15.5z" />
<glyph unicode="&#205;" horiz-adv-x="283" d="M186 105q0 -28 4 -47.5q4 -19.5 27 -19.5h17q9 0 9 -10v-18q0 -10 -9 -10h-185q-9 0 -9 10v18q0 10 9 10h17q23 0 27 19.5q4 19.5 4 47.5v496q0 28 -4 47.5q-4 19.5 -27 19.5h-17q-9 0 -9 10v18q0 10 9 10h185q9 0 9 -10v-18q0 -10 -9 -10h-17q-23 0 -27 -19.5q-4 -19.5 -4 -47.5zM270 869q0 -17 -10.5 -28q-10.5 -11 -45.5 -26l-148 -62l-20 8l117 113q25 24 39 30.5q14 6.5 28 6.5q19 0 29.5 -14.5t10.5 -27.5z" />
<glyph unicode="&#206;" horiz-adv-x="283" d="M186 105q0 -28 4 -47.5q4 -19.5 27 -19.5h17q9 0 9 -10v-18q0 -10 -9 -10h-185q-9 0 -9 10v18q0 10 9 10h17q23 0 27 19.5q4 19.5 4 47.5v496q0 28 -4 47.5q-4 19.5 -27 19.5h-17q-9 0 -9 10v18q0 10 9 10h185q9 0 9 -10v-18q0 -10 -9 -10h-17q-23 0 -27 -19.5q-4 -19.5 -4 -47.5zM160 892q25 -29 44.5 -49q19.5 -20 35 -35.5q15.5 -15.5 30 -27q14.5 -11.5 29.5 -23.5l-18 -10q-35 11 -66 26q-31 15 -73 39q-42 -24 -73.5 -39q-31.5 -15 -66.5 -26l-18 10q15 12 28.5 23q13.5 11 29 25.5q15.5 14.5 35 35q19.5 20.5 47.5 51.5l36 0z" />
<glyph unicode="&#207;" horiz-adv-x="283" d="M124 818q0 -8 -1.5 -16.5q-1.5 -8.5 -7 -16.5q-5.5 -8 -16 -13q-10.5 -5 -27.5 -5q-26 0 -37.5 16q-11.5 16 -11.5 35q0 16 10 32.5q10 16.5 43 16.5q29 0 38.5 -16q9.5 -16 9.5 -33zt0 0zM261 818q0 -8 -1.5 -16.5q-1.5 -8.5 -7 -16.5q-5.5 -8 -16 -13q-10.5 -5 -27.5 -5q-26 0 -37.5 16q-11.5 16 -11.5 35q0 16 10 32.5q10 16.5 43 16.5q29 0 38.5 -16q9.5 -16 9.5 -33zt0 0zM188 105q0 -28 4 -47.5q4 -19.5 27 -19.5h17q9 0 9 -10v-18q0 -10 -9 -10h-185q-9 0 -9 10v18q0 10 9 10h17q23 0 27 19.5q4 19.5 4 47.5v496q0 28 -4 47.5q-4 19.5 -27 19.5h-17q-9 0 -9 10v18q0 10 9 10h185q9 0 9 -10v-18q0 -10 -9 -10h-17q-23 0 -27 -19.5q-4 -19.5 -4 -47.5z" />
<glyph unicode="&#208;" horiz-adv-x="657" d="M613 367q0 -99 -29.5 -169q-29.5 -70 -79 -114q-49.5 -44 -114 -64q-64.5 -20 -134.5 -20h-204q-4 0 -7 1.5q-3 1.5 -3 8.5v18q0 7 3.5 8.5q3.5 1.5 7.5 1.5h15q20 0 25.5 20.5q5.5 20.5 5.5 46.5v239h-49q-10 0 -10 12v19q0 11 10 11h49v215q0 28 -4 47.5q-4 19.5 -27 19.5h-15q-4 0 -7.5 1.5q-3.5 1.5 -3.5 8.5v18q0 7 3 8.5q3 1.5 7 1.5h204q113 0 183 -30.5q70 -30.5 108.5 -79.5q38.5 -49 52 -109q13.5 -60 13.5 -120zt0 0zM312 356q0 -12 -12 -12h-112v-268q0 -22 4.5 -29q4.5 -7 24.5 -7h57q20 0 45.5 4.5q25.5 4.5 52.5 17.5q27 13 53 36.5q26 23.5 46 60.5q20 37 32.5 90q12.5 53 12.5 126q0 88 -24.5 144.5q-24.5 56.5 -61 89q-36.5 32.5 -78.5 45q-42 12.5 -78 12.5h-57q-18 0 -23.5 -4.5q-5.5 -4.5 -5.5 -27.5v-248h112q12 0 12 -11z" />
<glyph unicode="&#209;" horiz-adv-x="663" d="M627 678q0 -7 -3 -8.5q-3 -1.5 -7 -1.5h-19q-19 0 -24 -16q-5 -16 -6 -50l-6 -521q-1 -46 -5 -67q-4 -21 -27 -21q-11 0 -18 7q-7 7 -15 20l-365 591l5 -508q0 -35 6 -50q6 -15 24 -15h13q9 0 9 -9v-19q0 -5 -1.5 -7.5q-1.5 -2.5 -7.5 -2.5h-142q-9 0 -9 10v18q0 10 10 10h16q14 0 21.5 15q7.5 15 7.5 50l5 499q0 32 -4 49q-4 17 -27 17h-15q-4 0 -7.5 1.5q-3.5 1.5 -3.5 8.5v18q0 7 3 8.5q3 1.5 7 1.5h121q14 0 21 -8.5q7 -8.5 12 -17.5l322 -517l-3 438q0 28 -4 47.5q-4 19.5 -27 19.5h-15q-4 0 -7.5 1.5q-3.5 1.5 -3.5 8.5v18q0 7 2.5 8.5q2.5 1.5 8.5 1.5h149q4 0 6.5 -1q2.5 -1 2.5 -9v-18zM389 755q-25 0 -43 7.5q-18 7.5 -33 16.5q-15 9 -28.5 16.5q-13.5 7.5 -29.5 7.5q-18 0 -29.5 -8q-11.5 -8 -18.5 -17q-7 -9 -11.5 -17q-4.5 -8 -10.5 -8q-5 0 -8.5 3.5q-3.5 3.5 -3.5 11.5q0 12 7.5 28.5q7.5 16.5 20.5 31.5q13 15 30.5 25.5q17.5 10.5 38.5 10.5q21 0 38.5 -7.5q17.5 -7.5 33.5 -16.5q16 -9 30.5 -16.5q14.5 -7.5 31.5 -7.5q18 0 29.5 8q11.5 8 18.5 17q7 9 11.5 17q4.5 8 10.5 8q5 0 8.5 -3.5q3.5 -3.5 3.5 -11.5q0 -12 -7.5 -28.5q-7.5 -16.5 -20.5 -31.5q-13 -15 -30.5 -25.5t-38.5 -10.5z" />
<glyph unicode="&#210;" horiz-adv-x="683" d="M639 352q0 -87 -22.5 -155q-22.5 -68 -62.5 -115.5q-40 -47.5 -94 -72q-54 -24.5 -118 -24.5q-74 0 -129.5 25.5q-55.5 25.5 -93 73q-37.5 47.5 -56 115.5q-18.5 68 -18.5 153q0 180 77 273.5q77 93.5 220 93.5q143 0 220 -94q77 -94 77 -273zt0 0zM542 373q0 101 -19.5 162q-19.5 61 -49.5 93.5q-30 32.5 -65 42.5q-35 10 -66 10q-32 0 -67 -10q-35 -10 -64.5 -42.5q-29.5 -32.5 -49 -93.5q-19.5 -61 -19.5 -162v-38q0 -101 22.5 -162.5q22.5 -61.5 54 -94.5q31.5 -33 65.5 -44q34 -11 58 -11q25 0 59.5 11q34.5 11 65.5 44q31 33 53 94.5q22 61.5 22 162.5zM204 869q0 13 10.5 27.5q10.5 14.5 29.5 14.5q14 0 28 -6.5q14 -6.5 39 -30.5l117 -113l-29 -9l-139 63q-17 8 -28 14q-11 6 -17 12q-6 6 -8.5 12.5t-2.5 15.5z" />
<glyph unicode="&#211;" horiz-adv-x="683" d="M639 352q0 -87 -22.5 -155q-22.5 -68 -62.5 -115.5q-40 -47.5 -94 -72q-54 -24.5 -118 -24.5q-74 0 -129.5 25.5q-55.5 25.5 -93 73q-37.5 47.5 -56 115.5q-18.5 68 -18.5 153q0 180 77 273.5q77 93.5 220 93.5q143 0 220 -94q77 -94 77 -273zt0 0zM542 373q0 101 -19.5 162q-19.5 61 -49.5 93.5q-30 32.5 -65 42.5q-35 10 -66 10q-32 0 -67 -10q-35 -10 -64.5 -42.5q-29.5 -32.5 -49 -93.5q-19.5 -61 -19.5 -162v-38q0 -101 22.5 -162.5q22.5 -61.5 54 -94.5q31.5 -33 65.5 -44q34 -11 58 -11q25 0 59.5 11q34.5 11 65.5 44q31 33 53 94.5q22 61.5 22 162.5zM473 869q0 -17 -10.5 -28q-10.5 -11 -45.5 -26l-148 -62l-20 8l117 113q25 24 39 30.5q14 6.5 28 6.5q19 0 29.5 -14.5t10.5 -27.5z" />
<glyph unicode="&#212;" horiz-adv-x="683" d="M639 352q0 -87 -22.5 -155q-22.5 -68 -62.5 -115.5q-40 -47.5 -94 -72q-54 -24.5 -118 -24.5q-74 0 -129.5 25.5q-55.5 25.5 -93 73q-37.5 47.5 -56 115.5q-18.5 68 -18.5 153q0 180 77 273.5q77 93.5 220 93.5q143 0 220 -94q77 -94 77 -273zt0 0zM542 373q0 101 -19.5 162q-19.5 61 -49.5 93.5q-30 32.5 -65 42.5q-35 10 -66 10q-32 0 -67 -10q-35 -10 -64.5 -42.5q-29.5 -32.5 -49 -93.5q-19.5 -61 -19.5 -162v-38q0 -101 22.5 -162.5q22.5 -61.5 54 -94.5q31.5 -33 65.5 -44q34 -11 58 -11q25 0 59.5 11q34.5 11 65.5 44q31 33 53 94.5q22 61.5 22 162.5zM361 892q25 -29 44.5 -49q19.5 -20 35 -35.5q15.5 -15.5 30 -27q14.5 -11.5 29.5 -23.5l-18 -10q-35 11 -66 26q-31 15 -73 39q-42 -24 -73.5 -39q-31.5 -15 -66.5 -26l-18 10q15 12 28.5 23q13.5 11 29 25.5q15.5 14.5 35 35q19.5 20.5 47.5 51.5l36 0z" />
<glyph unicode="&#213;" horiz-adv-x="683" d="M639 352q0 -87 -22.5 -155q-22.5 -68 -62.5 -115.5q-40 -47.5 -94 -72q-54 -24.5 -118 -24.5q-74 0 -129.5 25.5q-55.5 25.5 -93 73q-37.5 47.5 -56 115.5q-18.5 68 -18.5 153q0 180 77 273.5q77 93.5 220 93.5q143 0 220 -94q77 -94 77 -273zt0 0zM542 373q0 101 -19.5 162q-19.5 61 -49.5 93.5q-30 32.5 -65 42.5q-35 10 -66 10q-32 0 -67 -10q-35 -10 -64.5 -42.5q-29.5 -32.5 -49 -93.5q-19.5 -61 -19.5 -162v-38q0 -101 22.5 -162.5q22.5 -61.5 54 -94.5q31.5 -33 65.5 -44q34 -11 58 -11q25 0 59.5 11q34.5 11 65.5 44q31 33 53 94.5q22 61.5 22 162.5zM402 755q-25 0 -43 7.5q-18 7.5 -33 16.5q-15 9 -28.5 16.5q-13.5 7.5 -29.5 7.5q-18 0 -29.5 -8q-11.5 -8 -18.5 -17q-7 -9 -11.5 -17q-4.5 -8 -10.5 -8q-5 0 -8.5 3.5q-3.5 3.5 -3.5 11.5q0 12 7.5 28.5q7.5 16.5 20.5 31.5q13 15 30.5 25.5q17.5 10.5 38.5 10.5q21 0 38.5 -7.5q17.5 -7.5 33.5 -16.5q16 -9 30.5 -16.5q14.5 -7.5 31.5 -7.5q18 0 29.5 8q11.5 8 18.5 17q7 9 11.5 17q4.5 8 10.5 8q5 0 8.5 -3.5q3.5 -3.5 3.5 -11.5q0 -12 -7.5 -28.5q-7.5 -16.5 -20.5 -31.5q-13 -15 -30.5 -25.5t-38.5 -10.5z" />
<glyph unicode="&#214;" horiz-adv-x="683" d="M639 352q0 -87 -22.5 -155q-22.5 -68 -62.5 -115.5q-40 -47.5 -94 -72q-54 -24.5 -118 -24.5q-74 0 -129.5 25.5q-55.5 25.5 -93 73q-37.5 47.5 -56 115.5q-18.5 68 -18.5 153q0 180 77 273.5q77 93.5 220 93.5q143 0 220 -94q77 -94 77 -273zt0 0zM542 373q0 101 -19.5 162q-19.5 61 -49.5 93.5q-30 32.5 -65 42.5q-35 10 -66 10q-32 0 -67 -10q-35 -10 -64.5 -42.5q-29.5 -32.5 -49 -93.5q-19.5 -61 -19.5 -162v-38q0 -101 22.5 -162.5q22.5 -61.5 54 -94.5q31.5 -33 65.5 -44q34 -11 58 -11q25 0 59.5 11q34.5 11 65.5 44q31 33 53 94.5q22 61.5 22 162.5zM314 817q0 -8 -1.5 -16.5q-1.5 -8.5 -7 -16.5q-5.5 -8 -16 -13q-10.5 -5 -27.5 -5q-26 0 -37.5 16q-11.5 16 -11.5 35q0 16 10 32.5q10 16.5 43 16.5q29 0 38.5 -16q9.5 -16 9.5 -33zt0 0zM471 817q0 -8 -1.5 -16.5q-1.5 -8.5 -7 -16.5q-5.5 -8 -16 -13q-10.5 -5 -27.5 -5q-26 0 -37.5 16q-11.5 16 -11.5 35q0 16 10 32.5q10 16.5 43 16.5q29 0 38.5 -16t9.5 -33z" />
<glyph unicode="&#215;" horiz-adv-x="610" d="M305 275l-151 -151l-38 38l151 151l-151 151l38 38l151 -151l151 151l38 -38l-151 -151l151 -151l-38 -38z" />
<glyph unicode="&#216;" horiz-adv-x="683" d="M639 352q0 -82 -22.5 -149.5q-22.5 -67.5 -62.5 -116q-40 -48.5 -94 -75q-54 -26.5 -118 -26.5q-108 0 -179 57l-30 -46l-34 20l35 54q-45 49 -67 120.5q-22 71.5 -22 161.5q0 86 20 154q20 68 58 115.5q38 47.5 93 72.5q55 25 126 25q53 0 96.5 -14q43.5 -14 78.5 -40l25 39l36 -20l-30 -47q45 -48 68 -119.5q23 -71.5 23 -165.5zt0 0zM542 373q0 68 -9.5 117q-9.5 49 -25.5 84l-306 -473q17 -24 36.5 -39q19.5 -15 38.5 -24q19 -9 36 -12q17 -3 30 -3q14 0 34.5 4.5q20.5 4.5 42.5 16.5q22 12 44 34q22 22 39.5 56.5q17.5 34.5 28.5 84q11 49.5 11 116.5zM142 335q0 -66 9.5 -113.5q9.5 -47.5 26.5 -82.5l305 474q-32 42 -70.5 55q-38.5 13 -70.5 13q-29 0 -64 -10q-35 -10 -65 -42.5q-30 -32.5 -50.5 -93.5q-20.5 -61 -20.5 -162z" />
<glyph unicode="&#217;" horiz-adv-x="653" d="M569 205q0 -38 -12 -76q-12 -38 -39 -68.5q-27 -30.5 -71 -50q-44 -19.5 -109 -19.5q-81 0 -128.5 22.5q-47.5 22.5 -71.5 55q-24 32.5 -30.5 67.5q-6.5 35 -6.5 59v406q0 28 -4 47.5q-4 19.5 -27 19.5h-17q-9 0 -9 10v18q0 10 9 10h185q9 0 9 -10v-18q0 -10 -9 -10h-17q-23 0 -27 -19.5q-4 -19.5 -4 -47.5v-387q0 -32 8 -62q8 -30 27 -53q19 -23 51.5 -36.5q32.5 -13.5 82.5 -13.5q46 0 76.5 14.5q30.5 14.5 49 37q18.5 22.5 26 50q7.5 27.5 7.5 54.5v396q0 28 -4 47.5q-4 19.5 -27 19.5h-17q-9 0 -9 10v18q0 10 9 10h147q9 0 9 -10v-18q0 -10 -9 -10h-17q-23 0 -27 -19.5q-4 -19.5 -4 -47.5zM193 869q0 13 10.5 27.5q10.5 14.5 29.5 14.5q14 0 28 -6.5q14 -6.5 39 -30.5l117 -113l-29 -9l-139 63q-17 8 -28 14q-11 6 -17 12q-6 6 -8.5 12.5t-2.5 15.5z" />
</font>
</defs>
</svg>
