<?xml version="1.0" encoding="UTF-8" standalone="no"?>
<!DOCTYPE svg PUBLIC "-//W3C//DTD SVG 1.1//EN" "http://www.w3.org/Graphics/SVG/1.1/DTD/svg11.dtd" >
<svg xmlns="http://www.w3.org/2000/svg">
<metadata>
Generated by SVGconv.
Copyright   : Copyright  2017 ParaType, Inc., ParaType Ltd. All rights reserved.
Designer    : Manvel Shmavonyan, Alexander Lubovenko
Foundry     : ParaType Ltd
Foundry URL : http://www.paratype.com
</metadata>
<defs>
<font id="MediatorSerifWeb-Italic" horiz-adv-x="576" >
<font-face units-per-em="1000" ascent="985" descent="350" >
<font-face-src>
<font-face-name/>
</font-face-src>
</font-face>
<missing-glyph horiz-adv-x="500" />
<glyph unicode="&#13;" horiz-adv-x="300" />
<glyph unicode="&#32;" horiz-adv-x="300" />
<glyph unicode="&#33;" horiz-adv-x="333" d="M115 48q0 26 17 44q17 18 41 18q27 0 45 -18q18 -18 18 -44q0 -24 -18 -41.5q-18 -17.5 -45 -17.5q-24 0 -41 17.5q-17 17.5 -17 41.5zt0 0zM204 675q2 14 20 25q18 11 40 11q21 0 37.5 -11q16.5 -11 16.5 -25l-99 -484l-51 0z" />
<glyph unicode="&#34;" horiz-adv-x="420" d="M170 684q1 14 16 20.5q15 6.5 33 6.5q18 0 32.5 -6.5q14.5 -6.5 14.5 -20.5l-54 -177h-38zM339 684q1 14 16 20.5q15 6.5 33 6.5q18 0 32.5 -6.5q14.5 -6.5 14.5 -20.5l-54 -177l-38 0z" />
<glyph unicode="&#35;" horiz-adv-x="608" d="M80 214l5 51h99l31 185h-96l5 51h100l25 149h79l-25 -149h149l25 149h80l-25 -149h98l-5 -51h-101l-30 -185h97l-5 -51h-100l-25 -152h-80l25 152h-150l-25 -152h-79l25 152zM445 450h-150l-31 -185l150 0z" />
<glyph unicode="&#36;" horiz-adv-x="567" d="M272 -10q-35 3 -64.5 11.5q-29.5 8.5 -54.5 21q-25 12.5 -44.5 27.5q-19.5 15 -32.5 31l16 111h81l-3 -22q-1 -6 -1.5 -11q-0.5 -5 -0.5 -10q0 -52 31 -78q31 -26 79 -31l34 279q-42 19 -74.5 38q-32.5 19 -54 42q-21.5 23 -32.5 51.5q-11 28.5 -11 66.5q0 37 14.5 70.5q14.5 33.5 42.5 60q28 26.5 69 43q41 16.5 95 19.5l13 106h51l-14 -107q33 -3 60 -12.5q27 -9.5 47 -21.5q20 -12 34 -24.5q14 -12.5 22 -22.5l-16 -110h-82l3 21q1 6 1.5 12q0.5 6 0.5 12q0 83 -76 96l-34 -275q48 -20 82.5 -39.5q34.5 -19.5 57 -42q22.5 -22.5 33.5 -49.5q11 -27 11 -61q0 -35 -15.5 -69.5q-15.5 -34.5 -45 -63q-29.5 -28.5 -72.5 -47q-43 -18.5 -99 -22.5l-13 -106h-51zM354 660q-36 -4 -59.5 -19q-23.5 -15 -37 -35q-13.5 -20 -19 -42q-5.5 -22 -5.5 -40q0 -41 19.5 -69q19.5 -28 70.5 -50zM461 179q0 38 -21.5 65.5q-21.5 27.5 -78.5 53.5l-32 -258q69 8 100.5 46t31.5 93z" />
<glyph unicode="&#37;" horiz-adv-x="845" d="M120 490q0 48 11.5 88.5q11.5 40.5 33.5 70q22 29.5 53 46q31 16.5 69 16.5q35 0 60.5 -12.5q25.5 -12.5 41.5 -33.5q16 -21 23.5 -49q7.5 -28 7.5 -60q0 -45 -12 -85q-12 -40 -33.5 -69q-21.5 -29 -52.5 -46q-31 -17 -69 -17q-33 0 -58 11.5q-25 11.5 -41.5 31.5q-16.5 20 -25 48q-8.5 28 -8.5 60zt0 0zM340 577q0 39 -12 64.5q-12 25.5 -43 25.5q-23 0 -39.5 -17q-16.5 -17 -26.5 -44q-10 -27 -14.5 -61.5q-4.5 -34.5 -4.5 -69.5q0 -26 4.5 -43.5q4.5 -17.5 12.5 -28q8 -10.5 17.5 -15q9.5 -4.5 20.5 -4.5q12 0 27 8.5q15 8.5 28 30q13 21.5 21.5 59q8.5 37.5 8.5 95.5zt0 0zM515 140q0 48 11.5 88.5q11.5 40.5 33.5 70q22 29.5 53 46q31 16.5 69 16.5q35 0 60.5 -12.5q25.5 -12.5 41.5 -33.5q16 -21 23.5 -49q7.5 -28 7.5 -60q0 -45 -12 -85q-12 -40 -33.5 -69q-21.5 -29 -52.5 -46q-31 -17 -69 -17q-33 0 -58 11.5q-25 11.5 -41.5 31.5q-16.5 20 -25 48q-8.5 28 -8.5 60zt0 0zM735 227q0 39 -12 64.5q-12 25.5 -43 25.5q-23 0 -39.5 -17q-16.5 -17 -26.5 -44q-10 -27 -14.5 -61.5q-4.5 -34.5 -4.5 -69.5q0 -26 4.5 -43.5q4.5 -17.5 12.5 -28q8 -10.5 17.5 -15q9.5 -4.5 20.5 -4.5q12 0 27 8.5q15 8.5 28 30q13 21.5 21.5 59q8.5 37.5 8.5 95.5zt0 0zM710 711l48 -36l-535 -688l-49 36z" />
<glyph unicode="&#38;" horiz-adv-x="698" d="M80 157q0 52 17.5 88.5q17.5 36.5 45.5 63q28 26.5 63.5 45q35.5 18.5 70.5 33.5q-27 39 -44.5 77.5q-17.5 38.5 -17.5 76.5q0 23 9 52.5q9 29.5 31.5 55.5q22.5 26 61 44q38.5 18 97.5 18q37 0 64.5 -10.5q27.5 -10.5 45.5 -27.5q18 -17 26.5 -40.5q8.5 -23.5 8.5 -48.5q0 -37 -13 -67q-13 -30 -36.5 -55q-23.5 -25 -56 -45q-32.5 -20 -71.5 -36l122 -203q6 8 15.5 23q9.5 15 17.5 28q3 5 5.5 11q2.5 6 2.5 13q0 17 -22 17h-29l7 50h182l-7 -50h-15q-22 0 -38 -10.5q-16 -10.5 -27 -29.5q-14 -23 -31.5 -50q-17.5 -27 -32.5 -44l50 -86h79l-7 -50h-148l-38 66q-33 -30 -80 -53.5q-47 -23.5 -110 -23.5q-50 0 -87 12.5q-37 12.5 -61.5 35q-24.5 22.5 -37 53q-12.5 30.5 -12.5 67.5zt0 0zM490 569q0 39 -18.5 64.5q-18.5 25.5 -63.5 25.5q-45 0 -74 -31q-29 -31 -29 -79q0 -29 15 -61.5q15 -32.5 39 -68.5q71 28 101 63.5q30 35.5 30 86.5zt0 0zM300 347q-25 -13 -47.5 -28.5q-22.5 -15.5 -39 -36q-16.5 -20.5 -26 -48q-9.5 -27.5 -9.5 -63.5q0 -25 6.5 -48q6.5 -23 20.5 -40.5q14 -17.5 37.5 -28q23.5 -10.5 58.5 -10.5q45 0 79 18.5q34 18.5 61 49.5z" />
<glyph unicode="&#39;" horiz-adv-x="251" d="M170 684q1 14 16 20.5q15 6.5 33 6.5q18 0 32.5 -6.5q14.5 -6.5 14.5 -20.5l-54 -177h-38l-4 177z" />
<glyph unicode="&#40;" horiz-adv-x="346" d="M184 -186q-12 27 -23.5 64.5q-11.5 37.5 -20.5 82q-9 44.5 -14.5 94q-5.5 49.5 -5.5 100.5q0 85 16.5 168.5q16.5 83.5 44 160q27.5 76.5 62.5 143.5q35 67 72 119l24 34l57 -27l-9 -15q-33 -54 -64.5 -121q-31.5 -67 -56 -144.5q-24.5 -77.5 -40 -165q-15.5 -87.5 -15.5 -182.5q0 -92 14 -166q14 -74 33 -137l5 -15l-64 -27l-15 34z" />
<glyph unicode="&#41;" horiz-adv-x="346" d="M39 -178q33 54 64.5 121q31.5 67 56 144.5q24.5 77.5 40 165q15.5 87.5 15.5 182.5q0 92 -14 166q-14 74 -33 137l-5 15l64 27l15 -34q12 -27 23.5 -64.5q11.5 -37.5 20.5 -82q9 -44.5 14.5 -94q5.5 -49.5 5.5 -100.5q0 -85 -16.5 -168.5q-16.5 -83.5 -44 -160q-27.5 -76.5 -62.5 -143.5q-35 -67 -72 -119l-24 -34l-57 27z" />
<glyph unicode="&#42;" horiz-adv-x="437" d="M289 498l-6 4l-95 -70q-11 5 -22 23.5q-11 18.5 -11 35.5l109 47v7l-109 47q0 19 10 35.5q10 16.5 23 22.5l96 -69l5 4l-13 117q4 5 13.5 7q9.5 2 20.5 2q25 0 36 -9l-15 -117l6 -3l94 68q7 -2 13.5 -9q6.5 -7 11.5 -15.5q5 -8.5 8 -17.5q3 -9 3 -16l-109 -46v-9l109 -46q0 -17 -11.5 -36q-11.5 -19 -24.5 -23l-93 70l-7 -5l15 -117q-5 -5 -15 -6.5q-10 -1.5 -21 -1.5q-11 0 -20.5 1.5q-9.5 1.5 -13.5 6.5z" />
<glyph unicode="&#43;" horiz-adv-x="633" d="M130 319v69h207v207h69v-207h207v-69h-207v-207h-69l0 207z" />
<glyph unicode="&#44;" horiz-adv-x="322" d="M120 -140q12 11 25.5 26.5q13.5 15.5 24.5 32.5q11 17 18.5 33q7.5 16 7.5 28q0 11 -10.5 14.5q-10.5 3.5 -22.5 8q-12 4.5 -22.5 15q-10.5 10.5 -10.5 36.5q0 29 19.5 45.5q19.5 16.5 39.5 16.5q29 0 46 -18q17 -18 17 -46q0 -19 -3.5 -43q-3.5 -24 -15 -51.5q-11.5 -27.5 -32 -58q-20.5 -30.5 -53.5 -63.5l-28 24z" />
<glyph unicode="&#45;" horiz-adv-x="465" d="M430 300l-10 -69h-295l10 69z" />
<glyph unicode="&#46;" horiz-adv-x="322" d="M130 53q0 26 18 44.5q18 18.5 41 18.5q26 0 44.5 -18.5q18.5 -18.5 18.5 -44.5q0 -23 -18.5 -41q-18.5 -18 -44.5 -18q-23 0 -41 18t-18 41z" />
<glyph unicode="&#47;" horiz-adv-x="535" d="M531 780l64 -33l-525 -957l-65 34z" />
<glyph unicode="&#48;" horiz-adv-x="574" d="M86 261q0 104 22 187q22 83 62 141.5q40 58.5 96 90q56 31.5 124 31.5q97 0 152.5 -71.5q55.5 -71.5 55.5 -203.5q0 -103 -21.5 -186q-21.5 -83 -61.5 -141q-40 -58 -95.5 -89q-55.5 -31 -124.5 -31q-97 0 -153 70.5q-56 70.5 -56 201.5zt0 0zM500 451q0 209 -118 209q-47 0 -83.5 -30q-36.5 -30 -62 -84.5q-25.5 -54.5 -39 -130.5q-13.5 -76 -13.5 -167q0 -106 28 -157q28 -51 91 -51q46 0 82.5 29.5q36.5 29.5 62 83.5q25.5 54 39 129.5t13.5 168.5z" />
<glyph unicode="&#49;" horiz-adv-x="424" d="M156 50q23 0 33 14q10 14 14 43l74 520h-142l7 50h33q51 0 98 10q47 10 108 24l-93 -661h84l-7 -50h-265l7 50z" />
<glyph unicode="&#50;" horiz-adv-x="558" d="M237 198q70 57 116 99.5q46 42.5 73.5 79.5q27.5 37 38.5 74q11 37 11 84q0 18 -5 40q-5 22 -18 40.5q-13 18.5 -35.5 31.5q-22.5 13 -57.5 13q-15 0 -35.5 -4.5q-20.5 -4.5 -40 -17.5q-19.5 -13 -35 -36.5q-15.5 -23.5 -21.5 -62.5l-3 -21h-81l15 102q40 37 100 64q60 27 128 27q54 0 90.5 -16q36.5 -16 59 -40.5q22.5 -24.5 32 -54.5q9.5 -30 9.5 -58q0 -51 -16 -92q-16 -41 -52.5 -83.5q-36.5 -42.5 -95.5 -92.5q-59 -50 -146 -120l-90 -72l-1 -2h342l-30 -80h-429l8 60z" />
<glyph unicode="&#51;" horiz-adv-x="540" d="M68 173h80l-3 -22q-1 -5 -1 -10q0 -5 0 -10q0 -27 10 -44.5q10 -17.5 27 -28q17 -10.5 39 -14.5q22 -4 45 -4q33 0 63 12q30 12 52 34.5q22 22.5 35 54.5q13 32 13 73q0 56 -35 87.5q-35 31.5 -92 31.5h-71l8 54h65q31 0 59 12.5q28 12.5 49 33.5q21 21 33 49.5q12 28.5 12 60.5q0 49 -26 83q-26 34 -86 34q-23 0 -45.5 -5.5q-22.5 -5.5 -42 -19.5q-19.5 -14 -33.5 -38q-14 -24 -19 -61l-3 -23h-79l15 104q48 47 108.5 70.5q60.5 23.5 123.5 23.5q90 0 139 -42.5q49 -42.5 49 -111.5q0 -38 -12.5 -69.5q-12.5 -31.5 -34.5 -56.5q-22 -25 -52 -41.5q-30 -16.5 -64 -23.5l-1 -4q60 -7 97 -45.5q37 -38.5 37 -101.5q0 -42 -17 -82.5q-17 -40.5 -50.5 -72.5q-33.5 -32 -82.5 -51.5q-49 -19.5 -113 -19.5q-69 0 -123 21q-54 21 -89 58z" />
<glyph unicode="&#52;" horiz-adv-x="557" d="M55 192l9 63l400 445h65l-60 -430h108l-31 -78h-88l-27 -192h-93l27 192zM420 571h-3l-271 -302v-2l232 0z" />
<glyph unicode="&#53;" horiz-adv-x="536" d="M73 161h80l-4 -29q-1 -5 -1 -15q0 -24 10 -39q10 -15 24 -23.5q14 -8.5 30.5 -11.5q16.5 -3 30.5 -3q46 0 79.5 19.5q33.5 19.5 55 50.5q21.5 31 32 69.5q10.5 38.5 10.5 75.5q0 66 -30 102.5q-30 36.5 -85 36.5q-47 0 -74.5 -16q-27.5 -16 -55.5 -41l-49 7l86 356h344l-29 -80h-273l-54 -212h3q28 22 61.5 37q33.5 15 82.5 15q87 0 129.5 -51q42.5 -51 42.5 -134q0 -58 -20 -110q-20 -52 -56 -91q-36 -39 -85.5 -62q-49.5 -23 -107.5 -23q-69 0 -115 22q-46 22 -75 54z" />
<glyph unicode="&#54;" horiz-adv-x="554" d="M82 223q0 114 30.5 204.5q30.5 90.5 85 153.5q54.5 63 129.5 96.5q75 33.5 164 33.5q13 0 36 -2.5q23 -2.5 41 -6.5l-12 -50q-14 3 -38 4.5q-24 1.5 -37 1.5q-58 0 -108 -21.5q-50 -21.5 -88.5 -62q-38.5 -40.5 -64.5 -100.5q-26 -60 -36 -136l5 0q16 27 37.5 46.5q21.5 19.5 45.5 32.5q24 13 48.5 19q24.5 6 45.5 6q83 0 132.5 -48q49.5 -48 49.5 -136q0 -60 -20 -109.5q-20 -49.5 -54.5 -85q-34.5 -35.5 -81.5 -55q-47 -19.5 -101 -19.5q-101 0 -155 61q-54 61 -54 173zt0 0zM449 244q0 60 -26.5 97q-26.5 37 -85.5 37q-29 0 -54 -12.5q-25 -12.5 -44.5 -31.5q-19.5 -19 -34 -42q-14.5 -23 -22.5 -44q-2 -13 -2 -25q0 -12 0 -23q0 -34 7 -63.5q7 -29.5 21 -51q14 -21.5 35.5 -33.5q21.5 -12 50.5 -12q32 0 60 13.5q28 13.5 49 40q21 26.5 33.5 64.5t12.5 86z" />
<glyph unicode="&#55;" horiz-adv-x="496" d="M470 620h-229q-24 0 -43.5 -10q-19.5 -10 -24.5 -48l-4 -32h-55l24 170h424l-7 -49l-383 -651h-74l372 618z" />
<glyph unicode="&#56;" horiz-adv-x="550" d="M70 149q0 72 45 122q45 50 128 82l0 2q-35 15 -57.5 34q-22.5 19 -35.5 40q-13 21 -18 41.5q-5 20.5 -5 38.5q0 45 19.5 82q19.5 37 53 63.5q33.5 26.5 78 41.5q44.5 15 95.5 15q50 0 87 -12.5q37 -12.5 61.5 -33.5q24.5 -21 36.5 -49.5q12 -28.5 12 -59.5q0 -23 -7 -48.5q-7 -25.5 -25 -51q-18 -25.5 -49 -48.5q-31 -23 -79 -41l0 -2q66 -27 99 -71.5q33 -44.5 33 -96.5q0 -36 -17 -73q-17 -37 -50 -67q-33 -30 -82 -49q-49 -19 -113 -19q-44 0 -82 10q-38 10 -66.5 30.5q-28.5 20.5 -45 50.5q-16.5 30 -16.5 69zt0 0zM441 187q0 29 -12 51q-12 22 -30.5 39q-18.5 17 -42.5 29.5q-24 12.5 -48 21.5q-23 -7 -51.5 -20.5q-28.5 -13.5 -53.5 -34.5q-25 -21 -42 -50q-17 -29 -17 -67q0 -31 12 -53q12 -22 32 -36q20 -14 45 -20.5q25 -6.5 51 -6.5q35 0 64 11.5q29 11.5 49.5 31q20.5 19.5 32 46.5q11.5 27 11.5 58zt0 0zM495 549q0 53 -33 82q-33 29 -91 29q-32 0 -58.5 -10.5q-26.5 -10.5 -45.5 -29q-19 -18.5 -29 -43.5q-10 -25 -10 -53q0 -53 34 -82.5q34 -29.5 88 -49.5q78 26 111.5 67t33.5 90z" />
<glyph unicode="&#57;" horiz-adv-x="554" d="M97 48q14 -3 38 -4.5q24 -1.5 37 -1.5q58 0 108 21.5q50 21.5 88.5 62q38.5 40.5 64.5 100q26 59.5 36 136.5l-5 0q-16 -27 -37.5 -46.5q-21.5 -19.5 -45.5 -32.5q-24 -13 -48.5 -19q-24.5 -6 -45.5 -6q-83 0 -132.5 49q-49.5 49 -49.5 137q0 60 20 109q20 49 54.5 84q34.5 35 81.5 54.5q47 19.5 101 19.5q105 0 157 -62.5q52 -62.5 52 -177.5q0 -113 -30.5 -202.5q-30.5 -89.5 -85 -151.5q-54.5 -62 -129.5 -95q-75 -33 -164 -33q-13 0 -36 2.5q-23 2.5 -41 6.5zM470 452q2 14 2 25.5q0 11.5 0 22.5q0 34 -7 63.5q-7 29.5 -21 51q-14 21.5 -35.5 33.5q-21.5 12 -50.5 12q-32 0 -60 -13.5q-28 -13.5 -49 -40q-21 -26.5 -33.5 -64.5q-12.5 -38 -12.5 -86q0 -60 26.5 -97q26.5 -37 85.5 -37q29 0 54 12.5q25 12.5 44.5 31.5q19.5 19 34 42t22.5 44z" />
<glyph unicode="&#58;" horiz-adv-x="322" d="M130 53q0 26 18 44.5q18 18.5 41 18.5q26 0 44.5 -18.5q18.5 -18.5 18.5 -44.5q0 -23 -18.5 -41q-18.5 -18 -44.5 -18q-23 0 -41 18q-18 18 -18 41zt0 0zM182 427q0 26 18 44.5q18 18.5 41 18.5q26 0 44.5 -18.5q18.5 -18.5 18.5 -44.5q0 -23 -18.5 -41q-18.5 -18 -44.5 -18q-23 0 -41 18t-18 41z" />
<glyph unicode="&#59;" horiz-adv-x="322" d="M120 -140q12 11 25.5 26.5q13.5 15.5 24.5 32.5q11 17 18.5 33q7.5 16 7.5 28q0 11 -10.5 14.5q-10.5 3.5 -22.5 8q-12 4.5 -22.5 15q-10.5 10.5 -10.5 36.5q0 29 19.5 45.5q19.5 16.5 39.5 16.5q29 0 46 -18q17 -18 17 -46q0 -19 -3.5 -43q-3.5 -24 -15 -51.5q-11.5 -27.5 -32 -58q-20.5 -30.5 -53.5 -63.5zM182 427q0 26 18 44.5q18 18.5 41 18.5q26 0 44.5 -18.5q18.5 -18.5 18.5 -44.5q0 -23 -18.5 -41q-18.5 -18 -44.5 -18q-23 0 -41 18t-18 41z" />
<glyph unicode="&#60;" horiz-adv-x="620" d="M130 370l470 270v-76l-368 -209v-2l368 -209v-77l-470 271z" />
<glyph unicode="&#61;" horiz-adv-x="633" d="M613 291v-69h-483v69zM613 474v-69h-483l0 69z" />
<glyph unicode="&#62;" horiz-adv-x="620" d="M498 353v2l-368 209v76l470 -270v-32l-470 -271l0 77z" />
<glyph unicode="&#63;" horiz-adv-x="508" d="M334 392q27 21 48.5 40q21.5 19 35.5 38.5q14 19.5 21.5 40.5q7.5 21 7.5 48q0 17 -5.5 35q-5.5 18 -18.5 32.5q-13 14.5 -34 24q-21 9.5 -52 9.5q-21 0 -44.5 -5q-23.5 -5 -45 -18q-21.5 -13 -38 -37q-16.5 -24 -21.5 -61l-3 -21h-80l15 102q43 39 107 65q64 26 132 26q54 0 90.5 -12.5q36.5 -12.5 58.5 -32.5q22 -20 31 -46.5q9 -26.5 9 -53.5q0 -40 -14.5 -70.5q-14.5 -30.5 -37 -55.5q-22.5 -25 -50 -45q-27.5 -20 -54.5 -38q-55 -38 -86.5 -74q-31.5 -36 -38.5 -84l-50 0q4 30 11.5 55.5q7.5 25.5 21 48.5q13.5 23 34 44.5q20.5 21.5 50.5 44.5zt0 0zM167 48q0 26 17 44q17 18 41 18q27 0 45 -18q18 -18 18 -44q0 -24 -18 -41.5q-18 -17.5 -45 -17.5q-24 0 -41 17.5t-17 41.5z" />
<glyph unicode="&#64;" horiz-adv-x="858" d="M120 247q0 75 26.5 142.5q26.5 67.5 74.5 118.5q48 51 114.5 81q66.5 30 146.5 30q72 0 136.5 -22q64.5 -22 113.5 -63q49 -41 77.5 -100q28.5 -59 28.5 -133q0 -67 -18.5 -114.5q-18.5 -47.5 -47 -78q-28.5 -30.5 -63 -44.5q-34.5 -14 -67.5 -14q-16 0 -32.5 3.5q-16.5 3.5 -30 11.5q-13.5 8 -22 22q-8.5 14 -8.5 35q0 5 0.5 13q0.5 8 2.5 15v0q-25 -40 -62.5 -69.5q-37.5 -29.5 -83.5 -29.5q-33 0 -56 12q-23 12 -37.5 32.5q-14.5 20.5 -21.5 46.5q-7 26 -7 55q0 43 11.5 90q11.5 47 35.5 86.5q24 39.5 62.5 65q38.5 25.5 92.5 25.5q36 0 61 -16q25 -16 39 -35l1 0l17 42h66q-7 -17 -12 -32.5q-5 -15.5 -7 -32.5l-29 -202q-2 -13 -3 -26q-1 -13 -1 -26q0 -17 8.5 -27.5q8.5 -10.5 22.5 -10.5q32 0 56.5 17q24.5 17 41 45q16.5 28 25 64.5q8.5 36.5 8.5 75.5q0 51 -20 99q-20 48 -58 85.5q-38 37.5 -93 60.5q-55 23 -126 23q-54 0 -108 -20.5q-54 -20.5 -97.5 -61q-43.5 -40.5 -71 -100q-27.5 -59.5 -27.5 -138.5q0 -77 24.5 -134.5q24.5 -57.5 66.5 -95.5q42 -38 97.5 -57q55.5 -19 117.5 -19q39 0 84 9q45 9 76 30l21 -49q-35 -20 -85 -31q-50 -11 -97 -11q-77 0 -143 23.5q-66 23.5 -115.5 69q-49.5 45.5 -77.5 112q-28 66.5 -28 152.5zt0 0zM574 374q-8 10 -24.5 23q-16.5 13 -51.5 13q-29 0 -53 -18q-24 -18 -41.5 -47.5q-17.5 -29.5 -27.5 -67.5q-10 -38 -10 -77q0 -38 13 -64.5q13 -26.5 48 -26.5q25 0 47.5 13.5q22.5 13.5 40 34q17.5 20.5 28.5 44q11 23.5 14 43.5z" />
<glyph unicode="&#65;" horiz-adv-x="810" d="M63 50q23 0 45.5 16.5q22.5 16.5 42.5 53.5l309 580h94l163 -650h76l-7 -50h-266l7 50h40q21 0 28.5 13q7.5 13 7.5 27q0 9 -0.5 14q-0.5 5 -2.5 13l-19 83h-318l-42 -82q-5 -10 -9.5 -22.5q-4.5 -12.5 -4.5 -23.5q0 -9 4.5 -15.5q4.5 -6.5 18.5 -6.5h41l-7 -50h-237l7 50zM501 534q-4 14 -10 38.5q-6 24.5 -8 42.5l-5 0q-10 -20 -21 -42.5q-11 -22.5 -19 -36.5l-150 -282l284 0z" />
<glyph unicode="&#66;" horiz-adv-x="643" d="M89 50q23 0 32.5 14q9.5 14 13.5 43l76 543h-83l7 50h315q38 0 75.5 -6.5q37.5 -6.5 67.5 -23.5q30 -17 48.5 -47q18.5 -30 18.5 -77q0 -33 -12 -62q-12 -29 -33 -51.5q-21 -22.5 -49.5 -38q-28.5 -15.5 -60.5 -22.5l0 -4q36 -6 60.5 -20.5q24.5 -14.5 40 -34q15.5 -19.5 22 -42.5q6.5 -23 6.5 -46q0 -68 -29.5 -111.5q-29.5 -43.5 -73 -69q-43.5 -25.5 -93 -35q-49.5 -9.5 -89.5 -9.5h-312l7 50zM356 53q29 0 60.5 9q31.5 9 57.5 29q26 20 43 52q17 32 17 79q0 51 -34.5 83q-34.5 32 -103.5 32h-136l-40 -284zM404 388q22 0 49 8q27 8 51 26q24 18 40 46.5q16 28.5 16 70.5q0 51 -30.5 79.5q-30.5 28.5 -93.5 28.5h-132l-36 -259z" />
<glyph unicode="&#67;" horiz-adv-x="649" d="M93 281q0 93 25.5 172q25.5 79 72.5 136q47 57 115 89.5q68 32.5 153 32.5q69 0 129 -22q60 -22 96 -67l-15 -113h-83l2 14q1 8 1.5 14.5q0.5 6.5 0.5 12.5q0 36 -13.5 57.5q-13.5 21.5 -34.5 33q-21 11.5 -45 15.5q-24 4 -45 4q-63 0 -111.5 -35q-48.5 -35 -81.5 -89.5q-33 -54.5 -50 -120.5q-17 -66 -17 -129q0 -50 11 -95q11 -45 34 -78.5q23 -33.5 59 -53q36 -19.5 86 -19.5q18 0 43.5 3.5q25.5 3.5 49 15.5q23.5 12 41.5 35.5q18 23.5 23 62.5l2 17h83l-15 -106q-48 -38 -109.5 -58.5q-61.5 -20.5 -122.5 -20.5q-61 0 -113 17q-52 17 -90 53q-38 36 -59.5 91t-21.5 131z" />
<glyph unicode="&#68;" horiz-adv-x="719" d="M89 50q23 0 32.5 14q9.5 14 13.5 43l76 543h-83l7 50h283q71 0 128 -14.5q57 -14.5 96.5 -47q39.5 -32.5 60.5 -86q21 -53.5 21 -131.5q0 -105 -34.5 -184q-34.5 -79 -91 -131.5q-56.5 -52.5 -129.5 -79q-73 -26.5 -150 -26.5h-282l7 50zM326 53q46 0 99 20.5q53 20.5 97 64.5q44 44 73.5 112.5q29.5 68.5 29.5 165.5q0 61 -15 105q-15 44 -42.5 72q-27.5 28 -66.5 41q-39 13 -87 13h-110l-84 -594z" />
<glyph unicode="&#69;" horiz-adv-x="605" d="M89 50q23 0 32.5 14q9.5 14 13.5 43l76 543h-83l7 50h510l-24 -177h-54l4 28q1 7 1.5 13q0.5 6 0.5 12q0 41 -20.5 56q-20.5 15 -49.5 15h-199l-37 -265h170l11 80h54l-30 -213h-54l11 80h-170l-39 -276h210q15 0 30 4.5q15 4.5 27.5 15.5q12.5 11 22 29.5q9.5 18.5 13.5 46.5l5 35h54l-26 -184h-519l7 50z" />
<glyph unicode="&#70;" horiz-adv-x="581" d="M89 50q23 0 32.5 14q9.5 14 13.5 43l76 543h-83l7 50h501l-25 -180h-54l4 31q1 7 1.5 12.5q0.5 5.5 0.5 11.5q0 41 -21 56.5q-21 15.5 -49 15.5h-189l-39 -276h170l11 80h54l-30 -214h-54l12 81h-170l-38 -268h89l-7 -50h-265l7 50z" />
<glyph unicode="&#71;" horiz-adv-x="692" d="M93 281q0 93 25.5 172q25.5 79 73.5 136q48 57 116 89.5q68 32.5 153 32.5q34 0 67.5 -6q33.5 -6 63.5 -17q30 -11 55 -28q25 -17 43 -39l-15 -113h-83l2 14q1 6 1.5 13.5q0.5 7.5 0.5 13.5q0 36 -14.5 57.5q-14.5 21.5 -35.5 33.5q-21 12 -46 16q-25 4 -46 4q-63 0 -111.5 -35q-48.5 -35 -82 -89.5q-33.5 -54.5 -51 -120.5q-17.5 -66 -17.5 -129q0 -50 11 -95q11 -45 34 -78.5q23 -33.5 59 -53q36 -19.5 86 -19.5q24 0 49 4q25 4 46 14.5q21 10.5 36 28.5q15 18 19 45l20 140h-82l7 50h240l-7 -50h-31q-39 0 -46 -55l-22 -156q-44 -32 -102 -52q-58 -20 -132 -20q-61 0 -113 17q-52 17 -90 53q-38 36 -59.5 91t-21.5 131z" />
<glyph unicode="&#72;" horiz-adv-x="762" d="M89 50q23 0 32.5 14q9.5 14 13.5 43l76 543h-83l7 50h255l-7 -50h-45q-16 0 -27 -14q-11 -14 -15 -43l-28 -200h339l36 257h-79l7 50h256l-7 -50h-48q-37 0 -44 -57l-76 -543h84l-7 -50h-256l7 50h46q33 0 41 57l33 232h-339l-41 -289h79l-7 -50h-255l7 50z" />
<glyph unicode="&#73;" horiz-adv-x="339" d="M94 50q23 0 32.5 14q9.5 14 13.5 43l76 543h-88l7 50h269l-7 -50h-50q-23 0 -32.5 -14q-9.5 -14 -13.5 -43l-76 -543h88l-7 -50h-269l7 50z" />
<glyph unicode="&#74;" horiz-adv-x="525" d="M72 148h81l-5 -33q-1 -5 -1.5 -9.5q-0.5 -4.5 -0.5 -8.5q0 -31 18 -44q18 -13 50 -13q54 0 89 41q35 41 46 120l63 449h-89l7 50h265l-7 -50h-45q-23 0 -32.5 -14q-9.5 -14 -13.5 -43l-53 -379q-8 -59 -30.5 -101.5q-22.5 -42.5 -55 -70q-32.5 -27.5 -72 -40.5q-39.5 -13 -82.5 -13q-42 0 -81.5 12.5q-39.5 12.5 -65.5 36.5z" />
<glyph unicode="&#75;" horiz-adv-x="696" d="M89 50q23 0 32.5 14q9.5 14 13.5 43l76 543h-83l7 50h254l-7 -50h-27q-27 0 -40 -9q-13 -9 -18 -45l-28 -200h95l179 197q19 21 19 37q0 20 -25 20h-36l7 50h244l-7 -50h-6q-38 0 -70.5 -19q-32.5 -19 -60.5 -49l-180 -198l177 -334h79l-7 -50h-157l-175 342h-84l-41 -292h79l-7 -50h-255l7 50z" />
<glyph unicode="&#76;" horiz-adv-x="576" d="M89 50q23 0 32.5 14q9.5 14 13.5 43l76 543h-83l7 50h260l-7 -50h-45q-23 0 -33 -14q-10 -14 -14 -43l-76 -540h194q12 0 25.5 4.5q13.5 4.5 25.5 15.5q12 11 21 29.5q9 18.5 13 46.5l6 41h54l-27 -190h-495l7 50z" />
<glyph unicode="&#77;" horiz-adv-x="889" d="M74 50q16 0 26.5 7.5q10.5 7.5 17 19.5q6.5 12 10.5 27q4 15 7 29l113 517h-85l7 50h189l98 -378q3 -13 8 -39.5q5 -26.5 7 -45.5l5 0q8 20 17.5 41.5q9.5 21.5 20.5 40.5l210 381h194l-7 -50h-50q-23 0 -32 -19q-9 -19 -11 -55l-31 -526h83l-7 -50h-266l7 50h43q15 0 23.5 8q8.5 8 13.5 19.5q5 11.5 7 24.5q2 13 3 24l21 352q0 7 1 19q1 12 2.5 26q1.5 14 3.5 28.5q2 14.5 4 27.5l-5 0l-237 -432h-68l-118 438h-5q-4 -23 -9.5 -54.5q-5.5 -31.5 -10.5 -53.5l-72 -344q-2 -11 -5 -24.5q-3 -13.5 -3 -21.5q0 -17 6.5 -27q6.5 -10 24.5 -10h44l-7 -50h-235l7 50z" />
<glyph unicode="&#78;" horiz-adv-x="779" d="M81 50q29 0 40 16.5q11 16.5 15 45.5l76 538h-84l7 50h176l259 -491q5 -10 11 -23q6 -13 12 -26.5q6 -13.5 11.5 -26.5q5.5 -13 9.5 -23l4 0q1 11 2.5 25.5q1.5 14.5 2.5 28.5q1 14 2.5 27q1.5 13 2.5 22l53 375q1 6 1.5 12q0.5 6 0.5 11q0 18 -7 28.5q-7 10.5 -25 10.5h-45l7 50h231l-7 -50h-39q-28 0 -38 -16.5q-10 -16.5 -14 -45.5l-83 -588h-84l-270 512q-13 24 -23 48q-10 24 -18 41l-4 0q-1 -10 -2 -25q-1 -15 -2.5 -31q-1.5 -16 -3 -30.5q-1.5 -14.5 -2.5 -24.5l-53 -378q-1 -7 -1.5 -13q-0.5 -6 -0.5 -11q0 -18 7 -28q7 -10 25 -10h45l-7 -50h-232l7 50z" />
<glyph unicode="&#79;" horiz-adv-x="738" d="M93 294q0 90 25 166.5q25 76.5 71.5 132q46.5 55.5 113.5 87q67 31.5 151 31.5q67 0 120.5 -22q53.5 -22 91 -61.5q37.5 -39.5 57.5 -96q20 -56.5 20 -125.5q0 -90 -25 -166.5q-25 -76.5 -71.5 -132q-46.5 -55.5 -113.5 -87q-67 -31.5 -151 -31.5q-67 0 -120.5 22q-53.5 22 -91 61.5q-37.5 39.5 -57.5 96q-20 56.5 -20 125.5zt0 0zM644 406q0 41 -9 86q-9 45 -31.5 82.5q-22.5 37.5 -60 61.5q-37.5 24 -94.5 24q-50 0 -89 -18.5q-39 -18.5 -67.5 -48.5q-28.5 -30 -48 -68.5q-19.5 -38.5 -31 -79.5q-11.5 -41 -16.5 -80.5q-5 -39.5 -5 -70.5q0 -41 9 -86q9 -45 31.5 -82.5q22.5 -37.5 60 -61.5q37.5 -24 93.5 -24q51 0 89.5 18.5q38.5 18.5 67.5 48.5q29 30 48 68.5q19 38.5 31 79.5q12 41 17 80t5 71z" />
<glyph unicode="&#80;" horiz-adv-x="617" d="M44 50h45q23 0 32.5 14q9.5 14 13.5 43l76 543h-83l7 50h301q37 0 76 -7q39 -7 71 -26.5q32 -19.5 52 -54q20 -34.5 20 -89.5q0 -60 -23 -106q-23 -46 -62.5 -77q-39.5 -31 -91.5 -47q-52 -16 -109 -16h-117l-32 -227h98l-7 -50h-274zM377 331q21 0 51.5 9q30.5 9 59 31q28.5 22 48.5 58q20 36 20 90q0 38 -13 62.5q-13 24.5 -32 39q-19 14.5 -41.5 20.5q-22.5 6 -40.5 6h-126l-44 -316z" />
<glyph unicode="&#81;" horiz-adv-x="738" d="M403 -9q-7 -1 -12 -1.5q-5 -0.5 -9 -0.5q-67 0 -120.5 22q-53.5 22 -91 61.5q-37.5 39.5 -57.5 96q-20 56.5 -20 125.5q0 90 25 166.5q25 76.5 71.5 132q46.5 55.5 113.5 87q67 31.5 151 31.5q67 0 120.5 -22q53.5 -22 91 -61.5q37.5 -39.5 57.5 -96q20 -56.5 20 -125.5q0 -78 -18.5 -145q-18.5 -67 -53 -120q-34.5 -53 -85 -89.5q-50.5 -36.5 -113.5 -51.5q26 -17 58.5 -31q32.5 -14 77.5 -14h38l-13 -86q-15 -4 -32 -4q-31 0 -59.5 13q-28.5 13 -53.5 32.5q-25 19.5 -46.5 41.5q-21.5 22 -39.5 39zt0 0zM644 406q0 41 -9 86q-9 45 -31.5 82.5q-22.5 37.5 -60 61.5q-37.5 24 -94.5 24q-50 0 -89 -18.5q-39 -18.5 -67.5 -48.5q-28.5 -30 -48 -68.5q-19.5 -38.5 -31 -79.5q-11.5 -41 -16.5 -80.5q-5 -39.5 -5 -70.5q0 -41 9 -86q9 -45 31.5 -82.5q22.5 -37.5 60 -61.5q37.5 -24 93.5 -24q51 0 89.5 18.5q38.5 18.5 67.5 48.5q29 30 48 68.5q19 38.5 31 79.5q12 41 17 80t5 71z" />
<glyph unicode="&#82;" horiz-adv-x="677" d="M89 50q23 0 32.5 14q9.5 14 13.5 43l76 543h-83l7 50h305q34 0 71 -6q37 -6 67 -24q30 -18 49.5 -52q19.5 -34 19.5 -90q0 -40 -14 -75.5q-14 -35.5 -39.5 -64.5q-25.5 -29 -61.5 -50q-36 -21 -81 -31l134 -257h79l-7 -50h-161l-145 294h-97l-34 -244h79l-7 -50h-255l7 50zM374 347q30 0 61 11.5q31 11.5 56 33.5q25 22 41 55q16 33 16 76q0 31 -10 54.5q-10 23.5 -26.5 39q-16.5 15.5 -37.5 23q-21 7.5 -44 7.5h-127l-42 -300z" />
<glyph unicode="&#83;" horiz-adv-x="591" d="M93 192h82l-3 -22q-1 -6 -1.5 -11q-0.5 -5 -0.5 -10q0 -29 11.5 -50q11.5 -21 31.5 -34q20 -13 46.5 -19q26.5 -6 55.5 -6q41 0 71.5 12.5q30.5 12.5 50.5 33q20 20.5 30 45.5q10 25 10 50q0 38 -26.5 67.5q-26.5 29.5 -91.5 55.5l-55 22q-39 16 -69.5 33.5q-30.5 17.5 -51 40q-20.5 22.5 -31.5 50.5q-11 28 -11 64q0 39 17 74.5q17 35.5 49 62.5q32 27 77.5 43.5q45.5 16.5 103.5 16.5q40 0 73.5 -9q33.5 -9 59.5 -21.5q26 -12.5 44 -27q18 -14.5 26 -25.5l-16 -110h-83l3 21q1 6 1.5 12q0.5 6 0.5 12q0 48 -29 72.5q-29 24.5 -82 24.5q-44 0 -73 -14.5q-29 -14.5 -46 -35.5q-17 -21 -24.5 -44.5q-7.5 -23.5 -7.5 -41.5q0 -41 23.5 -70.5q23.5 -29.5 75.5 -49.5l66 -26q48 -19 81 -38q33 -19 53 -40.5q20 -21.5 29 -47q9 -25.5 9 -57.5q0 -39 -18 -76q-18 -37 -52 -66q-34 -29 -83 -46.5q-49 -17.5 -111 -17.5q-40 0 -75.5 8q-35.5 8 -65 21q-29.5 13 -52.5 29.5q-23 16.5 -38 33.5z" />
<glyph unicode="&#84;" horiz-adv-x="629" d="M237 50q23 0 33 14q10 14 14 43l76 540h-87q-15 0 -30.5 -3q-15.5 -3 -29 -13q-13.5 -10 -23 -27.5q-9.5 -17.5 -13.5 -45.5l-6 -45h-54l26 187h541l-26 -187h-54l6 45q1 6 1.5 12q0.5 6 0.5 11q0 21 -6 34q-6 13 -16 20q-10 7 -23 9.5q-13 2.5 -28 2.5h-86l-84 -597h88l-7 -50h-269l7 50z" />
<glyph unicode="&#85;" horiz-adv-x="754" d="M145 191q0 12 1 24q1 12 3 26l57 409h-83l7 50h255l-7 -50h-40q-23 0 -33 -14q-10 -14 -14 -43l-49 -352q-2 -13 -3 -24.5q-1 -11.5 -1 -22.5q0 -32 8 -59q8 -27 26 -46.5q18 -19.5 47.5 -30q29.5 -10.5 71.5 -10.5q49 0 87.5 15q38.5 15 66 41.5q27.5 26.5 43.5 61.5q16 35 22 75l50 347q1 8 1.5 14.5q0.5 6.5 0.5 11.5q0 19 -7.5 27.5q-7.5 8.5 -27.5 8.5h-41l7 50h231l-7 -50h-39q-28 0 -39 -16.5q-11 -16.5 -15 -45.5l-48 -347q-9 -61 -33.5 -108q-24.5 -47 -62 -79q-37.5 -32 -87.5 -48.5q-50 -16.5 -109 -16.5q-110 0 -174.5 50.5t-64.5 151.5z" />
<glyph unicode="&#86;" horiz-adv-x="771" d="M116 650l7 50h267l-7 -50h-40q-22 0 -29.5 -12q-7.5 -12 -7.5 -29q0 -13 3 -26l84 -415q3 -14 6.5 -39.5q3.5 -25.5 6.5 -43.5l4 0q8 18 19 41.5q11 23.5 18 37.5l207 417q5 11 9 22q4 11 4 21q0 11 -7.5 18.5q-7.5 7.5 -27.5 7.5h-27l7 50h235l-7 -50h-18q-65 0 -100 -70l-293 -580h-92l-144 650z" />
<glyph unicode="&#87;" horiz-adv-x="1073" d="M122 650l7 50h259l-7 -50h-40q-21 0 -27.5 -14.5q-6.5 -14.5 -6.5 -32.5q0 -11 1 -23q1 -12 2 -22l38 -370q0 -5 0.5 -17q0.5 -12 1 -26.5q0.5 -14.5 0.5 -28.5q0 -14 0 -24l6 0q7 20 14.5 43.5q7.5 23.5 19.5 52.5l212 512h96l57 -514q3 -28 4 -53q1 -25 1 -45l6 0q11 38 37 100l148 371q16 39 16 60q0 31 -37 31h-27l7 50h233l-7 -50h-24q-29 0 -51 -18.5q-22 -18.5 -44 -73.5l-228 -558h-95l-62 503q-2 14 -3 42q-1 28 -2 52l-5 0q-11 -27 -19.5 -50q-8.5 -23 -17.5 -44l-212 -503h-95l-78 650z" />
<glyph unicode="&#88;" horiz-adv-x="685" d="M49 50q32 0 57.5 19q25.5 19 49.5 51l189 245l-138 285h-74l7 50h270l-7 -50h-31q-21 0 -29.5 -11q-8.5 -11 -8.5 -27q0 -19 8 -33l49 -102q5 -11 10.5 -23.5q5.5 -12.5 10.5 -26.5l4 0q10 15 17.5 27q7.5 12 16.5 23l78 103q9 12 16.5 26q7.5 14 7.5 25q0 8 -6 13.5q-6 5.5 -21 5.5h-27l7 50h220l-7 -50h-11q-33 0 -57.5 -19q-24.5 -19 -49.5 -51l-159 -203l152 -327h75l-7 -50h-273l7 50h38q18 0 25.5 10q7.5 10 7.5 25q0 8 -2 18.5q-2 10.5 -5 17.5l-62 137q-5 12 -11 25.5q-6 13.5 -11 25.5l-4 0q-10 -14 -19.5 -27q-9.5 -13 -17.5 -24l-107 -138q-9 -12 -17 -26q-8 -14 -8 -25q0 -19 28 -19h28l-7 -50h-221l7 50z" />
<glyph unicode="&#89;" horiz-adv-x="708" d="M274 50q23 0 32.5 14q9.5 14 13.5 43l19 135l-148 408h-75l7 50h267l-7 -50h-39q-21 0 -29 -11.5q-8 -11.5 -8 -26.5q0 -18 6 -33l74 -212q5 -14 8.5 -31q3.5 -17 7.5 -34l5 0q10 18 19 34q9 16 19 31l145 219q7 10 12.5 22q5.5 12 5.5 22q0 8 -6 14q-6 6 -20 6h-31l7 50h223l-7 -50h-16q-32 0 -57 -19q-25 -19 -42 -45l-228 -344l-27 -192h87l-7 -50h-266l7 50z" />
<glyph unicode="&#90;" horiz-adv-x="592" d="M478 581q17 20 31 36.5q14 16.5 23 26.5l0 3h-228q-30 0 -56.5 -21.5q-26.5 -21.5 -34.5 -76.5l-6 -39h-54l26 190h463l-7 -50l-417 -525q-6 -8 -15 -17.5q-9 -9.5 -17.5 -19q-8.5 -9.5 -16.5 -18q-8 -8.5 -12 -14.5l0 -3h273q12 0 25.5 5q13.5 5 25.5 16.5q12 11.5 21 30q9 18.5 13 46.5l6 39h54l-27 -190h-503l7 50z" />
<glyph unicode="&#91;" horiz-adv-x="365" d="M430 780l-7 -50h-86q-21 0 -31.5 -12q-10.5 -12 -15.5 -44l-117 -834h125l-7 -50h-211l139 990z" />
<glyph unicode="&#92;" horiz-adv-x="535" d="M224 780l259 -970l-70 -20l-258 970z" />
<glyph unicode="&#93;" horiz-adv-x="365" d="M107 -160q22 0 32.5 12q10.5 12 15.5 44l117 834h-125l7 50h211l-139 -990h-211l7 50z" />
<glyph unicode="&#94;" horiz-adv-x="518" d="M340 700l188 -283h-84l-118 182l-117 -182h-84l188 283z" />
<glyph unicode="&#95;" horiz-adv-x="490" d="M490 -188v-62h-490l0 62z" />
<glyph unicode="&#96;" horiz-adv-x="546" d="M331 698l59 -133h-50l-110 133z" />
<glyph unicode="&#97;" horiz-adv-x="579" d="M83 178q0 71 19 130.5q19 59.5 52.5 102q33.5 42.5 80 66.5q46.5 24 100.5 24q48 0 80 -19.5q32 -19.5 56 -45.5l2 0l21 54h81q-4 -8 -8 -20q-4 -12 -7.5 -24.5q-3.5 -12.5 -6 -24.5q-2.5 -12 -3.5 -21l-51 -357h76l-6 -43h-35q-33 0 -66 -2q-33 -2 -65 -9l19 120h-2q-10 -14 -26.5 -34.5q-16.5 -20.5 -40 -39.5q-23.5 -19 -54 -32.5q-30.5 -13.5 -68.5 -13.5q-38 0 -65.5 14.5q-27.5 14.5 -46 40q-18.5 25.5 -27.5 60q-9 34.5 -9 74.5zt0 0zM460 386q-16 18 -43 35.5q-27 17.5 -70 17.5q-38 0 -69.5 -16.5q-31.5 -16.5 -54 -49q-22.5 -32.5 -35.5 -81q-13 -48.5 -13 -112.5q0 -20 4 -41q4 -21 15 -38.5q11 -17.5 30 -29q19 -11.5 48 -11.5q35 0 64 15.5q29 15.5 50 38q21 22.5 33 47.5q12 25 15 44z" />
<glyph unicode="&#98;" horiz-adv-x="585" d="M95 0q4 8 8 20q4 12 7.5 24.5q3.5 12.5 6 24.5q2.5 12 3.5 21l84 596h-76l6 43h35q35 0 70.5 2.5q35.5 2.5 61.5 8.5l-35 -250q-4 -27 -8.5 -54.5q-4.5 -27.5 -9.5 -54.5l2 0q10 14 26.5 34.5q16.5 20.5 40 39.5q23.5 19 54 32.5q30.5 13.5 68.5 13.5q37 0 65 -14.5q28 -14.5 46.5 -40q18.5 -25.5 27.5 -60q9 -34.5 9 -74.5q0 -71 -19 -130.5q-19 -59.5 -52.5 -102.5q-33.5 -43 -80 -66.5q-46.5 -23.5 -100.5 -23.5q-48 0 -80 19.5q-32 19.5 -56 45.5l-33 -54zM495 310q0 19 -4 40.5q-4 21.5 -15 39q-11 17.5 -30 29q-19 11.5 -48 11.5q-35 0 -64 -15.5q-29 -15.5 -50 -38q-21 -22.5 -33 -47.5q-12 -25 -15 -44l-26 -181q16 -18 43 -35.5q27 -17.5 70 -17.5q37 0 69 16.5q32 16.5 54.5 49q22.5 32.5 35.5 81t13 112.5z" />
<glyph unicode="&#99;" horiz-adv-x="469" d="M80 196q0 76 21.5 133.5q21.5 57.5 58 95.5q36.5 38 84.5 57q48 19 101 19q30 0 54.5 -6.5q24.5 -6.5 44 -17q19.5 -10.5 33.5 -23.5q14 -13 22 -25l-13 -85h-73l2 11q1 7 1.5 13.5q0.5 6.5 0.5 12.5q0 23 -7 38q-7 15 -18.5 23.5q-11.5 8.5 -25 11.5q-13.5 3 -26.5 3q-48 0 -80.5 -25.5q-32.5 -25.5 -52 -64.5q-19.5 -39 -27.5 -84.5q-8 -45.5 -8 -84.5q0 -32 6.5 -60q6.5 -28 21 -50q14.5 -22 37.5 -34.5q23 -12.5 56 -12.5q46 0 78.5 19.5q32.5 19.5 64.5 54.5l27 -32q-14 -17 -33 -34q-19 -17 -42.5 -30.5q-23.5 -13.5 -51 -21.5q-27.5 -8 -58.5 -8q-39 0 -75 12q-36 12 -63 37q-27 25 -43.5 64t-16.5 94z" />
<glyph unicode="&#100;" horiz-adv-x="579" d="M83 178q0 71 19 130.5q19 59.5 52.5 102q33.5 42.5 79 66.5q45.5 24 98.5 24q24 0 44.5 -5.5q20.5 -5.5 37 -14.5q16.5 -9 30 -19.5q13.5 -10.5 22.5 -20.5l2 0q2 15 4 33q2 18 4 32l26 180h-76l6 43h35q35 0 70.5 2.5q35.5 2.5 61.5 8.5l-100 -697h76l-6 -43h-35q-33 0 -66 -2q-33 -2 -65 -9l19 120h-2q-10 -14 -26.5 -34.5q-16.5 -20.5 -40 -39.5q-23.5 -19 -54 -32.5q-30.5 -13.5 -68.5 -13.5q-38 0 -65.5 14.5q-27.5 14.5 -46 40q-18.5 25.5 -27.5 60q-9 34.5 -9 74.5zt0 0zM460 386q-16 18 -43 35.5q-27 17.5 -70 17.5q-38 0 -69.5 -16.5q-31.5 -16.5 -54 -49q-22.5 -32.5 -35.5 -81q-13 -48.5 -13 -111.5q0 -20 4 -41.5q4 -21.5 15 -39q11 -17.5 30 -29q19 -11.5 48 -11.5q35 0 64 15.5q29 15.5 50 38q21 22.5 33 47.5q12 25 15 44z" />
<glyph unicode="&#101;" horiz-adv-x="488" d="M80 190q0 54 15 109.5q15 55.5 48 100.5q33 45 85.5 73q52.5 28 127.5 28q45 0 74.5 -10.5q29.5 -10.5 47 -26.5q17.5 -16 24 -34.5q6.5 -18.5 6.5 -33.5q0 -37 -16 -64.5q-16 -27.5 -42.5 -48q-26.5 -20.5 -61.5 -34.5q-35 -14 -72.5 -23.5q-37.5 -9.5 -75 -15q-37.5 -5.5 -70.5 -9.5l0 -4q0 -27 6 -55q6 -28 20.5 -50.5q14.5 -22.5 38.5 -36.5q24 -14 60 -14q41 0 74.5 17.5q33.5 17.5 72.5 61.5l27 -31q-16 -20 -36.5 -38q-20.5 -18 -45 -31.5q-24.5 -13.5 -54 -22q-29.5 -8.5 -64.5 -8.5q-34 0 -67.5 11q-33.5 11 -60.5 35q-27 24 -44 62.5q-17 38.5 -17 92.5zt0 0zM421 384q0 12 -2.5 25q-2.5 13 -11 23.5q-8.5 10.5 -23.5 17.5q-15 7 -39 7q-29 0 -57 -12q-28 -12 -51.5 -38.5q-23.5 -26.5 -40.5 -67q-17 -40.5 -24 -97.5q78 6 126.5 21.5q48.5 15.5 76 35.5q27.5 20 37 42.5t9.5 42.5z" />
<glyph unicode="&#102;" horiz-adv-x="369" d="M31 -188q16 0 28 2q12 2 20.5 9.5q8.5 7.5 14 21.5q5.5 14 8.5 38l78 562h-85l6 45h86l8 52q15 97 65.5 147.5q50.5 50.5 131.5 50.5q34 0 59 -7.5q25 -7.5 48 -23.5l-11 -77h-66l2 11q1 5 1 14q0 17 -10.5 28q-10.5 11 -32.5 11q-43 0 -65 -35.5q-22 -35.5 -32 -107.5l-9 -63h140l-7 -45h-139l-67 -473q-15 -103 -63 -162q-48 -59 -150 -71l10 73z" />
<glyph unicode="&#103;" horiz-adv-x="532" d="M35 -144q0 41 20 64q20 23 52 44l53 -15q-19 -23 -27 -39.5q-8 -16.5 -8 -33.5q0 -40 38 -63q38 -23 108 -23q38 0 71.5 8q33.5 8 58.5 22q25 14 39.5 34q14.5 20 14.5 43q0 11 -4 22.5q-4 11.5 -18 21.5q-14 10 -40 18q-26 8 -71 11l-70 5q-32 2 -59.5 7.5q-27.5 5.5 -47.5 15q-20 9.5 -32 24.5q-12 15 -12 36q0 35 23 58.5q23 23.5 65 50.5q-26 17 -44.5 48.5q-18.5 31.5 -18.5 76.5q0 50 16.5 89q16.5 39 45 65.5q28.5 26.5 67 40.5q38.5 14 83.5 14q29 0 62 -8.5q33 -8.5 62 -33.5q25 24 42.5 51.5q17.5 27.5 28.5 50.5l54 -31q-39 -59 -99 -98q11 -16 17.5 -38q6.5 -22 6.5 -48q0 -40 -14 -77.5q-14 -37.5 -41 -67q-27 -29.5 -66.5 -47.5q-39.5 -18 -90.5 -18q-20 0 -43 4q-23 4 -34 9q-13 -8 -25.5 -20q-12.5 -12 -12.5 -30q0 -8 3.5 -16q3.5 -8 13 -14q9.5 -6 27 -10.5q17.5 -4.5 46.5 -6.5l72 -5q52 -4 84 -15.5q32 -11.5 50 -28q18 -16.5 24 -38q6 -21.5 6 -44.5q0 -41 -20 -74.5q-20 -33.5 -55.5 -57.5q-35.5 -24 -84 -37q-48.5 -13 -106.5 -13q-61 0 -101.5 11.5q-40.5 11.5 -64.5 29q-24 17.5 -34 38q-10 20.5 -10 38.5zt0 0zM420 347q0 34 -9 55.5q-9 21.5 -22.5 33.5q-13.5 12 -28.5 16.5q-15 4.5 -28 4.5q-17 0 -37 -7q-20 -7 -37 -25q-17 -18 -28.5 -49q-11.5 -31 -11.5 -79q0 -51 21.5 -84q21.5 -33 66.5 -33q30 0 52 14q22 14 35.5 37q13.5 23 20 53.5t6.5 62.5z" />
<glyph unicode="&#104;" horiz-adv-x="593" d="M465 307q2 11 3.5 26.5q1.5 15.5 1.5 32.5q0 29 -16.5 46.5q-16.5 17.5 -48.5 17.5q-30 0 -59.5 -16q-29.5 -16 -52.5 -40q-23 -24 -39 -52q-16 -28 -19 -52l-38 -270h-101q4 8 8 20q4 12 7.5 24.5q3.5 12.5 6 24.5q2.5 12 3.5 21l84 596h-76l6 43h35q35 0 70.5 2.5q35.5 2.5 61.5 8.5l-43 -295q-3 -20 -6 -37.5q-3 -17.5 -7 -40.5l2 0q41 60 92.5 97q51.5 37 107.5 37q59 0 86.5 -31q27.5 -31 27.5 -74q0 -22 -1 -35.5q-1 -13.5 -3 -26.5l-45 -291h76l-6 -43h-35q-35 0 -70.5 -2.5q-35.5 -2.5 -61.5 -8.5l49 318z" />
<glyph unicode="&#105;" horiz-adv-x="282" d="M94 447l6 43h35q35 0 70.5 2.5q35.5 2.5 61.5 8.5l-65 -458h76l-6 -43h-35q-35 0 -70.5 -2.5q-35.5 -2.5 -61.5 -8.5l65 458zM164 635q0 23 17 40.5q17 17.5 39 17.5q23 0 40.5 -17.5q17.5 -17.5 17.5 -40.5q0 -22 -17.5 -39q-17.5 -17 -40.5 -17q-22 0 -39 17t-17 39z" />
<glyph unicode="&#106;" horiz-adv-x="272" d="M20 -188q16 0 28 2q12 2 20.5 9.5q8.5 7.5 14 21.5q5.5 14 8.5 38l79 564h-76l6 43h35q35 0 70.5 2.5q35.5 2.5 61.5 8.5l-75 -529q-15 -103 -63 -162q-48 -59 -150 -71l10 73zM164 635q0 23 17 40.5q17 17.5 39 17.5q23 0 40.5 -17.5q17.5 -17.5 17.5 -40.5q0 -22 -17.5 -39q-17.5 -17 -40.5 -17q-22 0 -39 17t-17 39z" />
<glyph unicode="&#107;" horiz-adv-x="559" d="M231 241l-34 -241h-101q4 8 8 20q4 12 7.5 24.5q3.5 12.5 6 24.5q2.5 12 3.5 21l84 596h-76l6 43h35q35 0 70.5 2.5q35.5 2.5 61.5 8.5l-64 -451h66l111 97q17 14 35 32q18 18 25 29l-73 0l6 43h45q10 0 26 0.5q16 0.5 35 2q19 1.5 37.5 3.5q18.5 2 33.5 5l0 -33l-225 -193l132 -232h75l-6 -43h-8q-35 0 -70.5 -2.5q-35.5 -2.5 -61.5 -8.5l-138 252z" />
<glyph unicode="&#108;" horiz-adv-x="282" d="M128 686l6 43h35q35 0 70.5 2.5q35.5 2.5 61.5 8.5l-99 -697h76l-6 -43h-35q-35 0 -70.5 -2.5q-35.5 -2.5 -61.5 -8.5l99 697z" />
<glyph unicode="&#109;" horiz-adv-x="875" d="M747 307q2 11 3.5 26.5q1.5 15.5 1.5 32.5q0 29 -12.5 46.5q-12.5 17.5 -44.5 17.5q-30 0 -57.5 -16q-27.5 -16 -49.5 -40q-22 -24 -36.5 -52q-14.5 -28 -18.5 -52l-40 -270h-101q4 8 8 20q4 12 7.5 24.5q3.5 12.5 6 24.5q2.5 12 3.5 21l33 217q2 11 3.5 26.5q1.5 15.5 1.5 32.5q0 29 -13 46.5q-13 17.5 -45 17.5q-30 0 -58 -16q-28 -16 -50 -40q-22 -24 -36.5 -52q-14.5 -28 -17.5 -52l-38 -270h-101q4 8 8 20q4 12 7.5 24.5q3.5 12.5 6 24.5q2.5 12 3.5 21l50 357h-76l6 43h35q35 0 70 2.5q35 2.5 61 8.5l-21 -134h2q41 60 88.5 97q47.5 37 103.5 37q58 0 82.5 -31q24.5 -31 24.5 -74v-25h2q41 59 87 94.5q46 35.5 102 35.5q58 0 82 -31q24 -31 24 -74q0 -22 -1 -35.5q-1 -13.5 -3 -26.5l-45 -291h76l-6 -43h-35q-35 0 -70.5 -2.5q-35.5 -2.5 -61.5 -8.5l49 318z" />
<glyph unicode="&#110;" horiz-adv-x="593" d="M465 307q2 11 3.5 26.5q1.5 15.5 1.5 32.5q0 29 -16.5 46.5q-16.5 17.5 -48.5 17.5q-30 0 -59.5 -16q-29.5 -16 -52.5 -40q-23 -24 -39 -52q-16 -28 -19 -52l-38 -270h-101q4 8 8 20q4 12 7.5 24.5q3.5 12.5 6 24.5q2.5 12 3.5 21l50 357h-76l6 43h35q35 0 70 2.5q35 2.5 61 8.5l-21 -134h2q41 60 92.5 97q51.5 37 107.5 37q59 0 86.5 -31q27.5 -31 27.5 -74q0 -22 -1 -35.5q-1 -13.5 -3 -26.5l-45 -291h76l-6 -43h-35q-35 0 -70.5 -2.5q-35.5 -2.5 -61.5 -8.5l49 318z" />
<glyph unicode="&#111;" horiz-adv-x="546" d="M80 203q0 70 20.5 125.5q20.5 55.5 55.5 93.5q35 38 82.5 58.5q47.5 20.5 100.5 20.5q48 0 87 -14.5q39 -14.5 67 -42q28 -27.5 43 -68q15 -40.5 15 -91.5q0 -70 -20.5 -125q-20.5 -55 -55.5 -93q-35 -38 -81.5 -58q-46.5 -20 -99.5 -20q-97 0 -155.5 55.5q-58.5 55.5 -58.5 158.5zt0 0zM459 286q0 24 -4 53.5q-4 29.5 -17 56q-13 26.5 -36.5 44q-23.5 17.5 -62.5 17.5q-35 0 -61 -14.5q-26 -14.5 -44.5 -37.5q-18.5 -23 -30.5 -51.5q-12 -28.5 -19 -56.5q-7 -28 -9.5 -53q-2.5 -25 -2.5 -41q0 -24 4 -53.5q4 -29.5 17 -55.5q13 -26 37 -43.5q24 -17.5 64 -17.5q52 0 84 30.5q32 30.5 50 72q18 41.5 24.5 84t6.5 66.5z" />
<glyph unicode="&#112;" horiz-adv-x="585" d="M171 447h-76l6 43h35q33 0 66 2q33 2 65 9l-19 -120h2q10 14 26.5 34.5q16.5 20.5 40 39.5q23.5 19 54 32.5q30.5 13.5 68.5 13.5q39 0 67 -14.5q28 -14.5 46 -40.5q18 -26 26.5 -61q8.5 -35 8.5 -77q0 -70 -19 -128.5q-19 -58.5 -52.5 -101q-33.5 -42.5 -79 -66q-45.5 -23.5 -98.5 -23.5q-24 0 -44.5 5.5q-20.5 5.5 -37 14.5q-16.5 9 -30 19.5q-13.5 10.5 -22.5 20.5l-2 0q-2 -15 -3.5 -33q-1.5 -18 -3.5 -32l-32 -234h-101q4 8 8 20q4 12 7.5 24.5q3.5 12.5 6 24.5q2.5 12 3.5 21zM495 299q0 23 -4 46.5q-4 23.5 -15 42q-11 18.5 -30 30.5q-19 12 -48 12q-35 0 -64 -15.5q-29 -15.5 -50 -38q-21 -22.5 -33 -47.5q-12 -25 -15 -44l-26 -181q16 -18 43 -35.5q27 -17.5 70 -17.5q37 0 69 16q32 16 54.5 47.5q22.5 31.5 35.5 78t13 106.5z" />
<glyph unicode="&#113;" horiz-adv-x="570" d="M405 0q4 27 8 54.5q4 27.5 9 54.5l-2 0q-10 -14 -26.5 -34.5q-16.5 -20.5 -40 -39.5q-23.5 -19 -54 -32.5q-30.5 -13.5 -68.5 -13.5q-38 0 -65.5 14.5q-27.5 14.5 -46 40q-18.5 25.5 -27.5 60q-9 34.5 -9 74.5q0 71 19 130.5q19 59.5 52.5 102q33.5 42.5 80 66.5q46.5 24 100.5 24q48 0 80 -19.5q32 -19.5 56 -45.5l2 0l21 54h81q-4 -8 -8 -20q-4 -12 -7.5 -24.5q-3.5 -12.5 -6 -24.5q-2.5 -12 -3.5 -21l-91 -650h-101q4 8 8 20q4 12 7.5 24.5q3.5 12.5 6 24.5q2.5 12 3.5 21zM460 386q-16 18 -43 35.5q-27 17.5 -70 17.5q-38 0 -69.5 -16.5q-31.5 -16.5 -54 -49q-22.5 -32.5 -35.5 -81q-13 -48.5 -13 -112.5q0 -20 4 -41q4 -21 15 -38.5q11 -17.5 30 -29q19 -11.5 48 -11.5q35 0 64 15.5q29 15.5 50 38q21 22.5 33 47.5q12 25 15 44z" />
<glyph unicode="&#114;" horiz-adv-x="408" d="M171 447h-76l6 43h35q35 0 70 2.5q35 2.5 61 8.5l-21 -134h2q44 64 86 99q42 35 99 35l-14 -100h-42q-29 0 -53.5 -11.5q-24.5 -11.5 -43 -31q-18.5 -19.5 -30.5 -44.5q-12 -25 -16 -53l-37 -261h-101q4 8 8 20q4 12 7.5 24.5q3.5 12.5 6 24.5q2.5 12 3.5 21z" />
<glyph unicode="&#115;" horiz-adv-x="500" d="M95 134h72l-2 -14q-1 -5 -1 -13q0 -20 9 -34q9 -14 24.5 -23q15.5 -9 36.5 -13q21 -4 44 -4q33 0 56 7.5q23 7.5 38 20q15 12.5 21.5 27.5q6.5 15 6.5 30q0 32 -23 50.5q-23 18.5 -76 35.5l-53 17q-60 20 -91 50q-31 30 -31 82q0 30 12.5 57q12.5 27 37.5 47q25 20 61 32q36 12 84 12q32 0 59 -6.5q27 -6.5 48 -16q21 -9.5 35.5 -20.5q14.5 -11 21.5 -19l-10 -75h-72l2 13q1 5 1 13q0 18 -8.5 30.5q-8.5 12.5 -22 21q-13.5 8.5 -31 12q-17.5 3.5 -35.5 3.5q-30 0 -50 -8.5q-20 -8.5 -32 -21q-12 -12.5 -17 -27.5q-5 -15 -5 -27q0 -29 20 -47q20 -18 60 -31l56 -18q73 -23 106 -51.5q33 -28.5 33 -81.5q0 -29 -14.5 -56.5q-14.5 -27.5 -41.5 -49.5q-27 -22 -66 -35.5q-39 -13.5 -89 -13.5q-64 0 -111.5 22q-47.5 22 -72.5 48z" />
<glyph unicode="&#116;" horiz-adv-x="384" d="M133 99q0 16 3 36l44 310h-85l5 35q63 8 103 49q40 41 62 105l30 0l-21 -144h140l-7 -45h-139l-43 -309q-1 -8 -1.5 -16q-0.5 -8 -0.5 -16q0 -27 12 -44q12 -17 42 -17q22 0 45 13q23 13 43 33l23 -34q-25 -26 -61 -46q-36 -20 -79 -20q-52 0 -83.5 25.5t-31.5 84.5z" />
<glyph unicode="&#117;" horiz-adv-x="593" d="M122 94q0 22 1 35.5q1 13.5 3 26.5l45 291h-76l6 43h35q35 0 70.5 2.5q35.5 2.5 61.5 8.5l-49 -318q-2 -11 -3.5 -26.5q-1.5 -15.5 -1.5 -32.5q0 -29 16.5 -46.5q16.5 -17.5 48.5 -17.5q30 0 59.5 16q29.5 16 52.5 40q23 24 39 52q16 28 19 52l38 270h101q-4 -8 -8 -20q-4 -12 -7.5 -24.5q-3.5 -12.5 -6 -24.5q-2.5 -12 -3.5 -21l-50 -357h76l-6 -43h-35q-35 0 -70 -2.5q-35 -2.5 -61 -8.5l21 134h-2q-41 -60 -92.5 -97q-51.5 -37 -107.5 -37q-59 0 -86.5 31t-27.5 74z" />
<glyph unicode="&#118;" horiz-adv-x="557" d="M65 447l6 43h8q35 0 75.5 3.5q40.5 3.5 66.5 7.5l82 -349q7 -29 15 -80l5 0q19 23 46 67q27 44 53 97q26 53 47 108.5q21 55.5 29 102.5l-80 0l6 43h32q10 0 23.5 0.5q13.5 0.5 29.5 2q16 1.5 32 3.5q16 2 31 5l0 -33q-15 -55 -42 -121q-27 -66 -60.5 -130.5q-33.5 -64.5 -71 -122q-37.5 -57.5 -73.5 -94.5l-73 0l-112 447z" />
<glyph unicode="&#119;" horiz-adv-x="807" d="M70 447l6 43h8q35 0 75.5 3.5q40.5 3.5 66.5 7.5l39 -330q1 -9 2 -22.5q1 -13.5 1.5 -27.5q0.5 -14 0.5 -26.5q0 -12.5 0 -19.5l5 0q47 72 89.5 178q42.5 106 71.5 237l83 0l52 -319q3 -18 5.5 -42q2.5 -24 5.5 -57l5 0q24 31 48.5 74.5q24.5 43.5 46 93q21.5 49.5 38 103q16.5 53.5 24.5 104.5l-80 0l6 43h32q10 0 23.5 0.5q13.5 0.5 29.5 2q16 1.5 32 3.5q16 2 31 5l0 -33q-40 -149 -96.5 -263.5q-56.5 -114.5 -128.5 -204.5l-74 0l-49 291q-3 19 -5.5 40.5q-2.5 21.5 -4.5 40.5l-4 0q-11 -43 -28 -91q-17 -48 -39.5 -96.5q-22.5 -48.5 -50 -95.5q-27.5 -47 -58.5 -89l-74 0l-60 447z" />
<glyph unicode="&#120;" horiz-adv-x="550" d="M274 251l-102 196h-75l6 43h8q35 0 71 3.5q36 3.5 62 7.5l83 -171q4 -7 7 -15q3 -8 7 -17l2 0q7 8 13 15.5q6 7.5 15 18.5l45 53q17 20 28 34q11 14 18 28l-72 0l6 43h41q10 0 24.5 0.5q14.5 0.5 31.5 2q17 1.5 34 3.5q17 2 32 5l0 -33l-186 -212l112 -213h75l-6 -43h-8q-35 0 -71 -2.5q-36 -2.5 -62 -8.5l-91 185q-4 7 -8 17q-4 10 -8 18l-2 0q-8 -9 -14 -17.5q-6 -8.5 -17 -20.5l-59 -68q-19 -22 -29 -35.5q-10 -13.5 -17 -24.5l72 0l-6 -43h-34q-10 0 -26 -0.5q-16 -0.5 -34 -2q-18 -1.5 -36.5 -3.5q-18.5 -2 -33.5 -5l0 33z" />
<glyph unicode="&#121;" horiz-adv-x="557" d="M114 -175q10 0 29 9.5q19 9.5 42.5 29q23.5 19.5 50 50.5q26.5 31 50.5 75l-146 458h-75l6 43h8q35 0 75.5 3.5q40.5 3.5 66.5 7.5l103 -333q5 -15 10 -39q5 -24 10 -50l5 0q16 25 39 68.5q23 43.5 45 95q22 51.5 40 105.5q18 54 25 99l-80 0l6 43h32q10 0 23.5 0.5q13.5 0.5 29.5 2q16 1.5 32 3.5q16 2 31 5l0 -33q-15 -52 -41 -123.5q-26 -71.5 -62.5 -150q-36.5 -78.5 -82.5 -156.5q-46 -78 -100.5 -142q-54.5 -64 -118.5 -106.5q-64 -42.5 -135 -50.5l15 86z" />
<glyph unicode="&#122;" horiz-adv-x="490" d="M345 378q10 12 26 31.5q16 19.5 27 32.5l0 3h-137q-26 0 -49.5 -15q-23.5 -15 -28.5 -53l-5 -34h-48l21 147h374l-2 -15l-288 -362q-11 -13 -28.5 -33.5q-17.5 -20.5 -26.5 -31.5l0 -3h166q26 0 49 15q23 15 28 53l5 36h48l-21 -149h-400l2 16z" />
<glyph unicode="&#123;" horiz-adv-x="390" d="M146 -76q0 14 0.5 22q0.5 8 1.5 13l27 191q1 6 1.5 12q0.5 6 0.5 13q0 14 -3 28q-3 14 -9.5 25q-6.5 11 -18 18q-11.5 7 -28.5 7h-23l9 64h23q21 0 36 10q15 10 25.5 25.5q10.5 15.5 16.5 33.5q6 18 8 34l26 191q3 18 11.5 46.5q8.5 28.5 31 56q22.5 27.5 63 47q40.5 19.5 105.5 19.5l-7 -50q-33 -2 -54 -12.5q-21 -10.5 -33 -26q-12 -15.5 -18 -34.5q-6 -19 -9 -40l-26 -187q-3 -24 -10 -47q-7 -23 -20 -41.5q-13 -18.5 -33.5 -33q-20.5 -14.5 -50.5 -21.5l-1 -4q45 -12 60.5 -40q15.5 -28 15.5 -65q0 -8 -0.5 -19q-0.5 -11 -1.5 -19l-26 -187q-3 -18 -3 -34q0 -31 17 -53q17 -22 68 -26l-7 -50q-54 0 -86.5 14.5q-32.5 14.5 -50 35.5q-17.5 21 -23 44t-5.5 40z" />
<glyph unicode="&#124;" horiz-adv-x="283" d="M293 780l-139 -990h-84l139 990z" />
<glyph unicode="&#125;" horiz-adv-x="390" d="M27 -160q33 2 54 12.5q21 10.5 33 26q12 15.5 18 34.5q6 19 9 40l26 187q3 24 10 47q7 23 20 41.5q13 18.5 33.5 32.5q20.5 14 50.5 22l1 4q-45 12 -60.5 40q-15.5 28 -15.5 65q0 8 0.5 19q0.5 11 1.5 19l26 187q3 18 3 34q0 31 -17 53q-17 22 -68 26l7 50q54 0 86.5 -14.5q32.5 -14.5 50 -35.5q17.5 -21 23 -44q5.5 -23 5.5 -40q0 -14 -0.5 -22q-0.5 -8 -1.5 -13l-27 -191q-1 -6 -1.5 -12q-0.5 -6 -0.5 -13q0 -14 2.5 -28q2.5 -14 9.5 -25q7 -11 18.5 -18q11.5 -7 28.5 -7h23l-9 -64h-23q-21 0 -36 -10q-15 -10 -25.5 -25.5q-10.5 -15.5 -16.5 -33.5q-6 -18 -8 -34l-26 -191q-3 -18 -11.5 -46.5q-8.5 -28.5 -31 -56q-22.5 -27.5 -63 -47q-40.5 -19.5 -105.5 -19.5l7 50z" />
<glyph unicode="&#126;" horiz-adv-x="625" d="M130 322q27 39 64.5 62.5q37.5 23.5 83.5 23.5q33 0 59.5 -9.5q26.5 -9.5 44.5 -16.5q23 -8 41.5 -13.5q18.5 -5.5 38.5 -5.5q26 0 56 10.5q30 10.5 47 32.5l40 -30q-28 -39 -64.5 -62.5q-36.5 -23.5 -83.5 -23.5q-34 0 -60.5 9.5q-26.5 9.5 -44.5 16.5q-23 9 -41.5 14.5q-18.5 5.5 -38.5 5.5q-27 0 -56.5 -11.5q-29.5 -11.5 -46.5 -33.5l-39 31z" />
<glyph unicode="&#160;" horiz-adv-x="300" />
<glyph unicode="&#161;" horiz-adv-x="333" d="M155 442q0 24 18 41.5q18 17.5 45 17.5q24 0 41 -17.5q17 -17.5 17 -41.5q0 -26 -17 -44q-17 -18 -41 -18q-27 0 -45 18q-18 18 -18 44zt0 0zM172 299h51l-36 -484q-2 -14 -20 -25q-18 -11 -40 -11q-21 0 -37.5 11q-16.5 11 -16.5 25z" />
<glyph unicode="&#162;" horiz-adv-x="501" d="M246 -8q-33 5 -61.5 19.5q-28.5 14.5 -50.5 39.5q-22 25 -34.5 61q-12.5 36 -12.5 84q0 70 18 124q18 54 49.5 91.5q31.5 37.5 73.5 59.5q42 22 89 28l14 95h52l-13 -94q52 -4 86.5 -26q34.5 -22 49.5 -45l-13 -85h-73l2 11q1 7 1.5 13.5q0.5 6.5 0.5 12.5q0 39 -19 55q-19 16 -42 20l-58 -415q44 1 75.5 20.5q31.5 19.5 62.5 53.5l27 -32q-27 -33 -70.5 -61.5q-43.5 -28.5 -101.5 -31.5l-13 -94h-52zM311 452q-38 -10 -63.5 -37.5q-25.5 -27.5 -40.5 -64q-15 -36.5 -21.5 -77q-6.5 -40.5 -6.5 -75.5q0 -51 17.5 -92q17.5 -41 57.5 -57z" />
<glyph unicode="&#163;" horiz-adv-x="611" d="M31 50q51 1 83.5 28.5q32.5 27.5 52 68q19.5 40.5 27 87q7.5 46.5 9.5 87.5l-99 0l7 53h90q-3 27 -3 55q0 135 67.5 208.5q67.5 73.5 192.5 73.5q63 0 110.5 -21q47.5 -21 69.5 -52l-14 -103h-81l5 33q1 6 1.5 11q0.5 5 0.5 10q0 42 -28.5 56.5q-28.5 14.5 -73.5 14.5q-56 0 -87 -26.5q-31 -26.5 -45.5 -63.5q-14.5 -37 -18 -77q-3.5 -40 -3.5 -66q0 -28 3 -53l190 0l-7 -53h-181q-2 -81 -36.5 -149.5q-34.5 -68.5 -99.5 -116.5l0 -2h264q15 0 30 3q15 3 27 12q12 9 21 26q9 17 13 45l6 39h54l-25 -178h-529l7 50z" />
<glyph unicode="&#164;" horiz-adv-x="619" d="M175 203q-6 9 -14.5 22q-8.5 13 -15.5 30.5q-7 17.5 -12 39.5q-5 22 -5 48q0 55 16.5 89.5q16.5 34.5 30.5 51.5l-80 80l46 47l80 -81q18 14 53 31q35 17 87 17q28 0 51 -5q23 -5 40.5 -12.5q17.5 -7.5 30 -15.5q12.5 -8 20.5 -15l81 81l45 -47l-80 -80q14 -18 30.5 -52.5q16.5 -34.5 16.5 -88.5q0 -53 -16.5 -87.5q-16.5 -34.5 -30.5 -52.5l80 -80l-45 -47l-80 81q-9 -7 -23 -15q-14 -8 -32 -15.5q-18 -7.5 -40 -12.5q-22 -5 -48 -5q-27 0 -49.5 5q-22.5 5 -39.5 12.5q-17 7.5 -30 15.5q-13 8 -21 15l-80 -81l-46 47zM527 342q0 34 -13 64.5q-13 30.5 -35.5 53q-22.5 22.5 -53 35.5q-30.5 13 -64.5 13q-33 0 -63 -13q-30 -13 -52.5 -35.5q-22.5 -22.5 -35.5 -53q-13 -30.5 -13 -64.5q0 -33 13 -63q13 -30 35.5 -52.5q22.5 -22.5 52.5 -35.5q30 -13 63 -13q34 0 64.5 13q30.5 13 53 35.5q22.5 22.5 35.5 52.5t13 63z" />
<glyph unicode="&#165;" horiz-adv-x="659" d="M249 50q23 0 32.5 14q9.5 14 13.5 43l6 43h-139l7 53h139l8 59h-139l8 53h113l-113 335h-75l7 50h267l-7 -50h-39q-21 0 -28.5 -11q-7.5 -11 -7.5 -27q0 -8 2 -16.5q2 -8.5 4 -16.5l59 -192q3 -11 7.5 -30.5q4.5 -19.5 6.5 -33.5l5 0q8 17 18.5 35q10.5 18 17.5 29l125 199q6 11 11 23q5 12 5 22q0 8 -5.5 13.5q-5.5 5.5 -19.5 5.5h-30l7 50h222l-7 -50h-27q-23 0 -46.5 -19q-23.5 -19 -40.5 -45l-173 -271h114l-8 -53h-140l-8 -59h140l-7 -53h-140l-14 -100h87l-7 -50h-266l7 50z" />
<glyph unicode="&#166;" horiz-adv-x="283" d="M213 207l-59 -417h-84l59 417zM293 780l-58 -417h-84l58 417z" />
<glyph unicode="&#167;" horiz-adv-x="537" d="M77 -100h75l-2 -13q-1 -5 -1 -11q0 -6 0 -11q0 -42 25.5 -58.5q25.5 -16.5 63.5 -16.5q58 0 86.5 31q28.5 31 28.5 75q0 22 -8.5 39q-8.5 17 -22 31.5q-13.5 14.5 -31 27q-17.5 12.5 -36.5 24.5l-76 49q-40 26 -67.5 63q-27.5 37 -27.5 91q0 36 10.5 63q10.5 27 29 49q18.5 22 44.5 41.5q26 19.5 58 40.5q-23 22 -38 52q-15 30 -15 69q0 49 19 82.5q19 33.5 49 54q30 20.5 66.5 29.5q36.5 9 72.5 9q33 0 61 -7q28 -7 50 -17.5q22 -10.5 37.5 -24q15.5 -13.5 23.5 -25.5l-12 -87h-76l2 13q1 5 1.5 10.5q0.5 5.5 0.5 10.5q0 43 -28 59.5q-28 16.5 -67 16.5q-30 0 -51 -11q-21 -11 -35 -27q-14 -16 -20.5 -35q-6.5 -19 -6.5 -35q0 -19 5 -33.5q5 -14.5 16.5 -27.5q11.5 -13 29 -26q17.5 -13 42.5 -28l55 -33q22 -14 44 -31q22 -17 38.5 -38q16.5 -21 27 -46q10.5 -25 10.5 -55q0 -33 -12 -61q-12 -28 -31 -52q-19 -24 -44 -45q-25 -21 -50 -41q27 -26 38 -55q11 -29 11 -66q0 -35 -14 -67q-14 -32 -41 -56q-27 -24 -65.5 -38q-38.5 -14 -87.5 -14q-33 0 -60 7q-27 7 -48 17.5q-21 10.5 -36 24q-15 13.5 -23 25.5zM437 210q0 22 -6.5 39.5q-6.5 17.5 -16 31.5q-9.5 14 -21.5 24.5q-12 10.5 -22 18.5q-20 14 -48.5 31q-28.5 17 -54.5 30q-44 -29 -69 -60.5q-25 -31.5 -25 -81.5q0 -23 7 -40.5q7 -17.5 18 -32q11 -14.5 24 -25.5q13 -11 26 -20q23 -17 52 -35q29 -18 50 -31q25 22 41.5 41q16.5 19 26.5 36.5q10 17.5 14 35t4 38.5z" />
<glyph unicode="&#168;" horiz-adv-x="546" d="M225 627q0 20 15.5 35.5q15.5 15.5 36.5 15.5q20 0 36 -15.5q16 -15.5 16 -35.5q0 -21 -16 -36.5q-16 -15.5 -36 -15.5q-21 0 -36.5 15.5q-15.5 15.5 -15.5 36.5zt0 0zM405 627q0 20 15 35.5q15 15.5 35 15.5q23 0 38.5 -15.5q15.5 -15.5 15.5 -35.5q0 -21 -15.5 -36.5q-15.5 -15.5 -38.5 -15.5q-20 0 -35 15.5t-15 36.5z" />
<glyph unicode="&#169;" horiz-adv-x="862" d="M309 348q0 92 50.5 146.5q50.5 54.5 141.5 54.5q45 0 80.5 -14q35.5 -14 60.5 -37l0 -73h-65v11q0 23 -7 36.5q-7 13.5 -18 20.5q-11 7 -23.5 9q-12.5 2 -22.5 2q-28 0 -47 -13.5q-19 -13.5 -31 -35.5q-12 -22 -17.5 -50q-5.5 -28 -5.5 -57q0 -69 24 -110q24 -41 75 -41q10 0 23 1.5q13 1.5 24 7.5q11 6 18.5 17.5q7.5 11.5 7.5 31.5v10h65v-67q-23 -20 -62 -32.5q-39 -12.5 -81 -12.5q-86 0 -138 47q-52 47 -52 148zt0 0zM125 350q0 75 28.5 141q28.5 66 77 114.5q48.5 48.5 114.5 77q66 28.5 141 28.5q75 0 141 -28.5q66 -28.5 114.5 -77q48.5 -48.5 77 -114.5q28.5 -66 28.5 -141q0 -75 -28.5 -141q-28.5 -66 -77 -114.5q-48.5 -48.5 -114.5 -77q-66 -28.5 -141 -28.5q-75 0 -141 28.5q-66 28.5 -114.5 77q-48.5 48.5 -77 114.5q-28.5 66 -28.5 141zt0 0zM787 349q0 62 -24 117q-24 55 -65 96q-41 41 -96 65q-55 24 -117 24q-62 0 -116.5 -24q-54.5 -24 -95 -65q-40.5 -41 -64.5 -96q-24 -55 -24 -117q0 -62 24 -116.5q24 -54.5 64.5 -95q40.5 -40.5 95 -64.5q54.5 -24 116.5 -24q62 0 117 24q55 24 96 64.5q41 40.5 65 95t24 116.5z" />
<glyph unicode="&#170;" horiz-adv-x="400" d="M105 494q0 48 13 88q13 40 35.5 68.5q22.5 28.5 54 44.5q31.5 16 67.5 16q31 0 50.5 -13q19.5 -13 36.5 -30l1 0l14 36h70q-6 -11 -10.5 -30q-4.5 -19 -6.5 -31l-35 -236h52l-4 -33h-29q-23 0 -50 -1q-27 -1 -48 -6l13 79h-2q-6 -9 -16.5 -22.5q-10.5 -13.5 -25.5 -26q-15 -12.5 -35 -21.5q-20 -9 -45 -9q-51 0 -75.5 36.5q-24.5 36.5 -24.5 90.5zt0 0zM352 630q-9 11 -24 21q-15 10 -41 10q-45 0 -74 -41.5q-29 -41.5 -29 -123.5q0 -12 2.5 -24.5q2.5 -12.5 9.5 -23q7 -10.5 18.5 -17.5q11.5 -7 28.5 -7q21 0 37.5 9.5q16.5 9.5 28.5 23.5q12 14 18.5 29.5q6.5 15.5 8.5 26.5z" />
<glyph unicode="&#171;" horiz-adv-x="472" d="M288 474l45 -34l-130 -178l80 -178l-54 -28l-119 209zM436 455l46 -32l-117 -161l72 -161l-54 -26l-109 190z" />
<glyph unicode="&#172;" horiz-adv-x="737" d="M120 358v69h567v-229h-77l0 160z" />
<glyph unicode="&#173;" horiz-adv-x="465" d="M430 300l-10 -69h-295l10 69z" />
<glyph unicode="&#174;" horiz-adv-x="862" d="M330 203q13 0 17 6q4 6 4 20v270h-42v40h199q13 0 35 -3q22 -3 42.5 -14q20.5 -11 35.5 -34q15 -23 15 -62q0 -40 -23.5 -66.5q-23.5 -26.5 -58.5 -37.5l82 -119h36v-40h-108l-94 146h-33v-106h38v-40h-166v40zM125 350q0 75 28.5 141q28.5 66 77 114.5q48.5 48.5 114.5 77q66 28.5 141 28.5q75 0 141 -28.5q66 -28.5 114.5 -77q48.5 -48.5 77 -114.5q28.5 -66 28.5 -141q0 -75 -28.5 -141q-28.5 -66 -77 -114.5q-48.5 -48.5 -114.5 -77q-66 -28.5 -141 -28.5q-75 0 -141 28.5q-66 28.5 -114.5 77q-48.5 48.5 -77 114.5q-28.5 66 -28.5 141zt0 0zM787 349q0 62 -24 117q-24 55 -65 96q-41 41 -96 65q-55 24 -117 24q-62 0 -116.5 -24q-54.5 -24 -95 -65q-40.5 -41 -64.5 -96q-24 -55 -24 -117q0 -62 24 -116.5q24 -54.5 64.5 -95q40.5 -40.5 95 -64.5q54.5 -24 116.5 -24q62 0 117 24q55 24 96 64.5q41 40.5 65 95q24 54.5 24 116.5zt0 0zM474 351q30 0 51 19q21 19 21 56q0 34 -18.5 52.5q-18.5 18.5 -48.5 18.5h-44l0 -146z" />
<glyph unicode="&#175;" horiz-adv-x="546" d="M502 655l-9 -61h-253l9 61z" />
<glyph unicode="&#176;" horiz-adv-x="339" d="M130 581q0 27 10 51q10 24 27.5 41.5q17.5 17.5 41.5 27.5q24 10 51 10q27 0 50.5 -10q23.5 -10 41 -27.5q17.5 -17.5 27.5 -41.5q10 -24 10 -51q0 -27 -10 -50.5q-10 -23.5 -27.5 -41q-17.5 -17.5 -41 -27.5q-23.5 -10 -50.5 -10q-27 0 -51 10q-24 10 -41.5 27.5q-17.5 17.5 -27.5 41q-10 23.5 -10 50.5zt0 0zM336 581q0 16 -6.5 30q-6.5 14 -17.5 24.5q-11 10.5 -25 16.5q-14 6 -28 6q-15 0 -29 -6.5q-14 -6.5 -24.5 -17q-10.5 -10.5 -16.5 -24.5q-6 -14 -6 -29q0 -31 23 -53.5q23 -22.5 53 -22.5q32 0 54.5 22.5t22.5 53.5z" />
<glyph unicode="&#177;" horiz-adv-x="633" d="M130 390v69h207v168h69v-168h207v-69h-207v-168h-69v168zM613 150v-69h-483l0 69z" />
<glyph unicode="&#178;" horiz-adv-x="428" d="M218 550q42 31 70 55.5q28 24.5 44.5 46q16.5 21.5 23.5 43.5q7 22 7 48q0 10 -2.5 20.5q-2.5 10.5 -9.5 19q-7 8.5 -18 14q-11 5.5 -27 5.5q-28 0 -49 -16q-21 -16 -26 -51l-2 -17h-53l10 74q24 19 63 34q39 15 87 15q32 0 54 -8q22 -8 35.5 -20.5q13.5 -12.5 19.5 -29q6 -16.5 6 -33.5q0 -30 -11.5 -54q-11.5 -24 -34.5 -48q-23 -24 -58.5 -51q-35.5 -27 -84.5 -63l-44 -33v-2h202l-26 -63h-265l8 55z" />
<glyph unicode="&#179;" horiz-adv-x="428" d="M144 545h53l-2 -16q-2 -18 2.5 -30q4.5 -12 14 -19.5q9.5 -7.5 23 -11q13.5 -3.5 28.5 -3.5q42 0 66 26q24 26 24 65q0 31 -18.5 46.5q-18.5 15.5 -53.5 15.5h-31l5 38h30q39 0 62.5 24q23.5 24 23.5 63q0 28 -15 43.5q-15 15.5 -47 15.5q-28 0 -49 -14.5q-21 -14.5 -26 -49.5l-2 -17h-54l11 74q24 19 63.5 32.5q39.5 13.5 81.5 13.5q60 0 92.5 -24.5q32.5 -24.5 32.5 -65.5q0 -22 -9.5 -40.5q-9.5 -18.5 -24.5 -32.5q-15 -14 -33.5 -23.5q-18.5 -9.5 -36.5 -12.5l0 -3q35 -2 60 -24q25 -22 25 -57q0 -30 -13.5 -54q-13.5 -24 -37 -41.5q-23.5 -17.5 -54.5 -27q-31 -9.5 -66 -9.5q-46 0 -81.5 13q-35.5 13 -53.5 32z" />
<glyph unicode="&#180;" horiz-adv-x="546" d="M532 698l-147 -133h-50l94 133z" />
<glyph unicode="&#181;" horiz-adv-x="597" d="M175 447h-76l6 43h35q35 0 70.5 2.5q35.5 2.5 61.5 8.5l-49 -318q-2 -10 -2.5 -22q-0.5 -12 -0.5 -22q0 -35 19.5 -57q19.5 -22 64.5 -22q30 0 56 16q26 16 45 39q19 23 31.5 50q12.5 27 15.5 50l39 275h101q-4 -8 -8 -20q-4 -12 -7.5 -24.5q-3.5 -12.5 -6 -24.5q-2.5 -12 -3.5 -21l-50 -357h76l-6 -43h-35q-35 0 -70 -2.5q-35 -2.5 -61 -8.5l20 126h-2q-17 -38 -38.5 -62.5q-21.5 -24.5 -43.5 -38.5q-22 -14 -42.5 -19.5q-20.5 -5.5 -35.5 -5.5q-26 0 -46.5 7.5q-20.5 7.5 -33.5 19.5l-1 0q-2 -13 -3.5 -33.5q-1.5 -20.5 -5.5 -47.5l-26 -185h-101q4 8 8 20q4 12 7.5 24.5q3.5 12.5 6 24.5q2.5 12 3.5 21z" />
<glyph unicode="&#182;" horiz-adv-x="493" d="M264 409q-37 0 -64 10.5q-27 10.5 -45 28.5q-18 18 -26.5 42q-8.5 24 -8.5 51q0 24 9.5 52q9.5 28 31 52q21.5 24 57.5 39.5q36 15.5 90 15.5h62l-134 -950h-65zM504 700l-134 -950h-65l134 950z" />
<glyph unicode="&#183;" horiz-adv-x="221" d="M95 369q0 13 5.5 25q5.5 12 14.5 21q9 9 20.5 14.5q11.5 5.5 24.5 5.5q27 0 46.5 -20q19.5 -20 19.5 -46q0 -26 -19.5 -45.5q-19.5 -19.5 -46.5 -19.5q-26 0 -45.5 19.5t-19.5 45.5z" />
<glyph unicode="&#184;" horiz-adv-x="472" d="M193 -138q11 -8 24.5 -13.5q13.5 -5.5 31.5 -5.5q23 0 34 13q11 13 11 30q0 32 -52 32h-26l25 82h45l-16 -49q7 1 10 1q3 0 7 0q39 0 57 -16.5q18 -16.5 18 -45.5q0 -38 -31.5 -63.5q-31.5 -25.5 -79.5 -25.5q-27 0 -48 6.5q-21 6.5 -33 17.5z" />
<glyph unicode="&#185;" horiz-adv-x="428" d="M241 472q21 0 24 26l41 290h-93l5 35h23q43 0 84 6q41 6 67 12l-52 -369h50l-5 -36h-183l5 36z" />
<glyph unicode="&#186;" horiz-adv-x="400" d="M110 511q0 47 14 84q14 37 39 63q25 26 59.5 39.5q34.5 13.5 74.5 13.5q68 0 110 -38q42 -38 42 -107q0 -47 -14 -84q-14 -37 -38.5 -62.5q-24.5 -25.5 -57.5 -39q-33 -13.5 -72 -13.5q-72 0 -114.5 37.5q-42.5 37.5 -42.5 106.5zt0 0zM370 567q0 16 -1.5 34.5q-1.5 18.5 -8.5 34.5q-7 16 -22 26.5q-15 10.5 -41 10.5q-35 0 -56.5 -19.5q-21.5 -19.5 -33 -46q-11.5 -26.5 -15 -53.5q-3.5 -27 -3.5 -43q0 -16 2 -34.5q2 -18.5 10 -34.5q8 -16 23.5 -26.5q15.5 -10.5 42.5 -10.5q34 0 54.5 19.5q20.5 19.5 31.5 45.5q11 26 14 53.5t3 43.5z" />
<glyph unicode="&#187;" horiz-adv-x="472" d="M197 268l-72 161l54 26l109 -190l-162 -190l-46 32zM359 268l-80 178l54 28l119 -209l-178 -209l-45 34z" />
<glyph unicode="&#188;" horiz-adv-x="884" d="M638 742l56 -23l-348 -772l-56 23zM512 100l7 48l233 252h62l-33 -239h70l-24 -61h-55l-14 -100h-77l14 100zM730 321h-2l-149 -163v-2h128zM226 342q21 0 24 26l41 290h-93l5 35h23q43 0 84 6q41 6 67 12l-52 -369h50l-5 -36h-183l5 36z" />
<glyph unicode="&#189;" horiz-adv-x="884" d="M638 742l56 -23l-348 -772l-56 23zM645 114q42 31 70 55.5q28 24.5 44.5 46q16.5 21.5 23.5 43.5q7 22 7 48q0 10 -2.5 20.5q-2.5 10.5 -9.5 19q-7 8.5 -18 14q-11 5.5 -27 5.5q-28 0 -49 -16q-21 -16 -26 -51l-2 -17h-53l10 74q24 19 63 34q39 15 87 15q32 0 54 -8q22 -8 35.5 -20.5q13.5 -12.5 19.5 -29q6 -16.5 6 -33.5q0 -30 -11.5 -54q-11.5 -24 -34.5 -48q-23 -24 -58.5 -51q-35.5 -27 -84.5 -63l-44 -33v-2h202l-26 -63h-265l8 55zM226 342q21 0 24 26l41 290h-93l5 35h23q43 0 84 6q41 6 67 12l-52 -369h50l-5 -36h-183l5 36z" />
<glyph unicode="&#190;" horiz-adv-x="884" d="M658 742l56 -23l-348 -772l-56 23zM521 100l7 48l233 252h62l-33 -239h70l-24 -61h-55l-14 -100h-77l14 100zM739 321h-2l-149 -163v-2h128zM144 415h53l-2 -16q-2 -18 2.5 -30q4.5 -12 14 -19.5q9.5 -7.5 23 -11q13.5 -3.5 28.5 -3.5q42 0 66 26q24 26 24 65q0 31 -18.5 46.5q-18.5 15.5 -53.5 15.5h-31l5 38h30q39 0 62.5 24q23.5 24 23.5 63q0 28 -15 43.5q-15 15.5 -47 15.5q-28 0 -49 -14.5q-21 -14.5 -26 -49.5l-2 -17h-54l11 74q24 19 63.5 32.5q39.5 13.5 81.5 13.5q60 0 92.5 -24.5q32.5 -24.5 32.5 -65.5q0 -22 -9.5 -40.5q-9.5 -18.5 -24.5 -32.5q-15 -14 -33.5 -23.5q-18.5 -9.5 -36.5 -12.5l0 -3q35 -2 60 -24q25 -22 25 -57q0 -30 -13.5 -54q-13.5 -24 -37 -41.5q-23.5 -17.5 -54.5 -27q-31 -9.5 -66 -9.5q-46 0 -81.5 13q-35.5 13 -53.5 32z" />
<glyph unicode="&#191;" horiz-adv-x="508" d="M33 -76q0 40 14 70.5q14 30.5 36.5 55.5q22.5 25 50.5 45q28 20 55 38q55 38 86.5 74q31.5 36 38.5 84l50 0q-4 -30 -12 -55.5q-8 -25.5 -21.5 -48.5q-13.5 -23 -33.5 -44.5q-20 -21.5 -50 -44.5q-27 -21 -48.5 -40q-21.5 -19 -35.5 -38.5q-14 -19.5 -21.5 -40.5q-7.5 -21 -7.5 -48q0 -17 5.5 -35q5.5 -18 18.5 -32.5q13 -14.5 34 -24q21 -9.5 52 -9.5q21 0 44.5 5q23.5 5 45 18q21.5 13 38 36.5q16.5 23.5 21.5 61.5l3 21h80l-15 -102q-43 -39 -107 -65q-64 -26 -132 -26q-54 0 -90.5 12.5q-36.5 12.5 -58.5 32.5q-22 20 -31 46.5q-9 26.5 -9 53.5zt0 0zM293 442q0 24 18 41.5q18 17.5 45 17.5q24 0 41 -17.5q17 -17.5 17 -41.5q0 -26 -17 -44q-17 -18 -41 -18q-27 0 -45 18t-18 44z" />
<glyph unicode="&#192;" horiz-adv-x="810" d="M63 50q23 0 45.5 16.5q22.5 16.5 42.5 53.5l309 580h94l163 -650h76l-7 -50h-266l7 50h40q21 0 28.5 13q7.5 13 7.5 27q0 9 -0.5 14q-0.5 5 -2.5 13l-19 83h-318l-42 -82q-5 -10 -9.5 -22.5q-4.5 -12.5 -4.5 -23.5q0 -9 4.5 -15.5q4.5 -6.5 18.5 -6.5h41l-7 -50h-237l7 50zM501 534q-4 14 -10 38.5q-6 24.5 -8 42.5l-5 0q-10 -20 -21 -42.5q-11 -22.5 -19 -36.5l-150 -282h284zM475 923l61 -149h-52l-123 149z" />
<glyph unicode="&#193;" horiz-adv-x="810" d="M63 50q23 0 45.5 16.5q22.5 16.5 42.5 53.5l309 580h94l163 -650h76l-7 -50h-266l7 50h40q21 0 28.5 13q7.5 13 7.5 27q0 9 -0.5 14q-0.5 5 -2.5 13l-19 83h-318l-42 -82q-5 -10 -9.5 -22.5q-4.5 -12.5 -4.5 -23.5q0 -9 4.5 -15.5q4.5 -6.5 18.5 -6.5h41l-7 -50h-237l7 50zM501 534q-4 14 -10 38.5q-6 24.5 -8 42.5l-5 0q-10 -20 -21 -42.5q-11 -22.5 -19 -36.5l-150 -282h284zM705 923l-165 -149h-52l100 149z" />
<glyph unicode="&#194;" horiz-adv-x="810" d="M63 50q23 0 45.5 16.5q22.5 16.5 42.5 53.5l309 580h94l163 -650h76l-7 -50h-266l7 50h40q21 0 28.5 13q7.5 13 7.5 27q0 9 -0.5 14q-0.5 5 -2.5 13l-19 83h-318l-42 -82q-5 -10 -9.5 -22.5q-4.5 -12.5 -4.5 -23.5q0 -9 4.5 -15.5q4.5 -6.5 18.5 -6.5h41l-7 -50h-237l7 50zM501 534q-4 14 -10 38.5q-6 24.5 -8 42.5l-5 0q-10 -20 -21 -42.5q-11 -22.5 -19 -36.5l-150 -282h284zM576 917l101 -140h-67l-83 81l-103 -81h-66l138 140z" />
<glyph unicode="&#195;" horiz-adv-x="810" d="M63 50q23 0 45.5 16.5q22.5 16.5 42.5 53.5l309 580h94l163 -650h76l-7 -50h-266l7 50h40q21 0 28.5 13q7.5 13 7.5 27q0 9 -0.5 14q-0.5 5 -2.5 13l-19 83h-318l-42 -82q-5 -10 -9.5 -22.5q-4.5 -12.5 -4.5 -23.5q0 -9 4.5 -15.5q4.5 -6.5 18.5 -6.5h41l-7 -50h-237l7 50zM501 534q-4 14 -10 38.5q-6 24.5 -8 42.5l-5 0q-10 -20 -21 -42.5q-11 -22.5 -19 -36.5l-150 -282h284zM516 806q-20 8 -34.5 13.5q-14.5 5.5 -31.5 5.5q-14 0 -26.5 -6.5q-12.5 -6.5 -20.5 -29.5l-44 0q6 41 34 70.5q28 29.5 71 29.5q19 0 38 -6q19 -6 39 -14q16 -6 32 -12q16 -6 29 -6q14 0 27 6q13 6 21 29l42 0q-7 -49 -38 -74.5q-31 -25.5 -65 -25.5q-8 0 -14.5 0.5q-6.5 0.5 -14.5 3q-8 2.5 -18.5 6.5t-25.5 10z" />
<glyph unicode="&#196;" horiz-adv-x="810" d="M63 50q23 0 45.5 16.5q22.5 16.5 42.5 53.5l309 580h94l163 -650h76l-7 -50h-266l7 50h40q21 0 28.5 13q7.5 13 7.5 27q0 9 -0.5 14q-0.5 5 -2.5 13l-19 83h-318l-42 -82q-5 -10 -9.5 -22.5q-4.5 -12.5 -4.5 -23.5q0 -9 4.5 -15.5q4.5 -6.5 18.5 -6.5h41l-7 -50h-237l7 50zM501 534q-4 14 -10 38.5q-6 24.5 -8 42.5l-5 0q-10 -20 -21 -42.5q-11 -22.5 -19 -36.5l-150 -282h284zM361 847q0 23 16.5 39.5q16.5 16.5 39.5 16.5q23 0 39.5 -16.5q16.5 -16.5 16.5 -39.5q0 -23 -16.5 -39.5q-16.5 -16.5 -39.5 -16.5q-23 0 -39.5 16.5q-16.5 16.5 -16.5 39.5zt0 0zM584 847q0 23 17 39.5q17 16.5 37 16.5q24 0 41 -16.5q17 -16.5 17 -39.5q0 -23 -17 -39.5q-17 -16.5 -41 -16.5q-20 0 -37 16.5t-17 39.5z" />
<glyph unicode="&#197;" horiz-adv-x="810" d="M63 50q23 0 45.5 16.5q22.5 16.5 42.5 53.5l309 580h94l163 -650h76l-7 -50h-266l7 50h40q21 0 28.5 13q7.5 13 7.5 27q0 9 -0.5 14q-0.5 5 -2.5 13l-19 83h-318l-42 -82q-5 -10 -9.5 -22.5q-4.5 -12.5 -4.5 -23.5q0 -9 4.5 -15.5q4.5 -6.5 18.5 -6.5h41l-7 -50h-237l7 50zM501 534q-4 14 -10 38.5q-6 24.5 -8 42.5l-5 0q-10 -20 -21 -42.5q-11 -22.5 -19 -36.5l-150 -282h284zM416 858q0 21 8 40q8 19 21.5 33q13.5 14 32 22q18.5 8 39.5 8q22 0 41 -8q19 -8 32.5 -22q13.5 -14 21.5 -33q8 -19 8 -40q0 -43 -29 -72.5q-29 -29.5 -74 -29.5q-21 0 -39.5 8q-18.5 8 -32 21.5q-13.5 13.5 -21.5 32.5q-8 19 -8 40zt0 0zM569 859q0 19 -15 34q-15 15 -37 15q-18 0 -32.5 -15q-14.5 -15 -14.5 -34q0 -21 14.5 -35q14.5 -14 32.5 -14q22 0 37 14t15 35z" />
<glyph unicode="&#198;" horiz-adv-x="1015" d="M63 50q23 0 47.5 18.5q24.5 18.5 50.5 51.5l400 530h-83l7 50h570l-24 -177h-54l4 28q1 7 1.5 13q0.5 6 0.5 11q0 42 -20.5 57q-20.5 15 -50.5 15h-198l-37 -265h170l11 80h54l-30 -213h-54l11 80h-170l-39 -276h211q15 0 29.5 4.5q14.5 4.5 27.5 15.5q13 11 22 29.5q9 18.5 13 46.5l5 35h54l-26 -184h-519l7 50h45q23 0 32 14q9 14 14 43l13 93h-266l-61 -82q-2 -3 -6 -8.5q-4 -5.5 -8 -13q-4 -7.5 -7 -15.5q-3 -8 -3 -15q0 -16 20 -16h44l-7 -50h-237l7 50zM618 626h-6q-14 -19 -30 -41q-16 -22 -27 -36l-226 -295l236 0z" />
<glyph unicode="&#199;" horiz-adv-x="649" d="M93 281q0 93 25.5 172q25.5 79 72.5 136q47 57 115 89.5q68 32.5 153 32.5q69 0 129 -22q60 -22 96 -67l-15 -113h-83l2 14q1 8 1.5 14.5q0.5 6.5 0.5 12.5q0 36 -13.5 57.5q-13.5 21.5 -34.5 33q-21 11.5 -45 15.5q-24 4 -45 4q-63 0 -111.5 -35q-48.5 -35 -81.5 -89.5q-33 -54.5 -50 -120.5q-17 -66 -17 -129q0 -50 11 -95q11 -45 34 -78.5q23 -33.5 59 -53q36 -19.5 86 -19.5q18 0 43.5 3.5q25.5 3.5 49 15.5q23.5 12 41.5 35.5q18 23.5 23 62.5l2 17h83l-15 -106q-48 -38 -109.5 -58.5q-61.5 -20.5 -122.5 -20.5q-61 0 -113 17q-52 17 -90 53q-38 36 -59.5 91q-21.5 55 -21.5 131zt0 0zM276 -159q13 -10 27.5 -16q14.5 -6 37.5 -6q24 0 37.5 12.5q13.5 12.5 13.5 34.5q0 40 -59 40h-30l27 94h55l-17 -56q7 1 10.5 1q3.5 0 8.5 0q45 0 64 -20q19 -20 19 -49q0 -24 -10 -43.5q-10 -19.5 -27.5 -33q-17.5 -13.5 -41 -21q-23.5 -7.5 -50.5 -7.5q-29 0 -54 8.5q-25 8.5 -39 19.5z" />
<glyph unicode="&#200;" horiz-adv-x="605" d="M89 50q23 0 32.5 14q9.5 14 13.5 43l76 543h-83l7 50h510l-24 -177h-54l4 28q1 7 1.5 13q0.5 6 0.5 12q0 41 -20.5 56q-20.5 15 -49.5 15h-199l-37 -265h170l11 80h54l-30 -213h-54l11 80h-170l-39 -276h210q15 0 30 4.5q15 4.5 27.5 15.5q12.5 11 22 29.5q9.5 18.5 13.5 46.5l5 35h54l-26 -184h-519l7 50zM382 923l61 -149h-52l-123 149z" />
<glyph unicode="&#201;" horiz-adv-x="605" d="M89 50q23 0 32.5 14q9.5 14 13.5 43l76 543h-83l7 50h510l-24 -177h-54l4 28q1 7 1.5 13q0.5 6 0.5 12q0 41 -20.5 56q-20.5 15 -49.5 15h-199l-37 -265h170l11 80h54l-30 -213h-54l11 80h-170l-39 -276h210q15 0 30 4.5q15 4.5 27.5 15.5q12.5 11 22 29.5q9.5 18.5 13.5 46.5l5 35h54l-26 -184h-519l7 50zM603 923l-165 -149h-52l100 149z" />
<glyph unicode="&#202;" horiz-adv-x="605" d="M89 50q23 0 32.5 14q9.5 14 13.5 43l76 543h-83l7 50h510l-24 -177h-54l4 28q1 7 1.5 13q0.5 6 0.5 12q0 41 -20.5 56q-20.5 15 -49.5 15h-199l-37 -265h170l11 80h54l-30 -213h-54l11 80h-170l-39 -276h210q15 0 30 4.5q15 4.5 27.5 15.5q12.5 11 22 29.5q9.5 18.5 13.5 46.5l5 35h54l-26 -184h-519l7 50zM464 917l101 -140h-67l-83 81l-103 -81h-66l138 140z" />
<glyph unicode="&#203;" horiz-adv-x="605" d="M89 50q23 0 32.5 14q9.5 14 13.5 43l76 543h-83l7 50h510l-24 -177h-54l4 28q1 7 1.5 13q0.5 6 0.5 12q0 41 -20.5 56q-20.5 15 -49.5 15h-199l-37 -265h170l11 80h54l-30 -213h-54l11 80h-170l-39 -276h210q15 0 30 4.5q15 4.5 27.5 15.5q12.5 11 22 29.5q9.5 18.5 13.5 46.5l5 35h54l-26 -184h-519l7 50zM250 847q0 23 16.5 39.5q16.5 16.5 39.5 16.5q23 0 39.5 -16.5q16.5 -16.5 16.5 -39.5q0 -23 -16.5 -39.5q-16.5 -16.5 -39.5 -16.5q-23 0 -39.5 16.5q-16.5 16.5 -16.5 39.5zt0 0zM473 847q0 23 17 39.5q17 16.5 37 16.5q24 0 41 -16.5q17 -16.5 17 -39.5q0 -23 -17 -39.5q-17 -16.5 -41 -16.5q-20 0 -37 16.5t-17 39.5z" />
<glyph unicode="&#204;" horiz-adv-x="339" d="M94 50q23 0 32.5 14q9.5 14 13.5 43l76 543h-88l7 50h269l-7 -50h-50q-23 0 -32.5 -14q-9.5 -14 -13.5 -43l-76 -543h88l-7 -50h-269l7 50zM243 923l61 -149h-52l-123 149z" />
<glyph unicode="&#205;" horiz-adv-x="339" d="M94 50q23 0 32.5 14q9.5 14 13.5 43l76 543h-88l7 50h269l-7 -50h-50q-23 0 -32.5 -14q-9.5 -14 -13.5 -43l-76 -543h88l-7 -50h-269l7 50zM470 923l-165 -149h-52l100 149z" />
<glyph unicode="&#206;" horiz-adv-x="339" d="M94 50q23 0 32.5 14q9.5 14 13.5 43l76 543h-88l7 50h269l-7 -50h-50q-23 0 -32.5 -14q-9.5 -14 -13.5 -43l-76 -543h88l-7 -50h-269l7 50zM325 917l101 -140h-67l-83 81l-103 -81h-66l138 140z" />
<glyph unicode="&#207;" horiz-adv-x="339" d="M94 50q23 0 32.5 14q9.5 14 13.5 43l76 543h-88l7 50h269l-7 -50h-50q-23 0 -32.5 -14q-9.5 -14 -13.5 -43l-76 -543h88l-7 -50h-269l7 50zM106 847q0 23 16.5 39.5q16.5 16.5 39.5 16.5q23 0 39.5 -16.5q16.5 -16.5 16.5 -39.5q0 -23 -16.5 -39.5q-16.5 -16.5 -39.5 -16.5q-23 0 -39.5 16.5q-16.5 16.5 -16.5 39.5zt0 0zM329 847q0 23 17 39.5q17 16.5 37 16.5q24 0 41 -16.5q17 -16.5 17 -39.5q0 -23 -17 -39.5q-17 -16.5 -41 -16.5q-20 0 -37 16.5t-17 39.5z" />
<glyph unicode="&#208;" horiz-adv-x="719" d="M89 50q23 0 32.5 14q9.5 14 13.5 43l32 232h-98l8 54h98l36 257h-83l7 50h283q71 0 128 -14.5q57 -14.5 96.5 -47q39.5 -32.5 60.5 -86q21 -53.5 21 -131.5q0 -105 -34.5 -184q-34.5 -79 -91 -131.5q-56.5 -52.5 -129.5 -79q-73 -26.5 -150 -26.5h-282l7 50zM326 53q46 0 99 20.5q53 20.5 97 64.5q44 44 73.5 112.5q29.5 68.5 29.5 165.5q0 61 -15 105q-15 44 -42.5 72q-27.5 28 -66.5 41q-39 13 -87 13h-110l-36 -254h174l-8 -54h-174l-40 -286z" />
<glyph unicode="&#209;" horiz-adv-x="779" d="M81 50q29 0 40 16.5q11 16.5 15 45.5l76 538h-84l7 50h176l259 -491q5 -10 11 -23q6 -13 12 -26.5q6 -13.5 11.5 -26.5q5.5 -13 9.5 -23l4 0q1 11 2.5 25.5q1.5 14.5 2.5 28.5q1 14 2.5 27q1.5 13 2.5 22l53 375q1 6 1.5 12q0.5 6 0.5 11q0 18 -7 28.5q-7 10.5 -25 10.5h-45l7 50h231l-7 -50h-39q-28 0 -38 -16.5q-10 -16.5 -14 -45.5l-83 -588h-84l-270 512q-13 24 -23 48q-10 24 -18 41l-4 0q-1 -10 -2 -25q-1 -15 -2.5 -31q-1.5 -16 -3 -30.5q-1.5 -14.5 -2.5 -24.5l-53 -378q-1 -7 -1.5 -13q-0.5 -6 -0.5 -11q0 -18 7 -28q7 -10 25 -10h45l-7 -50h-232l7 50zM500 806q-20 8 -34.5 13.5q-14.5 5.5 -31.5 5.5q-14 0 -26.5 -6.5q-12.5 -6.5 -20.5 -29.5l-44 0q6 41 34 70.5q28 29.5 71 29.5q19 0 38 -6q19 -6 39 -14q16 -6 32 -12q16 -6 29 -6q14 0 27 6q13 6 21 29l42 0q-7 -49 -38 -74.5q-31 -25.5 -65 -25.5q-8 0 -14.5 0.5q-6.5 0.5 -14.5 3q-8 2.5 -18.5 6.5t-25.5 10z" />
<glyph unicode="&#210;" horiz-adv-x="738" d="M93 294q0 90 25 166.5q25 76.5 71.5 132q46.5 55.5 113.5 87q67 31.5 151 31.5q67 0 120.5 -22q53.5 -22 91 -61.5q37.5 -39.5 57.5 -96q20 -56.5 20 -125.5q0 -90 -25 -166.5q-25 -76.5 -71.5 -132q-46.5 -55.5 -113.5 -87q-67 -31.5 -151 -31.5q-67 0 -120.5 22q-53.5 22 -91 61.5q-37.5 39.5 -57.5 96q-20 56.5 -20 125.5zt0 0zM644 406q0 41 -9 86q-9 45 -31.5 82.5q-22.5 37.5 -60 61.5q-37.5 24 -94.5 24q-50 0 -89 -18.5q-39 -18.5 -67.5 -48.5q-28.5 -30 -48 -68.5q-19.5 -38.5 -31 -79.5q-11.5 -41 -16.5 -80.5q-5 -39.5 -5 -70.5q0 -41 9 -86q9 -45 31.5 -82.5q22.5 -37.5 60 -61.5q37.5 -24 93.5 -24q51 0 89.5 18.5q38.5 18.5 67.5 48.5q29 30 48 68.5q19 38.5 31 79.5q12 41 17 80q5 39 5 71zt0 0zM439 923l61 -149h-52l-123 149z" />
<glyph unicode="&#211;" horiz-adv-x="738" d="M93 294q0 90 25 166.5q25 76.5 71.5 132q46.5 55.5 113.5 87q67 31.5 151 31.5q67 0 120.5 -22q53.5 -22 91 -61.5q37.5 -39.5 57.5 -96q20 -56.5 20 -125.5q0 -90 -25 -166.5q-25 -76.5 -71.5 -132q-46.5 -55.5 -113.5 -87q-67 -31.5 -151 -31.5q-67 0 -120.5 22q-53.5 22 -91 61.5q-37.5 39.5 -57.5 96q-20 56.5 -20 125.5zt0 0zM644 406q0 41 -9 86q-9 45 -31.5 82.5q-22.5 37.5 -60 61.5q-37.5 24 -94.5 24q-50 0 -89 -18.5q-39 -18.5 -67.5 -48.5q-28.5 -30 -48 -68.5q-19.5 -38.5 -31 -79.5q-11.5 -41 -16.5 -80.5q-5 -39.5 -5 -70.5q0 -41 9 -86q9 -45 31.5 -82.5q22.5 -37.5 60 -61.5q37.5 -24 93.5 -24q51 0 89.5 18.5q38.5 18.5 67.5 48.5q29 30 48 68.5q19 38.5 31 79.5q12 41 17 80q5 39 5 71zt0 0zM669 923l-165 -149h-52l100 149z" />
<glyph unicode="&#212;" horiz-adv-x="738" d="M93 294q0 90 25 166.5q25 76.5 71.5 132q46.5 55.5 113.5 87q67 31.5 151 31.5q67 0 120.5 -22q53.5 -22 91 -61.5q37.5 -39.5 57.5 -96q20 -56.5 20 -125.5q0 -90 -25 -166.5q-25 -76.5 -71.5 -132q-46.5 -55.5 -113.5 -87q-67 -31.5 -151 -31.5q-67 0 -120.5 22q-53.5 22 -91 61.5q-37.5 39.5 -57.5 96q-20 56.5 -20 125.5zt0 0zM644 406q0 41 -9 86q-9 45 -31.5 82.5q-22.5 37.5 -60 61.5q-37.5 24 -94.5 24q-50 0 -89 -18.5q-39 -18.5 -67.5 -48.5q-28.5 -30 -48 -68.5q-19.5 -38.5 -31 -79.5q-11.5 -41 -16.5 -80.5q-5 -39.5 -5 -70.5q0 -41 9 -86q9 -45 31.5 -82.5q22.5 -37.5 60 -61.5q37.5 -24 93.5 -24q51 0 89.5 18.5q38.5 18.5 67.5 48.5q29 30 48 68.5q19 38.5 31 79.5q12 41 17 80q5 39 5 71zt0 0zM540 917l101 -140h-67l-83 81l-103 -81h-66l138 140z" />
<glyph unicode="&#213;" horiz-adv-x="738" d="M93 294q0 90 25 166.5q25 76.5 71.5 132q46.5 55.5 113.5 87q67 31.5 151 31.5q67 0 120.5 -22q53.5 -22 91 -61.5q37.5 -39.5 57.5 -96q20 -56.5 20 -125.5q0 -90 -25 -166.5q-25 -76.5 -71.5 -132q-46.5 -55.5 -113.5 -87q-67 -31.5 -151 -31.5q-67 0 -120.5 22q-53.5 22 -91 61.5q-37.5 39.5 -57.5 96q-20 56.5 -20 125.5zt0 0zM644 406q0 41 -9 86q-9 45 -31.5 82.5q-22.5 37.5 -60 61.5q-37.5 24 -94.5 24q-50 0 -89 -18.5q-39 -18.5 -67.5 -48.5q-28.5 -30 -48 -68.5q-19.5 -38.5 -31 -79.5q-11.5 -41 -16.5 -80.5q-5 -39.5 -5 -70.5q0 -41 9 -86q9 -45 31.5 -82.5q22.5 -37.5 60 -61.5q37.5 -24 93.5 -24q51 0 89.5 18.5q38.5 18.5 67.5 48.5q29 30 48 68.5q19 38.5 31 79.5q12 41 17 80q5 39 5 71zt0 0zM480 806q-20 8 -34.5 13.5q-14.5 5.5 -31.5 5.5q-14 0 -26.5 -6.5q-12.5 -6.5 -20.5 -29.5l-44 0q6 41 34 70.5q28 29.5 71 29.5q19 0 38 -6q19 -6 39 -14q16 -6 32 -12q16 -6 29 -6q14 0 27 6q13 6 21 29l42 0q-7 -49 -38 -74.5q-31 -25.5 -65 -25.5q-8 0 -14.5 0.5q-6.5 0.5 -14.5 3q-8 2.5 -18.5 6.5t-25.5 10z" />
<glyph unicode="&#214;" horiz-adv-x="738" d="M93 294q0 90 25 166.5q25 76.5 71.5 132q46.5 55.5 113.5 87q67 31.5 151 31.5q67 0 120.5 -22q53.5 -22 91 -61.5q37.5 -39.5 57.5 -96q20 -56.5 20 -125.5q0 -90 -25 -166.5q-25 -76.5 -71.5 -132q-46.5 -55.5 -113.5 -87q-67 -31.5 -151 -31.5q-67 0 -120.5 22q-53.5 22 -91 61.5q-37.5 39.5 -57.5 96q-20 56.5 -20 125.5zt0 0zM644 406q0 41 -9 86q-9 45 -31.5 82.5q-22.5 37.5 -60 61.5q-37.5 24 -94.5 24q-50 0 -89 -18.5q-39 -18.5 -67.5 -48.5q-28.5 -30 -48 -68.5q-19.5 -38.5 -31 -79.5q-11.5 -41 -16.5 -80.5q-5 -39.5 -5 -70.5q0 -41 9 -86q9 -45 31.5 -82.5q22.5 -37.5 60 -61.5q37.5 -24 93.5 -24q51 0 89.5 18.5q38.5 18.5 67.5 48.5q29 30 48 68.5q19 38.5 31 79.5q12 41 17 80q5 39 5 71zt0 0zM325 847q0 23 16.5 39.5q16.5 16.5 39.5 16.5q23 0 39.5 -16.5q16.5 -16.5 16.5 -39.5q0 -23 -16.5 -39.5q-16.5 -16.5 -39.5 -16.5q-23 0 -39.5 16.5q-16.5 16.5 -16.5 39.5zt0 0zM548 847q0 23 17 39.5q17 16.5 37 16.5q24 0 41 -16.5q17 -16.5 17 -39.5q0 -23 -17 -39.5q-17 -16.5 -41 -16.5q-20 0 -37 16.5t-17 39.5z" />
<glyph unicode="&#215;" horiz-adv-x="574" d="M199 157l-48 48l150 150l-156 156l48 48l156 -156l157 156l48 -48l-157 -156l157 -157l-48 -48l-157 157z" />
<glyph unicode="&#216;" horiz-adv-x="738" d="M91 -25l78 99q-37 40 -56.5 95.5q-19.5 55.5 -19.5 124.5q0 90 25 166.5q25 76.5 71.5 132q46.5 55.5 113.5 87q67 31.5 151 31.5q53 0 96.5 -13.5q43.5 -13.5 78.5 -38.5l75 95l40 -28l-78 -99q37 -40 57 -96q20 -56 20 -125q0 -90 -25 -166.5q-25 -76.5 -71.5 -132q-46.5 -55.5 -113.5 -87q-67 -31.5 -151 -31.5q-54 0 -98 13.5q-44 13.5 -79 39.5l-75 -96zM584 601q-23 27 -56 43q-33 16 -79 16q-50 0 -89 -18.5q-39 -18.5 -67.5 -48.5q-28.5 -30 -48 -68.5q-19.5 -38.5 -31 -79.5q-11.5 -41 -16.5 -80.5q-5 -39.5 -5 -70.5q0 -37 7 -76.5q7 -39.5 24 -74.5zM644 406q0 37 -7.5 77q-7.5 40 -24.5 75l-361 -458q23 -27 55.5 -43.5q32.5 -16.5 79.5 -16.5q51 0 89.5 18.5q38.5 18.5 67.5 48.5q29 30 48 68.5q19 38.5 31 79.5q12 41 17 80t5 71z" />
<glyph unicode="&#217;" horiz-adv-x="754" d="M145 191q0 12 1 24q1 12 3 26l57 409h-83l7 50h255l-7 -50h-40q-23 0 -33 -14q-10 -14 -14 -43l-49 -352q-2 -13 -3 -24.5q-1 -11.5 -1 -22.5q0 -32 8 -59q8 -27 26 -46.5q18 -19.5 47.5 -30q29.5 -10.5 71.5 -10.5q49 0 87.5 15q38.5 15 66 41.5q27.5 26.5 43.5 61.5q16 35 22 75l50 347q1 8 1.5 14.5q0.5 6.5 0.5 11.5q0 19 -7.5 27.5q-7.5 8.5 -27.5 8.5h-41l7 50h231l-7 -50h-39q-28 0 -39 -16.5q-11 -16.5 -15 -45.5l-48 -347q-9 -61 -33.5 -108q-24.5 -47 -62 -79q-37.5 -32 -87.5 -48.5q-50 -16.5 -109 -16.5q-110 0 -174.5 50.5q-64.5 50.5 -64.5 151.5zt0 0zM447 923l61 -149h-52l-123 149z" />
<glyph unicode="&#218;" horiz-adv-x="754" d="M145 191q0 12 1 24q1 12 3 26l57 409h-83l7 50h255l-7 -50h-40q-23 0 -33 -14q-10 -14 -14 -43l-49 -352q-2 -13 -3 -24.5q-1 -11.5 -1 -22.5q0 -32 8 -59q8 -27 26 -46.5q18 -19.5 47.5 -30q29.5 -10.5 71.5 -10.5q49 0 87.5 15q38.5 15 66 41.5q27.5 26.5 43.5 61.5q16 35 22 75l50 347q1 8 1.5 14.5q0.5 6.5 0.5 11.5q0 19 -7.5 27.5q-7.5 8.5 -27.5 8.5h-41l7 50h231l-7 -50h-39q-28 0 -39 -16.5q-11 -16.5 -15 -45.5l-48 -347q-9 -61 -33.5 -108q-24.5 -47 -62 -79q-37.5 -32 -87.5 -48.5q-50 -16.5 -109 -16.5q-110 0 -174.5 50.5q-64.5 50.5 -64.5 151.5zt0 0zM677 923l-165 -149h-52l100 149z" />
<glyph unicode="&#219;" horiz-adv-x="754" d="M145 191q0 12 1 24q1 12 3 26l57 409h-83l7 50h255l-7 -50h-40q-23 0 -33 -14q-10 -14 -14 -43l-49 -352q-2 -13 -3 -24.5q-1 -11.5 -1 -22.5q0 -32 8 -59q8 -27 26 -46.5q18 -19.5 47.5 -30q29.5 -10.5 71.5 -10.5q49 0 87.5 15q38.5 15 66 41.5q27.5 26.5 43.5 61.5q16 35 22 75l50 347q1 8 1.5 14.5q0.5 6.5 0.5 11.5q0 19 -7.5 27.5q-7.5 8.5 -27.5 8.5h-41l7 50h231l-7 -50h-39q-28 0 -39 -16.5q-11 -16.5 -15 -45.5l-48 -347q-9 -61 -33.5 -108q-24.5 -47 -62 -79q-37.5 -32 -87.5 -48.5q-50 -16.5 -109 -16.5q-110 0 -174.5 50.5q-64.5 50.5 -64.5 151.5zt0 0zM548 917l101 -140h-67l-83 81l-103 -81h-66l138 140z" />
<glyph unicode="&#220;" horiz-adv-x="754" d="M145 191q0 12 1 24q1 12 3 26l57 409h-83l7 50h255l-7 -50h-40q-23 0 -33 -14q-10 -14 -14 -43l-49 -352q-2 -13 -3 -24.5q-1 -11.5 -1 -22.5q0 -32 8 -59q8 -27 26 -46.5q18 -19.5 47.5 -30q29.5 -10.5 71.5 -10.5q49 0 87.5 15q38.5 15 66 41.5q27.5 26.5 43.5 61.5q16 35 22 75l50 347q1 8 1.5 14.5q0.5 6.5 0.5 11.5q0 19 -7.5 27.5q-7.5 8.5 -27.5 8.5h-41l7 50h231l-7 -50h-39q-28 0 -39 -16.5q-11 -16.5 -15 -45.5l-48 -347q-9 -61 -33.5 -108q-24.5 -47 -62 -79q-37.5 -32 -87.5 -48.5q-50 -16.5 -109 -16.5q-110 0 -174.5 50.5q-64.5 50.5 -64.5 151.5zt0 0zM333 847q0 23 16.5 39.5q16.5 16.5 39.5 16.5q23 0 39.5 -16.5q16.5 -16.5 16.5 -39.5q0 -23 -16.5 -39.5q-16.5 -16.5 -39.5 -16.5q-23 0 -39.5 16.5q-16.5 16.5 -16.5 39.5zt0 0zM556 847q0 23 17 39.5q17 16.5 37 16.5q24 0 41 -16.5q17 -16.5 17 -39.5q0 -23 -17 -39.5q-17 -16.5 -41 -16.5q-20 0 -37 16.5t-17 39.5z" />
<glyph unicode="&#221;" horiz-adv-x="708" d="M274 50q23 0 32.5 14q9.5 14 13.5 43l19 135l-148 408h-75l7 50h267l-7 -50h-39q-21 0 -29 -11.5q-8 -11.5 -8 -26.5q0 -18 6 -33l74 -212q5 -14 8.5 -31q3.5 -17 7.5 -34l5 0q10 18 19 34q9 16 19 31l145 219q7 10 12.5 22q5.5 12 5.5 22q0 8 -6 14q-6 6 -20 6h-31l7 50h223l-7 -50h-16q-32 0 -57 -19q-25 -19 -42 -45l-228 -344l-27 -192h87l-7 -50h-266l7 50zM654 923l-165 -149h-52l100 149z" />
<glyph unicode="&#222;" horiz-adv-x="607" d="M89 50q23 0 32.5 14q9.5 14 13.5 43l77 553h-83l7 50h255l-7 -50h-45q-16 0 -27 -14q-11 -14 -15 -43l-4 -28h125q37 0 76 -7q39 -7 71 -26.5q32 -19.5 52 -54q20 -34.5 20 -89.5q0 -60 -23 -106q-23 -46 -62.5 -77q-39.5 -31 -91.5 -47q-52 -16 -109 -16h-117l-14 -102h98l-7 -50h-274l7 50zM359 206q21 0 51.5 9q30.5 9 59 31q28.5 22 48.5 58q20 36 20 90q0 38 -13 62.5q-13 24.5 -32 39q-19 14.5 -41.5 20.5q-22.5 6 -40.5 6h-126l-44 -316z" />
<glyph unicode="&#223;" horiz-adv-x="592" d="M287 44q10 -4 26.5 -6q16.5 -2 31.5 -2q19 0 46.5 9.5q27.5 9.5 52.5 33q25 23.5 43 62.5q18 39 18 99q0 32 -9.5 56q-9.5 24 -25 39.5q-15.5 15.5 -36.5 23q-21 7.5 -44 7.5h-56l7 48h53q16 0 37.5 8.5q21.5 8.5 40.5 28q19 19.5 32.5 51q13.5 31.5 13.5 78.5q0 51 -26 83.5q-26 32.5 -74 32.5q-40 0 -66 -13.5q-26 -13.5 -42.5 -35q-16.5 -21.5 -24.5 -47.5q-8 -26 -11 -51l-77 -549h-101q4 8 8 20q4 12 7.5 24.5q3.5 12.5 6 24.5q2.5 12 3.5 21l61 438q5 37 19.5 75q14.5 38 42.5 68.5q28 30.5 72 49.5q44 19 107 19q36 0 70 -8.5q34 -8.5 60 -27.5q26 -19 41.5 -49.5q15.5 -30.5 15.5 -74.5q0 -37 -11.5 -66.5q-11.5 -29.5 -30 -52q-18.5 -22.5 -43 -38q-24.5 -15.5 -49.5 -24.5l0 -3q55 -9 88 -49.5q33 -40.5 33 -101.5q0 -73 -26.5 -122q-26.5 -49 -64.5 -79q-38 -30 -81.5 -42.5q-43.5 -12.5 -77.5 -12.5q-16 0 -38.5 3q-22.5 3 -38.5 11z" />
<glyph unicode="&#224;" horiz-adv-x="579" d="M83 178q0 71 19 130.5q19 59.5 52.5 102q33.5 42.5 80 66.5q46.5 24 100.5 24q48 0 80 -19.5q32 -19.5 56 -45.5l2 0l21 54h81q-4 -8 -8 -20q-4 -12 -7.5 -24.5q-3.5 -12.5 -6 -24.5q-2.5 -12 -3.5 -21l-51 -357h76l-6 -43h-35q-33 0 -66 -2q-33 -2 -65 -9l19 120h-2q-10 -14 -26.5 -34.5q-16.5 -20.5 -40 -39.5q-23.5 -19 -54 -32.5q-30.5 -13.5 -68.5 -13.5q-38 0 -65.5 14.5q-27.5 14.5 -46 40q-18.5 25.5 -27.5 60q-9 34.5 -9 74.5zt0 0zM460 386q-16 18 -43 35.5q-27 17.5 -70 17.5q-38 0 -69.5 -16.5q-31.5 -16.5 -54 -49q-22.5 -32.5 -35.5 -81q-13 -48.5 -13 -112.5q0 -20 4 -41q4 -21 15 -38.5q11 -17.5 30 -29q19 -11.5 48 -11.5q35 0 64 15.5q29 15.5 50 38q21 22.5 33 47.5q12 25 15 44zM347 698l59 -133h-50l-110 133z" />
<glyph unicode="&#225;" horiz-adv-x="579" d="M83 178q0 71 19 130.5q19 59.5 52.5 102q33.5 42.5 80 66.5q46.5 24 100.5 24q48 0 80 -19.5q32 -19.5 56 -45.5l2 0l21 54h81q-4 -8 -8 -20q-4 -12 -7.5 -24.5q-3.5 -12.5 -6 -24.5q-2.5 -12 -3.5 -21l-51 -357h76l-6 -43h-35q-33 0 -66 -2q-33 -2 -65 -9l19 120h-2q-10 -14 -26.5 -34.5q-16.5 -20.5 -40 -39.5q-23.5 -19 -54 -32.5q-30.5 -13.5 -68.5 -13.5q-38 0 -65.5 14.5q-27.5 14.5 -46 40q-18.5 25.5 -27.5 60q-9 34.5 -9 74.5zt0 0zM460 386q-16 18 -43 35.5q-27 17.5 -70 17.5q-38 0 -69.5 -16.5q-31.5 -16.5 -54 -49q-22.5 -32.5 -35.5 -81q-13 -48.5 -13 -112.5q0 -20 4 -41q4 -21 15 -38.5q11 -17.5 30 -29q19 -11.5 48 -11.5q35 0 64 15.5q29 15.5 50 38q21 22.5 33 47.5q12 25 15 44zM548 698l-147 -133h-50l94 133z" />
<glyph unicode="&#226;" horiz-adv-x="579" d="M83 178q0 71 19 130.5q19 59.5 52.5 102q33.5 42.5 80 66.5q46.5 24 100.5 24q48 0 80 -19.5q32 -19.5 56 -45.5l2 0l21 54h81q-4 -8 -8 -20q-4 -12 -7.5 -24.5q-3.5 -12.5 -6 -24.5q-2.5 -12 -3.5 -21l-51 -357h76l-6 -43h-35q-33 0 -66 -2q-33 -2 -65 -9l19 120h-2q-10 -14 -26.5 -34.5q-16.5 -20.5 -40 -39.5q-23.5 -19 -54 -32.5q-30.5 -13.5 -68.5 -13.5q-38 0 -65.5 14.5q-27.5 14.5 -46 40q-18.5 25.5 -27.5 60q-9 34.5 -9 74.5zt0 0zM460 386q-16 18 -43 35.5q-27 17.5 -70 17.5q-38 0 -69.5 -16.5q-31.5 -16.5 -54 -49q-22.5 -32.5 -35.5 -81q-13 -48.5 -13 -112.5q0 -20 4 -41q4 -21 15 -38.5q11 -17.5 30 -29q19 -11.5 48 -11.5q35 0 64 15.5q29 15.5 50 38q21 22.5 33 47.5q12 25 15 44zM428 686l88 -121h-62l-70 67l-89 -67h-62l122 121z" />
<glyph unicode="&#227;" horiz-adv-x="579" d="M83 178q0 71 19 130.5q19 59.5 52.5 102q33.5 42.5 80 66.5q46.5 24 100.5 24q48 0 80 -19.5q32 -19.5 56 -45.5l2 0l21 54h81q-4 -8 -8 -20q-4 -12 -7.5 -24.5q-3.5 -12.5 -6 -24.5q-2.5 -12 -3.5 -21l-51 -357h76l-6 -43h-35q-33 0 -66 -2q-33 -2 -65 -9l19 120h-2q-10 -14 -26.5 -34.5q-16.5 -20.5 -40 -39.5q-23.5 -19 -54 -32.5q-30.5 -13.5 -68.5 -13.5q-38 0 -65.5 14.5q-27.5 14.5 -46 40q-18.5 25.5 -27.5 60q-9 34.5 -9 74.5zt0 0zM460 386q-16 18 -43 35.5q-27 17.5 -70 17.5q-38 0 -69.5 -16.5q-31.5 -16.5 -54 -49q-22.5 -32.5 -35.5 -81q-13 -48.5 -13 -112.5q0 -20 4 -41q4 -21 15 -38.5q11 -17.5 30 -29q19 -11.5 48 -11.5q35 0 64 15.5q29 15.5 50 38q21 22.5 33 47.5q12 25 15 44zM370 595q-17 8 -31.5 13q-14.5 5 -28.5 5q-12 0 -24.5 -6.5q-12.5 -6.5 -19.5 -26.5l-40 0q5 38 31 65q26 27 65 27q18 0 35 -5.5q17 -5.5 36 -13.5q14 -6 30 -11.5q16 -5.5 28 -5.5q13 0 25 6q12 6 19 27l39 0q-7 -45 -35 -68.5q-28 -23.5 -60 -23.5q-14 0 -27 3.5t-42 14.5z" />
<glyph unicode="&#228;" horiz-adv-x="579" d="M83 178q0 71 19 130.5q19 59.5 52.5 102q33.5 42.5 80 66.5q46.5 24 100.5 24q48 0 80 -19.5q32 -19.5 56 -45.5l2 0l21 54h81q-4 -8 -8 -20q-4 -12 -7.5 -24.5q-3.5 -12.5 -6 -24.5q-2.5 -12 -3.5 -21l-51 -357h76l-6 -43h-35q-33 0 -66 -2q-33 -2 -65 -9l19 120h-2q-10 -14 -26.5 -34.5q-16.5 -20.5 -40 -39.5q-23.5 -19 -54 -32.5q-30.5 -13.5 -68.5 -13.5q-38 0 -65.5 14.5q-27.5 14.5 -46 40q-18.5 25.5 -27.5 60q-9 34.5 -9 74.5zt0 0zM460 386q-16 18 -43 35.5q-27 17.5 -70 17.5q-38 0 -69.5 -16.5q-31.5 -16.5 -54 -49q-22.5 -32.5 -35.5 -81q-13 -48.5 -13 -112.5q0 -20 4 -41q4 -21 15 -38.5q11 -17.5 30 -29q19 -11.5 48 -11.5q35 0 64 15.5q29 15.5 50 38q21 22.5 33 47.5q12 25 15 44zM241 627q0 20 15.5 35.5q15.5 15.5 36.5 15.5q20 0 36 -15.5q16 -15.5 16 -35.5q0 -21 -16 -36.5q-16 -15.5 -36 -15.5q-21 0 -36.5 15.5q-15.5 15.5 -15.5 36.5zt0 0zM421 627q0 20 15 35.5q15 15.5 35 15.5q23 0 38.5 -15.5q15.5 -15.5 15.5 -35.5q0 -21 -15.5 -36.5q-15.5 -15.5 -38.5 -15.5q-20 0 -35 15.5t-15 36.5z" />
<glyph unicode="&#229;" horiz-adv-x="579" d="M83 178q0 71 19 130.5q19 59.5 52.5 102q33.5 42.5 80 66.5q46.5 24 100.5 24q48 0 80 -19.5q32 -19.5 56 -45.5l2 0l21 54h81q-4 -8 -8 -20q-4 -12 -7.5 -24.5q-3.5 -12.5 -6 -24.5q-2.5 -12 -3.5 -21l-51 -357h76l-6 -43h-35q-33 0 -66 -2q-33 -2 -65 -9l19 120h-2q-10 -14 -26.5 -34.5q-16.5 -20.5 -40 -39.5q-23.5 -19 -54 -32.5q-30.5 -13.5 -68.5 -13.5q-38 0 -65.5 14.5q-27.5 14.5 -46 40q-18.5 25.5 -27.5 60q-9 34.5 -9 74.5zt0 0zM460 386q-16 18 -43 35.5q-27 17.5 -70 17.5q-38 0 -69.5 -16.5q-31.5 -16.5 -54 -49q-22.5 -32.5 -35.5 -81q-13 -48.5 -13 -112.5q0 -20 4 -41q4 -21 15 -38.5q11 -17.5 30 -29q19 -11.5 48 -11.5q35 0 64 15.5q29 15.5 50 38q21 22.5 33 47.5q12 25 15 44zM290 652q0 40 26.5 67.5q26.5 27.5 67.5 27.5q40 0 67.5 -27.5q27.5 -27.5 27.5 -67.5q0 -41 -27.5 -68q-27.5 -27 -67.5 -27q-41 0 -67.5 27q-26.5 27 -26.5 68zt0 0zM430 653q0 18 -13 32q-13 14 -33 14q-21 0 -33.5 -14q-12.5 -14 -12.5 -32q0 -19 12.5 -33q12.5 -14 33.5 -14q20 0 33 14t13 33z" />
<glyph unicode="&#230;" horiz-adv-x="811" d="M70 114q0 55 24 88q24 33 60 50q36 17 78 22.5q42 5.5 78 5.5h104l7 48q1 8 1.5 15q0.5 7 0.5 14q0 48 -25.5 74q-25.5 26 -64.5 26q-17 0 -34 -3.5q-17 -3.5 -31 -11.5q-14 -8 -24 -21.5q-10 -13.5 -13 -34.5l-5 -32h-80l12 81q43 32 96 49q53 17 110 17q53 0 84 -22q31 -22 46 -50q32 32 77.5 52q45.5 20 107.5 20q45 0 74.5 -10.5q29.5 -10.5 47 -26.5q17.5 -16 24 -34.5q6.5 -18.5 6.5 -33.5q0 -37 -16 -64.5q-16 -27.5 -42.5 -48q-26.5 -20.5 -61.5 -34.5q-35 -14 -72.5 -23.5q-37.5 -9.5 -75 -15q-37.5 -5.5 -70.5 -9.5l0 -3q0 -28 6 -56q6 -28 20.5 -50.5q14.5 -22.5 38.5 -36.5q24 -14 60 -14q41 0 74.5 17.5q33.5 17.5 72.5 61.5l27 -31q-16 -20 -36.5 -38q-20.5 -18 -45 -31.5q-24.5 -13.5 -54 -22q-29.5 -8.5 -64.5 -8.5q-26 0 -52.5 6.5q-26.5 6.5 -50.5 20.5q-24 14 -43 35.5q-19 21.5 -31 52.5q-44 -55 -94 -85q-50 -30 -111 -30q-29 0 -54.5 8.5q-25.5 8.5 -44.5 24q-19 15.5 -30 39q-11 23.5 -11 53.5zt0 0zM408 238h-91q-20 0 -46 -3.5q-26 -3.5 -49.5 -15q-23.5 -11.5 -39.5 -32.5q-16 -21 -16 -56q0 -30 19.5 -50.5q19.5 -20.5 60.5 -20.5q24 0 49 7q25 7 47 23q22 16 38.5 42q16.5 26 21.5 63zM744 384q0 12 -2.5 25q-2.5 13 -11 23.5q-8.5 10.5 -23.5 17.5q-15 7 -39 7q-29 0 -57 -12q-28 -12 -51.5 -38.5q-23.5 -26.5 -40.5 -67q-17 -40.5 -24 -97.5q78 6 126.5 21.5q48.5 15.5 76 35.5q27.5 20 37 42.5t9.5 42.5z" />
<glyph unicode="&#231;" horiz-adv-x="469" d="M80 196q0 76 21.5 133.5q21.5 57.5 58 95.5q36.5 38 84.5 57q48 19 101 19q30 0 54.5 -6.5q24.5 -6.5 44 -17q19.5 -10.5 33.5 -23.5q14 -13 22 -25l-13 -85h-73l2 11q1 7 1.5 13.5q0.5 6.5 0.5 12.5q0 23 -7 38q-7 15 -18.5 23.5q-11.5 8.5 -25 11.5q-13.5 3 -26.5 3q-48 0 -80.5 -25.5q-32.5 -25.5 -52 -64.5q-19.5 -39 -27.5 -84.5q-8 -45.5 -8 -84.5q0 -32 6.5 -60q6.5 -28 21 -50q14.5 -22 37.5 -34.5q23 -12.5 56 -12.5q46 0 78.5 19.5q32.5 19.5 64.5 54.5l27 -32q-14 -17 -33 -34q-19 -17 -42.5 -30.5q-23.5 -13.5 -51 -21.5q-27.5 -8 -58.5 -8q-39 0 -75 12q-36 12 -63 37q-27 25 -43.5 64q-16.5 39 -16.5 94zt0 0zM198 -138q11 -8 24.5 -13.5q13.5 -5.5 31.5 -5.5q23 0 34 13q11 13 11 30q0 32 -52 32h-26l25 82h45l-16 -49q7 1 10 1q3 0 7 0q39 0 57 -16.5q18 -16.5 18 -45.5q0 -38 -31.5 -63.5q-31.5 -25.5 -79.5 -25.5q-27 0 -48 6.5q-21 6.5 -33 17.5z" />
<glyph unicode="&#232;" horiz-adv-x="488" d="M80 190q0 54 15 109.5q15 55.5 48 100.5q33 45 85.5 73q52.5 28 127.5 28q45 0 74.5 -10.5q29.5 -10.5 47 -26.5q17.5 -16 24 -34.5q6.5 -18.5 6.5 -33.5q0 -37 -16 -64.5q-16 -27.5 -42.5 -48q-26.5 -20.5 -61.5 -34.5q-35 -14 -72.5 -23.5q-37.5 -9.5 -75 -15q-37.5 -5.5 -70.5 -9.5l0 -4q0 -27 6 -55q6 -28 20.5 -50.5q14.5 -22.5 38.5 -36.5q24 -14 60 -14q41 0 74.5 17.5q33.5 17.5 72.5 61.5l27 -31q-16 -20 -36.5 -38q-20.5 -18 -45 -31.5q-24.5 -13.5 -54 -22q-29.5 -8.5 -64.5 -8.5q-34 0 -67.5 11q-33.5 11 -60.5 35q-27 24 -44 62.5q-17 38.5 -17 92.5zt0 0zM421 384q0 12 -2.5 25q-2.5 13 -11 23.5q-8.5 10.5 -23.5 17.5q-15 7 -39 7q-29 0 -57 -12q-28 -12 -51.5 -38.5q-23.5 -26.5 -40.5 -67q-17 -40.5 -24 -97.5q78 6 126.5 21.5q48.5 15.5 76 35.5q27.5 20 37 42.5q9.5 22.5 9.5 42.5zt0 0zM312 698l59 -133h-50l-110 133z" />
<glyph unicode="&#233;" horiz-adv-x="488" d="M80 190q0 54 15 109.5q15 55.5 48 100.5q33 45 85.5 73q52.5 28 127.5 28q45 0 74.5 -10.5q29.5 -10.5 47 -26.5q17.5 -16 24 -34.5q6.5 -18.5 6.5 -33.5q0 -37 -16 -64.5q-16 -27.5 -42.5 -48q-26.5 -20.5 -61.5 -34.5q-35 -14 -72.5 -23.5q-37.5 -9.5 -75 -15q-37.5 -5.5 -70.5 -9.5l0 -4q0 -27 6 -55q6 -28 20.5 -50.5q14.5 -22.5 38.5 -36.5q24 -14 60 -14q41 0 74.5 17.5q33.5 17.5 72.5 61.5l27 -31q-16 -20 -36.5 -38q-20.5 -18 -45 -31.5q-24.5 -13.5 -54 -22q-29.5 -8.5 -64.5 -8.5q-34 0 -67.5 11q-33.5 11 -60.5 35q-27 24 -44 62.5q-17 38.5 -17 92.5zt0 0zM421 384q0 12 -2.5 25q-2.5 13 -11 23.5q-8.5 10.5 -23.5 17.5q-15 7 -39 7q-29 0 -57 -12q-28 -12 -51.5 -38.5q-23.5 -26.5 -40.5 -67q-17 -40.5 -24 -97.5q78 6 126.5 21.5q48.5 15.5 76 35.5q27.5 20 37 42.5q9.5 22.5 9.5 42.5zt0 0zM513 698l-147 -133h-50l94 133z" />
<glyph unicode="&#234;" horiz-adv-x="488" d="M80 190q0 54 15 109.5q15 55.5 48 100.5q33 45 85.5 73q52.5 28 127.5 28q45 0 74.5 -10.5q29.5 -10.5 47 -26.5q17.5 -16 24 -34.5q6.5 -18.5 6.5 -33.5q0 -37 -16 -64.5q-16 -27.5 -42.5 -48q-26.5 -20.5 -61.5 -34.5q-35 -14 -72.5 -23.5q-37.5 -9.5 -75 -15q-37.5 -5.5 -70.5 -9.5l0 -4q0 -27 6 -55q6 -28 20.5 -50.5q14.5 -22.5 38.5 -36.5q24 -14 60 -14q41 0 74.5 17.5q33.5 17.5 72.5 61.5l27 -31q-16 -20 -36.5 -38q-20.5 -18 -45 -31.5q-24.5 -13.5 -54 -22q-29.5 -8.5 -64.5 -8.5q-34 0 -67.5 11q-33.5 11 -60.5 35q-27 24 -44 62.5q-17 38.5 -17 92.5zt0 0zM421 384q0 12 -2.5 25q-2.5 13 -11 23.5q-8.5 10.5 -23.5 17.5q-15 7 -39 7q-29 0 -57 -12q-28 -12 -51.5 -38.5q-23.5 -26.5 -40.5 -67q-17 -40.5 -24 -97.5q78 6 126.5 21.5q48.5 15.5 76 35.5q27.5 20 37 42.5q9.5 22.5 9.5 42.5zt0 0zM412 686l88 -121h-62l-70 67l-89 -67h-62l122 121z" />
<glyph unicode="&#235;" horiz-adv-x="488" d="M80 190q0 54 15 109.5q15 55.5 48 100.5q33 45 85.5 73q52.5 28 127.5 28q45 0 74.5 -10.5q29.5 -10.5 47 -26.5q17.5 -16 24 -34.5q6.5 -18.5 6.5 -33.5q0 -37 -16 -64.5q-16 -27.5 -42.5 -48q-26.5 -20.5 -61.5 -34.5q-35 -14 -72.5 -23.5q-37.5 -9.5 -75 -15q-37.5 -5.5 -70.5 -9.5l0 -4q0 -27 6 -55q6 -28 20.5 -50.5q14.5 -22.5 38.5 -36.5q24 -14 60 -14q41 0 74.5 17.5q33.5 17.5 72.5 61.5l27 -31q-16 -20 -36.5 -38q-20.5 -18 -45 -31.5q-24.5 -13.5 -54 -22q-29.5 -8.5 -64.5 -8.5q-34 0 -67.5 11q-33.5 11 -60.5 35q-27 24 -44 62.5q-17 38.5 -17 92.5zt0 0zM421 384q0 12 -2.5 25q-2.5 13 -11 23.5q-8.5 10.5 -23.5 17.5q-15 7 -39 7q-29 0 -57 -12q-28 -12 -51.5 -38.5q-23.5 -26.5 -40.5 -67q-17 -40.5 -24 -97.5q78 6 126.5 21.5q48.5 15.5 76 35.5q27.5 20 37 42.5q9.5 22.5 9.5 42.5zt0 0zM226 627q0 20 15.5 35.5q15.5 15.5 36.5 15.5q20 0 36 -15.5q16 -15.5 16 -35.5q0 -21 -16 -36.5q-16 -15.5 -36 -15.5q-21 0 -36.5 15.5q-15.5 15.5 -15.5 36.5zt0 0zM406 627q0 20 15 35.5q15 15.5 35 15.5q23 0 38.5 -15.5q15.5 -15.5 15.5 -35.5q0 -21 -15.5 -36.5q-15.5 -15.5 -38.5 -15.5q-20 0 -35 15.5t-15 36.5z" />
<glyph unicode="&#236;" horiz-adv-x="282" d="M94 447l6 43h35q35 0 70.5 2.5q35.5 2.5 61.5 8.5l-65 -458h76l-6 -43h-35q-35 0 -70.5 -2.5q-35.5 -2.5 -61.5 -8.5l65 458zM174 698l59 -133h-50l-110 133z" />
<glyph unicode="&#237;" horiz-adv-x="282" d="M94 447l6 43h35q35 0 70.5 2.5q35.5 2.5 61.5 8.5l-65 -458h76l-6 -43h-35q-35 0 -70.5 -2.5q-35.5 -2.5 -61.5 -8.5l65 458zM370 698l-147 -133h-50l94 133z" />
<glyph unicode="&#238;" horiz-adv-x="282" d="M94 447l6 43h35q35 0 70.5 2.5q35.5 2.5 61.5 8.5l-65 -458h76l-6 -43h-35q-35 0 -70.5 -2.5q-35.5 -2.5 -61.5 -8.5l65 458zM251 686l88 -121h-62l-70 67l-89 -67h-62l122 121z" />
<glyph unicode="&#239;" horiz-adv-x="282" d="M94 447l6 43h35q35 0 70.5 2.5q35.5 2.5 61.5 8.5l-65 -458h76l-6 -43h-35q-35 0 -70.5 -2.5q-35.5 -2.5 -61.5 -8.5l65 458zM63 627q0 20 15.5 35.5q15.5 15.5 36.5 15.5q20 0 36 -15.5q16 -15.5 16 -35.5q0 -21 -16 -36.5q-16 -15.5 -36 -15.5q-21 0 -36.5 15.5q-15.5 15.5 -15.5 36.5zt0 0zM243 627q0 20 15 35.5q15 15.5 35 15.5q23 0 38.5 -15.5q15.5 -15.5 15.5 -35.5q0 -21 -15.5 -36.5q-15.5 -15.5 -38.5 -15.5q-20 0 -35 15.5t-15 36.5z" />
<glyph unicode="&#240;" horiz-adv-x="544" d="M83 202q0 63 18.5 116q18.5 53 50.5 91.5q32 38.5 74.5 59.5q42.5 21 89.5 21q29 0 51.5 -5.5q22.5 -5.5 39.5 -14.5q17 -9 30 -19.5q13 -10.5 23 -20.5l3 0q-2 58 -24.5 111q-22.5 53 -64.5 91l-116 -88l-27 32l109 82q-29 19 -64 29.5q-35 10.5 -76 12.5l9 40q44 0 89.5 -11.5q45.5 -11.5 87.5 -35.5l107 82l26 -32l-97 -74q54 -42 89 -110.5q35 -68.5 35 -168.5q0 -65 -14 -135.5q-14 -70.5 -45.5 -129.5q-31.5 -59 -83.5 -97.5q-52 -38.5 -127 -38.5q-33 0 -67.5 10.5q-34.5 10.5 -62.5 35q-28 24.5 -45.5 65.5q-17.5 41 -17.5 102zt0 0zM454 376q-20 25 -50.5 38.5q-30.5 13.5 -71.5 13.5q-42 0 -72 -21.5q-30 -21.5 -48.5 -55q-18.5 -33.5 -27.5 -74q-9 -40.5 -9 -77.5q0 -29 4 -58.5q4 -29.5 16 -53.5q12 -24 33 -39.5q21 -15.5 56 -15.5q30 0 54.5 17q24.5 17 43.5 44.5q19 27.5 32.5 63.5q13.5 36 22.5 74.5q9 38.5 13 75.5t4 68z" />
<glyph unicode="&#241;" horiz-adv-x="593" d="M465 307q2 11 3.5 26.5q1.5 15.5 1.5 32.5q0 29 -16.5 46.5q-16.5 17.5 -48.5 17.5q-30 0 -59.5 -16q-29.5 -16 -52.5 -40q-23 -24 -39 -52q-16 -28 -19 -52l-38 -270h-101q4 8 8 20q4 12 7.5 24.5q3.5 12.5 6 24.5q2.5 12 3.5 21l50 357h-76l6 43h35q35 0 70 2.5q35 2.5 61 8.5l-21 -134h2q41 60 92.5 97q51.5 37 107.5 37q59 0 86.5 -31q27.5 -31 27.5 -74q0 -22 -1 -35.5q-1 -13.5 -3 -26.5l-45 -291h76l-6 -43h-35q-35 0 -70.5 -2.5q-35.5 -2.5 -61.5 -8.5l49 318zM377 595q-17 8 -31.5 13q-14.5 5 -28.5 5q-12 0 -24.5 -6.5q-12.5 -6.5 -19.5 -26.5l-40 0q5 38 31 65q26 27 65 27q18 0 35 -5.5q17 -5.5 36 -13.5q14 -6 30 -11.5q16 -5.5 28 -5.5q13 0 25 6q12 6 19 27l39 0q-7 -45 -35 -68.5q-28 -23.5 -60 -23.5q-14 0 -27 3.5t-42 14.5z" />
<glyph unicode="&#242;" horiz-adv-x="546" d="M80 203q0 70 20.5 125.5q20.5 55.5 55.5 93.5q35 38 82.5 58.5q47.5 20.5 100.5 20.5q48 0 87 -14.5q39 -14.5 67 -42q28 -27.5 43 -68q15 -40.5 15 -91.5q0 -70 -20.5 -125q-20.5 -55 -55.5 -93q-35 -38 -81.5 -58q-46.5 -20 -99.5 -20q-97 0 -155.5 55.5q-58.5 55.5 -58.5 158.5zt0 0zM459 286q0 24 -4 53.5q-4 29.5 -17 56q-13 26.5 -36.5 44q-23.5 17.5 -62.5 17.5q-35 0 -61 -14.5q-26 -14.5 -44.5 -37.5q-18.5 -23 -30.5 -51.5q-12 -28.5 -19 -56.5q-7 -28 -9.5 -53q-2.5 -25 -2.5 -41q0 -24 4 -53.5q4 -29.5 17 -55.5q13 -26 37 -43.5q24 -17.5 64 -17.5q52 0 84 30.5q32 30.5 50 72q18 41.5 24.5 84q6.5 42.5 6.5 66.5zt0 0zM331 698l59 -133h-50l-110 133z" />
<glyph unicode="&#243;" horiz-adv-x="546" d="M80 203q0 70 20.5 125.5q20.5 55.5 55.5 93.5q35 38 82.5 58.5q47.5 20.5 100.5 20.5q48 0 87 -14.5q39 -14.5 67 -42q28 -27.5 43 -68q15 -40.5 15 -91.5q0 -70 -20.5 -125q-20.5 -55 -55.5 -93q-35 -38 -81.5 -58q-46.5 -20 -99.5 -20q-97 0 -155.5 55.5q-58.5 55.5 -58.5 158.5zt0 0zM459 286q0 24 -4 53.5q-4 29.5 -17 56q-13 26.5 -36.5 44q-23.5 17.5 -62.5 17.5q-35 0 -61 -14.5q-26 -14.5 -44.5 -37.5q-18.5 -23 -30.5 -51.5q-12 -28.5 -19 -56.5q-7 -28 -9.5 -53q-2.5 -25 -2.5 -41q0 -24 4 -53.5q4 -29.5 17 -55.5q13 -26 37 -43.5q24 -17.5 64 -17.5q52 0 84 30.5q32 30.5 50 72q18 41.5 24.5 84q6.5 42.5 6.5 66.5zt0 0zM532 698l-147 -133h-50l94 133z" />
<glyph unicode="&#244;" horiz-adv-x="546" d="M80 203q0 70 20.5 125.5q20.5 55.5 55.5 93.5q35 38 82.5 58.5q47.5 20.5 100.5 20.5q48 0 87 -14.5q39 -14.5 67 -42q28 -27.5 43 -68q15 -40.5 15 -91.5q0 -70 -20.5 -125q-20.5 -55 -55.5 -93q-35 -38 -81.5 -58q-46.5 -20 -99.5 -20q-97 0 -155.5 55.5q-58.5 55.5 -58.5 158.5zt0 0zM459 286q0 24 -4 53.5q-4 29.5 -17 56q-13 26.5 -36.5 44q-23.5 17.5 -62.5 17.5q-35 0 -61 -14.5q-26 -14.5 -44.5 -37.5q-18.5 -23 -30.5 -51.5q-12 -28.5 -19 -56.5q-7 -28 -9.5 -53q-2.5 -25 -2.5 -41q0 -24 4 -53.5q4 -29.5 17 -55.5q13 -26 37 -43.5q24 -17.5 64 -17.5q52 0 84 30.5q32 30.5 50 72q18 41.5 24.5 84q6.5 42.5 6.5 66.5zt0 0zM411 686l88 -121h-62l-70 67l-89 -67h-62l122 121z" />
<glyph unicode="&#245;" horiz-adv-x="546" d="M80 203q0 70 20.5 125.5q20.5 55.5 55.5 93.5q35 38 82.5 58.5q47.5 20.5 100.5 20.5q48 0 87 -14.5q39 -14.5 67 -42q28 -27.5 43 -68q15 -40.5 15 -91.5q0 -70 -20.5 -125q-20.5 -55 -55.5 -93q-35 -38 -81.5 -58q-46.5 -20 -99.5 -20q-97 0 -155.5 55.5q-58.5 55.5 -58.5 158.5zt0 0zM459 286q0 24 -4 53.5q-4 29.5 -17 56q-13 26.5 -36.5 44q-23.5 17.5 -62.5 17.5q-35 0 -61 -14.5q-26 -14.5 -44.5 -37.5q-18.5 -23 -30.5 -51.5q-12 -28.5 -19 -56.5q-7 -28 -9.5 -53q-2.5 -25 -2.5 -41q0 -24 4 -53.5q4 -29.5 17 -55.5q13 -26 37 -43.5q24 -17.5 64 -17.5q52 0 84 30.5q32 30.5 50 72q18 41.5 24.5 84q6.5 42.5 6.5 66.5zt0 0zM354 595q-17 8 -31.5 13q-14.5 5 -28.5 5q-12 0 -24.5 -6.5q-12.5 -6.5 -19.5 -26.5l-40 0q5 38 31 65q26 27 65 27q18 0 35 -5.5q17 -5.5 36 -13.5q14 -6 30 -11.5q16 -5.5 28 -5.5q13 0 25 6q12 6 19 27l39 0q-7 -45 -35 -68.5q-28 -23.5 -60 -23.5q-14 0 -27 3.5t-42 14.5z" />
<glyph unicode="&#246;" horiz-adv-x="546" d="M80 203q0 70 20.5 125.5q20.5 55.5 55.5 93.5q35 38 82.5 58.5q47.5 20.5 100.5 20.5q48 0 87 -14.5q39 -14.5 67 -42q28 -27.5 43 -68q15 -40.5 15 -91.5q0 -70 -20.5 -125q-20.5 -55 -55.5 -93q-35 -38 -81.5 -58q-46.5 -20 -99.5 -20q-97 0 -155.5 55.5q-58.5 55.5 -58.5 158.5zt0 0zM459 286q0 24 -4 53.5q-4 29.5 -17 56q-13 26.5 -36.5 44q-23.5 17.5 -62.5 17.5q-35 0 -61 -14.5q-26 -14.5 -44.5 -37.5q-18.5 -23 -30.5 -51.5q-12 -28.5 -19 -56.5q-7 -28 -9.5 -53q-2.5 -25 -2.5 -41q0 -24 4 -53.5q4 -29.5 17 -55.5q13 -26 37 -43.5q24 -17.5 64 -17.5q52 0 84 30.5q32 30.5 50 72q18 41.5 24.5 84q6.5 42.5 6.5 66.5zt0 0zM225 627q0 20 15.5 35.5q15.5 15.5 36.5 15.5q20 0 36 -15.5q16 -15.5 16 -35.5q0 -21 -16 -36.5q-16 -15.5 -36 -15.5q-21 0 -36.5 15.5q-15.5 15.5 -15.5 36.5zt0 0zM405 627q0 20 15 35.5q15 15.5 35 15.5q23 0 38.5 -15.5q15.5 -15.5 15.5 -35.5q0 -21 -15.5 -36.5q-15.5 -15.5 -38.5 -15.5q-20 0 -35 15.5t-15 36.5z" />
<glyph unicode="&#247;" horiz-adv-x="633" d="M312 189q0 24 17.5 41.5q17.5 17.5 42.5 17.5q23 0 41 -17.5q18 -17.5 18 -41.5q0 -25 -18 -43q-18 -18 -41 -18q-25 0 -42.5 18q-17.5 18 -17.5 43zt0 0zM312 520q0 25 17.5 42q17.5 17 42.5 17q23 0 41 -17q18 -17 18 -42q0 -25 -18 -43q-18 -18 -41 -18q-25 0 -42.5 18q-17.5 18 -17.5 43zt0 0zM613 388v-69h-483l0 69z" />
<glyph unicode="&#248;" horiz-adv-x="546" d="M83 -31l56 75q-59 57 -59 159q0 70 20.5 125.5q20.5 55.5 55.5 93.5q35 38 82.5 58.5q47.5 20.5 100.5 20.5q67 0 117 -29l55 75l37 -24l-57 -77q29 -28 44.5 -68.5q15.5 -40.5 15.5 -92.5q0 -70 -20.5 -125q-20.5 -55 -55.5 -93q-35 -38 -81.5 -58q-46.5 -20 -99.5 -20q-35 0 -65.5 8q-30.5 8 -55.5 22l-56 -76zM459 286q0 21 -3 46.5q-3 25.5 -13 49.5l-233 -314q14 -16 34.5 -25.5q20.5 -9.5 49.5 -9.5q52 0 84 30.5q32 30.5 50 72q18 41.5 24.5 84q6.5 42.5 6.5 66.5zt0 0zM419 423q-14 15 -33.5 24.5q-19.5 9.5 -46.5 9.5q-35 0 -61 -14.5q-26 -14.5 -44.5 -37.5q-18.5 -23 -30.5 -51.5q-12 -28.5 -19 -56.5q-7 -28 -9.5 -53q-2.5 -25 -2.5 -41q0 -20 3 -45q3 -25 12 -49z" />
<glyph unicode="&#249;" horiz-adv-x="593" d="M122 94q0 22 1 35.5q1 13.5 3 26.5l45 291h-76l6 43h35q35 0 70.5 2.5q35.5 2.5 61.5 8.5l-49 -318q-2 -11 -3.5 -26.5q-1.5 -15.5 -1.5 -32.5q0 -29 16.5 -46.5q16.5 -17.5 48.5 -17.5q30 0 59.5 16q29.5 16 52.5 40q23 24 39 52q16 28 19 52l38 270h101q-4 -8 -8 -20q-4 -12 -7.5 -24.5q-3.5 -12.5 -6 -24.5q-2.5 -12 -3.5 -21l-50 -357h76l-6 -43h-35q-35 0 -70 -2.5q-35 -2.5 -61 -8.5l21 134h-2q-41 -60 -92.5 -97q-51.5 -37 -107.5 -37q-59 0 -86.5 31q-27.5 31 -27.5 74zt0 0zM354 698l59 -133h-50l-110 133z" />
<glyph unicode="&#250;" horiz-adv-x="593" d="M122 94q0 22 1 35.5q1 13.5 3 26.5l45 291h-76l6 43h35q35 0 70.5 2.5q35.5 2.5 61.5 8.5l-49 -318q-2 -11 -3.5 -26.5q-1.5 -15.5 -1.5 -32.5q0 -29 16.5 -46.5q16.5 -17.5 48.5 -17.5q30 0 59.5 16q29.5 16 52.5 40q23 24 39 52q16 28 19 52l38 270h101q-4 -8 -8 -20q-4 -12 -7.5 -24.5q-3.5 -12.5 -6 -24.5q-2.5 -12 -3.5 -21l-50 -357h76l-6 -43h-35q-35 0 -70 -2.5q-35 -2.5 -61 -8.5l21 134h-2q-41 -60 -92.5 -97q-51.5 -37 -107.5 -37q-59 0 -86.5 31q-27.5 31 -27.5 74zt0 0zM555 698l-147 -133h-50l94 133z" />
<glyph unicode="&#251;" horiz-adv-x="593" d="M122 94q0 22 1 35.5q1 13.5 3 26.5l45 291h-76l6 43h35q35 0 70.5 2.5q35.5 2.5 61.5 8.5l-49 -318q-2 -11 -3.5 -26.5q-1.5 -15.5 -1.5 -32.5q0 -29 16.5 -46.5q16.5 -17.5 48.5 -17.5q30 0 59.5 16q29.5 16 52.5 40q23 24 39 52q16 28 19 52l38 270h101q-4 -8 -8 -20q-4 -12 -7.5 -24.5q-3.5 -12.5 -6 -24.5q-2.5 -12 -3.5 -21l-50 -357h76l-6 -43h-35q-35 0 -70 -2.5q-35 -2.5 -61 -8.5l21 134h-2q-41 -60 -92.5 -97q-51.5 -37 -107.5 -37q-59 0 -86.5 31q-27.5 31 -27.5 74zt0 0zM435 686l88 -121h-62l-70 67l-89 -67h-62l122 121z" />
<glyph unicode="&#252;" horiz-adv-x="593" d="M122 94q0 22 1 35.5q1 13.5 3 26.5l45 291h-76l6 43h35q35 0 70.5 2.5q35.5 2.5 61.5 8.5l-49 -318q-2 -11 -3.5 -26.5q-1.5 -15.5 -1.5 -32.5q0 -29 16.5 -46.5q16.5 -17.5 48.5 -17.5q30 0 59.5 16q29.5 16 52.5 40q23 24 39 52q16 28 19 52l38 270h101q-4 -8 -8 -20q-4 -12 -7.5 -24.5q-3.5 -12.5 -6 -24.5q-2.5 -12 -3.5 -21l-50 -357h76l-6 -43h-35q-35 0 -70 -2.5q-35 -2.5 -61 -8.5l21 134h-2q-41 -60 -92.5 -97q-51.5 -37 -107.5 -37q-59 0 -86.5 31q-27.5 31 -27.5 74zt0 0zM248 627q0 20 15.5 35.5q15.5 15.5 36.5 15.5q20 0 36 -15.5q16 -15.5 16 -35.5q0 -21 -16 -36.5q-16 -15.5 -36 -15.5q-21 0 -36.5 15.5q-15.5 15.5 -15.5 36.5zt0 0zM428 627q0 20 15 35.5q15 15.5 35 15.5q23 0 38.5 -15.5q15.5 -15.5 15.5 -35.5q0 -21 -15.5 -36.5q-15.5 -15.5 -38.5 -15.5q-20 0 -35 15.5t-15 36.5z" />
<glyph unicode="&#253;" horiz-adv-x="557" d="M114 -175q10 0 29 9.5q19 9.5 42.5 29q23.5 19.5 50 50.5q26.5 31 50.5 75l-146 458h-75l6 43h8q35 0 75.5 3.5q40.5 3.5 66.5 7.5l103 -333q5 -15 10 -39q5 -24 10 -50l5 0q16 25 39 68.5q23 43.5 45 95q22 51.5 40 105.5q18 54 25 99l-80 0l6 43h32q10 0 23.5 0.5q13.5 0.5 29.5 2q16 1.5 32 3.5q16 2 31 5l0 -33q-15 -52 -41 -123.5q-26 -71.5 -62.5 -150q-36.5 -78.5 -82.5 -156.5q-46 -78 -100.5 -142q-54.5 -64 -118.5 -106.5q-64 -42.5 -135 -50.5l15 86zM517 698l-147 -133h-50l94 133z" />
<glyph unicode="&#254;" horiz-adv-x="585" d="M204 686h-76l6 43h35q35 0 70.5 2.5q35.5 2.5 61.5 8.5l-34 -239q-5 -30 -9.5 -59q-4.5 -29 -9.5 -61l2 0q10 14 26.5 34.5q16.5 20.5 40 39.5q23.5 19 54 32.5q30.5 13.5 68.5 13.5q39 0 67 -14.5q28 -14.5 46 -40.5q18 -26 26.5 -61q8.5 -35 8.5 -77q0 -70 -19 -128.5q-19 -58.5 -52.5 -101q-33.5 -42.5 -79 -66q-45.5 -23.5 -98.5 -23.5q-24 0 -44.5 5.5q-20.5 5.5 -37 14.5q-16.5 9 -30 19.5q-13.5 10.5 -22.5 20.5l-2 0q-2 -15 -3.5 -33q-1.5 -18 -3.5 -32l-32 -234h-101q4 8 8 20q4 12 7.5 24.5q3.5 12.5 6 24.5q2.5 12 3.5 21zM495 299q0 23 -4 46.5q-4 23.5 -15 42q-11 18.5 -30 30.5q-19 12 -48 12q-35 0 -64 -15.5q-29 -15.5 -50 -38q-21 -22.5 -33 -47.5q-12 -25 -15 -44l-26 -181q16 -18 43 -35.5q27 -17.5 70 -17.5q37 0 69 16q32 16 54.5 47.5q22.5 31.5 35.5 78t13 106.5z" />
<glyph unicode="&#255;" horiz-adv-x="557" d="M114 -175q10 0 29 9.5q19 9.5 42.5 29q23.5 19.5 50 50.5q26.5 31 50.5 75l-146 458h-75l6 43h8q35 0 75.5 3.5q40.5 3.5 66.5 7.5l103 -333q5 -15 10 -39q5 -24 10 -50l5 0q16 25 39 68.5q23 43.5 45 95q22 51.5 40 105.5q18 54 25 99l-80 0l6 43h32q10 0 23.5 0.5q13.5 0.5 29.5 2q16 1.5 32 3.5q16 2 31 5l0 -33q-15 -52 -41 -123.5q-26 -71.5 -62.5 -150q-36.5 -78.5 -82.5 -156.5q-46 -78 -100.5 -142q-54.5 -64 -118.5 -106.5q-64 -42.5 -135 -50.5l15 86zM220 627q0 20 15.5 35.5q15.5 15.5 36.5 15.5q20 0 36 -15.5q16 -15.5 16 -35.5q0 -21 -16 -36.5q-16 -15.5 -36 -15.5q-21 0 -36.5 15.5q-15.5 15.5 -15.5 36.5zt0 0zM400 627q0 20 15 35.5q15 15.5 35 15.5q23 0 38.5 -15.5q15.5 -15.5 15.5 -35.5q0 -21 -15.5 -36.5q-15.5 -15.5 -38.5 -15.5q-20 0 -35 15.5t-15 36.5z" />
<glyph unicode="&#256;" horiz-adv-x="810" d="M63 50q23 0 45.5 16.5q22.5 16.5 42.5 53.5l309 580h94l163 -650h76l-7 -50h-266l7 50h40q21 0 28.5 13q7.5 13 7.5 27q0 9 -0.5 14q-0.5 5 -2.5 13l-19 83h-318l-42 -82q-5 -10 -9.5 -22.5q-4.5 -12.5 -4.5 -23.5q0 -9 4.5 -15.5q4.5 -6.5 18.5 -6.5h41l-7 -50h-237l7 50zM501 534q-4 14 -10 38.5q-6 24.5 -8 42.5l-5 0q-10 -20 -21 -42.5q-11 -22.5 -19 -36.5l-150 -282h284zM678 869l-10 -65h-296l10 65z" />
<glyph unicode="&#257;" horiz-adv-x="579" d="M83 178q0 71 19 130.5q19 59.5 52.5 102q33.5 42.5 80 66.5q46.5 24 100.5 24q48 0 80 -19.5q32 -19.5 56 -45.5l2 0l21 54h81q-4 -8 -8 -20q-4 -12 -7.5 -24.5q-3.5 -12.5 -6 -24.5q-2.5 -12 -3.5 -21l-51 -357h76l-6 -43h-35q-33 0 -66 -2q-33 -2 -65 -9l19 120h-2q-10 -14 -26.5 -34.5q-16.5 -20.5 -40 -39.5q-23.5 -19 -54 -32.5q-30.5 -13.5 -68.5 -13.5q-38 0 -65.5 14.5q-27.5 14.5 -46 40q-18.5 25.5 -27.5 60q-9 34.5 -9 74.5zt0 0zM460 386q-16 18 -43 35.5q-27 17.5 -70 17.5q-38 0 -69.5 -16.5q-31.5 -16.5 -54 -49q-22.5 -32.5 -35.5 -81q-13 -48.5 -13 -112.5q0 -20 4 -41q4 -21 15 -38.5q11 -17.5 30 -29q19 -11.5 48 -11.5q35 0 64 15.5q29 15.5 50 38q21 22.5 33 47.5q12 25 15 44zM518 655l-9 -61h-253l9 61z" />
</font>
</defs>
</svg>
