<?xml version="1.0" encoding="UTF-8" standalone="no"?>
<!DOCTYPE svg PUBLIC "-//W3C//DTD SVG 1.1//EN" "http://www.w3.org/Graphics/SVG/1.1/DTD/svg11.dtd" >
<svg xmlns="http://www.w3.org/2000/svg">
<metadata>
Generated by SVGconv.
Copyright   : Copyright  2017 ParaType, Inc., ParaType Ltd. All rights reserved.
Designer    : Manvel Shmavonyan, Alexander Lubovenko
Foundry     : ParaType Ltd
Foundry URL : http://www.paratype.com
</metadata>
<defs>
<font id="MediatorSerifWeb-Regular" horiz-adv-x="595" >
<font-face units-per-em="1000" ascent="985" descent="350" >
<font-face-src>
<font-face-name/>
</font-face-src>
</font-face>
<missing-glyph horiz-adv-x="500" />
<glyph unicode="&#13;" horiz-adv-x="300" />
<glyph unicode="&#32;" horiz-adv-x="300" />
<glyph unicode="&#33;" horiz-adv-x="346" d="M110 50q0 28 18 46.5q18 18.5 43 18.5q28 0 46.5 -18.5q18.5 -18.5 18.5 -46.5q0 -25 -18.5 -43q-18.5 -18 -46.5 -18q-25 0 -43 18q-18 18 -18 43zt0 0zM112 674q0 15 18 26q18 11 41 11q22 0 40.5 -11q18.5 -11 18.5 -26l-33 -475l-52 0z" />
<glyph unicode="&#34;" horiz-adv-x="436" d="M80 683q0 10 13.5 19q13.5 9 36.5 9q23 0 36.5 -9q13.5 -9 13.5 -19l-30 -184h-40zM256 683q0 10 13.5 19q13.5 9 36.5 9q23 0 36.5 -9q13.5 -9 13.5 -19l-30 -184l-40 0z" />
<glyph unicode="&#35;" horiz-adv-x="633" d="M30 208l5 53h104l32 193h-100l5 53h104l26 156h83l-26 -156h155l26 156h83l-26 -156h102l-5 -53h-105l-32 -193h101l-5 -53h-104l-26 -158h-83l26 158h-156l-26 -158h-83l26 158zM410 454h-156l-32 -193l156 0z" />
<glyph unicode="&#36;" horiz-adv-x="591" d="M266 -10q-72 5 -127.5 31.5q-55.5 26.5 -88.5 58.5l0 111h85v-25q0 -31 10 -53.5q10 -22.5 28 -37.5q18 -15 42 -23q24 -8 51 -10l0 278q-103 32 -152.5 81q-49.5 49 -49.5 121q0 37 14 69.5q14 32.5 40 57.5q26 25 63.5 41q37.5 16 84.5 20l0 106h53v-106q36 -3 67 -13q31 -10 55.5 -22.5q24.5 -12.5 42 -25.5q17.5 -13 26.5 -23l0 -110h-85v25q0 54 -29 82.5q-29 28.5 -77 33.5l0 -270q66 -20 109 -42.5q43 -22.5 68 -48.5q25 -26 35 -55.5q10 -29.5 10 -63.5q0 -34 -14.5 -66q-14.5 -32 -43 -58q-28.5 -26 -69.5 -43q-41 -17 -95 -20l0 -106h-53zM266 657q-30 -3 -50.5 -17q-20.5 -14 -32.5 -32q-12 -18 -17 -37.5q-5 -19.5 -5 -34.5q0 -45 22 -78.5q22 -33.5 83 -53.5zM445 171q0 21 -5.5 40q-5.5 19 -20 36.5q-14.5 17.5 -39 32q-24.5 14.5 -61.5 25.5l0 -263q33 3 57 15.5q24 12.5 39.5 30.5q15.5 18 22.5 40t7 43z" />
<glyph unicode="&#37;" horiz-adv-x="870" d="M60 525q0 37 9.5 71q9.5 34 28.5 59.5q19 25.5 47.5 40.5q28.5 15 67.5 15q38 0 66.5 -15q28.5 -15 47.5 -40.5q19 -25.5 28.5 -59.5q9.5 -34 9.5 -71q0 -38 -9.5 -71.5q-9.5 -33.5 -28.5 -59q-19 -25.5 -47.5 -40.5q-28.5 -15 -66.5 -15q-39 0 -67.5 15q-28.5 15 -47.5 40.5q-19 25.5 -28.5 59q-9.5 33.5 -9.5 71.5zt0 0zM281 525q0 28 -3 54q-3 26 -10.5 45.5q-7.5 19.5 -20.5 31q-13 11.5 -34 11.5q-21 0 -34.5 -11.5q-13.5 -11.5 -21 -31q-7.5 -19.5 -10.5 -45.5q-3 -26 -3 -54q0 -42 5.5 -69q5.5 -27 15.5 -43q10 -16 22 -22.5q12 -6.5 26 -6.5q13 0 25 6.5q12 6.5 21.5 22.5q9.5 16 15.5 43q6 27 6 69zt0 0zM505 175q0 37 9.5 71q9.5 34 28.5 59.5q19 25.5 47.5 40.5q28.5 15 67.5 15q38 0 66.5 -15q28.5 -15 47.5 -40.5q19 -25.5 28.5 -59.5q9.5 -34 9.5 -71q0 -38 -9.5 -71.5q-9.5 -33.5 -28.5 -59q-19 -25.5 -47.5 -40.5q-28.5 -15 -66.5 -15q-39 0 -67.5 15q-28.5 15 -47.5 40.5q-19 25.5 -28.5 59q-9.5 33.5 -9.5 71.5zt0 0zM726 175q0 28 -3 54q-3 26 -10.5 45.5q-7.5 19.5 -20.5 31q-13 11.5 -34 11.5q-21 0 -34.5 -11.5q-13.5 -11.5 -21 -31q-7.5 -19.5 -10.5 -45.5q-3 -26 -3 -54q0 -42 5.5 -69q5.5 -27 15.5 -43q10 -16 22 -22.5q12 -6.5 26 -6.5q13 0 25 6.5q12 6.5 21.5 22.5q9.5 16 15.5 43q6 27 6 69zt0 0zM640 711l57 -36l-468 -688l-57 36z" />
<glyph unicode="&#38;" horiz-adv-x="726" d="M60 178q0 43 15 76q15 33 39 58q24 25 55 43q31 18 63 32q-38 45 -62.5 85.5q-24.5 40.5 -24.5 86.5q0 24 8.5 50.5q8.5 26.5 29.5 49q21 22.5 58 37.5q37 15 94 15q81 0 122 -40q41 -40 41 -102q0 -63 -43 -111q-43 -48 -112 -77l156 -202q11 17 21.5 36.5q10.5 19.5 10.5 34.5q0 20 -25 20h-30v50h190v-50h-14q-33 0 -46.5 -15.5q-13.5 -15.5 -24.5 -37.5q-11 -22 -23 -43.5q-12 -21.5 -24 -37.5l65 -86h82v-50h-154l-49 66q-31 -30 -77 -53.5q-46 -23.5 -116 -23.5q-54 0 -96 14q-42 14 -70.5 38.5q-28.5 24.5 -43.5 59.5q-15 35 -15 77zt0 0zM427 563q0 17 -5.5 34q-5.5 17 -16.5 30.5q-11 13.5 -28.5 22q-17.5 8.5 -41.5 8.5q-46 0 -72 -27q-26 -27 -26 -70q0 -32 21 -66.5q21 -34.5 56 -75.5q33 13 55 29q22 16 35 34q13 18 18 38q5 20 5 43zt0 0zM263 347q-48 -26 -74 -64q-26 -38 -26 -106q0 -25 8.5 -49q8.5 -24 26 -42.5q17.5 -18.5 44.5 -30q27 -11.5 65 -11.5q47 0 79.5 19.5q32.5 19.5 57.5 48.5z" />
<glyph unicode="&#39;" horiz-adv-x="260" d="M80 683q0 10 13.5 19q13.5 9 36.5 9q23 0 36.5 -9q13.5 -9 13.5 -19l-30 -184h-40l-30 184z" />
<glyph unicode="&#40;" horiz-adv-x="359" d="M216 -186q-24 42 -46.5 94q-22.5 52 -40 111q-17.5 59 -28.5 125q-11 66 -11 136q0 70 11 135.5q11 65.5 28.5 125q17.5 59.5 40 111.5q22.5 52 46.5 94l19 34l64 -27l-7 -15q-20 -44 -39 -93q-19 -49 -34 -105q-15 -56 -24 -120.5q-9 -64.5 -9 -139.5q0 -75 9 -139.5q9 -64.5 24 -120.5q15 -56 34 -105.5q19 -49.5 39 -92.5l7 -15l-64 -27l-19 34z" />
<glyph unicode="&#41;" horiz-adv-x="359" d="M67 -178q20 43 39 92.5q19 49.5 34 105.5q15 56 24 120.5q9 64.5 9 139.5q0 75 -9 139.5q-9 64.5 -24 120.5q-15 56 -34 105q-19 49 -39 93l-7 15l64 27l19 -34q24 -42 46.5 -94q22.5 -52 40 -111.5q17.5 -59.5 28.5 -125q11 -65.5 11 -135.5q0 -70 -11 -136q-11 -66 -28.5 -125q-17.5 -59 -40 -111q-22.5 -52 -46.5 -94l-19 -34l-64 27z" />
<glyph unicode="&#42;" horiz-adv-x="453" d="M204 493l-6 3l-97 -72q-14 6 -24.5 23q-10.5 17 -10.5 38l113 48v8l-113 48q0 17 9 34.5q9 17.5 26 25.5l98 -71l5 3l-13 121q4 5 14 7q10 2 21 2q11 0 21.5 -2q10.5 -2 15.5 -7l-15 -121l6 -2l97 70q15 -5 25.5 -23.5q10.5 -18.5 10.5 -36.5l-111 -47v-10l111 -47q0 -23 -11.5 -39.5q-11.5 -16.5 -24.5 -21.5l-96 72l-7 -4l15 -121q-5 -5 -15.5 -7q-10.5 -2 -21.5 -2q-11 0 -21 2q-10 2 -14 7z" />
<glyph unicode="&#43;" horiz-adv-x="662" d="M80 317v72h215v215h72v-215h215v-72h-215v-215h-72l0 215z" />
<glyph unicode="&#44;" horiz-adv-x="326" d="M100 -140q13 11 25 27q12 16 22 33q10 17 16 33.5q6 16.5 6 28.5q0 9 -11 13q-11 4 -23.5 9.5q-12.5 5.5 -23.5 17q-11 11.5 -11 36.5q0 29 19.5 45.5q19.5 16.5 40.5 16.5q29 0 47.5 -20.5q18.5 -20.5 18.5 -52.5q0 -17 -2.5 -39.5q-2.5 -22.5 -12.5 -49.5q-10 -27 -29.5 -58q-19.5 -31 -53.5 -64l-28 24z" />
<glyph unicode="&#45;" horiz-adv-x="487" d="M397 302v-72h-307l0 72z" />
<glyph unicode="&#46;" horiz-adv-x="326" d="M100 55q0 28 18 46.5q18 18.5 43 18.5q28 0 46.5 -18.5q18.5 -18.5 18.5 -46.5q0 -25 -18.5 -43q-18.5 -18 -46.5 -18q-25 0 -43 18t-18 43z" />
<glyph unicode="&#47;" horiz-adv-x="558" d="M437 780l71 -29l-406 -961l-72 30z" />
<glyph unicode="&#48;" horiz-adv-x="598" d="M42 350q0 87 18 154.5q18 67.5 51 113q33 45.5 80.5 69.5q47.5 24 106.5 24q59 0 107 -24q48 -24 81.5 -69.5q33.5 -45.5 51.5 -113q18 -67.5 18 -154.5q0 -87 -18 -154.5q-18 -67.5 -51.5 -113.5q-33.5 -46 -81.5 -69.5q-48 -23.5 -107 -23.5q-59 0 -106.5 23.5q-47.5 23.5 -80.5 69.5q-33 46 -51 113.5q-18 67.5 -18 154.5zt0 0zM453 349q0 161 -41 235q-41 74 -114 74q-73 0 -113 -74q-40 -74 -40 -235q0 -160 40 -233.5q40 -73.5 113 -73.5q73 0 114 73.5t41 233.5z" />
<glyph unicode="&#49;" horiz-adv-x="412" d="M138 50q24 0 32 14q8 14 8 43v520h-148v50h35q26 0 50.5 3q24.5 3 50 7.5q25.5 4.5 52 10.5q26.5 6 57.5 13l0 -661h87v-50h-276l0 50z" />
<glyph unicode="&#50;" horiz-adv-x="550" d="M189 198q64 57 103.5 100q39.5 43 61 80q21.5 37 29 71.5q7.5 34.5 7.5 74.5q0 18 -6 41q-6 23 -22 44q-16 21 -43 35q-27 14 -69 14q-16 0 -37 -5q-21 -5 -39.5 -18.5q-18.5 -13.5 -31 -37.5q-12.5 -24 -12.5 -61v-21h-84v102q19 19 45 36.5q26 17.5 56 30q30 12.5 64 20q34 7.5 69 7.5q64 0 105.5 -17.5q41.5 -17.5 66 -44.5q24.5 -27 34 -59q9.5 -32 9.5 -60q0 -44 -12 -82q-12 -38 -42 -80q-30 -42 -82 -93q-52 -51 -132 -121l-83 -72v-2h356l-20 -80h-447l0 60z" />
<glyph unicode="&#51;" horiz-adv-x="562" d="M40 173h83v-23q0 -36 14 -57.5q14 -21.5 35.5 -32.5q21.5 -11 46.5 -14.5q25 -3.5 47 -3.5q31 0 58 10q27 10 46.5 29.5q19.5 19.5 31 48.5q11.5 29 11.5 68q0 31 -11.5 56.5q-11.5 25.5 -31.5 42.5q-20 17 -47 26.5q-27 9.5 -58 9.5h-75v54h71q30 0 55.5 11q25.5 11 43.5 29.5q18 18.5 28.5 43q10.5 24.5 10.5 52.5q0 28 -8 52.5q-8 24.5 -24.5 43q-16.5 18.5 -42 29q-25.5 10.5 -60.5 10.5q-24 0 -46.5 -5.5q-22.5 -5.5 -40 -19q-17.5 -13.5 -28.5 -37.5q-11 -24 -11 -60v-23h-83v104q45 47 106.5 70.5q61.5 23.5 127.5 23.5q103 0 158.5 -48q55.5 -48 55.5 -128q0 -33 -11 -61q-11 -28 -30 -50q-19 -22 -46 -37q-27 -15 -58 -21l0 -4q72 -8 115.5 -53q43.5 -45 43.5 -118q0 -38 -16 -74q-16 -36 -47 -64.5q-31 -28.5 -77 -46q-46 -17.5 -107 -17.5q-72 0 -130 21q-58 21 -100 58z" />
<glyph unicode="&#52;" horiz-adv-x="592" d="M30 192v63l352 445h68v-430h112l-20 -78h-92v-192h-97v192zM355 572h-3l-239 -303v-2l242 0z" />
<glyph unicode="&#53;" horiz-adv-x="554" d="M50 161h83v-34q0 -28 12 -45q12 -17 29.5 -26q17.5 -9 37.5 -11.5q20 -2.5 37 -2.5q40 0 69 16q29 16 47.5 42.5q18.5 26.5 27 59.5q8.5 33 8.5 68q0 79 -36.5 122q-36.5 43 -101.5 43q-25 0 -43 -4q-18 -4 -32.5 -11.5q-14.5 -7.5 -27 -17.5q-12.5 -10 -25.5 -23l-52 7l45 356h359l-20 -80h-286l-28 -212h3q26 22 59 37q33 15 84 15q52 0 90.5 -17q38.5 -17 64 -47q25.5 -30 38 -70.5q12.5 -40.5 12.5 -87.5q0 -53 -18 -98q-18 -45 -51 -79q-33 -34 -78.5 -53q-45.5 -19 -99.5 -19q-69 0 -121 22q-52 22 -86 54z" />
<glyph unicode="&#54;" horiz-adv-x="567" d="M45 276q0 110 27 192q27 82 75.5 136q48.5 54 116 80.5q67.5 26.5 148.5 26.5q14 0 38.5 -2.5q24.5 -2.5 43.5 -6.5l-7 -51q-14 3 -36.5 4.5q-22.5 1.5 -35.5 1.5q-122 0 -193.5 -81.5q-71.5 -81.5 -79.5 -237.5l4 0q13 27 33 46.5q20 19.5 43.5 32.5q23.5 13 47.5 19q24 6 47 6q48 0 88 -14.5q40 -14.5 68 -43q28 -28.5 43.5 -69.5q15.5 -41 15.5 -94q0 -51 -18 -94q-18 -43 -50 -73.5q-32 -30.5 -75 -47.5q-43 -17 -94 -17q-59 0 -105.5 19.5q-46.5 19.5 -78.5 56.5q-32 37 -49 90q-17 53 -17 121zt0 0zM429 221q0 72 -32 114.5q-32 42.5 -101 42.5q-30 0 -54 -12.5q-24 -12.5 -43 -32q-19 -19.5 -31 -42.5q-12 -23 -18 -44q1 -103 39 -154q38 -51 103 -51q59 0 98 45.5t39 133.5z" />
<glyph unicode="&#55;" horiz-adv-x="506" d="M397 620h-233q-26 0 -44.5 -10q-18.5 -10 -18.5 -48v-32h-56v170h436v-49l-304 -651h-77l297 618z" />
<glyph unicode="&#56;" horiz-adv-x="567" d="M40 172q0 62 41 104.5q41 42.5 115 71.5l0 2q-46 18 -74 41q-28 23 -43.5 47q-15.5 24 -20.5 47.5q-5 23.5 -5 42.5q0 40 18.5 73.5q18.5 33.5 50 58q31.5 24.5 74 38q42.5 13.5 90.5 13.5q57 0 99 -14.5q42 -14.5 70 -38.5q28 -24 41.5 -56q13.5 -32 13.5 -67q0 -20 -6.5 -42q-6.5 -22 -23 -43.5q-16.5 -21.5 -44 -41q-27.5 -19.5 -69.5 -35.5l0 -2q82 -30 121 -82q39 -52 39 -111q0 -33 -15.5 -66.5q-15.5 -33.5 -46.5 -61q-31 -27.5 -78 -44.5q-47 -17 -109 -17q-49 0 -92.5 11.5q-43.5 11.5 -75.5 34.5q-32 23 -51 57.5q-19 34.5 -19 79.5zt0 0zM424 173q0 33 -13.5 57q-13.5 24 -36 41q-22.5 17 -50.5 29.5q-28 12.5 -56 22.5q-23 -6 -49 -18q-26 -12 -49 -30q-23 -18 -38 -43q-15 -25 -15 -59q0 -36 14 -60.5q14 -24.5 36.5 -40q22.5 -15.5 51.5 -22.5q29 -7 60 -7q32 0 58.5 10q26.5 10 46 27q19.5 17 30 41q10.5 24 10.5 52zt0 0zM433 533q0 60 -38 92q-38 32 -109 32q-27 0 -51 -9q-24 -9 -41.5 -25.5q-17.5 -16.5 -27.5 -39.5q-10 -23 -10 -51q0 -27 11 -47.5q11 -20.5 30 -36q19 -15.5 45.5 -27.5q26.5 -12 57.5 -23q72 23 102.5 58t30.5 77z" />
<glyph unicode="&#57;" horiz-adv-x="567" d="M80 49q14 -3 36.5 -4.5q22.5 -1.5 35.5 -1.5q122 0 193.5 81.5q71.5 81.5 79.5 237.5l-4 0q-14 -27 -33.5 -46.5q-19.5 -19.5 -43 -32.5q-23.5 -13 -48 -19q-24.5 -6 -46.5 -6q-48 0 -88 14.5q-40 14.5 -68 43q-28 28.5 -43.5 69.5q-15.5 41 -15.5 94q0 51 17.5 94q17.5 43 49 73.5q31.5 30.5 74.5 47.5q43 17 94 17q59 0 105.5 -19.5q46.5 -19.5 79 -56.5q32.5 -37 50 -90.5q17.5 -53.5 17.5 -120.5q0 -110 -27 -192q-27 -82 -75.5 -136q-48.5 -54 -116 -80.5q-67.5 -26.5 -148.5 -26.5q-14 0 -38.5 2.5q-24.5 2.5 -43.5 6.5zM417 453q-1 103 -40 154q-39 51 -104 51q-59 0 -97 -45.5q-38 -45.5 -38 -133.5q0 -72 32 -114.5q32 -42.5 101 -42.5q30 0 54 12.5q24 12.5 43 32q19 19.5 31 42.5t18 44z" />
<glyph unicode="&#58;" horiz-adv-x="326" d="M100 55q0 28 18 46.5q18 18.5 43 18.5q28 0 46.5 -18.5q18.5 -18.5 18.5 -46.5q0 -25 -18.5 -43q-18.5 -18 -46.5 -18q-25 0 -43 18q-18 18 -18 43zt0 0zM100 425q0 28 18 46.5q18 18.5 43 18.5q28 0 46.5 -18.5q18.5 -18.5 18.5 -46.5q0 -25 -18.5 -43q-18.5 -18 -46.5 -18q-25 0 -43 18t-18 43z" />
<glyph unicode="&#59;" horiz-adv-x="326" d="M100 -140q13 11 25 27q12 16 22 33q10 17 16 33.5q6 16.5 6 28.5q0 9 -11 13q-11 4 -23.5 9.5q-12.5 5.5 -23.5 17q-11 11.5 -11 36.5q0 29 19.5 45.5q19.5 16.5 40.5 16.5q29 0 47.5 -20.5q18.5 -20.5 18.5 -52.5q0 -17 -2.5 -39.5q-2.5 -22.5 -12.5 -49.5q-10 -27 -29.5 -58q-19.5 -31 -53.5 -64l-28 24zM100 425q0 28 18 46.5q18 18.5 43 18.5q28 0 46.5 -18.5q18.5 -18.5 18.5 -46.5q0 -25 -18.5 -43q-18.5 -18 -46.5 -18q-25 0 -43 18t-18 43z" />
<glyph unicode="&#60;" horiz-adv-x="650" d="M80 370l490 281v-79l-384 -218v-2l384 -218v-80l-490 282z" />
<glyph unicode="&#61;" horiz-adv-x="662" d="M582 288v-72h-502v72zM582 478v-72h-502l0 72z" />
<glyph unicode="&#62;" horiz-adv-x="650" d="M464 352v2l-384 218v79l490 -281v-34l-490 -282l0 80z" />
<glyph unicode="&#63;" horiz-adv-x="535" d="M292 392q24 21 42 39.5q18 18.5 29 37q11 18.5 16.5 38.5q5.5 20 5.5 43q0 18 -6.5 37q-6.5 19 -21.5 35q-15 16 -39.5 26q-24.5 10 -61.5 10q-21 0 -45.5 -4.5q-24.5 -4.5 -44.5 -17.5q-20 -13 -33.5 -36.5q-13.5 -23.5 -13.5 -60.5v-21h-84v102q19 19 45.5 36q26.5 17 57 29q30.5 12 65 19q34.5 7 69.5 7q64 0 106 -14q42 -14 67 -36.5q25 -22.5 35 -51.5q10 -29 10 -59q0 -33 -12 -61q-12 -28 -31 -51.5q-19 -23.5 -42.5 -43.5q-23.5 -20 -47.5 -37q-51 -37 -79 -73.5q-28 -36.5 -28 -84.5l-52 0q0 30 4.5 55.5q4.5 25.5 15 48.5q10.5 23 29 44.5q18.5 21.5 45.5 44.5zt0 0zM163 50q0 28 18 46.5q18 18.5 43 18.5q28 0 46.5 -18.5q18.5 -18.5 18.5 -46.5q0 -25 -18.5 -43q-18.5 -18 -46.5 -18q-25 0 -43 18t-18 43z" />
<glyph unicode="&#64;" horiz-adv-x="858" d="M70 247q0 75 26.5 142.5q26.5 67.5 74.5 118.5q48 51 114.5 81q66.5 30 146.5 30q72 0 136.5 -22q64.5 -22 113.5 -63q49 -41 77.5 -100q28.5 -59 28.5 -133q0 -67 -18.5 -114.5q-18.5 -47.5 -47 -78q-28.5 -30.5 -63 -44.5q-34.5 -14 -67.5 -14q-16 0 -32.5 3.5q-16.5 3.5 -30 11.5q-13.5 8 -22 22q-8.5 14 -8.5 35q0 5 0.5 13q0.5 8 2.5 15v0q-25 -40 -62.5 -69.5q-37.5 -29.5 -83.5 -29.5q-33 0 -56 12q-23 12 -37.5 32.5q-14.5 20.5 -21.5 46.5q-7 26 -7 55q0 43 11.5 90q11.5 47 35.5 86.5q24 39.5 62.5 65q38.5 25.5 92.5 25.5q36 0 61 -16q25 -16 39 -35l1 0l17 42h66q-7 -17 -12 -32.5q-5 -15.5 -7 -32.5l-29 -202q-2 -13 -3 -26q-1 -13 -1 -26q0 -17 8.5 -27.5q8.5 -10.5 22.5 -10.5q32 0 56.5 17q24.5 17 41 45q16.5 28 25 64.5q8.5 36.5 8.5 75.5q0 51 -20 99q-20 48 -58 85.5q-38 37.5 -93 60.5q-55 23 -126 23q-54 0 -108 -20.5q-54 -20.5 -97.5 -61q-43.5 -40.5 -71 -100q-27.5 -59.5 -27.5 -138.5q0 -77 24.5 -134.5q24.5 -57.5 66.5 -95.5q42 -38 97.5 -57q55.5 -19 117.5 -19q39 0 84 9q45 9 76 30l21 -49q-35 -20 -85 -31q-50 -11 -97 -11q-77 0 -143 23.5q-66 23.5 -115.5 69q-49.5 45.5 -77.5 112q-28 66.5 -28 152.5zt0 0zM524 374q-8 10 -24.5 23q-16.5 13 -51.5 13q-29 0 -53 -18q-24 -18 -41.5 -47.5q-17.5 -29.5 -27.5 -67.5q-10 -38 -10 -77q0 -38 13 -64.5q13 -26.5 48 -26.5q25 0 47.5 13.5q22.5 13.5 40 34q17.5 20.5 28.5 44q11 23.5 14 43.5z" />
<glyph unicode="&#65;" horiz-adv-x="840" d="M55 50q24 0 45.5 17q21.5 17 36.5 53l236 580h98l264 -650h80v-50h-279v50h42q17 0 24 11.5q7 11.5 7 25.5q0 8 -2 15.5q-2 7.5 -4 14.5l-32 83h-332l-32 -82q-9 -23 -9 -39q0 -14 6 -21.5q6 -7.5 22 -7.5h43v-50h-244v50zM437 534q-6 14 -14 38.5q-8 24.5 -13 42.5l-5 0q-8 -19 -17 -42q-9 -23 -15 -37l-116 -282l297 0z" />
<glyph unicode="&#66;" horiz-adv-x="669" d="M82 50q24 0 32 14q8 14 8 43v543h-87v50h336q43 0 85 -7q42 -7 75 -26.5q33 -19.5 53.5 -53.5q20.5 -34 20.5 -87q0 -28 -10 -53q-10 -25 -28 -45.5q-18 -20.5 -43 -35q-25 -14.5 -55 -20.5l0 -4q44 -7 73.5 -23.5q29.5 -16.5 47.5 -39.5q18 -23 26 -49.5q8 -26.5 8 -53.5q0 -61 -27 -100.5q-27 -39.5 -66.5 -62q-39.5 -22.5 -85.5 -31q-46 -8.5 -85 -8.5h-325v50zM360 53q26 0 54.5 8q28.5 8 52 25.5q23.5 17.5 39 46.5q15.5 29 15.5 71q0 59 -39 96q-39 37 -108 37h-155v-284zM360 388q21 0 46 7q25 7 46 22.5q21 15.5 35.5 41q14.5 25.5 14.5 62.5q0 59 -36 92.5q-36 33.5 -94 33.5h-153l0 -259z" />
<glyph unicode="&#67;" horiz-adv-x="661" d="M45 345q0 84 22.5 151.5q22.5 67.5 66 115q43.5 47.5 105.5 73.5q62 26 142 26q65 0 124.5 -21q59.5 -21 110.5 -68l0 -113h-87v14q0 45 -16 71.5q-16 26.5 -39 41q-23 14.5 -49.5 18.5q-26.5 4 -48.5 4q-60 0 -103 -28.5q-43 -28.5 -70.5 -74q-27.5 -45.5 -41 -101q-13.5 -55.5 -13.5 -109.5q0 -62 13 -117q13 -55 40 -96.5q27 -41.5 69 -65.5q42 -24 100 -24q22 0 49.5 3q27.5 3 52 15q24.5 12 41 35q16.5 23 16.5 62v17h87v-106q-49 -38 -113.5 -58.5q-64.5 -20.5 -132.5 -20.5q-68 0 -127.5 20q-59.5 20 -103.5 62.5q-44 42.5 -69 110t-25 163.5z" />
<glyph unicode="&#68;" horiz-adv-x="737" d="M82 50q24 0 32 14q8 14 8 43v543h-87v50h299q82 0 148.5 -17q66.5 -17 113 -56.5q46.5 -39.5 71.5 -105.5q25 -66 25 -164q0 -87 -29.5 -153.5q-29.5 -66.5 -79.5 -112q-50 -45.5 -115.5 -68.5q-65.5 -23 -138.5 -23h-294v50zM329 53q43 0 89.5 17.5q46.5 17.5 84 54q37.5 36.5 62 94q24.5 57.5 24.5 138.5q0 78 -18.5 133q-18.5 55 -52.5 90q-34 35 -81 51q-47 16 -104 16h-114l0 -594z" />
<glyph unicode="&#69;" horiz-adv-x="626" d="M82 50q24 0 32 14q8 14 8 43v543h-87v50h532v-177h-56v28q0 55 -25.5 75.5q-25.5 20.5 -59.5 20.5h-207v-265h177v80h56v-213h-56v80h-177v-276h219q15 0 30 4.5q15 4.5 26.5 15.5q11.5 11 18.5 29.5q7 18.5 7 46.5v35h56v-184h-541l0 50z" />
<glyph unicode="&#70;" horiz-adv-x="602" d="M82 50q24 0 32 14q8 14 8 43v543h-87v50h522v-180h-56v31q0 28 -7 46.5q-7 18.5 -19 29.5q-12 11 -27.5 15.5q-15.5 4.5 -31.5 4.5h-197v-276h177v80h56v-214h-56v81h-177v-268h92v-50h-276l0 50z" />
<glyph unicode="&#71;" horiz-adv-x="705" d="M45 345q0 84 23 151.5q23 67.5 67 115q44 47.5 106.5 73.5q62.5 26 142.5 26q65 0 126 -21.5q61 -21.5 112 -68.5l0 -113h-87v12q0 45 -16.5 72q-16.5 27 -40.5 42q-24 15 -51.5 19.5q-27.5 4.5 -49.5 4.5q-59 0 -102 -28.5q-43 -28.5 -71.5 -74q-28.5 -45.5 -42 -101q-13.5 -55.5 -13.5 -109.5q0 -62 12 -117q12 -55 38 -96.5q26 -41.5 67.5 -65.5q41.5 -24 100.5 -24q26 0 54 2.5q28 2.5 51.5 11.5q23.5 9 38.5 26.5q15 17.5 15 47.5v142h-85v50h250v-50h-33q-21 0 -30 -13q-9 -13 -9 -42v-155q-46 -33 -112.5 -53q-66.5 -20 -142.5 -20q-68 0 -126.5 20q-58.5 20 -101 62.5q-42.5 42.5 -66.5 110t-24 163.5z" />
<glyph unicode="&#72;" horiz-adv-x="791" d="M82 50q24 0 32 14q8 14 8 43v543h-87v50h266v-50h-47q-35 0 -35 -57v-200h353v257h-82v50h266v-50h-50q-37 0 -37 -57v-543h87v-50h-266v50h47q35 0 35 57v232h-353v-289h82v-50h-266l0 50z" />
<glyph unicode="&#73;" horiz-adv-x="351" d="M87 50q24 0 32 14q8 14 8 43v543h-92v50h281v-50h-52q-24 0 -32 -14q-8 -14 -8 -43v-543h92v-50h-281l0 50z" />
<glyph unicode="&#74;" horiz-adv-x="544" d="M50 148h83v-33q0 -41 21 -57q21 -16 58 -16q57 0 87.5 40q30.5 40 30.5 119v449h-92v50h276v-50h-47q-24 0 -32 -14q-8 -14 -8 -43v-379q0 -58 -17 -100.5q-17 -42.5 -46.5 -70q-29.5 -27.5 -69 -41q-39.5 -13.5 -84.5 -13.5q-44 0 -86 11.5q-42 11.5 -74 37.5z" />
<glyph unicode="&#75;" horiz-adv-x="722" d="M82 50q24 0 32 14q8 14 8 43v543h-87v50h265v-50h-28q-29 0 -41 -9q-12 -9 -12 -45v-200h99l158 197q15 20 15 34q0 10 -7 16.5q-7 6.5 -23 6.5h-37v50h254v-50h-6q-39 0 -70.5 -19q-31.5 -19 -56.5 -49l-159 -198l234 -334h82v-50h-165l-232 342h-86v-292h82v-50h-266l0 50z" />
<glyph unicode="&#76;" horiz-adv-x="596" d="M82 50q24 0 32 14q8 14 8 43v543h-87v50h271v-50h-47q-24 0 -32 -14q-8 -14 -8 -43v-540h202q13 0 26 4.5q13 4.5 23.5 15.5q10.5 11 17.5 29.5q7 18.5 7 46.5v41h56v-190h-516l0 50z" />
<glyph unicode="&#77;" horiz-adv-x="922" d="M71 50q15 0 24 7.5q9 7.5 13.5 19.5q4.5 12 6.5 27q2 15 3 29l41 517h-87v50h196l159 -381q8 -20 13.5 -40.5q5.5 -20.5 11.5 -40.5l5 0q5 20 12.5 41q7.5 21 15.5 40l164 381h203v-50h-55q-20 0 -26 -16q-6 -16 -6 -37q0 -5 0 -9q0 -4 1 -12l44 -526h87v-50h-277v50h52q20 0 25.5 14q5.5 14 5.5 34q0 7 0 14q0 7 -1 14l-29 352q-2 18 -2 48.5q0 30.5 -2 54.5l-5 0l-183 -434h-71l-187 434h-5q0 -20 -1.5 -51q-1.5 -31 -3.5 -53l-26 -344q-1 -8 -1.5 -15q-0.5 -7 -0.5 -15q0 -21 7.5 -37q7.5 -16 31.5 -16h46v-50h-245l0 50z" />
<glyph unicode="&#78;" horiz-adv-x="809" d="M82 50q24 0 32 16.5q8 16.5 8 45.5v538h-87v50h184l341 -487q18 -25 34 -54.5q16 -29.5 26 -47.5l4 0q0 11 -1 25.5q-1 14.5 -1.5 28.5q-0.5 14 -1 27q-0.5 13 -0.5 22v374q0 29 -8 45.5q-8 16.5 -32 16.5h-47v50h241v-50h-47q-24 0 -32 -16.5q-8 -16.5 -8 -45.5v-588h-87l-356 508q-19 26 -32.5 50.5q-13.5 24.5 -22.5 42.5l-4 0q0 -10 1 -25q1 -15 1.5 -31q0.5 -16 1 -31q0.5 -15 0.5 -25v-377q0 -29 8 -45.5q8 -16.5 32 -16.5h47v-50h-241l0 50z" />
<glyph unicode="&#79;" horiz-adv-x="760" d="M45 350q0 81 23 147.5q23 66.5 66.5 114q43.5 47.5 105.5 73.5q62 26 140 26q78 0 140 -26q62 -26 105.5 -73.5q43.5 -47.5 66.5 -114q23 -66.5 23 -147.5q0 -81 -23.5 -147.5q-23.5 -66.5 -67 -114q-43.5 -47.5 -105.5 -73.5q-62 -26 -139 -26q-77 0 -139 26q-62 26 -105.5 73.5q-43.5 47.5 -67 114q-23.5 66.5 -23.5 147.5zt0 0zM612 350q0 30 -4.5 64.5q-4.5 34.5 -14.5 68.5q-10 34 -27.5 66q-17.5 32 -43 56q-25.5 24 -61 38.5q-35.5 14.5 -81.5 14.5q-46 0 -81.5 -14.5q-35.5 -14.5 -61 -38.5q-25.5 -24 -43 -56q-17.5 -32 -27.5 -66q-10 -34 -14.5 -68.5q-4.5 -34.5 -4.5 -64.5q0 -45 10 -99q10 -54 36.5 -100.5q26.5 -46.5 71.5 -77.5q45 -31 114 -31q69 0 114 31q45 31 71.5 77.5q26.5 46.5 36.5 100.5t10 99z" />
<glyph unicode="&#80;" horiz-adv-x="632" d="M82 50q24 0 32 14q8 14 8 43v543h-87v50h314q42 0 87 -7q45 -7 82 -28.5q37 -21.5 60.5 -62q23.5 -40.5 23.5 -106.5q0 -55 -20.5 -96q-20.5 -41 -56 -68.5q-35.5 -27.5 -83 -41q-47.5 -13.5 -101.5 -13.5h-122v-227h102v-50h-286v50zM339 331q20 0 47.5 8q27.5 8 53 27q25.5 19 43.5 50.5q18 31.5 18 78.5q0 45 -16 74.5q-16 29.5 -40 47q-24 17.5 -50.5 24q-26.5 6.5 -47.5 6.5h-129l0 -316z" />
<glyph unicode="&#81;" horiz-adv-x="760" d="M410 -9q-6 -1 -14 -1.5q-8 -0.5 -16 -0.5q-77 0 -139 26q-62 26 -105.5 73.5q-43.5 47.5 -67 114q-23.5 66.5 -23.5 147.5q0 81 23 147.5q23 66.5 66.5 114q43.5 47.5 105.5 73.5q62 26 140 26q78 0 140 -26q62 -26 105.5 -73.5q43.5 -47.5 66.5 -114q23 -66.5 23 -147.5q0 -133 -61 -223.5q-61 -90.5 -168 -122.5q32 -17 69 -32q37 -15 82 -15h40v-90q-15 -4 -33 -4q-35 0 -67.5 13.5q-32.5 13.5 -62.5 33q-30 19.5 -56.5 42q-26.5 22.5 -47.5 39.5zt0 0zM612 350q0 30 -4.5 64.5q-4.5 34.5 -14.5 68.5q-10 34 -27.5 66q-17.5 32 -43 56q-25.5 24 -61 38.5q-35.5 14.5 -81.5 14.5q-46 0 -81.5 -14.5q-35.5 -14.5 -61 -38.5q-25.5 -24 -43 -56q-17.5 -32 -27.5 -66q-10 -34 -14.5 -68.5q-4.5 -34.5 -4.5 -64.5q0 -45 10 -99q10 -54 36.5 -100.5q26.5 -46.5 71.5 -77.5q45 -31 114 -31q69 0 114 31q45 31 71.5 77.5q26.5 46.5 36.5 100.5t10 99z" />
<glyph unicode="&#82;" horiz-adv-x="708" d="M82 50q24 0 32 14q8 14 8 43v543h-87v50h340q30 0 68 -6.5q38 -6.5 71.5 -27.5q33.5 -21 56.5 -60.5q23 -39.5 23 -104.5q0 -69 -46 -122q-46 -53 -126 -72l177 -257h82v-50h-168l-194 294h-100v-244h82v-50h-266v50zM335 347q29 0 57.5 10q28.5 10 51.5 29.5q23 19.5 37 48q14 28.5 14 66.5q0 37 -12.5 64.5q-12.5 27.5 -33 45.5q-20.5 18 -46 27q-25.5 9 -51.5 9h-134l0 -300z" />
<glyph unicode="&#83;" horiz-adv-x="612" d="M55 191h86v-22q0 -35 13.5 -59q13.5 -24 36.5 -39q23 -15 53 -22q30 -7 62 -7q40 0 69 11.5q29 11.5 48 30q19 18.5 28 41.5q9 23 9 46q0 42 -28.5 77q-28.5 35 -106.5 58l-66 19q-102 29 -145.5 77q-43.5 48 -43.5 120q0 39 16.5 73.5q16.5 34.5 47 60q30.5 25.5 73.5 40.5q43 15 97 15q41 0 77 -9.5q36 -9.5 64.5 -22.5q28.5 -13 48.5 -28q20 -15 30 -25l0 -110h-86v22q0 61 -38 90.5q-38 29.5 -98 29.5q-39 0 -64.5 -12.5q-25.5 -12.5 -41.5 -31.5q-16 -19 -22.5 -40q-6.5 -21 -6.5 -38q0 -45 25 -79.5q25 -34.5 88 -53.5l76 -23q61 -18 100.5 -39.5q39.5 -21.5 61.5 -46.5q22 -25 30.5 -54q8.5 -29 8.5 -63q0 -36 -17.5 -69.5q-17.5 -33.5 -50 -60q-32.5 -26.5 -79.5 -42.5q-47 -16 -106 -16q-41 0 -78.5 7.5q-37.5 7.5 -69.5 20.5q-32 13 -57.5 29.5q-25.5 16.5 -43.5 33.5z" />
<glyph unicode="&#84;" horiz-adv-x="653" d="M238 50q24 0 32 14q8 14 8 43v540h-90q-16 0 -31.5 -3.5q-15.5 -3.5 -28 -13.5q-12.5 -10 -20 -27q-7.5 -17 -7.5 -45v-45h-56v187h563v-187h-56v45q0 28 -7.5 45q-7.5 17 -20 27q-12.5 10 -28 13.5q-15.5 3.5 -31.5 3.5h-90v-597h92v-50h-281l0 50z" />
<glyph unicode="&#85;" horiz-adv-x="783" d="M117 650h-87v50h266v-50h-42q-24 0 -32 -14q-8 -14 -8 -43v-352q0 -41 9 -76.5q9 -35.5 30.5 -61q21.5 -25.5 56.5 -40q35 -14.5 87 -14.5q51 0 89 15q38 15 63 41q25 26 37.5 61q12.5 35 12.5 75v347q0 29 -8 45.5q-8 16.5 -32 16.5h-47v50h241v-50h-47q-24 0 -32 -16.5q-8 -16.5 -8 -45.5v-347q0 -61 -19 -108q-19 -47 -54.5 -79q-35.5 -32 -85.5 -48.5q-50 -16.5 -112 -16.5q-64 0 -115.5 15.5q-51.5 15.5 -87.5 47q-36 31.5 -55.5 79q-19.5 47.5 -19.5 110.5z" />
<glyph unicode="&#86;" horiz-adv-x="804" d="M25 650v50h279v-50h-42q-17 0 -24 -11.5q-7 -11.5 -7 -25.5q0 -8 2 -15.5q2 -7.5 4 -14.5l147 -417q5 -14 12.5 -38.5q7.5 -24.5 12.5 -42.5l5 0q6 18 14.5 41.5q8.5 23.5 13.5 37.5l155 417q8 22 8 36q0 33 -41 33h-29v50h244v-50h-26q-27 0 -49.5 -17q-22.5 -17 -36.5 -53l-220 -580h-97l-245 650z" />
<glyph unicode="&#87;" horiz-adv-x="1116" d="M30 650v50h270v-50h-42q-17 0 -23 -9.5q-6 -9.5 -6 -23.5q0 -14 3.5 -29.5q3.5 -15.5 7.5 -29.5l93 -370q5 -23 9 -49.5q4 -26.5 7 -46.5l6 0q5 20 9.5 43.5q4.5 23.5 12.5 52.5l146 512h99l135 -514q8 -28 12.5 -53q4.5 -25 7.5 -45l6 0q4 20 10 44.5q6 24.5 14 55.5l100 371q4 16 6.5 28.5q2.5 12.5 2.5 23.5q0 39 -44 39h-28v50h242v-50h-25q-29 0 -49.5 -18.5q-20.5 -18.5 -35.5 -73.5l-156 -558h-98l-139 503q-5 20 -9.5 45q-4.5 25 -9.5 49l-6 0q-6 -27 -12 -50q-6 -23 -12 -44l-148 -503h-98l-177 650z" />
<glyph unicode="&#88;" horiz-adv-x="708" d="M37 50q34 0 57.5 19q23.5 19 44.5 51l162 246l-186 284h-78v50h283v-50h-38q-15 0 -22 -9q-7 -9 -7 -22q0 -10 3 -20.5q3 -10.5 10 -19.5l67 -101q16 -24 29 -50l5 0q8 15 14 26.5q6 11.5 14 23.5l65 102q18 30 18 46q0 24 -31 24h-28v50h229v-50h-12q-34 0 -57.5 -19q-23.5 -19 -44.5 -51l-134 -202l205 -328h78v-50h-285v50h40q15 0 22 9q7 9 7 22q0 19 -13 40l-84 138q-8 12 -15.5 25.5q-7.5 13.5 -14.5 25.5l-5 0q-15 -27 -31 -51l-91 -139q-18 -28 -18 -46q0 -24 31 -24h29v-50h-230l0 50z" />
<glyph unicode="&#89;" horiz-adv-x="736" d="M277 50q24 0 32 14q8 14 8 43v135l-214 408h-78v50h278v-50h-41q-18 0 -25.5 -8q-7.5 -8 -7.5 -21q0 -20 12 -42l108 -212q8 -14 14 -31q6 -17 12 -34l5 0q7 18 14.5 34q7.5 16 15.5 31l119 219q13 23 13 40q0 24 -31 24h-32v50h232v-50h-28q-25 0 -46.5 -19q-21.5 -19 -35.5 -45l-187 -344v-192h90v-50h-277l0 50z" />
<glyph unicode="&#90;" horiz-adv-x="614" d="M411 581q16 23 27.5 38q11.5 15 19.5 25l0 3h-238q-16 0 -30.5 -4.5q-14.5 -4.5 -26 -15.5q-11.5 -11 -18.5 -29.5q-7 -18.5 -7 -46.5v-41h-56v190h483v-50l-359 -525q-6 -8 -13.5 -17.5q-7.5 -9.5 -15 -19q-7.5 -9.5 -14.5 -18q-7 -8.5 -11 -14.5l0 -3h287q13 0 26 4.5q13 4.5 23.5 15.5q10.5 11 17.5 29.5q7 18.5 7 46.5v41h56v-190h-524l0 50z" />
<glyph unicode="&#91;" horiz-adv-x="380" d="M330 780v-50h-89q-23 0 -32 -12q-9 -12 -9 -44v-834h130v-50h-220l0 990z" />
<glyph unicode="&#92;" horiz-adv-x="558" d="M121 780l407 -960l-72 -30l-406 961z" />
<glyph unicode="&#93;" horiz-adv-x="380" d="M139 -160q23 0 32 12q9 12 9 44v834h-130v50h220v-990h-220l0 50z" />
<glyph unicode="&#94;" horiz-adv-x="549" d="M289 700l195 -295h-87l-123 190l-122 -190h-87l195 295z" />
<glyph unicode="&#95;" horiz-adv-x="510" d="M510 -185v-65h-510l0 65z" />
<glyph unicode="&#96;" horiz-adv-x="572" d="M248 702l78 -138h-52l-134 138z" />
<glyph unicode="&#97;" horiz-adv-x="587" d="M55 129q0 48 21.5 78.5q21.5 30.5 56 47q34.5 16.5 77 22.5q42.5 6 84.5 6h95v45q0 63 -31.5 94q-31.5 31 -77.5 31q-17 0 -34.5 -3.5q-17.5 -3.5 -31 -12q-13.5 -8.5 -22 -22.5q-8.5 -14 -8.5 -35v-32h-83v79q40 32 94 53q54 21 123 21q43 0 74 -12.5q31 -12.5 51 -35.5q20 -23 29.5 -55q9.5 -32 9.5 -71v-282h80v-45h-172v89h-2q-14 -16 -33 -33.5q-19 -17.5 -43 -32.5q-24 -15 -52.5 -24.5q-28.5 -9.5 -60.5 -9.5q-31 0 -57.5 10q-26.5 10 -45.5 28q-19 18 -30 44q-11 26 -11 58zt0 0zM389 236h-85q-24 0 -50.5 -3.5q-26.5 -3.5 -49 -14.5q-22.5 -11 -37 -30.5q-14.5 -19.5 -14.5 -50.5q0 -36 20.5 -56q20.5 -20 67.5 -20q18 0 43.5 6q25.5 6 49 19.5q23.5 13.5 39.5 35q16 21.5 16 53.5z" />
<glyph unicode="&#98;" horiz-adv-x="603" d="M178 56l-14 -56h-69v695h-80v45h173v-293q0 -12 -0.5 -25q-0.5 -13 -1.5 -26l2 0q13 19 31 38q18 19 41.5 34q23.5 15 52 24q28.5 9 61.5 9q49 0 85 -18q36 -18 59.5 -50q23.5 -32 35 -76.5q11.5 -44.5 11.5 -96.5q0 -59 -15 -108.5q-15 -49.5 -44.5 -85.5q-29.5 -36 -73 -56.5q-43.5 -20.5 -100.5 -20.5q-45 0 -85.5 20q-40.5 20 -66.5 47zM467 250q0 30 -5 62q-5 32 -19.5 58q-14.5 26 -39.5 42.5q-25 16.5 -64 16.5q-22 0 -48.5 -7.5q-26.5 -7.5 -49.5 -22.5q-23 -15 -38.5 -38q-15.5 -23 -15.5 -54v-203q21 -18 51 -35q30 -17 77 -17q68 0 110 48t42 150z" />
<glyph unicode="&#99;" horiz-adv-x="492" d="M35 238q0 68 19.5 117.5q19.5 49.5 53 82q33.5 32.5 77.5 48q44 15.5 93 15.5q32 0 59 -6.5q27 -6.5 49 -17q22 -10.5 38 -23.5q16 -13 26 -25l0 -87h-79v13q0 31 -9 50.5q-9 19.5 -23 31q-14 11.5 -31.5 15.5q-17.5 4 -34.5 4q-39 0 -66 -18q-27 -18 -43.5 -48q-16.5 -30 -23.5 -69.5q-7 -39.5 -7 -81.5q0 -39 8 -74.5q8 -35.5 26.5 -62.5q18.5 -27 47.5 -43.5q29 -16.5 71 -16.5q48 0 80.5 20q32.5 20 61.5 53l34 -32q-14 -17 -32.5 -34q-18.5 -17 -42.5 -30.5q-24 -13.5 -53.5 -21.5q-29.5 -8 -63.5 -8q-45 0 -87.5 14.5q-42.5 14.5 -75 44.5q-32.5 30 -52.5 77t-20 113z" />
<glyph unicode="&#100;" horiz-adv-x="613" d="M38 230q0 63 16.5 113q16.5 50 46.5 85.5q30 35.5 72.5 54q42.5 18.5 95.5 18.5q45 0 81.5 -16.5q36.5 -16.5 64.5 -42.5l2 0q-1 14 -1.5 29.5q-0.5 15.5 -0.5 23.5v200h-80v45h173v-695h80v-45h-172v93h-2q-13 -19 -31 -37.5q-18 -18.5 -41 -33.5q-23 -15 -51.5 -24q-28.5 -9 -61.5 -9q-47 0 -82.5 18q-35.5 18 -59.5 50.5q-24 32.5 -36.5 76.5q-12.5 44 -12.5 96zt0 0zM416 386q-10 9 -22 18q-12 9 -28 16.5q-16 7.5 -36 12.5q-20 5 -45 5q-45 0 -73.5 -18.5q-28.5 -18.5 -45.5 -48.5q-17 -30 -23.5 -67.5q-6.5 -37.5 -6.5 -74.5q0 -25 5 -54.5q5 -29.5 19.5 -54.5q14.5 -25 39.5 -42q25 -17 64 -17q22 0 48.5 7.5q26.5 7.5 49.5 22.5q23 15 38.5 38q15.5 23 15.5 54z" />
<glyph unicode="&#101;" horiz-adv-x="520" d="M35 242q0 60 18.5 107.5q18.5 47.5 51 81.5q32.5 34 75.5 52q43 18 93 18q60 0 101 -18.5q41 -18.5 65.5 -49q24.5 -30.5 35 -69.5q10.5 -39 10.5 -79v-43h-352q0 -30 7 -65q7 -35 24.5 -65q17.5 -30 48 -50q30.5 -20 77.5 -20q43 0 82.5 17q39.5 17 74.5 58l33 -33q-38 -45 -89.5 -70q-51.5 -25 -115.5 -25q-45 0 -88 14q-43 14 -77 44.5q-34 30.5 -54.5 78.5q-20.5 48 -20.5 116zt0 0zM390 290q-1 78 -30 122q-29 44 -87 44q-24 0 -47.5 -11q-23.5 -11 -42 -32q-18.5 -21 -31.5 -52q-13 -31 -16 -71z" />
<glyph unicode="&#102;" horiz-adv-x="390" d="M92 45q19 0 26 11.5q7 11.5 7 38.5v350h-90v45h90v32q0 116 47 167q47 51 133 51q36 0 63.5 -7.5q27.5 -7.5 51.5 -21.5l0 -78h-66v11q0 22 -13 36.5q-13 14.5 -44 14.5q-79 0 -79 -142v-63h152v-45h-152v-400h77v-45h-240l0 45z" />
<glyph unicode="&#103;" horiz-adv-x="580" d="M45 -136q0 39 18 61q18 22 44 39l59 -15q-26 -36 -26 -64q0 -45 46.5 -70q46.5 -25 124.5 -25q37 0 69 7q32 7 56 19.5q24 12.5 37.5 31q13.5 18.5 13.5 41.5q0 11 -4 23.5q-4 12.5 -20 24.5q-16 12 -46.5 21q-30.5 9 -83.5 12l-76 5q-37 3 -68.5 8.5q-31.5 5.5 -54 15.5q-22.5 10 -35 25.5q-12.5 15.5 -12.5 37.5q0 35 22.5 58q22.5 23 57.5 46l0 2q-43 17 -63.5 57q-20.5 40 -20.5 94q0 43 16.5 77q16.5 34 44 57.5q27.5 23.5 64.5 35.5q37 12 78 12q26 0 64 -8q38 -8 72 -33q23 24 37.5 51q14.5 27 22.5 50l63 -31q-17 -29 -40 -53.5q-23 -24.5 -54 -44.5q17 -20 27.5 -47.5q10.5 -27.5 10.5 -65.5q0 -33 -13.5 -65.5q-13.5 -32.5 -39.5 -58.5q-26 -26 -63.5 -42q-37.5 -16 -86.5 -16q-20 0 -44.5 4q-24.5 4 -37.5 9q-11 -8 -22 -19.5q-11 -11.5 -11 -28.5q0 -9 4 -16.5q4 -7.5 15.5 -14q11.5 -6.5 31.5 -11.5q20 -5 53 -7l76 -5q63 -4 101 -18q38 -14 59 -34q21 -20 27.5 -44q6.5 -24 6.5 -49q0 -39 -19.5 -69.5q-19.5 -30.5 -53.5 -51.5q-34 -21 -80.5 -32q-46.5 -11 -101.5 -11q-72 0 -119.5 13q-47.5 13 -75 31.5q-27.5 18.5 -39 40.5q-11.5 22 -11.5 40zt0 0zM391 319q0 40 -10.5 66.5q-10.5 26.5 -26.5 42.5q-16 16 -34 22q-18 6 -34 6q-16 0 -34.5 -6q-18.5 -6 -34 -22q-15.5 -16 -26 -42.5q-10.5 -26.5 -10.5 -66.5q0 -28 6.5 -53q6.5 -25 19 -43.5q12.5 -18.5 32.5 -29.5q20 -11 47 -11q27 0 47 11q20 11 32.5 29.5q12.5 18.5 19 43.5t6.5 53z" />
<glyph unicode="&#104;" horiz-adv-x="633" d="M72 45q19 0 26 11.5q7 11.5 7 38.5v600h-80v45h173v-261q0 -13 -0.5 -39.5q-0.5 -26.5 -0.5 -48.5l2 0q16 22 37.5 42q21.5 20 47 35q25.5 15 54.5 24q29 9 59 9q37 0 63.5 -11.5q26.5 -11.5 43.5 -32q17 -20.5 25.5 -49q8.5 -28.5 8.5 -62.5v-301h70v-45h-229v45h34q17 0 24.5 11.5q7.5 11.5 7.5 38.5v227q0 23 -4 42.5q-4 19.5 -13.5 34q-9.5 14.5 -26.5 22.5q-17 8 -43 8q-24 0 -52 -8q-28 -8 -52 -24q-24 -16 -40 -39.5q-16 -23.5 -16 -54.5v-258h66v-45h-229l0 45z" />
<glyph unicode="&#105;" horiz-adv-x="298" d="M77 45q19 0 26 11.5q7 11.5 7 38.5v350h-80v45h173v-445h70v-45h-233v45zM88 634q0 26 18 44q18 18 42 18q26 0 44 -18q18 -18 18 -44q0 -24 -18 -42q-18 -18 -44 -18q-24 0 -42 18t-18 42z" />
<glyph unicode="&#106;" horiz-adv-x="290" d="M15 -206q32 4 51 17.5q19 13.5 28.5 38q9.5 24.5 12.5 60.5q3 36 3 84v451h-80v45h173v-533q0 -45 -9.5 -82.5q-9.5 -37.5 -31.5 -65.5q-22 -28 -58 -46q-36 -18 -89 -24zM88 634q0 26 18 44q18 18 42 18q26 0 44 -18q18 -18 18 -44q0 -24 -18 -42q-18 -18 -44 -18q-24 0 -42 18t-18 42z" />
<glyph unicode="&#107;" horiz-adv-x="595" d="M72 45q19 0 26 11.5q7 11.5 7 38.5v600h-80v45h173v-451h69l124 122q13 13 13 21q0 13 -18 13h-34v45h218v-45h-6q-23 0 -55.5 -14q-32.5 -14 -55.5 -36l-126 -121l182 -229h66v-45h-144l-184 241h-49v-196h66v-45h-229l0 45z" />
<glyph unicode="&#108;" horiz-adv-x="293" d="M72 45q19 0 26 11.5q7 11.5 7 38.5v600h-80v45h173v-695h70v-45h-233l0 45z" />
<glyph unicode="&#109;" horiz-adv-x="938" d="M72 45q19 0 26 11.5q7 11.5 7 38.5v350h-80v45h172v-99h2q14 21 33 41q19 20 43 35q24 15 51.5 24.5q27.5 9.5 57.5 9.5q53 0 87 -28q34 -28 47 -82l2 0q15 20 34 40q19 20 41.5 35.5q22.5 15.5 48 25q25.5 9.5 54.5 9.5q74 0 109.5 -45.5q35.5 -45.5 35.5 -120.5v-290h70v-45h-226v45h31q17 0 24.5 11.5q7.5 11.5 7.5 38.5v227q0 24 -3 43.5q-3 19.5 -12 34q-9 14.5 -25 22q-16 7.5 -41 7.5q-22 0 -48 -9q-26 -9 -48.5 -25.5q-22.5 -16.5 -37.5 -40q-15 -23.5 -15 -51.5v-258h62v-45h-217v45h31q17 0 24.5 11.5q7.5 11.5 7.5 38.5v227q0 24 -3.5 43.5q-3.5 19.5 -12 33.5q-8.5 14 -24 22q-15.5 8 -39.5 8q-25 0 -52 -9.5q-27 -9.5 -49 -26q-22 -16.5 -36 -39.5q-14 -23 -14 -51v-258h62v-45h-225l0 45z" />
<glyph unicode="&#110;" horiz-adv-x="633" d="M72 45q19 0 26 11.5q7 11.5 7 38.5v350h-80v45h172v-99h2q16 22 37.5 42q21.5 20 47 35q25.5 15 54.5 24q29 9 59 9q37 0 63.5 -11.5q26.5 -11.5 43.5 -32q17 -20.5 25.5 -49q8.5 -28.5 8.5 -62.5v-301h70v-45h-229v45h34q17 0 24.5 11.5q7.5 11.5 7.5 38.5v227q0 23 -4 42.5q-4 19.5 -13.5 34q-9.5 14.5 -26.5 22.5q-17 8 -43 8q-24 0 -52 -8q-28 -8 -52 -24q-24 -16 -40 -39.5q-16 -23.5 -16 -54.5v-258h66v-45h-229l0 45z" />
<glyph unicode="&#111;" horiz-adv-x="572" d="M35 244q0 61 19 109q19 48 53 81q34 33 80 50q46 17 99 17q54 0 99.5 -17q45.5 -17 79.5 -50q34 -33 53 -81q19 -48 19 -109q0 -61 -19 -108.5q-19 -47.5 -53 -80q-34 -32.5 -79.5 -49.5q-45.5 -17 -99.5 -17q-53 0 -99 17q-46 17 -80 49.5q-34 32.5 -53 80q-19 47.5 -19 108.5zt0 0zM439 244q0 15 -2 36.5q-2 21.5 -8 45q-6 23.5 -16.5 47q-10.5 23.5 -27.5 42q-17 18.5 -41.5 30q-24.5 11.5 -57.5 11.5q-33 0 -57.5 -11.5q-24.5 -11.5 -41.5 -30q-17 -18.5 -27.5 -42q-10.5 -23.5 -16.5 -47q-6 -23.5 -8 -45q-2 -21.5 -2 -36.5q0 -22 5 -57.5q5 -35.5 21 -69.5q16 -34 46.5 -58.5q30.5 -24.5 80.5 -24.5q50 0 80.5 24.5q30.5 24.5 46.5 58.5q16 34 21 69.5t5 57.5z" />
<glyph unicode="&#112;" horiz-adv-x="613" d="M72 -205q19 0 26 11.5q7 11.5 7 38.5v600h-80v45h172v-94h2q13 19 31 38q18 19 41 34q23 15 51.5 24q28.5 9 61.5 9q49 0 85 -18q36 -18 59.5 -50.5q23.5 -32.5 35 -76.5q11.5 -44 11.5 -96q0 -61 -16.5 -111q-16.5 -50 -46.5 -85.5q-30 -35.5 -72 -55q-42 -19.5 -93 -19.5q-48 0 -83.5 17q-35.5 17 -65.5 43l-2 0q1 -14 1.5 -29.5q0.5 -15.5 0.5 -23.5v-201h82v-45h-245v45zM477 250q0 30 -5 62q-5 32 -19.5 58q-14.5 26 -39.5 42.5q-25 16.5 -64 16.5q-22 0 -48.5 -7.5q-26.5 -7.5 -49.5 -22.5q-23 -15 -38.5 -38q-15.5 -23 -15.5 -54v-203q10 -9 21.5 -18.5q11.5 -9.5 27.5 -17q16 -7.5 36 -12q20 -4.5 46 -4.5q67 0 108 49t41 149z" />
<glyph unicode="&#113;" horiz-adv-x="593" d="M382 -205q19 0 26 11.5q7 11.5 7 38.5v198q0 12 0.5 25q0.5 13 1.5 26l-2 0q-13 -20 -31.5 -38.5q-18.5 -18.5 -41.5 -33.5q-23 -15 -51 -24q-28 -9 -60 -9q-49 0 -85 18.5q-36 18.5 -60 51q-24 32.5 -36 76q-12 43.5 -12 93.5q0 62 15.5 112.5q15.5 50.5 45 86q29.5 35.5 73 55q43.5 19.5 99.5 19.5q51 0 88.5 -20.5q37.5 -20.5 63.5 -46.5l2 0l14 56h69v-695h70v-45h-245v45zM416 386q-22 20 -53.5 36q-31.5 16 -76.5 16q-67 0 -108.5 -50.5q-41.5 -50.5 -41.5 -158.5q0 -24 5 -53.5q5 -29.5 19 -55q14 -25.5 39 -42.5q25 -17 64 -17q22 0 48.5 7.5q26.5 7.5 50 22.5q23.5 15 39 38q15.5 23 15.5 54z" />
<glyph unicode="&#114;" horiz-adv-x="414" d="M72 45q19 0 26 11.5q7 11.5 7 38.5v350h-80v45h172v-109h2q22 33 40.5 56q18.5 23 38.5 37q20 14 43 20.5q23 6.5 53 6.5l0 -96h-44q-62 0 -97 -31q-35 -31 -35 -87v-242h77v-45h-240l0 45z" />
<glyph unicode="&#115;" horiz-adv-x="493" d="M45 134h76v-11q0 -24 10.5 -41q10.5 -17 28 -27.5q17.5 -10.5 41 -15.5q23.5 -5 49.5 -5q31 0 53 7q22 7 36 18.5q14 11.5 20.5 25.5q6.5 14 6.5 29q0 32 -24 52q-24 20 -87 38l-59 17q-40 12 -66.5 26q-26.5 14 -42.5 31.5q-16 17.5 -23 39.5q-7 22 -7 49q0 28 12 52.5q12 24.5 35.5 42.5q23.5 18 58.5 28.5q35 10.5 81 10.5q34 0 63 -6.5q29 -6.5 51.5 -16q22.5 -9.5 39 -20q16.5 -10.5 24.5 -18.5l0 -76h-76v11q0 22 -9 37q-9 15 -24 25q-15 10 -35.5 14.5q-20.5 4.5 -44.5 4.5q-29 0 -47 -8q-18 -8 -29 -19.5q-11 -11.5 -15 -25q-4 -13.5 -4 -25.5q0 -30 22 -49.5q22 -19.5 70 -33.5l62 -18q48 -14 78.5 -28.5q30.5 -14.5 48 -32q17.5 -17.5 23.5 -39q6 -21.5 6 -48.5q0 -27 -13.5 -52.5q-13.5 -25.5 -39.5 -45q-26 -19.5 -63.5 -31q-37.5 -11.5 -84.5 -11.5q-69 0 -121 22q-52 22 -81 47z" />
<glyph unicode="&#116;" horiz-adv-x="416" d="M120 445h-90v35q66 8 102.5 49q36.5 41 50.5 105l30 0v-144h148v-45h-148v-309q0 -29 5 -47q5 -18 14.5 -27.5q9.5 -9.5 22 -13q12.5 -3.5 27.5 -3.5q26 0 46.5 10.5q20.5 10.5 40.5 31.5l27 -34q-26 -26 -58.5 -45q-32.5 -19 -77.5 -19q-63 0 -101.5 33.5q-38.5 33.5 -38.5 112.5z" />
<glyph unicode="&#117;" horiz-adv-x="633" d="M95 445h-80v45h173v-322q0 -23 3.5 -43q3.5 -20 13.5 -34q10 -14 27 -22q17 -8 43 -8q24 0 52 8q28 8 52 24q24 16 40 39.5q16 23.5 16 54.5v258h-74v45h167v-445h80v-45h-172v99h-2q-16 -23 -37.5 -43q-21.5 -20 -47 -35q-25.5 -15 -54.5 -23.5q-29 -8.5 -59 -8.5q-74 0 -107.5 43.5q-33.5 43.5 -33.5 111.5z" />
<glyph unicode="&#118;" horiz-adv-x="629" d="M20 445v45h241v-45h-24q-17 0 -23.5 -8.5q-6.5 -8.5 -6.5 -20.5q0 -14 5 -27l93 -240q6 -15 12 -36.5q6 -21.5 8 -33.5l5 0q5 15 9.5 31q4.5 16 14.5 39l99 241q8 19 8 33q0 12 -7 17q-7 5 -17 5h-34v45h206v-45h-18q-29 0 -48 -18q-19 -18 -27 -38l-165 -392h-77l-185 448z" />
<glyph unicode="&#119;" horiz-adv-x="869" d="M22 445v45h231v-45h-21q-18 0 -24.5 -7q-6.5 -7 -6.5 -20q0 -12 5 -32l59 -220q5 -20 7.5 -40.5q2.5 -20.5 4.5 -34.5l5 0q2 14 6.5 33q4.5 19 12.5 42l109 324h80l99 -326q5 -14 9.5 -37.5q4.5 -23.5 6.5 -37.5l5 0q2 14 6 33.5q4 19.5 11 42.5l67 225q3 9 4 16.5q1 7.5 1 13.5q0 25 -26 25h-36v45h210v-45h-22q-23 0 -41.5 -14q-18.5 -14 -28.5 -46l-119 -388h-79l-105 329q-3 10 -7.5 30q-4.5 20 -6.5 32l-4 0q-2 -12 -8 -31q-6 -19 -10 -30l-114 -330h-78l-133 448z" />
<glyph unicode="&#120;" horiz-adv-x="596" d="M42 45q43 0 90 60l114 144l-146 196h-60v45h236v-45h-26q-22 0 -22 -21q0 -16 14 -35l43 -58q5 -7 11 -15.5q6 -8.5 11 -16.5l3 0q5 8 10.5 16q5.5 8 10.5 15l54 70q11 14 11 26q0 19 -23 19h-27v45h201v-45h-12q-44 0 -90 -60l-99 -128l160 -212h60v-45h-238v45h23q25 0 25 22q0 14 -13 32l-54 73q-7 8 -13 17.5q-6 9.5 -11 17.5l-2 0q-7 -10 -12.5 -18q-5.5 -8 -12.5 -16l-66 -83q-11 -14 -11 -26q0 -19 23 -19h27v-45h-201l0 45z" />
<glyph unicode="&#121;" horiz-adv-x="629" d="M105 -180h71q12 0 25 3q13 3 25.5 12.5q12.5 9.5 25 28q12.5 18.5 24.5 49.5l28 74l-215 458h-69v45h241v-45h-24q-30 0 -30 -23q0 -11 10 -34l102 -224q7 -15 14 -37q7 -22 11 -37l5 0q3 12 8 29.5q5 17.5 13 40.5l84 230q5 11 6 19q1 8 1 14q0 12 -7 17q-7 5 -17 5h-34v45h206v-45h-18q-29 0 -46.5 -18q-17.5 -18 -25.5 -38l-173 -461q-21 -57 -42.5 -94q-21.5 -37 -45 -58q-23.5 -21 -49 -29q-25.5 -8 -55.5 -8q-16 0 -28.5 3q-12.5 3 -20.5 7z" />
<glyph unicode="&#122;" horiz-adv-x="500" d="M310 388q10 13 22 27.5q12 14.5 23 26.5l0 3h-164q-28 0 -51 -16.5q-23 -16.5 -23 -51.5v-34h-50v147h392v-43l-268 -341q-12 -16 -26.5 -32.5q-14.5 -16.5 -22.5 -25.5l0 -3h194q27 0 50.5 16.5q23.5 16.5 23.5 51.5v36h50v-149h-420l0 44z" />
<glyph unicode="&#123;" horiz-adv-x="403" d="M158 150q0 16 -3.5 34q-3.5 18 -11.5 33.5q-8 15.5 -22.5 25.5q-14.5 10 -36.5 10h-24v64h24q22 0 36.5 10q14.5 10 22.5 25.5q8 15.5 11.5 33.5q3.5 18 3.5 34v191q0 14 5 42q5 28 24.5 56.5q19.5 28.5 58.5 49.5q39 21 107 21l0 -50q-34 -2 -54.5 -12.5q-20.5 -10.5 -31 -26q-10.5 -15.5 -13.5 -34.5q-3 -19 -3 -40v-187q0 -21 -4 -43q-4 -22 -15 -41.5q-11 -19.5 -30 -35.5q-19 -16 -49 -23l0 -4q30 -8 49 -23.5q19 -15.5 30 -35q11 -19.5 15 -41.5q4 -22 4 -43v-187q0 -21 3 -40q3 -19 13.5 -34.5q10.5 -15.5 31 -26q20.5 -10.5 54.5 -12.5l0 -50q-68 0 -107 21q-39 21 -58.5 49.5q-19.5 28.5 -24.5 56.5q-5 28 -5 42z" />
<glyph unicode="&#124;" horiz-adv-x="298" d="M193 780v-990h-88l0 990z" />
<glyph unicode="&#125;" horiz-adv-x="403" d="M50 -160q34 2 54.5 12.5q20.5 10.5 31 26q10.5 15.5 13.5 34.5q3 19 3 40v187q0 21 4 43q4 22 15 41.5q11 19.5 30 35q19 15.5 49 23.5l0 4q-30 7 -49 23q-19 16 -30 35.5q-11 19.5 -15 41.5q-4 22 -4 43v187q0 21 -3 40q-3 19 -13.5 34.5q-10.5 15.5 -31 26q-20.5 10.5 -54.5 12.5l0 50q68 0 107 -21q39 -21 58.5 -49.5q19.5 -28.5 24.5 -56.5q5 -28 5 -42v-191q0 -16 3.5 -34q3.5 -18 11.5 -33.5q8 -15.5 22.5 -25.5q14.5 -10 36.5 -10h24v-64h-24q-22 0 -36.5 -10q-14.5 -10 -22.5 -25.5q-8 -15.5 -11.5 -33.5q-3.5 -18 -3.5 -34v-191q0 -14 -5 -42q-5 -28 -24.5 -56.5q-19.5 -28.5 -58.5 -49.5q-39 -21 -107 -21l0 50z" />
<glyph unicode="&#126;" horiz-adv-x="655" d="M80 320q29 41 67.5 65q38.5 24 86.5 24q35 0 62.5 -10q27.5 -10 46.5 -17q24 -9 43 -14.5q19 -5.5 40 -5.5q27 0 58.5 11q31.5 11 48.5 34l42 -31q-29 -41 -67.5 -65.5q-38.5 -24.5 -86.5 -24.5q-35 0 -63 10q-28 10 -47 18q-24 9 -43.5 14.5q-19.5 5.5 -39.5 5.5q-28 0 -59 -11.5q-31 -11.5 -48 -34.5l-41 32z" />
<glyph unicode="&#160;" horiz-adv-x="300" />
<glyph unicode="&#161;" horiz-adv-x="346" d="M235 440q0 -28 -18 -46.5q-18 -18.5 -43 -18.5q-28 0 -46.5 18.5q-18.5 18.5 -18.5 46.5q0 25 18.5 43q18.5 18 46.5 18q25 0 43 -18q18 -18 18 -43zt0 0zM233 -184q0 -15 -18 -26q-18 -11 -41 -11q-22 0 -40.5 11q-18.5 11 -18.5 26l33 475l52 0z" />
<glyph unicode="&#162;" horiz-adv-x="522" d="M257 -9q-40 4 -76.5 21q-36.5 17 -64.5 47.5q-28 30.5 -44.5 74.5q-16.5 44 -16.5 104q0 60 15.5 106q15.5 46 43 78.5q27.5 32.5 64.5 51q37 18.5 79 24.5l0 96h56v-94q59 -3 98 -25.5q39 -22.5 59 -45.5l0 -87h-79v13q0 27 -6.5 45q-6.5 18 -17.5 29.5q-11 11.5 -25 17q-14 5.5 -29 7.5l0 -412q45 2 76 21.5q31 19.5 59 51.5h34q-12 -48 -29 -63.5q-17 -15.5 -38 -28q-21 -12.5 -46.5 -21.5q-25.5 -9 -55.5 -12l0 -94h-56zM257 451q-29 -8 -49 -28q-20 -20 -32 -48.5q-12 -28.5 -17.5 -63.5q-5.5 -35 -5.5 -72q0 -33 5.5 -63.5q5.5 -30.5 18 -55.5q12.5 -25 32.5 -43.5q20 -18.5 48 -27.5z" />
<glyph unicode="&#163;" horiz-adv-x="636" d="M25 50q43 0 71 19q28 19 44 49q16 30 22.5 66q6.5 36 6.5 71q0 17 -1 34.5q-1 17.5 -3 31.5l-104 0v53h94q-8 30 -12 61.5q-4 31.5 -4 66.5q0 47 17 85.5q17 38.5 48.5 66q31.5 27.5 75.5 42.5q44 15 99 15q66 0 115.5 -21q49.5 -21 77.5 -52l0 -104h-85v28q0 30 -9 48.5q-9 18.5 -24 29q-15 10.5 -35 14.5q-20 4 -43 4q-42 0 -69 -14q-27 -14 -42 -35q-15 -21 -20.5 -47q-5.5 -26 -5.5 -50q0 -36 4 -71q4 -35 12 -67l198 0v-53h-188q1 -11 1.5 -24q0.5 -13 0.5 -24q0 -68 -27 -122.5q-27 -54.5 -77 -96.5l0 -1h275q15 0 30 3q15 3 26.5 12q11.5 9 18.5 26q7 17 7 45v39h56v-178h-551l0 50z" />
<glyph unicode="&#164;" horiz-adv-x="646" d="M128 197q-7 9 -15.5 23q-8.5 14 -16 32q-7.5 18 -12.5 41q-5 23 -5 50q0 29 5 52q5 23 12.5 41q7.5 18 16 31.5q8.5 13.5 15.5 22.5l-83 83l48 49l83 -84q9 7 23 15.5q14 8.5 32.5 16q18.5 7.5 41 12.5q22.5 5 49.5 5q30 0 53.5 -5q23.5 -5 42 -12.5q18.5 -7.5 31.5 -16q13 -8.5 21 -15.5l84 84l47 -49l-83 -83q7 -9 15.5 -23q8.5 -14 16 -32q7.5 -18 12.5 -41q5 -23 5 -51q0 -27 -5 -50q-5 -23 -12.5 -41q-7.5 -18 -16 -32q-8.5 -14 -15.5 -23l83 -83l-47 -49l-83 84q-10 -7 -24 -16q-14 -9 -33 -16.5q-19 -7.5 -42 -12.5q-23 -5 -50 -5q-29 0 -52 5q-23 5 -41 12.5q-18 7.5 -31 16.5q-13 9 -22 16l-83 -84l-48 49zM495 342q0 36 -13.5 67.5q-13.5 31.5 -37 55q-23.5 23.5 -55 37q-31.5 13.5 -67.5 13.5q-35 0 -66 -13.5q-31 -13.5 -54.5 -37q-23.5 -23.5 -37 -55q-13.5 -31.5 -13.5 -67.5q0 -35 13.5 -66q13.5 -31 37 -54.5q23.5 -23.5 54.5 -37q31 -13.5 66 -13.5q36 0 67.5 13.5q31.5 13.5 55 37q23.5 23.5 37 54.5t13.5 66z" />
<glyph unicode="&#165;" horiz-adv-x="686" d="M252 50q24 0 32 14q8 14 8 43v43h-145v53h145v59h-145v53h118l-167 335h-78v50h278v-50h-41q-18 0 -25 -8q-7 -8 -7 -20q0 -11 3 -22q3 -11 8 -21l90 -192q5 -11 12.5 -30.5q7.5 -19.5 11.5 -33.5l5 0q6 17 14.5 35q8.5 18 13.5 29l101 199q5 10 8.5 20.5q3.5 10.5 3.5 19.5q0 11 -6.5 17.5q-6.5 6.5 -23.5 6.5h-32v50h232v-50h-28q-25 0 -46.5 -19q-21.5 -19 -35.5 -45l-140 -271h118v-53h-145v-59h145v-53h-145v-100h90v-50h-277l0 50z" />
<glyph unicode="&#166;" horiz-adv-x="298" d="M193 207v-417h-88v417zM193 780v-417h-88l0 417z" />
<glyph unicode="&#167;" horiz-adv-x="561" d="M82 -100h79v-13q0 -30 9 -49q9 -19 23 -29.5q14 -10.5 31.5 -14q17.5 -3.5 35.5 -3.5q54 0 83 27.5q29 27.5 29 69.5q0 24 -10 42q-10 18 -26.5 33.5q-16.5 15.5 -37.5 28.5q-21 13 -44 26l-85 49q-24 14 -46 30q-22 16 -38 36q-16 20 -25.5 44.5q-9.5 24.5 -9.5 56.5q0 31 8.5 55.5q8.5 24.5 25 46q16.5 21.5 39 40.5q22.5 19 51.5 39q-33 25 -51.5 54q-18.5 29 -18.5 79q0 44 18 75q18 31 46.5 50.5q28.5 19.5 64 28.5q35.5 9 70.5 9q34 0 63 -7q29 -7 52 -17.5q23 -10.5 39.5 -24q16.5 -13.5 26.5 -25.5l0 -87h-79v13q0 30 -9 48.5q-9 18.5 -24 29q-15 10.5 -35 14.5q-20 4 -41 4q-26 0 -45.5 -8q-19.5 -8 -33 -21q-13.5 -13 -20 -29.5q-6.5 -16.5 -6.5 -32.5q0 -23 5.5 -39.5q5.5 -16.5 18.5 -31.5q13 -15 34.5 -29q21.5 -14 53.5 -31l62 -33q27 -14 53 -31.5q26 -17.5 47 -39q21 -21.5 33.5 -48.5q12.5 -27 12.5 -60q0 -29 -10 -55q-10 -26 -26.5 -49q-16.5 -23 -37.5 -44.5q-21 -21.5 -43 -41.5q20 -16 32.5 -30.5q12.5 -14.5 19.5 -30q7 -15.5 9.5 -33q2.5 -17.5 2.5 -38.5q0 -34 -14.5 -63.5q-14.5 -29.5 -41 -52q-26.5 -22.5 -63 -35.5q-36.5 -13 -80.5 -13q-34 0 -62 7q-28 7 -50 17.5q-22 10.5 -38.5 24q-16.5 13.5 -26.5 25.5zM419 204q0 25 -8 44q-8 19 -20.5 33q-12.5 14 -27 24.5q-14.5 10.5 -27.5 18.5q-22 13 -54 30.5q-32 17.5 -61 30.5q-39 -27 -59 -60q-20 -33 -20 -76q0 -26 8.5 -45q8.5 -19 22 -33.5q13.5 -14.5 29.5 -25.5q16 -11 32 -20q13 -8 29 -17.5q16 -9.5 31.5 -18.5q15.5 -9 30 -17q14.5 -8 25.5 -13q42 42 55.5 75.5t13.5 69.5z" />
<glyph unicode="&#168;" horiz-adv-x="572" d="M139 628q0 22 16 38q16 16 38 16q22 0 38.5 -16q16.5 -16 16.5 -38q0 -22 -16.5 -38q-16.5 -16 -38.5 -16q-22 0 -38 16q-16 16 -16 38zt0 0zM324 628q0 22 16 38q16 16 37 16q23 0 39.5 -16q16.5 -16 16.5 -38q0 -22 -16.5 -38q-16.5 -16 -39.5 -16q-21 0 -37 16t-16 38z" />
<glyph unicode="&#169;" horiz-adv-x="862" d="M254 348q0 92 50.5 146.5q50.5 54.5 141.5 54.5q45 0 80.5 -14q35.5 -14 60.5 -37l0 -73h-65v11q0 23 -7 36.5q-7 13.5 -18 20.5q-11 7 -23.5 9q-12.5 2 -22.5 2q-28 0 -47 -13.5q-19 -13.5 -31 -35.5q-12 -22 -17.5 -50q-5.5 -28 -5.5 -57q0 -69 24 -110q24 -41 75 -41q10 0 23 1.5q13 1.5 24 7.5q11 6 18.5 17.5q7.5 11.5 7.5 31.5v10h65v-67q-23 -20 -62 -32.5q-39 -12.5 -81 -12.5q-86 0 -138 47q-52 47 -52 148zt0 0zM70 350q0 75 28.5 141q28.5 66 77 114.5q48.5 48.5 114.5 77q66 28.5 141 28.5q75 0 141 -28.5q66 -28.5 114.5 -77q48.5 -48.5 77 -114.5q28.5 -66 28.5 -141q0 -75 -28.5 -141q-28.5 -66 -77 -114.5q-48.5 -48.5 -114.5 -77q-66 -28.5 -141 -28.5q-75 0 -141 28.5q-66 28.5 -114.5 77q-48.5 48.5 -77 114.5q-28.5 66 -28.5 141zt0 0zM732 349q0 62 -24 117q-24 55 -65 96q-41 41 -96 65q-55 24 -117 24q-62 0 -116.5 -24q-54.5 -24 -95 -65q-40.5 -41 -64.5 -96q-24 -55 -24 -117q0 -62 24 -116.5q24 -54.5 64.5 -95q40.5 -40.5 95 -64.5q54.5 -24 116.5 -24q62 0 117 24q55 24 96 64.5q41 40.5 65 95t24 116.5z" />
<glyph unicode="&#170;" horiz-adv-x="415" d="M45 462q0 33 14.5 53.5q14.5 20.5 38 31.5q23.5 11 52 14.5q28.5 3.5 56.5 3.5h63v29q0 39 -18.5 58.5q-18.5 19.5 -48.5 19.5q-23 0 -42 -11q-19 -11 -19 -38v-19h-63v58q28 20 66.5 34.5q38.5 14.5 86.5 14.5q117 0 117 -121v-180h52v-36h-130v58h-1q-9 -10 -21.5 -21.5q-12.5 -11.5 -28 -21q-15.5 -9.5 -35 -16q-19.5 -6.5 -41.5 -6.5q-43 0 -70.5 25q-27.5 25 -27.5 70zt0 0zM270 530h-54q-15 0 -31 -2.5q-16 -2.5 -28.5 -9.5q-12.5 -7 -21 -18.5q-8.5 -11.5 -8.5 -29.5q0 -23 12.5 -36q12.5 -13 41.5 -13q11 0 26.5 3.5q15.5 3.5 29.5 12q14 8.5 23.5 21.5q9.5 13 9.5 32z" />
<glyph unicode="&#171;" horiz-adv-x="494" d="M225 474l51 -31l-109 -178l109 -178l-51 -31l-155 209zM382 455l52 -29l-99 -161l99 -161l-52 -29l-141 190z" />
<glyph unicode="&#172;" horiz-adv-x="765" d="M70 362v72h590v-238h-80l0 166z" />
<glyph unicode="&#173;" horiz-adv-x="487" d="M397 302v-72h-307l0 72z" />
<glyph unicode="&#174;" horiz-adv-x="862" d="M275 203q13 0 17 6q4 6 4 20v270h-42v40h199q13 0 35 -3q22 -3 42.5 -14q20.5 -11 35.5 -34q15 -23 15 -62q0 -40 -23.5 -66.5q-23.5 -26.5 -58.5 -37.5l82 -119h36v-40h-108l-94 146h-33v-106h38v-40h-166v40zM70 350q0 75 28.5 141q28.5 66 77 114.5q48.5 48.5 114.5 77q66 28.5 141 28.5q75 0 141 -28.5q66 -28.5 114.5 -77q48.5 -48.5 77 -114.5q28.5 -66 28.5 -141q0 -75 -28.5 -141q-28.5 -66 -77 -114.5q-48.5 -48.5 -114.5 -77q-66 -28.5 -141 -28.5q-75 0 -141 28.5q-66 28.5 -114.5 77q-48.5 48.5 -77 114.5q-28.5 66 -28.5 141zt0 0zM732 349q0 62 -24 117q-24 55 -65 96q-41 41 -96 65q-55 24 -117 24q-62 0 -116.5 -24q-54.5 -24 -95 -65q-40.5 -41 -64.5 -96q-24 -55 -24 -117q0 -62 24 -116.5q24 -54.5 64.5 -95q40.5 -40.5 95 -64.5q54.5 -24 116.5 -24q62 0 117 24q55 24 96 64.5q41 40.5 65 95q24 54.5 24 116.5zt0 0zM418 351q30 0 51 19q21 19 21 56q0 34 -18.5 52.5q-18.5 18.5 -48.5 18.5h-43l0 -146z" />
<glyph unicode="&#175;" horiz-adv-x="572" d="M418 657v-64h-264l0 64z" />
<glyph unicode="&#176;" horiz-adv-x="379" d="M60 581q0 27 10 51q10 24 27.5 41.5q17.5 17.5 41.5 27.5q24 10 51 10q27 0 50.5 -10q23.5 -10 41 -27.5q17.5 -17.5 27.5 -41.5q10 -24 10 -51q0 -27 -10 -50.5q-10 -23.5 -27.5 -41q-17.5 -17.5 -41 -27.5q-23.5 -10 -50.5 -10q-27 0 -51 10q-24 10 -41.5 27.5q-17.5 17.5 -27.5 41q-10 23.5 -10 50.5zt0 0zM266 581q0 16 -6.5 30q-6.5 14 -17.5 24.5q-11 10.5 -25 16.5q-14 6 -28 6q-15 0 -29 -6.5q-14 -6.5 -24.5 -17q-10.5 -10.5 -16.5 -24.5q-6 -14 -6 -29q0 -31 23 -53.5q23 -22.5 53 -22.5q32 0 54.5 22.5t22.5 53.5z" />
<glyph unicode="&#177;" horiz-adv-x="662" d="M80 391v72h215v175h72v-175h215v-72h-215v-175h-72v175zM582 141v-72h-502l0 72z" />
<glyph unicode="&#178;" horiz-adv-x="428" d="M141 550q37 31 60.5 55.5q23.5 24.5 36 45q12.5 20.5 17 40q4.5 19.5 4.5 41.5q0 11 -3 23.5q-3 12.5 -10.5 23q-7.5 10.5 -20 17q-12.5 6.5 -31.5 6.5q-28 0 -47 -16q-19 -16 -19 -51v-17h-53v74q21 19 58 34q37 15 85 15q36 0 60.5 -9q24.5 -9 39.5 -24q15 -15 22 -33.5q7 -18.5 7 -37.5q0 -27 -10 -50.5q-10 -23.5 -30 -46.5q-20 -23 -50 -48.5q-30 -25.5 -70 -57.5l-39 -33v-2h202l-17 -63h-265l0 55z" />
<glyph unicode="&#179;" horiz-adv-x="428" d="M68 545h53v-16q0 -35 23 -49.5q23 -14.5 54 -14.5q38 0 58 22q20 22 20 58q0 36 -22 54.5q-22 18.5 -60 18.5h-31v38h30q35 0 54.5 20q19.5 20 19.5 55q0 33 -17.5 52q-17.5 19 -53.5 19q-28 0 -47 -14.5q-19 -14.5 -19 -49.5v-17h-53v74q22 19 59.5 32.5q37.5 13.5 79.5 13.5q66 0 102 -28q36 -28 36 -74q0 -20 -7.5 -36q-7.5 -16 -20.5 -29q-13 -13 -29 -21q-16 -8 -32 -11l0 -3q39 -2 68 -26.5q29 -24.5 29 -65.5q0 -28 -11.5 -50.5q-11.5 -22.5 -32 -38q-20.5 -15.5 -48.5 -24q-28 -8.5 -61 -8.5q-46 0 -83 13q-37 13 -58 32z" />
<glyph unicode="&#180;" horiz-adv-x="572" d="M439 702l-134 -138h-52l78 138z" />
<glyph unicode="&#181;" horiz-adv-x="643" d="M72 -205q19 0 26 11.5q7 11.5 7 38.5v600h-80v45h173v-322q0 -53 32.5 -80q32.5 -27 81.5 -27q16 0 39 8q23 8 44 24q21 16 35.5 39.5q14.5 23.5 14.5 54.5v258h-74v45h167v-445h80v-45h-172v99h-2q-29 -50 -66.5 -80q-37.5 -30 -89.5 -30q-25 0 -47.5 7.5q-22.5 7.5 -43.5 29.5l-2 0q0 -5 0.5 -15.5q0.5 -10.5 1 -23q0.5 -12.5 1 -25.5q0.5 -13 0.5 -22v-145h82v-45h-245l0 45z" />
<glyph unicode="&#182;" horiz-adv-x="515" d="M214 397q-42 0 -74 13q-32 13 -53 34q-21 21 -31.5 48q-10.5 27 -10.5 56q0 27 8.5 54q8.5 27 28.5 48.5q20 21.5 53 35.5q33 14 82 14h64v-950h-67zM420 700v-950h-67l0 950z" />
<glyph unicode="&#183;" horiz-adv-x="233" d="M45 365q0 29 21 50q21 21 50 21q30 0 51 -21q21 -21 21 -50q0 -30 -21 -50.5q-21 -20.5 -51 -20.5q-29 0 -50 20.5t-21 50.5z" />
<glyph unicode="&#184;" horiz-adv-x="492" d="M202 -144q13 -8 27 -14q14 -6 34 -6q21 0 31 11q10 11 10 27q0 22 -15.5 31.5q-15.5 9.5 -43.5 9.5h-27l13 85h47l-9 -51q7 1 10 1q3 0 7 0q46 0 67 -20.5q21 -20.5 21 -52.5q0 -38 -31 -61q-31 -23 -76 -23q-26 0 -48 7q-22 7 -36 18z" />
<glyph unicode="&#185;" horiz-adv-x="428" d="M175 472q20 0 20 26v290h-92v35h23q43 0 82.5 6q39.5 6 65.5 12l0 -369h50v-36h-183l0 36z" />
<glyph unicode="&#186;" horiz-adv-x="415" d="M32 538q0 42 13.5 74.5q13.5 32.5 37 54.5q23.5 22 55.5 33q32 11 69 11q37 0 69.5 -11q32.5 -11 56 -33q23.5 -22 37 -54.5q13.5 -32.5 13.5 -74.5q0 -42 -13.5 -74q-13.5 -32 -37 -53.5q-23.5 -21.5 -56 -32.5q-32.5 -11 -69.5 -11q-38 0 -70 11q-32 11 -55 32.5q-23 21.5 -36.5 53.5q-13.5 32 -13.5 74zt0 0zM299 538q0 19 -3.5 42.5q-3.5 23.5 -13.5 44q-10 20.5 -28 34.5q-18 14 -47 14q-29 0 -46.5 -14q-17.5 -14 -28 -34.5q-10.5 -20.5 -14 -44q-3.5 -23.5 -3.5 -42.5q0 -19 3.5 -42q3.5 -23 14 -43.5q10.5 -20.5 28 -34q17.5 -13.5 46.5 -13.5q29 0 47 13.5q18 13.5 28 34q10 20.5 13.5 43.5t3.5 42z" />
<glyph unicode="&#187;" horiz-adv-x="494" d="M159 265l-99 161l52 29l141 -190l-141 -190l-52 29zM327 265l-109 178l51 31l155 -209l-155 -209l-51 31z" />
<glyph unicode="&#188;" horiz-adv-x="804" d="M558 742l56 -23l-348 -772l-56 23zM437 100v48l198 252h62v-239h70l-15 -61h-55v-100h-77v100zM624 321h-2l-126 -163v-2h128zM160 342q20 0 20 26v290h-92v35h23q43 0 82.5 6q39.5 6 65.5 12l0 -369h50v-36h-183l0 36z" />
<glyph unicode="&#189;" horiz-adv-x="804" d="M558 742l56 -23l-348 -772l-56 23zM568 114q37 31 60.5 55.5q23.5 24.5 36 45q12.5 20.5 17 40q4.5 19.5 4.5 41.5q0 11 -3 23.5q-3 12.5 -10.5 23q-7.5 10.5 -20 17q-12.5 6.5 -31.5 6.5q-28 0 -47 -16q-19 -16 -19 -51v-17h-53v74q21 19 58 34q37 15 85 15q36 0 60.5 -9q24.5 -9 39.5 -24q15 -15 22 -33.5q7 -18.5 7 -37.5q0 -27 -10 -50.5q-10 -23.5 -30 -46.5q-20 -23 -50 -48.5q-30 -25.5 -70 -57.5l-39 -33v-2h202l-17 -63h-265v55zM160 342q20 0 20 26v290h-92v35h23q43 0 82.5 6q39.5 6 65.5 12l0 -369h50v-36h-183l0 36z" />
<glyph unicode="&#190;" horiz-adv-x="804" d="M578 742l56 -23l-348 -772l-56 23zM446 100v48l198 252h62v-239h70l-15 -61h-55v-100h-77v100zM633 321h-2l-126 -163v-2h128zM68 415h53v-16q0 -35 23 -49.5q23 -14.5 54 -14.5q38 0 58 22q20 22 20 58q0 36 -22 54.5q-22 18.5 -60 18.5h-31v38h30q35 0 54.5 20q19.5 20 19.5 55q0 33 -17.5 52q-17.5 19 -53.5 19q-28 0 -47 -14.5q-19 -14.5 -19 -49.5v-17h-53v74q22 19 59.5 32.5q37.5 13.5 79.5 13.5q66 0 102 -28q36 -28 36 -74q0 -20 -7.5 -36q-7.5 -16 -20.5 -29q-13 -13 -29 -21q-16 -8 -32 -11l0 -3q39 -2 68 -26.5q29 -24.5 29 -65.5q0 -28 -11.5 -50.5q-11.5 -22.5 -32 -38q-20.5 -15.5 -48.5 -24q-28 -8.5 -61 -8.5q-46 0 -83 13q-37 13 -58 32z" />
<glyph unicode="&#191;" horiz-adv-x="535" d="M244 98q-24 -21 -42 -39.5q-18 -18.5 -29 -37q-11 -18.5 -16.5 -38.5q-5.5 -20 -5.5 -43q0 -18 6.5 -37q6.5 -19 21.5 -35q15 -16 39.5 -26q24.5 -10 61.5 -10q21 0 45.5 4.5q24.5 4.5 44.5 17.5q20 13 33.5 36.5q13.5 23.5 13.5 60.5v21h84v-102q-19 -19 -45.5 -36q-26.5 -17 -57 -29q-30.5 -12 -65 -19q-34.5 -7 -69.5 -7q-64 0 -106 14q-42 14 -67 36.5q-25 22.5 -35 51.5q-10 29 -10 59q0 33 12 61q12 28 31 51.5q19 23.5 42.5 43.5q23.5 20 47.5 37q51 37 79 73.5q28 36.5 28 84.5l52 0q0 -30 -4.5 -55.5q-4.5 -25.5 -15 -48.5q-10.5 -23 -29 -44.5q-18.5 -21.5 -45.5 -44.5zt0 0zM373 440q0 -28 -18 -46.5q-18 -18.5 -43 -18.5q-28 0 -46.5 18.5q-18.5 18.5 -18.5 46.5q0 25 18.5 43q18.5 18 46.5 18q25 0 43 -18t18 -43z" />
<glyph unicode="&#192;" horiz-adv-x="840" d="M55 50q24 0 45.5 17q21.5 17 36.5 53l236 580h98l264 -650h80v-50h-279v50h42q17 0 24 11.5q7 11.5 7 25.5q0 8 -2 15.5q-2 7.5 -4 14.5l-32 83h-332l-32 -82q-9 -23 -9 -39q0 -14 6 -21.5q6 -7.5 22 -7.5h43v-50h-244v50zM437 534q-6 14 -14 38.5q-8 24.5 -13 42.5l-5 0q-8 -19 -17 -42q-9 -23 -15 -37l-116 -282h297zM379 926l81 -153h-53l-147 153z" />
<glyph unicode="&#193;" horiz-adv-x="840" d="M55 50q24 0 45.5 17q21.5 17 36.5 53l236 580h98l264 -650h80v-50h-279v50h42q17 0 24 11.5q7 11.5 7 25.5q0 8 -2 15.5q-2 7.5 -4 14.5l-32 83h-332l-32 -82q-9 -23 -9 -39q0 -14 6 -21.5q6 -7.5 22 -7.5h43v-50h-244v50zM437 534q-6 14 -14 38.5q-8 24.5 -13 42.5l-5 0q-8 -19 -17 -42q-9 -23 -15 -37l-116 -282h297zM596 926l-147 -153h-53l81 153z" />
<glyph unicode="&#194;" horiz-adv-x="840" d="M55 50q24 0 45.5 17q21.5 17 36.5 53l236 580h98l264 -650h80v-50h-279v50h42q17 0 24 11.5q7 11.5 7 25.5q0 8 -2 15.5q-2 7.5 -4 14.5l-32 83h-332l-32 -82q-9 -23 -9 -39q0 -14 6 -21.5q6 -7.5 22 -7.5h43v-50h-244v50zM437 534q-6 14 -14 38.5q-8 24.5 -13 42.5l-5 0q-8 -19 -17 -42q-9 -23 -15 -37l-116 -282h297zM460 919l123 -142h-68l-96 82l-94 -82h-68l122 142z" />
<glyph unicode="&#195;" horiz-adv-x="840" d="M55 50q24 0 45.5 17q21.5 17 36.5 53l236 580h98l264 -650h80v-50h-279v50h42q17 0 24 11.5q7 11.5 7 25.5q0 8 -2 15.5q-2 7.5 -4 14.5l-32 83h-332l-32 -82q-9 -23 -9 -39q0 -14 6 -21.5q6 -7.5 22 -7.5h43v-50h-244v50zM437 534q-6 14 -14 38.5q-8 24.5 -13 42.5l-5 0q-8 -19 -17 -42q-9 -23 -15 -37l-116 -282h297zM414 806q-20 8 -36 14q-16 6 -33 6q-14 0 -26.5 -7q-12.5 -7 -16.5 -30l-45 0q0 42 24.5 72q24.5 30 68.5 30q20 0 39.5 -6.5q19.5 -6.5 41.5 -14.5q17 -7 34.5 -12.5q17.5 -5.5 30.5 -5.5q14 0 26.5 6.5q12.5 6.5 17.5 29.5l43 0q0 -25 -8 -44q-8 -19 -20.5 -32q-12.5 -13 -29 -19.5q-16.5 -6.5 -33.5 -6.5q-8 0 -14.5 0.5q-6.5 0.5 -15 3q-8.5 2.5 -20 6.5t-28.5 10z" />
<glyph unicode="&#196;" horiz-adv-x="840" d="M55 50q24 0 45.5 17q21.5 17 36.5 53l236 580h98l264 -650h80v-50h-279v50h42q17 0 24 11.5q7 11.5 7 25.5q0 8 -2 15.5q-2 7.5 -4 14.5l-32 83h-332l-32 -82q-9 -23 -9 -39q0 -14 6 -21.5q6 -7.5 22 -7.5h43v-50h-244v50zM437 534q-6 14 -14 38.5q-8 24.5 -13 42.5l-5 0q-8 -19 -17 -42q-9 -23 -15 -37l-116 -282h297zM249 848q0 23 17 40q17 17 40 17q23 0 40 -17q17 -17 17 -40q0 -23 -17 -40q-17 -17 -40 -17q-23 0 -40 17q-17 17 -17 40zt0 0zM477 848q0 23 17 40q17 17 38 17q25 0 42 -17q17 -17 17 -40q0 -23 -17 -40q-17 -17 -42 -17q-21 0 -38 17t-17 40z" />
<glyph unicode="&#197;" horiz-adv-x="840" d="M55 50q24 0 45.5 17q21.5 17 36.5 53l236 580h98l264 -650h80v-50h-279v50h42q17 0 24 11.5q7 11.5 7 25.5q0 8 -2 15.5q-2 7.5 -4 14.5l-32 83h-332l-32 -82q-9 -23 -9 -39q0 -14 6 -21.5q6 -7.5 22 -7.5h43v-50h-244v50zM437 534q-6 14 -14 38.5q-8 24.5 -13 42.5l-5 0q-8 -19 -17 -42q-9 -23 -15 -37l-116 -282h297zM316 859q0 22 8 41q8 19 22 33q14 14 33 22.5q19 8.5 40 8.5q45 0 74.5 -30.5q29.5 -30.5 29.5 -74.5q0 -44 -29.5 -74q-29.5 -30 -74.5 -30q-21 0 -40 8q-19 8 -33 22q-14 14 -22 33q-8 19 -8 41zt0 0zM469 860q0 20 -14 35q-14 15 -36 15q-21 0 -34.5 -15q-13.5 -15 -13.5 -35q0 -22 13.5 -36q13.5 -14 34.5 -14q22 0 36 14t14 36z" />
<glyph unicode="&#198;" horiz-adv-x="1050" d="M55 50q20 0 45.5 18.5q25.5 18.5 47.5 51.5l341 530h-87v50h589v-177h-56v28q0 55 -25.5 75.5q-25.5 20.5 -59.5 20.5h-207v-265h177v80h56v-213h-56v80h-177v-276h219q15 0 30 4.5q15 4.5 26.5 15.5q11.5 11 18.5 29.5q7 18.5 7 46.5v35h56v-184h-541v50h47q24 0 32 14q8 14 8 43v93h-277l-51 -82q-5 -8 -12 -22.5q-7 -14.5 -7 -26.5q0 -8 4.5 -13.5q4.5 -5.5 17.5 -5.5h43v-50h-239v50zM546 626h-5q-12 -19 -26 -41q-14 -22 -23 -36l-192 -295l246 0z" />
<glyph unicode="&#199;" horiz-adv-x="661" d="M45 345q0 84 22.5 151.5q22.5 67.5 66 115q43.5 47.5 105.5 73.5q62 26 142 26q65 0 124.5 -21q59.5 -21 110.5 -68l0 -113h-87v14q0 45 -16 71.5q-16 26.5 -39 41q-23 14.5 -49.5 18.5q-26.5 4 -48.5 4q-60 0 -103 -28.5q-43 -28.5 -70.5 -74q-27.5 -45.5 -41 -101q-13.5 -55.5 -13.5 -109.5q0 -62 13 -117q13 -55 40 -96.5q27 -41.5 69 -65.5q42 -24 100 -24q22 0 49.5 3q27.5 3 52 15q24.5 12 41 35q16.5 23 16.5 62v17h87v-106q-49 -38 -113.5 -58.5q-64.5 -20.5 -132.5 -20.5q-68 0 -127.5 20q-59.5 20 -103.5 62.5q-44 42.5 -69 110q-25 67.5 -25 163.5zt0 0zM296 -159q14 -9 30 -15.5q16 -6.5 38 -6.5q23 0 34 12q11 12 11 30q0 24 -17 34.5q-17 10.5 -48 10.5h-30l14 94h55l-10 -56q8 1 11.5 1q3.5 0 8.5 0q51 0 72 -23q21 -23 21 -58q0 -42 -34 -67.5q-34 -25.5 -84 -25.5q-29 0 -53 7.5q-24 7.5 -40 20.5z" />
<glyph unicode="&#200;" horiz-adv-x="626" d="M82 50q24 0 32 14q8 14 8 43v543h-87v50h532v-177h-56v28q0 55 -25.5 75.5q-25.5 20.5 -59.5 20.5h-207v-265h177v80h56v-213h-56v80h-177v-276h219q15 0 30 4.5q15 4.5 26.5 15.5q11.5 11 18.5 29.5q7 18.5 7 46.5v35h56v-184h-541v50zM288 926l81 -153h-53l-147 153z" />
<glyph unicode="&#201;" horiz-adv-x="626" d="M82 50q24 0 32 14q8 14 8 43v543h-87v50h532v-177h-56v28q0 55 -25.5 75.5q-25.5 20.5 -59.5 20.5h-207v-265h177v80h56v-213h-56v80h-177v-276h219q15 0 30 4.5q15 4.5 26.5 15.5q11.5 11 18.5 29.5q7 18.5 7 46.5v35h56v-184h-541v50zM497 926l-147 -153h-53l81 153z" />
<glyph unicode="&#202;" horiz-adv-x="626" d="M82 50q24 0 32 14q8 14 8 43v543h-87v50h532v-177h-56v28q0 55 -25.5 75.5q-25.5 20.5 -59.5 20.5h-207v-265h177v80h56v-213h-56v80h-177v-276h219q15 0 30 4.5q15 4.5 26.5 15.5q11.5 11 18.5 29.5q7 18.5 7 46.5v35h56v-184h-541v50zM368 919l123 -142h-68l-96 82l-94 -82h-68l122 142z" />
<glyph unicode="&#203;" horiz-adv-x="626" d="M82 50q24 0 32 14q8 14 8 43v543h-87v50h532v-177h-56v28q0 55 -25.5 75.5q-25.5 20.5 -59.5 20.5h-207v-265h177v80h56v-213h-56v80h-177v-276h219q15 0 30 4.5q15 4.5 26.5 15.5q11.5 11 18.5 29.5q7 18.5 7 46.5v35h56v-184h-541v50zM155 848q0 23 17 40q17 17 40 17q23 0 40 -17q17 -17 17 -40q0 -23 -17 -40q-17 -17 -40 -17q-23 0 -40 17q-17 17 -17 40zt0 0zM383 848q0 23 17 40q17 17 38 17q25 0 42 -17q17 -17 17 -40q0 -23 -17 -40q-17 -17 -42 -17q-21 0 -38 17t-17 40z" />
<glyph unicode="&#204;" horiz-adv-x="351" d="M87 50q24 0 32 14q8 14 8 43v543h-92v50h281v-50h-52q-24 0 -32 -14q-8 -14 -8 -43v-543h92v-50h-281v50zM125 926l81 -153h-53l-147 153z" />
<glyph unicode="&#205;" horiz-adv-x="351" d="M87 50q24 0 32 14q8 14 8 43v543h-92v50h281v-50h-52q-24 0 -32 -14q-8 -14 -8 -43v-543h92v-50h-281v50zM341 926l-147 -153h-53l81 153z" />
<glyph unicode="&#206;" horiz-adv-x="351" d="M87 50q24 0 32 14q8 14 8 43v543h-92v50h281v-50h-52q-24 0 -32 -14q-8 -14 -8 -43v-543h92v-50h-281v50zM215 919l123 -142h-68l-96 82l-94 -82h-68l122 142z" />
<glyph unicode="&#207;" horiz-adv-x="351" d="M87 50q24 0 32 14q8 14 8 43v543h-92v50h281v-50h-52q-24 0 -32 -14q-8 -14 -8 -43v-543h92v-50h-281v50zM5 848q0 23 17 40q17 17 40 17q23 0 40 -17q17 -17 17 -40q0 -23 -17 -40q-17 -17 -40 -17q-23 0 -40 17q-17 17 -17 40zt0 0zM233 848q0 23 17 40q17 17 38 17q25 0 42 -17q17 -17 17 -40q0 -23 -17 -40q-17 -17 -42 -17q-21 0 -38 17t-17 40z" />
<glyph unicode="&#208;" horiz-adv-x="737" d="M82 50q24 0 32 14q8 14 8 43v232h-102v54h102v257h-87v50h299q82 0 148.5 -17q66.5 -17 113 -56.5q46.5 -39.5 71.5 -105.5q25 -66 25 -164q0 -88 -29.5 -155q-29.5 -67 -79.5 -112q-50 -45 -115.5 -67.5q-65.5 -22.5 -138.5 -22.5h-294v50zM329 53q43 0 89.5 17.5q46.5 17.5 84 54q37.5 36.5 62 94q24.5 57.5 24.5 138.5q0 78 -18.5 133q-18.5 55 -52.5 90q-34 35 -81 51q-47 16 -104 16h-114v-254h181v-54h-181l0 -286z" />
<glyph unicode="&#209;" horiz-adv-x="809" d="M82 50q24 0 32 16.5q8 16.5 8 45.5v538h-87v50h184l341 -487q18 -25 34 -54.5q16 -29.5 26 -47.5l4 0q0 11 -1 25.5q-1 14.5 -1.5 28.5q-0.5 14 -1 27q-0.5 13 -0.5 22v374q0 29 -8 45.5q-8 16.5 -32 16.5h-47v50h241v-50h-47q-24 0 -32 -16.5q-8 -16.5 -8 -45.5v-588h-87l-356 508q-19 26 -32.5 50.5q-13.5 24.5 -22.5 42.5l-4 0q0 -10 1 -25q1 -15 1.5 -31q0.5 -16 1 -31q0.5 -15 0.5 -25v-377q0 -29 8 -45.5q8 -16.5 32 -16.5h47v-50h-241v50zM398 806q-20 8 -36 14q-16 6 -33 6q-14 0 -26.5 -7q-12.5 -7 -16.5 -30l-45 0q0 42 24.5 72q24.5 30 68.5 30q20 0 39.5 -6.5q19.5 -6.5 41.5 -14.5q17 -7 34.5 -12.5q17.5 -5.5 30.5 -5.5q14 0 26.5 6.5q12.5 6.5 17.5 29.5l43 0q0 -25 -8 -44q-8 -19 -20.5 -32q-12.5 -13 -29 -19.5q-16.5 -6.5 -33.5 -6.5q-8 0 -14.5 0.5q-6.5 0.5 -15 3q-8.5 2.5 -20 6.5t-28.5 10z" />
<glyph unicode="&#210;" horiz-adv-x="760" d="M45 350q0 81 23 147.5q23 66.5 66.5 114q43.5 47.5 105.5 73.5q62 26 140 26q78 0 140 -26q62 -26 105.5 -73.5q43.5 -47.5 66.5 -114q23 -66.5 23 -147.5q0 -81 -23.5 -147.5q-23.5 -66.5 -67 -114q-43.5 -47.5 -105.5 -73.5q-62 -26 -139 -26q-77 0 -139 26q-62 26 -105.5 73.5q-43.5 47.5 -67 114q-23.5 66.5 -23.5 147.5zt0 0zM612 350q0 30 -4.5 64.5q-4.5 34.5 -14.5 68.5q-10 34 -27.5 66q-17.5 32 -43 56q-25.5 24 -61 38.5q-35.5 14.5 -81.5 14.5q-46 0 -81.5 -14.5q-35.5 -14.5 -61 -38.5q-25.5 -24 -43 -56q-17.5 -32 -27.5 -66q-10 -34 -14.5 -68.5q-4.5 -34.5 -4.5 -64.5q0 -45 10 -99q10 -54 36.5 -100.5q26.5 -46.5 71.5 -77.5q45 -31 114 -31q69 0 114 31q45 31 71.5 77.5q26.5 46.5 36.5 100.5q10 54 10 99zt0 0zM340 926l81 -153h-53l-147 153z" />
<glyph unicode="&#211;" horiz-adv-x="760" d="M45 350q0 81 23 147.5q23 66.5 66.5 114q43.5 47.5 105.5 73.5q62 26 140 26q78 0 140 -26q62 -26 105.5 -73.5q43.5 -47.5 66.5 -114q23 -66.5 23 -147.5q0 -81 -23.5 -147.5q-23.5 -66.5 -67 -114q-43.5 -47.5 -105.5 -73.5q-62 -26 -139 -26q-77 0 -139 26q-62 26 -105.5 73.5q-43.5 47.5 -67 114q-23.5 66.5 -23.5 147.5zt0 0zM612 350q0 30 -4.5 64.5q-4.5 34.5 -14.5 68.5q-10 34 -27.5 66q-17.5 32 -43 56q-25.5 24 -61 38.5q-35.5 14.5 -81.5 14.5q-46 0 -81.5 -14.5q-35.5 -14.5 -61 -38.5q-25.5 -24 -43 -56q-17.5 -32 -27.5 -66q-10 -34 -14.5 -68.5q-4.5 -34.5 -4.5 -64.5q0 -45 10 -99q10 -54 36.5 -100.5q26.5 -46.5 71.5 -77.5q45 -31 114 -31q69 0 114 31q45 31 71.5 77.5q26.5 46.5 36.5 100.5q10 54 10 99zt0 0zM560 926l-147 -153h-53l81 153z" />
<glyph unicode="&#212;" horiz-adv-x="760" d="M45 350q0 81 23 147.5q23 66.5 66.5 114q43.5 47.5 105.5 73.5q62 26 140 26q78 0 140 -26q62 -26 105.5 -73.5q43.5 -47.5 66.5 -114q23 -66.5 23 -147.5q0 -81 -23.5 -147.5q-23.5 -66.5 -67 -114q-43.5 -47.5 -105.5 -73.5q-62 -26 -139 -26q-77 0 -139 26q-62 26 -105.5 73.5q-43.5 47.5 -67 114q-23.5 66.5 -23.5 147.5zt0 0zM612 350q0 30 -4.5 64.5q-4.5 34.5 -14.5 68.5q-10 34 -27.5 66q-17.5 32 -43 56q-25.5 24 -61 38.5q-35.5 14.5 -81.5 14.5q-46 0 -81.5 -14.5q-35.5 -14.5 -61 -38.5q-25.5 -24 -43 -56q-17.5 -32 -27.5 -66q-10 -34 -14.5 -68.5q-4.5 -34.5 -4.5 -64.5q0 -45 10 -99q10 -54 36.5 -100.5q26.5 -46.5 71.5 -77.5q45 -31 114 -31q69 0 114 31q45 31 71.5 77.5q26.5 46.5 36.5 100.5q10 54 10 99zt0 0zM420 919l123 -142h-68l-96 82l-94 -82h-68l122 142z" />
<glyph unicode="&#213;" horiz-adv-x="760" d="M45 350q0 81 23 147.5q23 66.5 66.5 114q43.5 47.5 105.5 73.5q62 26 140 26q78 0 140 -26q62 -26 105.5 -73.5q43.5 -47.5 66.5 -114q23 -66.5 23 -147.5q0 -81 -23.5 -147.5q-23.5 -66.5 -67 -114q-43.5 -47.5 -105.5 -73.5q-62 -26 -139 -26q-77 0 -139 26q-62 26 -105.5 73.5q-43.5 47.5 -67 114q-23.5 66.5 -23.5 147.5zt0 0zM612 350q0 30 -4.5 64.5q-4.5 34.5 -14.5 68.5q-10 34 -27.5 66q-17.5 32 -43 56q-25.5 24 -61 38.5q-35.5 14.5 -81.5 14.5q-46 0 -81.5 -14.5q-35.5 -14.5 -61 -38.5q-25.5 -24 -43 -56q-17.5 -32 -27.5 -66q-10 -34 -14.5 -68.5q-4.5 -34.5 -4.5 -64.5q0 -45 10 -99q10 -54 36.5 -100.5q26.5 -46.5 71.5 -77.5q45 -31 114 -31q69 0 114 31q45 31 71.5 77.5q26.5 46.5 36.5 100.5q10 54 10 99zt0 0zM374 806q-20 8 -36 14q-16 6 -33 6q-14 0 -26.5 -7q-12.5 -7 -16.5 -30l-45 0q0 42 24.5 72q24.5 30 68.5 30q20 0 39.5 -6.5q19.5 -6.5 41.5 -14.5q17 -7 34.5 -12.5q17.5 -5.5 30.5 -5.5q14 0 26.5 6.5q12.5 6.5 17.5 29.5l43 0q0 -25 -8 -44q-8 -19 -20.5 -32q-12.5 -13 -29 -19.5q-16.5 -6.5 -33.5 -6.5q-8 0 -14.5 0.5q-6.5 0.5 -15 3q-8.5 2.5 -20 6.5t-28.5 10z" />
<glyph unicode="&#214;" horiz-adv-x="760" d="M45 350q0 81 23 147.5q23 66.5 66.5 114q43.5 47.5 105.5 73.5q62 26 140 26q78 0 140 -26q62 -26 105.5 -73.5q43.5 -47.5 66.5 -114q23 -66.5 23 -147.5q0 -81 -23.5 -147.5q-23.5 -66.5 -67 -114q-43.5 -47.5 -105.5 -73.5q-62 -26 -139 -26q-77 0 -139 26q-62 26 -105.5 73.5q-43.5 47.5 -67 114q-23.5 66.5 -23.5 147.5zt0 0zM612 350q0 30 -4.5 64.5q-4.5 34.5 -14.5 68.5q-10 34 -27.5 66q-17.5 32 -43 56q-25.5 24 -61 38.5q-35.5 14.5 -81.5 14.5q-46 0 -81.5 -14.5q-35.5 -14.5 -61 -38.5q-25.5 -24 -43 -56q-17.5 -32 -27.5 -66q-10 -34 -14.5 -68.5q-4.5 -34.5 -4.5 -64.5q0 -45 10 -99q10 -54 36.5 -100.5q26.5 -46.5 71.5 -77.5q45 -31 114 -31q69 0 114 31q45 31 71.5 77.5q26.5 46.5 36.5 100.5q10 54 10 99zt0 0zM209 848q0 23 17 40q17 17 40 17q23 0 40 -17q17 -17 17 -40q0 -23 -17 -40q-17 -17 -40 -17q-23 0 -40 17q-17 17 -17 40zt0 0zM437 848q0 23 17 40q17 17 38 17q25 0 42 -17q17 -17 17 -40q0 -23 -17 -40q-17 -17 -42 -17q-21 0 -38 17t-17 40z" />
<glyph unicode="&#215;" horiz-adv-x="596" d="M248 354l-163 163l50 50l163 -163l163 163l50 -50l-163 -163l163 -163l-50 -50l-163 163l-156 -156l-50 50z" />
<glyph unicode="&#216;" horiz-adv-x="760" d="M157 67q-54 48 -83 120q-29 72 -29 163q0 81 23 147.5q23 66.5 66.5 114q43.5 47.5 105.5 73.5q62 26 140 26q53 0 98 -12q45 -12 83 -35l61 90l43 -28l-63 -93q54 -48 83.5 -120q29.5 -72 29.5 -163q0 -81 -23.5 -147.5q-23.5 -66.5 -67 -114q-43.5 -47.5 -105.5 -73.5q-62 -26 -139 -26q-53 0 -98.5 12q-45.5 12 -83.5 35l-61 -90l-42 29zM612 350q0 49 -13 107.5q-13 58.5 -44 106.5l-317 -469q26 -24 60.5 -38.5q34.5 -14.5 81.5 -14.5q69 0 114 31q45 31 71.5 77.5q26.5 46.5 36.5 100.5q10 54 10 99zt0 0zM521 605q-26 24 -60.5 38.5q-34.5 14.5 -80.5 14.5q-46 0 -81.5 -14.5q-35.5 -14.5 -61 -38.5q-25.5 -24 -43 -56q-17.5 -32 -27.5 -66q-10 -34 -14.5 -68.5q-4.5 -34.5 -4.5 -64.5q0 -25 3 -52.5q3 -27.5 9.5 -55.5q6.5 -28 17 -55q10.5 -27 26.5 -51z" />
<glyph unicode="&#217;" horiz-adv-x="783" d="M117 650h-87v50h266v-50h-42q-24 0 -32 -14q-8 -14 -8 -43v-352q0 -41 9 -76.5q9 -35.5 30.5 -61q21.5 -25.5 56.5 -40q35 -14.5 87 -14.5q51 0 89 15q38 15 63 41q25 26 37.5 61q12.5 35 12.5 75v347q0 29 -8 45.5q-8 16.5 -32 16.5h-47v50h241v-50h-47q-24 0 -32 -16.5q-8 -16.5 -8 -45.5v-347q0 -61 -19 -108q-19 -47 -54.5 -79q-35.5 -32 -85.5 -48.5q-50 -16.5 -112 -16.5q-64 0 -115.5 15.5q-51.5 15.5 -87.5 47q-36 31.5 -55.5 79q-19.5 47.5 -19.5 110.5zM349 926l81 -153h-53l-147 153z" />
<glyph unicode="&#218;" horiz-adv-x="783" d="M117 650h-87v50h266v-50h-42q-24 0 -32 -14q-8 -14 -8 -43v-352q0 -41 9 -76.5q9 -35.5 30.5 -61q21.5 -25.5 56.5 -40q35 -14.5 87 -14.5q51 0 89 15q38 15 63 41q25 26 37.5 61q12.5 35 12.5 75v347q0 29 -8 45.5q-8 16.5 -32 16.5h-47v50h241v-50h-47q-24 0 -32 -16.5q-8 -16.5 -8 -45.5v-347q0 -61 -19 -108q-19 -47 -54.5 -79q-35.5 -32 -85.5 -48.5q-50 -16.5 -112 -16.5q-64 0 -115.5 15.5q-51.5 15.5 -87.5 47q-36 31.5 -55.5 79q-19.5 47.5 -19.5 110.5zM576 926l-147 -153h-53l81 153z" />
<glyph unicode="&#219;" horiz-adv-x="783" d="M117 650h-87v50h266v-50h-42q-24 0 -32 -14q-8 -14 -8 -43v-352q0 -41 9 -76.5q9 -35.5 30.5 -61q21.5 -25.5 56.5 -40q35 -14.5 87 -14.5q51 0 89 15q38 15 63 41q25 26 37.5 61q12.5 35 12.5 75v347q0 29 -8 45.5q-8 16.5 -32 16.5h-47v50h241v-50h-47q-24 0 -32 -16.5q-8 -16.5 -8 -45.5v-347q0 -61 -19 -108q-19 -47 -54.5 -79q-35.5 -32 -85.5 -48.5q-50 -16.5 -112 -16.5q-64 0 -115.5 15.5q-51.5 15.5 -87.5 47q-36 31.5 -55.5 79q-19.5 47.5 -19.5 110.5zM432 919l123 -142h-68l-96 82l-94 -82h-68l122 142z" />
<glyph unicode="&#220;" horiz-adv-x="783" d="M117 650h-87v50h266v-50h-42q-24 0 -32 -14q-8 -14 -8 -43v-352q0 -41 9 -76.5q9 -35.5 30.5 -61q21.5 -25.5 56.5 -40q35 -14.5 87 -14.5q51 0 89 15q38 15 63 41q25 26 37.5 61q12.5 35 12.5 75v347q0 29 -8 45.5q-8 16.5 -32 16.5h-47v50h241v-50h-47q-24 0 -32 -16.5q-8 -16.5 -8 -45.5v-347q0 -61 -19 -108q-19 -47 -54.5 -79q-35.5 -32 -85.5 -48.5q-50 -16.5 -112 -16.5q-64 0 -115.5 15.5q-51.5 15.5 -87.5 47q-36 31.5 -55.5 79q-19.5 47.5 -19.5 110.5zM221 848q0 23 17 40q17 17 40 17q23 0 40 -17q17 -17 17 -40q0 -23 -17 -40q-17 -17 -40 -17q-23 0 -40 17q-17 17 -17 40zt0 0zM449 848q0 23 17 40q17 17 38 17q25 0 42 -17q17 -17 17 -40q0 -23 -17 -40q-17 -17 -42 -17q-21 0 -38 17t-17 40z" />
<glyph unicode="&#221;" horiz-adv-x="736" d="M277 50q24 0 32 14q8 14 8 43v135l-214 408h-78v50h278v-50h-41q-18 0 -25.5 -8q-7.5 -8 -7.5 -21q0 -20 12 -42l108 -212q8 -14 14 -31q6 -17 12 -34l5 0q7 18 14.5 34q7.5 16 15.5 31l119 219q13 23 13 40q0 24 -31 24h-32v50h232v-50h-28q-25 0 -46.5 -19q-21.5 -19 -35.5 -45l-187 -344v-192h90v-50h-277v50zM544 926l-147 -153h-53l81 153z" />
<glyph unicode="&#222;" horiz-adv-x="632" d="M82 50q24 0 32 14q8 14 8 43v554h-87v50h276v-50h-52q-24 0 -32 -14q-8 -14 -8 -43v-29h130q42 0 87 -7q45 -7 82 -28.5q37 -21.5 60.5 -62q23.5 -40.5 23.5 -106.5q0 -55 -20.5 -96q-20.5 -41 -56 -68.5q-35.5 -27.5 -83 -41q-47.5 -13.5 -101.5 -13.5h-122v-102h102v-50h-286v50zM341 206q20 0 47.5 8q27.5 8 52.5 27q25 19 42.5 50.5q17.5 31.5 17.5 78.5q0 45 -16 74.5q-16 29.5 -39 47q-23 17.5 -49.5 24q-26.5 6.5 -47.5 6.5h-131l0 -316z" />
<glyph unicode="&#223;" horiz-adv-x="614" d="M285 45q11 -4 28.5 -6q17.5 -2 33.5 -2q21 0 44.5 9q23.5 9 43.5 30q20 21 33 55q13 34 13 84q0 41 -11.5 70q-11.5 29 -30.5 47q-19 18 -43.5 26q-24.5 8 -49.5 8h-59v48h56q17 0 35.5 8.5q18.5 8.5 33.5 26q15 17.5 25 44.5q10 27 10 64q0 61 -29.5 99.5q-29.5 38.5 -88.5 38.5q-39 0 -64.5 -13.5q-25.5 -13.5 -40.5 -34.5q-15 -21 -20.5 -47q-5.5 -26 -5.5 -51v-549h-163v45h37q19 0 26 11.5q7 11.5 7 38.5v433q0 33 10.5 70q10.5 37 36 68.5q25.5 31.5 68.5 52.5q43 21 109 21q41 0 80 -9q39 -9 69 -30.5q30 -21.5 48.5 -57q18.5 -35.5 18.5 -87.5q0 -31 -9.5 -56.5q-9.5 -25.5 -25 -45.5q-15.5 -20 -36.5 -34q-21 -14 -44 -21l0 -3q72 -8 110.5 -56.5q38.5 -48.5 38.5 -123.5q0 -62 -21.5 -105q-21.5 -43 -54.5 -70q-33 -27 -72.5 -39.5q-39.5 -12.5 -74.5 -12.5q-17 0 -40.5 3q-23.5 3 -41.5 11z" />
<glyph unicode="&#224;" horiz-adv-x="587" d="M55 129q0 48 21.5 78.5q21.5 30.5 56 47q34.5 16.5 77 22.5q42.5 6 84.5 6h95v45q0 63 -31.5 94q-31.5 31 -77.5 31q-17 0 -34.5 -3.5q-17.5 -3.5 -31 -12q-13.5 -8.5 -22 -22.5q-8.5 -14 -8.5 -35v-32h-83v79q40 32 94 53q54 21 123 21q43 0 74 -12.5q31 -12.5 51 -35.5q20 -23 29.5 -55q9.5 -32 9.5 -71v-282h80v-45h-172v89h-2q-14 -16 -33 -33.5q-19 -17.5 -43 -32.5q-24 -15 -52.5 -24.5q-28.5 -9.5 -60.5 -9.5q-31 0 -57.5 10q-26.5 10 -45.5 28q-19 18 -30 44q-11 26 -11 58zt0 0zM389 236h-85q-24 0 -50.5 -3.5q-26.5 -3.5 -49 -14.5q-22.5 -11 -37 -30.5q-14.5 -19.5 -14.5 -50.5q0 -36 20.5 -56q20.5 -20 67.5 -20q18 0 43.5 6q25.5 6 49 19.5q23.5 13.5 39.5 35q16 21.5 16 53.5zM259 702l78 -138h-52l-134 138z" />
<glyph unicode="&#225;" horiz-adv-x="587" d="M55 129q0 48 21.5 78.5q21.5 30.5 56 47q34.5 16.5 77 22.5q42.5 6 84.5 6h95v45q0 63 -31.5 94q-31.5 31 -77.5 31q-17 0 -34.5 -3.5q-17.5 -3.5 -31 -12q-13.5 -8.5 -22 -22.5q-8.5 -14 -8.5 -35v-32h-83v79q40 32 94 53q54 21 123 21q43 0 74 -12.5q31 -12.5 51 -35.5q20 -23 29.5 -55q9.5 -32 9.5 -71v-282h80v-45h-172v89h-2q-14 -16 -33 -33.5q-19 -17.5 -43 -32.5q-24 -15 -52.5 -24.5q-28.5 -9.5 -60.5 -9.5q-31 0 -57.5 10q-26.5 10 -45.5 28q-19 18 -30 44q-11 26 -11 58zt0 0zM389 236h-85q-24 0 -50.5 -3.5q-26.5 -3.5 -49 -14.5q-22.5 -11 -37 -30.5q-14.5 -19.5 -14.5 -50.5q0 -36 20.5 -56q20.5 -20 67.5 -20q18 0 43.5 6q25.5 6 49 19.5q23.5 13.5 39.5 35q16 21.5 16 53.5zM445 702l-134 -138h-52l78 138z" />
<glyph unicode="&#226;" horiz-adv-x="587" d="M55 129q0 48 21.5 78.5q21.5 30.5 56 47q34.5 16.5 77 22.5q42.5 6 84.5 6h95v45q0 63 -31.5 94q-31.5 31 -77.5 31q-17 0 -34.5 -3.5q-17.5 -3.5 -31 -12q-13.5 -8.5 -22 -22.5q-8.5 -14 -8.5 -35v-32h-83v79q40 32 94 53q54 21 123 21q43 0 74 -12.5q31 -12.5 51 -35.5q20 -23 29.5 -55q9.5 -32 9.5 -71v-282h80v-45h-172v89h-2q-14 -16 -33 -33.5q-19 -17.5 -43 -32.5q-24 -15 -52.5 -24.5q-28.5 -9.5 -60.5 -9.5q-31 0 -57.5 10q-26.5 10 -45.5 28q-19 18 -30 44q-11 26 -11 58zt0 0zM389 236h-85q-24 0 -50.5 -3.5q-26.5 -3.5 -49 -14.5q-22.5 -11 -37 -30.5q-14.5 -19.5 -14.5 -50.5q0 -36 20.5 -56q20.5 -20 67.5 -20q18 0 43.5 6q25.5 6 49 19.5q23.5 13.5 39.5 35q16 21.5 16 53.5zM342 690l109 -126h-64l-83 69l-83 -69h-64l109 126z" />
<glyph unicode="&#227;" horiz-adv-x="587" d="M55 129q0 48 21.5 78.5q21.5 30.5 56 47q34.5 16.5 77 22.5q42.5 6 84.5 6h95v45q0 63 -31.5 94q-31.5 31 -77.5 31q-17 0 -34.5 -3.5q-17.5 -3.5 -31 -12q-13.5 -8.5 -22 -22.5q-8.5 -14 -8.5 -35v-32h-83v79q40 32 94 53q54 21 123 21q43 0 74 -12.5q31 -12.5 51 -35.5q20 -23 29.5 -55q9.5 -32 9.5 -71v-282h80v-45h-172v89h-2q-14 -16 -33 -33.5q-19 -17.5 -43 -32.5q-24 -15 -52.5 -24.5q-28.5 -9.5 -60.5 -9.5q-31 0 -57.5 10q-26.5 10 -45.5 28q-19 18 -30 44q-11 26 -11 58zt0 0zM389 236h-85q-24 0 -50.5 -3.5q-26.5 -3.5 -49 -14.5q-22.5 -11 -37 -30.5q-14.5 -19.5 -14.5 -50.5q0 -36 20.5 -56q20.5 -20 67.5 -20q18 0 43.5 6q25.5 6 49 19.5q23.5 13.5 39.5 35q16 21.5 16 53.5zM291 595q-20 8 -34.5 13.5q-14.5 5.5 -30.5 5.5q-13 0 -25 -7q-12 -7 -16 -28l-42 0q0 39 23 67.5q23 28.5 64 28.5q20 0 38 -6q18 -6 39 -14q16 -6 33 -11.5q17 -5.5 29 -5.5q14 0 25.5 6q11.5 6 15.5 28l41 0q0 -48 -26.5 -72q-26.5 -24 -59.5 -24q-14 0 -28.5 4t-45.5 15z" />
<glyph unicode="&#228;" horiz-adv-x="587" d="M55 129q0 48 21.5 78.5q21.5 30.5 56 47q34.5 16.5 77 22.5q42.5 6 84.5 6h95v45q0 63 -31.5 94q-31.5 31 -77.5 31q-17 0 -34.5 -3.5q-17.5 -3.5 -31 -12q-13.5 -8.5 -22 -22.5q-8.5 -14 -8.5 -35v-32h-83v79q40 32 94 53q54 21 123 21q43 0 74 -12.5q31 -12.5 51 -35.5q20 -23 29.5 -55q9.5 -32 9.5 -71v-282h80v-45h-172v89h-2q-14 -16 -33 -33.5q-19 -17.5 -43 -32.5q-24 -15 -52.5 -24.5q-28.5 -9.5 -60.5 -9.5q-31 0 -57.5 10q-26.5 10 -45.5 28q-19 18 -30 44q-11 26 -11 58zt0 0zM389 236h-85q-24 0 -50.5 -3.5q-26.5 -3.5 -49 -14.5q-22.5 -11 -37 -30.5q-14.5 -19.5 -14.5 -50.5q0 -36 20.5 -56q20.5 -20 67.5 -20q18 0 43.5 6q25.5 6 49 19.5q23.5 13.5 39.5 35q16 21.5 16 53.5zM143 628q0 22 16 38q16 16 38 16q22 0 38.5 -16q16.5 -16 16.5 -38q0 -22 -16.5 -38q-16.5 -16 -38.5 -16q-22 0 -38 16q-16 16 -16 38zt0 0zM328 628q0 22 16 38q16 16 37 16q23 0 39.5 -16q16.5 -16 16.5 -38q0 -22 -16.5 -38q-16.5 -16 -39.5 -16q-21 0 -37 16t-16 38z" />
<glyph unicode="&#229;" horiz-adv-x="587" d="M55 129q0 48 21.5 78.5q21.5 30.5 56 47q34.5 16.5 77 22.5q42.5 6 84.5 6h95v45q0 63 -31.5 94q-31.5 31 -77.5 31q-17 0 -34.5 -3.5q-17.5 -3.5 -31 -12q-13.5 -8.5 -22 -22.5q-8.5 -14 -8.5 -35v-32h-83v79q40 32 94 53q54 21 123 21q43 0 74 -12.5q31 -12.5 51 -35.5q20 -23 29.5 -55q9.5 -32 9.5 -71v-282h80v-45h-172v89h-2q-14 -16 -33 -33.5q-19 -17.5 -43 -32.5q-24 -15 -52.5 -24.5q-28.5 -9.5 -60.5 -9.5q-31 0 -57.5 10q-26.5 10 -45.5 28q-19 18 -30 44q-11 26 -11 58zt0 0zM389 236h-85q-24 0 -50.5 -3.5q-26.5 -3.5 -49 -14.5q-22.5 -11 -37 -30.5q-14.5 -19.5 -14.5 -50.5q0 -36 20.5 -56q20.5 -20 67.5 -20q18 0 43.5 6q25.5 6 49 19.5q23.5 13.5 39.5 35q16 21.5 16 53.5zM200 654q0 21 7.5 39q7.5 18 20.5 31.5q13 13.5 31 21q18 7.5 39 7.5q42 0 70.5 -28.5q28.5 -28.5 28.5 -70.5q0 -21 -7.5 -39q-7.5 -18 -21 -31.5q-13.5 -13.5 -31.5 -21q-18 -7.5 -39 -7.5q-42 0 -70 28.5q-28 28.5 -28 70.5zt0 0zM346 655q0 19 -14 33.5q-14 14.5 -34 14.5q-22 0 -35 -14.5q-13 -14.5 -13 -33.5q0 -20 13 -34.5q13 -14.5 35 -14.5q20 0 34 14.5t14 34.5z" />
<glyph unicode="&#230;" horiz-adv-x="869" d="M55 129q0 48 21.5 78.5q21.5 30.5 56 47q34.5 16.5 77 22.5q42.5 6 84.5 6h95v45q0 63 -31.5 94q-31.5 31 -77.5 31q-17 0 -34.5 -3.5q-17.5 -3.5 -31 -12q-13.5 -8.5 -22 -22.5q-8.5 -14 -8.5 -35v-32h-83v79q40 32 94 53q54 21 123 21q49 0 82.5 -19.5q33.5 -19.5 53.5 -49.5q32 33 75 51q43 18 93 18q60 0 101 -18.5q41 -18.5 65.5 -49q24.5 -30.5 35 -69.5q10.5 -39 10.5 -79v-43h-352q0 -30 7 -65q7 -35 24.5 -65q17.5 -30 48 -50q30.5 -20 77.5 -20q43 0 82.5 17q39.5 17 74.5 58l33 -33q-38 -45 -89.5 -70q-51.5 -25 -115.5 -25q-31 0 -61 6q-30 6 -57.5 19q-27.5 13 -50.5 33.5q-23 20.5 -39 49.5q-42 -55 -96.5 -81.5q-54.5 -26.5 -114.5 -26.5q-68 0 -109 37.5q-41 37.5 -41 102.5zt0 0zM389 236h-85q-24 0 -50.5 -3.5q-26.5 -3.5 -49 -14.5q-22.5 -11 -37 -30.5q-14.5 -19.5 -14.5 -50.5q0 -36 20.5 -56q20.5 -20 67.5 -20q18 0 43.5 6q25.5 6 49 19.5q23.5 13.5 39.5 35q16 21.5 16 53.5zM739 290q-1 78 -30 122q-29 44 -87 44q-24 0 -47.5 -11q-23.5 -11 -42 -32q-18.5 -21 -31.5 -52q-13 -31 -16 -71z" />
<glyph unicode="&#231;" horiz-adv-x="492" d="M35 238q0 68 19.5 117.5q19.5 49.5 53 82q33.5 32.5 77.5 48q44 15.5 93 15.5q32 0 59 -6.5q27 -6.5 49 -17q22 -10.5 38 -23.5q16 -13 26 -25l0 -87h-79v13q0 31 -9 50.5q-9 19.5 -23 31q-14 11.5 -31.5 15.5q-17.5 4 -34.5 4q-39 0 -66 -18q-27 -18 -43.5 -48q-16.5 -30 -23.5 -69.5q-7 -39.5 -7 -81.5q0 -39 8 -74.5q8 -35.5 26.5 -62.5q18.5 -27 47.5 -43.5q29 -16.5 71 -16.5q48 0 80.5 20q32.5 20 61.5 53l34 -32q-14 -17 -32.5 -34q-18.5 -17 -42.5 -30.5q-24 -13.5 -53.5 -21.5q-29.5 -8 -63.5 -8q-45 0 -87.5 14.5q-42.5 14.5 -75 44.5q-32.5 30 -52.5 77q-20 47 -20 113zt0 0zM208 -144q13 -8 27 -14q14 -6 34 -6q21 0 31 11q10 11 10 27q0 22 -15.5 31.5q-15.5 9.5 -43.5 9.5h-27l13 85h47l-9 -51q7 1 10 1q3 0 7 0q46 0 67 -20.5q21 -20.5 21 -52.5q0 -38 -31 -61q-31 -23 -76 -23q-26 0 -48 7q-22 7 -36 18z" />
<glyph unicode="&#232;" horiz-adv-x="520" d="M35 242q0 60 18.5 107.5q18.5 47.5 51 81.5q32.5 34 75.5 52q43 18 93 18q60 0 101 -18.5q41 -18.5 65.5 -49q24.5 -30.5 35 -69.5q10.5 -39 10.5 -79v-43h-352q0 -30 7 -65q7 -35 24.5 -65q17.5 -30 48 -50q30.5 -20 77.5 -20q43 0 82.5 17q39.5 17 74.5 58l33 -33q-38 -45 -89.5 -70q-51.5 -25 -115.5 -25q-45 0 -88 14q-43 14 -77 44.5q-34 30.5 -54.5 78.5q-20.5 48 -20.5 116zt0 0zM390 290q-1 78 -30 122q-29 44 -87 44q-24 0 -47.5 -11q-23.5 -11 -42 -32q-18.5 -21 -31.5 -52q-13 -31 -16 -71zM236 702l78 -138h-52l-134 138z" />
<glyph unicode="&#233;" horiz-adv-x="520" d="M35 242q0 60 18.5 107.5q18.5 47.5 51 81.5q32.5 34 75.5 52q43 18 93 18q60 0 101 -18.5q41 -18.5 65.5 -49q24.5 -30.5 35 -69.5q10.5 -39 10.5 -79v-43h-352q0 -30 7 -65q7 -35 24.5 -65q17.5 -30 48 -50q30.5 -20 77.5 -20q43 0 82.5 17q39.5 17 74.5 58l33 -33q-38 -45 -89.5 -70q-51.5 -25 -115.5 -25q-45 0 -88 14q-43 14 -77 44.5q-34 30.5 -54.5 78.5q-20.5 48 -20.5 116zt0 0zM390 290q-1 78 -30 122q-29 44 -87 44q-24 0 -47.5 -11q-23.5 -11 -42 -32q-18.5 -21 -31.5 -52q-13 -31 -16 -71zM427 702l-134 -138h-52l78 138z" />
<glyph unicode="&#234;" horiz-adv-x="520" d="M35 242q0 60 18.5 107.5q18.5 47.5 51 81.5q32.5 34 75.5 52q43 18 93 18q60 0 101 -18.5q41 -18.5 65.5 -49q24.5 -30.5 35 -69.5q10.5 -39 10.5 -79v-43h-352q0 -30 7 -65q7 -35 24.5 -65q17.5 -30 48 -50q30.5 -20 77.5 -20q43 0 82.5 17q39.5 17 74.5 58l33 -33q-38 -45 -89.5 -70q-51.5 -25 -115.5 -25q-45 0 -88 14q-43 14 -77 44.5q-34 30.5 -54.5 78.5q-20.5 48 -20.5 116zt0 0zM390 290q-1 78 -30 122q-29 44 -87 44q-24 0 -47.5 -11q-23.5 -11 -42 -32q-18.5 -21 -31.5 -52q-13 -31 -16 -71zM316 690l109 -126h-64l-83 69l-83 -69h-64l109 126z" />
<glyph unicode="&#235;" horiz-adv-x="520" d="M35 242q0 60 18.5 107.5q18.5 47.5 51 81.5q32.5 34 75.5 52q43 18 93 18q60 0 101 -18.5q41 -18.5 65.5 -49q24.5 -30.5 35 -69.5q10.5 -39 10.5 -79v-43h-352q0 -30 7 -65q7 -35 24.5 -65q17.5 -30 48 -50q30.5 -20 77.5 -20q43 0 82.5 17q39.5 17 74.5 58l33 -33q-38 -45 -89.5 -70q-51.5 -25 -115.5 -25q-45 0 -88 14q-43 14 -77 44.5q-34 30.5 -54.5 78.5q-20.5 48 -20.5 116zt0 0zM390 290q-1 78 -30 122q-29 44 -87 44q-24 0 -47.5 -11q-23.5 -11 -42 -32q-18.5 -21 -31.5 -52q-13 -31 -16 -71zM124 628q0 22 16 38q16 16 38 16q22 0 38.5 -16q16.5 -16 16.5 -38q0 -22 -16.5 -38q-16.5 -16 -38.5 -16q-22 0 -38 16q-16 16 -16 38zt0 0zM309 628q0 22 16 38q16 16 37 16q23 0 39.5 -16q16.5 -16 16.5 -38q0 -22 -16.5 -38q-16.5 -16 -39.5 -16q-21 0 -37 16t-16 38z" />
<glyph unicode="&#236;" horiz-adv-x="298" d="M77 45q19 0 26 11.5q7 11.5 7 38.5v350h-80v45h173v-445h70v-45h-233v45zM92 702l78 -138h-52l-134 138z" />
<glyph unicode="&#237;" horiz-adv-x="298" d="M77 45q19 0 26 11.5q7 11.5 7 38.5v350h-80v45h173v-445h70v-45h-233v45zM283 702l-134 -138h-52l78 138z" />
<glyph unicode="&#238;" horiz-adv-x="298" d="M77 45q19 0 26 11.5q7 11.5 7 38.5v350h-80v45h173v-445h70v-45h-233v45zM162 690l109 -126h-64l-83 69l-83 -69h-64l109 126z" />
<glyph unicode="&#239;" horiz-adv-x="298" d="M77 45q19 0 26 11.5q7 11.5 7 38.5v350h-80v45h173v-445h70v-45h-233v45zM-26 628q0 22 16 38q16 16 38 16q22 0 38.5 -16q16.5 -16 16.5 -38q0 -22 -16.5 -38q-16.5 -16 -38.5 -16q-22 0 -38 16q-16 16 -16 38zt0 0zM159 628q0 22 16 38q16 16 37 16q23 0 39.5 -16q16.5 -16 16.5 -38q0 -22 -16.5 -38q-16.5 -16 -39.5 -16q-21 0 -37 16t-16 38z" />
<glyph unicode="&#240;" horiz-adv-x="571" d="M35 229q0 65 19.5 114q19.5 49 52.5 81.5q33 32.5 75 49q42 16.5 87 16.5q55 0 91.5 -22q36.5 -22 58.5 -50l3 0q-12 63 -48 121q-36 58 -93 96l-110 -90l-32 34l100 81q-54 28 -121 37l9 43q38 -2 78.5 -12.5q40.5 -10.5 81.5 -28.5l96 79l31 -34l-82 -68q41 -24 78 -60.5q37 -36.5 64.5 -85.5q27.5 -49 43.5 -110q16 -61 16 -136q0 -66 -17.5 -120q-17.5 -54 -49.5 -93q-32 -39 -79 -60.5q-47 -21.5 -105 -21.5q-41 0 -85 12.5q-44 12.5 -80 41q-36 28.5 -59.5 74.5q-23.5 46 -23.5 112zt0 0zM435 228q0 38 -6 74.5q-6 36.5 -22.5 64.5q-16.5 28 -45 45q-28.5 17 -72.5 17q-38 0 -67.5 -15q-29.5 -15 -49 -42q-19.5 -27 -29.5 -63.5q-10 -36.5 -10 -79.5q0 -35 8.5 -70q8.5 -35 26.5 -63q18 -28 46.5 -45q28.5 -17 68.5 -17q38 0 66.5 17q28.5 17 47.5 44.5q19 27.5 28.5 62.5t9.5 70z" />
<glyph unicode="&#241;" horiz-adv-x="633" d="M72 45q19 0 26 11.5q7 11.5 7 38.5v350h-80v45h172v-99h2q16 22 37.5 42q21.5 20 47 35q25.5 15 54.5 24q29 9 59 9q37 0 63.5 -11.5q26.5 -11.5 43.5 -32q17 -20.5 25.5 -49q8.5 -28.5 8.5 -62.5v-301h70v-45h-229v45h34q17 0 24.5 11.5q7.5 11.5 7.5 38.5v227q0 23 -4 42.5q-4 19.5 -13.5 34q-9.5 14.5 -26.5 22.5q-17 8 -43 8q-24 0 -52 -8q-28 -8 -52 -24q-24 -16 -40 -39.5q-16 -23.5 -16 -54.5v-258h66v-45h-229v45zM330 595q-20 8 -34.5 13.5q-14.5 5.5 -30.5 5.5q-13 0 -25 -7q-12 -7 -16 -28l-42 0q0 39 23 67.5q23 28.5 64 28.5q20 0 38 -6q18 -6 39 -14q16 -6 33 -11.5q17 -5.5 29 -5.5q14 0 25.5 6q11.5 6 15.5 28l41 0q0 -48 -26.5 -72q-26.5 -24 -59.5 -24q-14 0 -28.5 4t-45.5 15z" />
<glyph unicode="&#242;" horiz-adv-x="572" d="M35 244q0 61 19 109q19 48 53 81q34 33 80 50q46 17 99 17q54 0 99.5 -17q45.5 -17 79.5 -50q34 -33 53 -81q19 -48 19 -109q0 -61 -19 -108.5q-19 -47.5 -53 -80q-34 -32.5 -79.5 -49.5q-45.5 -17 -99.5 -17q-53 0 -99 17q-46 17 -80 49.5q-34 32.5 -53 80q-19 47.5 -19 108.5zt0 0zM439 244q0 15 -2 36.5q-2 21.5 -8 45q-6 23.5 -16.5 47q-10.5 23.5 -27.5 42q-17 18.5 -41.5 30q-24.5 11.5 -57.5 11.5q-33 0 -57.5 -11.5q-24.5 -11.5 -41.5 -30q-17 -18.5 -27.5 -42q-10.5 -23.5 -16.5 -47q-6 -23.5 -8 -45q-2 -21.5 -2 -36.5q0 -22 5 -57.5q5 -35.5 21 -69.5q16 -34 46.5 -58.5q30.5 -24.5 80.5 -24.5q50 0 80.5 24.5q30.5 24.5 46.5 58.5q16 34 21 69.5q5 35.5 5 57.5zt0 0zM250 702l78 -138h-52l-134 138z" />
<glyph unicode="&#243;" horiz-adv-x="572" d="M35 244q0 61 19 109q19 48 53 81q34 33 80 50q46 17 99 17q54 0 99.5 -17q45.5 -17 79.5 -50q34 -33 53 -81q19 -48 19 -109q0 -61 -19 -108.5q-19 -47.5 -53 -80q-34 -32.5 -79.5 -49.5q-45.5 -17 -99.5 -17q-53 0 -99 17q-46 17 -80 49.5q-34 32.5 -53 80q-19 47.5 -19 108.5zt0 0zM439 244q0 15 -2 36.5q-2 21.5 -8 45q-6 23.5 -16.5 47q-10.5 23.5 -27.5 42q-17 18.5 -41.5 30q-24.5 11.5 -57.5 11.5q-33 0 -57.5 -11.5q-24.5 -11.5 -41.5 -30q-17 -18.5 -27.5 -42q-10.5 -23.5 -16.5 -47q-6 -23.5 -8 -45q-2 -21.5 -2 -36.5q0 -22 5 -57.5q5 -35.5 21 -69.5q16 -34 46.5 -58.5q30.5 -24.5 80.5 -24.5q50 0 80.5 24.5q30.5 24.5 46.5 58.5q16 34 21 69.5q5 35.5 5 57.5zt0 0zM441 702l-134 -138h-52l78 138z" />
<glyph unicode="&#244;" horiz-adv-x="572" d="M35 244q0 61 19 109q19 48 53 81q34 33 80 50q46 17 99 17q54 0 99.5 -17q45.5 -17 79.5 -50q34 -33 53 -81q19 -48 19 -109q0 -61 -19 -108.5q-19 -47.5 -53 -80q-34 -32.5 -79.5 -49.5q-45.5 -17 -99.5 -17q-53 0 -99 17q-46 17 -80 49.5q-34 32.5 -53 80q-19 47.5 -19 108.5zt0 0zM439 244q0 15 -2 36.5q-2 21.5 -8 45q-6 23.5 -16.5 47q-10.5 23.5 -27.5 42q-17 18.5 -41.5 30q-24.5 11.5 -57.5 11.5q-33 0 -57.5 -11.5q-24.5 -11.5 -41.5 -30q-17 -18.5 -27.5 -42q-10.5 -23.5 -16.5 -47q-6 -23.5 -8 -45q-2 -21.5 -2 -36.5q0 -22 5 -57.5q5 -35.5 21 -69.5q16 -34 46.5 -58.5q30.5 -24.5 80.5 -24.5q50 0 80.5 24.5q30.5 24.5 46.5 58.5q16 34 21 69.5q5 35.5 5 57.5zt0 0zM324 690l109 -126h-64l-83 69l-83 -69h-64l109 126z" />
<glyph unicode="&#245;" horiz-adv-x="572" d="M35 244q0 61 19 109q19 48 53 81q34 33 80 50q46 17 99 17q54 0 99.5 -17q45.5 -17 79.5 -50q34 -33 53 -81q19 -48 19 -109q0 -61 -19 -108.5q-19 -47.5 -53 -80q-34 -32.5 -79.5 -49.5q-45.5 -17 -99.5 -17q-53 0 -99 17q-46 17 -80 49.5q-34 32.5 -53 80q-19 47.5 -19 108.5zt0 0zM439 244q0 15 -2 36.5q-2 21.5 -8 45q-6 23.5 -16.5 47q-10.5 23.5 -27.5 42q-17 18.5 -41.5 30q-24.5 11.5 -57.5 11.5q-33 0 -57.5 -11.5q-24.5 -11.5 -41.5 -30q-17 -18.5 -27.5 -42q-10.5 -23.5 -16.5 -47q-6 -23.5 -8 -45q-2 -21.5 -2 -36.5q0 -22 5 -57.5q5 -35.5 21 -69.5q16 -34 46.5 -58.5q30.5 -24.5 80.5 -24.5q50 0 80.5 24.5q30.5 24.5 46.5 58.5q16 34 21 69.5q5 35.5 5 57.5zt0 0zM280 595q-20 8 -34.5 13.5q-14.5 5.5 -30.5 5.5q-13 0 -25 -7q-12 -7 -16 -28l-42 0q0 39 23 67.5q23 28.5 64 28.5q20 0 38 -6q18 -6 39 -14q16 -6 33 -11.5q17 -5.5 29 -5.5q14 0 25.5 6q11.5 6 15.5 28l41 0q0 -48 -26.5 -72q-26.5 -24 -59.5 -24q-14 0 -28.5 4t-45.5 15z" />
<glyph unicode="&#246;" horiz-adv-x="572" d="M35 244q0 61 19 109q19 48 53 81q34 33 80 50q46 17 99 17q54 0 99.5 -17q45.5 -17 79.5 -50q34 -33 53 -81q19 -48 19 -109q0 -61 -19 -108.5q-19 -47.5 -53 -80q-34 -32.5 -79.5 -49.5q-45.5 -17 -99.5 -17q-53 0 -99 17q-46 17 -80 49.5q-34 32.5 -53 80q-19 47.5 -19 108.5zt0 0zM439 244q0 15 -2 36.5q-2 21.5 -8 45q-6 23.5 -16.5 47q-10.5 23.5 -27.5 42q-17 18.5 -41.5 30q-24.5 11.5 -57.5 11.5q-33 0 -57.5 -11.5q-24.5 -11.5 -41.5 -30q-17 -18.5 -27.5 -42q-10.5 -23.5 -16.5 -47q-6 -23.5 -8 -45q-2 -21.5 -2 -36.5q0 -22 5 -57.5q5 -35.5 21 -69.5q16 -34 46.5 -58.5q30.5 -24.5 80.5 -24.5q50 0 80.5 24.5q30.5 24.5 46.5 58.5q16 34 21 69.5q5 35.5 5 57.5zt0 0zM139 628q0 22 16 38q16 16 38 16q22 0 38.5 -16q16.5 -16 16.5 -38q0 -22 -16.5 -38q-16.5 -16 -38.5 -16q-22 0 -38 16q-16 16 -16 38zt0 0zM324 628q0 22 16 38q16 16 37 16q23 0 39.5 -16q16.5 -16 16.5 -38q0 -22 -16.5 -38q-16.5 -16 -39.5 -16q-21 0 -37 16t-16 38z" />
<glyph unicode="&#247;" horiz-adv-x="662" d="M269 181q0 26 18 44q18 18 44 18q25 0 43.5 -18q18.5 -18 18.5 -44q0 -26 -18.5 -44.5q-18.5 -18.5 -43.5 -18.5q-26 0 -44 18.5q-18 18.5 -18 44.5zt0 0zM269 526q0 26 18 44q18 18 44 18q25 0 43.5 -18q18.5 -18 18.5 -44q0 -26 -18.5 -44.5q-18.5 -18.5 -43.5 -18.5q-26 0 -44 18.5q-18 18.5 -18 44.5zt0 0zM582 389v-72h-502l0 72z" />
<glyph unicode="&#248;" horiz-adv-x="572" d="M128 37q-44 32 -68.5 84q-24.5 52 -24.5 123q0 61 19 109q19 48 53 81q34 33 80 50q46 17 99 17q65 0 116 -24l44 70l41 -24l-44 -70q44 -32 69 -85q25 -53 25 -124q0 -61 -19 -108.5q-19 -47.5 -53 -80q-34 -32.5 -79.5 -49.5q-45.5 -17 -99.5 -17q-32 0 -61.5 6.5q-29.5 6.5 -55.5 17.5l-44 -70l-40 26zM439 244q0 13 -1.5 30.5q-1.5 17.5 -5 37q-3.5 19.5 -10.5 39.5q-7 20 -18 38l-204 -326q16 -14 37 -21.5q21 -7.5 49 -7.5q50 0 80.5 24.5q30.5 24.5 46.5 58.5q16 34 21 69.5q5 35.5 5 57.5zt0 0zM371 427q-16 14 -37 21.5q-21 7.5 -48 7.5q-33 0 -57.5 -11.5q-24.5 -11.5 -41.5 -30q-17 -18.5 -27.5 -42q-10.5 -23.5 -16.5 -47q-6 -23.5 -8 -45q-2 -21.5 -2 -36.5q0 -12 1.5 -29.5q1.5 -17.5 5 -36.5q3.5 -19 10 -39q6.5 -20 17.5 -38z" />
<glyph unicode="&#249;" horiz-adv-x="633" d="M95 445h-80v45h173v-322q0 -23 3.5 -43q3.5 -20 13.5 -34q10 -14 27 -22q17 -8 43 -8q24 0 52 8q28 8 52 24q24 16 40 39.5q16 23.5 16 54.5v258h-74v45h167v-445h80v-45h-172v99h-2q-16 -23 -37.5 -43q-21.5 -20 -47 -35q-25.5 -15 -54.5 -23.5q-29 -8.5 -59 -8.5q-74 0 -107.5 43.5q-33.5 43.5 -33.5 111.5zM253 702l78 -138h-52l-134 138z" />
<glyph unicode="&#250;" horiz-adv-x="633" d="M95 445h-80v45h173v-322q0 -23 3.5 -43q3.5 -20 13.5 -34q10 -14 27 -22q17 -8 43 -8q24 0 52 8q28 8 52 24q24 16 40 39.5q16 23.5 16 54.5v258h-74v45h167v-445h80v-45h-172v99h-2q-16 -23 -37.5 -43q-21.5 -20 -47 -35q-25.5 -15 -54.5 -23.5q-29 -8.5 -59 -8.5q-74 0 -107.5 43.5q-33.5 43.5 -33.5 111.5zM454 702l-134 -138h-52l78 138z" />
<glyph unicode="&#251;" horiz-adv-x="633" d="M95 445h-80v45h173v-322q0 -23 3.5 -43q3.5 -20 13.5 -34q10 -14 27 -22q17 -8 43 -8q24 0 52 8q28 8 52 24q24 16 40 39.5q16 23.5 16 54.5v258h-74v45h167v-445h80v-45h-172v99h-2q-16 -23 -37.5 -43q-21.5 -20 -47 -35q-25.5 -15 -54.5 -23.5q-29 -8.5 -59 -8.5q-74 0 -107.5 43.5q-33.5 43.5 -33.5 111.5zM349 690l109 -126h-64l-83 69l-83 -69h-64l109 126z" />
<glyph unicode="&#252;" horiz-adv-x="633" d="M95 445h-80v45h173v-322q0 -23 3.5 -43q3.5 -20 13.5 -34q10 -14 27 -22q17 -8 43 -8q24 0 52 8q28 8 52 24q24 16 40 39.5q16 23.5 16 54.5v258h-74v45h167v-445h80v-45h-172v99h-2q-16 -23 -37.5 -43q-21.5 -20 -47 -35q-25.5 -15 -54.5 -23.5q-29 -8.5 -59 -8.5q-74 0 -107.5 43.5q-33.5 43.5 -33.5 111.5zM149 628q0 22 16 38q16 16 38 16q22 0 38.5 -16q16.5 -16 16.5 -38q0 -22 -16.5 -38q-16.5 -16 -38.5 -16q-22 0 -38 16q-16 16 -16 38zt0 0zM334 628q0 22 16 38q16 16 37 16q23 0 39.5 -16q16.5 -16 16.5 -38q0 -22 -16.5 -38q-16.5 -16 -39.5 -16q-21 0 -37 16t-16 38z" />
<glyph unicode="&#253;" horiz-adv-x="629" d="M105 -180h71q12 0 25 3q13 3 25.5 12.5q12.5 9.5 25 28q12.5 18.5 24.5 49.5l28 74l-215 458h-69v45h241v-45h-24q-30 0 -30 -23q0 -11 10 -34l102 -224q7 -15 14 -37q7 -22 11 -37l5 0q3 12 8 29.5q5 17.5 13 40.5l84 230q5 11 6 19q1 8 1 14q0 12 -7 17q-7 5 -17 5h-34v45h206v-45h-18q-29 0 -46.5 -18q-17.5 -18 -25.5 -38l-173 -461q-21 -57 -42.5 -94q-21.5 -37 -45 -58q-23.5 -21 -49 -29q-25.5 -8 -55.5 -8q-16 0 -28.5 3q-12.5 3 -20.5 7zM473 702l-134 -138h-52l78 138z" />
<glyph unicode="&#254;" horiz-adv-x="613" d="M72 -205q19 0 26 11.5q7 11.5 7 38.5v850h-80v45h173v-249q0 -9 0 -17.5q0 -8.5 0 -19q0 -10.5 -0.5 -24q-0.5 -13.5 -0.5 -34.5l2 0q13 19 31 38q18 19 41 34q23 15 51.5 24q28.5 9 61.5 9q49 0 85 -18q36 -18 59.5 -50.5q23.5 -32.5 35 -76.5q11.5 -44 11.5 -96q0 -61 -16.5 -111q-16.5 -50 -46.5 -85.5q-30 -35.5 -72 -55q-42 -19.5 -93 -19.5q-48 0 -83.5 17q-35.5 17 -65.5 43l-2 0q1 -14 1.5 -29.5q0.5 -15.5 0.5 -23.5v-201h82v-45h-245v45zM477 250q0 30 -5 62q-5 32 -19.5 58q-14.5 26 -39.5 42.5q-25 16.5 -64 16.5q-22 0 -48.5 -7.5q-26.5 -7.5 -49.5 -22.5q-23 -15 -38.5 -38q-15.5 -23 -15.5 -54v-203q10 -9 21.5 -18.5q11.5 -9.5 27.5 -17q16 -7.5 36 -12q20 -4.5 46 -4.5q67 0 108 49t41 149z" />
<glyph unicode="&#255;" horiz-adv-x="629" d="M105 -180h71q12 0 25 3q13 3 25.5 12.5q12.5 9.5 25 28q12.5 18.5 24.5 49.5l28 74l-215 458h-69v45h241v-45h-24q-30 0 -30 -23q0 -11 10 -34l102 -224q7 -15 14 -37q7 -22 11 -37l5 0q3 12 8 29.5q5 17.5 13 40.5l84 230q5 11 6 19q1 8 1 14q0 12 -7 17q-7 5 -17 5h-34v45h206v-45h-18q-29 0 -46.5 -18q-17.5 -18 -25.5 -38l-173 -461q-21 -57 -42.5 -94q-21.5 -37 -45 -58q-23.5 -21 -49 -29q-25.5 -8 -55.5 -8q-16 0 -28.5 3q-12.5 3 -20.5 7zM177 628q0 22 16 38q16 16 38 16q22 0 38.5 -16q16.5 -16 16.5 -38q0 -22 -16.5 -38q-16.5 -16 -38.5 -16q-22 0 -38 16q-16 16 -16 38zt0 0zM362 628q0 22 16 38q16 16 37 16q23 0 39.5 -16q16.5 -16 16.5 -38q0 -22 -16.5 -38q-16.5 -16 -39.5 -16q-21 0 -37 16t-16 38z" />
<glyph unicode="&#256;" horiz-adv-x="840" d="M55 50q24 0 45.5 17q21.5 17 36.5 53l236 580h98l264 -650h80v-50h-279v50h42q17 0 24 11.5q7 11.5 7 25.5q0 8 -2 15.5q-2 7.5 -4 14.5l-32 83h-332l-32 -82q-9 -23 -9 -39q0 -14 6 -21.5q6 -7.5 22 -7.5h43v-50h-244v50zM437 534q-6 14 -14 38.5q-8 24.5 -13 42.5l-5 0q-8 -19 -17 -42q-9 -23 -15 -37l-116 -282h297zM571 870v-66h-302l0 66z" />
<glyph unicode="&#257;" horiz-adv-x="587" d="M55 129q0 48 21.5 78.5q21.5 30.5 56 47q34.5 16.5 77 22.5q42.5 6 84.5 6h95v45q0 63 -31.5 94q-31.5 31 -77.5 31q-17 0 -34.5 -3.5q-17.5 -3.5 -31 -12q-13.5 -8.5 -22 -22.5q-8.5 -14 -8.5 -35v-32h-83v79q40 32 94 53q54 21 123 21q43 0 74 -12.5q31 -12.5 51 -35.5q20 -23 29.5 -55q9.5 -32 9.5 -71v-282h80v-45h-172v89h-2q-14 -16 -33 -33.5q-19 -17.5 -43 -32.5q-24 -15 -52.5 -24.5q-28.5 -9.5 -60.5 -9.5q-31 0 -57.5 10q-26.5 10 -45.5 28q-19 18 -30 44q-11 26 -11 58zt0 0zM389 236h-85q-24 0 -50.5 -3.5q-26.5 -3.5 -49 -14.5q-22.5 -11 -37 -30.5q-14.5 -19.5 -14.5 -50.5q0 -36 20.5 -56q20.5 -20 67.5 -20q18 0 43.5 6q25.5 6 49 19.5q23.5 13.5 39.5 35q16 21.5 16 53.5zM432 657v-64h-264l0 64z" />
<glyph unicode="&#258;" horiz-adv-x="840" d="M55 50q24 0 45.5 17q21.5 17 36.5 53l236 580h98l264 -650h80v-50h-279v50h42q17 0 24 11.5q7 11.5 7 25.5q0 8 -2 15.5q-2 7.5 -4 14.5l-32 83h-332l-32 -82q-9 -23 -9 -39q0 -14 6 -21.5q6 -7.5 22 -7.5h43v-50h-244v50zM437 534q-6 14 -14 38.5q-8 24.5 -13 42.5l-5 0q-8 -19 -17 -42q-9 -23 -15 -37l-116 -282h297zM311 915q11 -29 36.5 -50q25.5 -21 72.5 -21q47 0 72.5 21q25.5 21 36.5 50l49 0q-5 -38 -21 -64.5q-16 -26.5 -38 -43q-22 -16.5 -48 -24q-26 -7.5 -51 -7.5q-24 0 -50 7.5q-26 7.5 -48 24q-22 16.5 -38.5 43q-16.5 26.5 -21.5 64.5z" />
<glyph unicode="&#259;" horiz-adv-x="587" d="M55 129q0 48 21.5 78.5q21.5 30.5 56 47q34.5 16.5 77 22.5q42.5 6 84.5 6h95v45q0 63 -31.5 94q-31.5 31 -77.5 31q-17 0 -34.5 -3.5q-17.5 -3.5 -31 -12q-13.5 -8.5 -22 -22.5q-8.5 -14 -8.5 -35v-32h-83v79q40 32 94 53q54 21 123 21q43 0 74 -12.5q31 -12.5 51 -35.5q20 -23 29.5 -55q9.5 -32 9.5 -71v-282h80v-45h-172v89h-2q-14 -16 -33 -33.5q-19 -17.5 -43 -32.5q-24 -15 -52.5 -24.5q-28.5 -9.5 -60.5 -9.5q-31 0 -57.5 10q-26.5 10 -45.5 28q-19 18 -30 44q-11 26 -11 58zt0 0zM389 236h-85q-24 0 -50.5 -3.5q-26.5 -3.5 -49 -14.5q-22.5 -11 -37 -30.5q-14.5 -19.5 -14.5 -50.5q0 -36 20.5 -56q20.5 -20 67.5 -20q18 0 43.5 6q25.5 6 49 19.5q23.5 13.5 39.5 35q16 21.5 16 53.5zM206 690q10 -26 33 -45q23 -19 66 -19q43 0 66 19q23 19 33 45l45 0q-5 -34 -19.5 -58q-14.5 -24 -34.5 -39q-20 -15 -44 -22q-24 -7 -46 -7q-23 0 -46.5 7q-23.5 7 -43.5 22q-20 15 -35 39q-15 24 -19 58z" />
<glyph unicode="&#260;" horiz-adv-x="840" d="M55 50q24 0 45.5 17q21.5 17 36.5 53l236 580h98l264 -650h80v-50h-279v50h42q17 0 24 11.5q7 11.5 7 25.5q0 8 -2 15.5q-2 7.5 -4 14.5l-32 83h-332l-32 -82q-9 -23 -9 -39q0 -14 6 -21.5q6 -7.5 22 -7.5h43v-50h-244v50zM437 534q-6 14 -14 38.5q-8 24.5 -13 42.5l-5 0q-8 -19 -17 -42q-9 -23 -15 -37l-116 -282h297zM619 -120q0 40 30.5 77q30.5 37 73.5 62l51 0q-40 -29 -62 -57.5q-22 -28.5 -22 -63.5q0 -20 13 -35q13 -15 39 -15q9 0 21 3q12 3 26 11l23 -47q-20 -17 -44 -22.5q-24 -5.5 -41 -5.5q-59 0 -83.5 28t-24.5 65z" />
<glyph unicode="&#261;" horiz-adv-x="587" d="M55 129q0 48 21.5 78.5q21.5 30.5 56 47q34.5 16.5 77 22.5q42.5 6 84.5 6h95v45q0 63 -31.5 94q-31.5 31 -77.5 31q-17 0 -34.5 -3.5q-17.5 -3.5 -31 -12q-13.5 -8.5 -22 -22.5q-8.5 -14 -8.5 -35v-32h-83v79q40 32 94 53q54 21 123 21q43 0 74 -12.5q31 -12.5 51 -35.5q20 -23 29.5 -55q9.5 -32 9.5 -71v-282h80v-45h-172v89h-2q-14 -16 -33 -33.5q-19 -17.5 -43 -32.5q-24 -15 -52.5 -24.5q-28.5 -9.5 -60.5 -9.5q-31 0 -57.5 10q-26.5 10 -45.5 28q-19 18 -30 44q-11 26 -11 58zt0 0zM389 236h-85q-24 0 -50.5 -3.5q-26.5 -3.5 -49 -14.5q-22.5 -11 -37 -30.5q-14.5 -19.5 -14.5 -50.5q0 -36 20.5 -56q20.5 -20 67.5 -20q18 0 43.5 6q25.5 6 49 19.5q23.5 13.5 39.5 35q16 21.5 16 53.5zM377 -115q0 37 27 70.5q27 33.5 65 56.5l54 0q-42 -27 -61.5 -53q-19.5 -26 -19.5 -59q0 -20 13 -31.5q13 -11.5 33 -11.5q13 0 25 3q12 3 25 11l22 -43q-20 -17 -41.5 -22q-21.5 -5 -38.5 -5q-55 0 -79 24.5t-24 59.5z" />
<glyph unicode="&#262;" horiz-adv-x="661" d="M45 345q0 84 22.5 151.5q22.5 67.5 66 115q43.5 47.5 105.5 73.5q62 26 142 26q65 0 124.5 -21q59.5 -21 110.5 -68l0 -113h-87v14q0 45 -16 71.5q-16 26.5 -39 41q-23 14.5 -49.5 18.5q-26.5 4 -48.5 4q-60 0 -103 -28.5q-43 -28.5 -70.5 -74q-27.5 -45.5 -41 -101q-13.5 -55.5 -13.5 -109.5q0 -62 13 -117q13 -55 40 -96.5q27 -41.5 69 -65.5q42 -24 100 -24q22 0 49.5 3q27.5 3 52 15q24.5 12 41 35q16.5 23 16.5 62v17h87v-106q-49 -38 -113.5 -58.5q-64.5 -20.5 -132.5 -20.5q-68 0 -127.5 20q-59.5 20 -103.5 62.5q-44 42.5 -69 110q-25 67.5 -25 163.5zt0 0zM534 926l-147 -153h-53l81 153z" />
<glyph unicode="&#263;" horiz-adv-x="492" d="M35 238q0 68 19.5 117.5q19.5 49.5 53 82q33.5 32.5 77.5 48q44 15.5 93 15.5q32 0 59 -6.5q27 -6.5 49 -17q22 -10.5 38 -23.5q16 -13 26 -25l0 -87h-79v13q0 31 -9 50.5q-9 19.5 -23 31q-14 11.5 -31.5 15.5q-17.5 4 -34.5 4q-39 0 -66 -18q-27 -18 -43.5 -48q-16.5 -30 -23.5 -69.5q-7 -39.5 -7 -81.5q0 -39 8 -74.5q8 -35.5 26.5 -62.5q18.5 -27 47.5 -43.5q29 -16.5 71 -16.5q48 0 80.5 20q32.5 20 61.5 53l34 -32q-14 -17 -32.5 -34q-18.5 -17 -42.5 -30.5q-24 -13.5 -53.5 -21.5q-29.5 -8 -63.5 -8q-45 0 -87.5 14.5q-42.5 14.5 -75 44.5q-32.5 30 -52.5 77q-20 47 -20 113zt0 0zM425 702l-134 -138h-52l78 138z" />
<glyph unicode="&#264;" horiz-adv-x="661" d="M45 345q0 84 22.5 151.5q22.5 67.5 66 115q43.5 47.5 105.5 73.5q62 26 142 26q65 0 124.5 -21q59.5 -21 110.5 -68l0 -113h-87v14q0 45 -16 71.5q-16 26.5 -39 41q-23 14.5 -49.5 18.5q-26.5 4 -48.5 4q-60 0 -103 -28.5q-43 -28.5 -70.5 -74q-27.5 -45.5 -41 -101q-13.5 -55.5 -13.5 -109.5q0 -62 13 -117q13 -55 40 -96.5q27 -41.5 69 -65.5q42 -24 100 -24q22 0 49.5 3q27.5 3 52 15q24.5 12 41 35q16.5 23 16.5 62v17h87v-106q-49 -38 -113.5 -58.5q-64.5 -20.5 -132.5 -20.5q-68 0 -127.5 20q-59.5 20 -103.5 62.5q-44 42.5 -69 110q-25 67.5 -25 163.5zt0 0zM422 919l123 -142h-68l-96 82l-94 -82h-68l122 142z" />
<glyph unicode="&#265;" horiz-adv-x="492" d="M35 238q0 68 19.5 117.5q19.5 49.5 53 82q33.5 32.5 77.5 48q44 15.5 93 15.5q32 0 59 -6.5q27 -6.5 49 -17q22 -10.5 38 -23.5q16 -13 26 -25l0 -87h-79v13q0 31 -9 50.5q-9 19.5 -23 31q-14 11.5 -31.5 15.5q-17.5 4 -34.5 4q-39 0 -66 -18q-27 -18 -43.5 -48q-16.5 -30 -23.5 -69.5q-7 -39.5 -7 -81.5q0 -39 8 -74.5q8 -35.5 26.5 -62.5q18.5 -27 47.5 -43.5q29 -16.5 71 -16.5q48 0 80.5 20q32.5 20 61.5 53l34 -32q-14 -17 -32.5 -34q-18.5 -17 -42.5 -30.5q-24 -13.5 -53.5 -21.5q-29.5 -8 -63.5 -8q-45 0 -87.5 14.5q-42.5 14.5 -75 44.5q-32.5 30 -52.5 77q-20 47 -20 113zt0 0zM315 690l109 -126h-64l-83 69l-83 -69h-64l109 126z" />
<glyph unicode="&#266;" horiz-adv-x="661" d="M45 345q0 84 22.5 151.5q22.5 67.5 66 115q43.5 47.5 105.5 73.5q62 26 142 26q65 0 124.5 -21q59.5 -21 110.5 -68l0 -113h-87v14q0 45 -16 71.5q-16 26.5 -39 41q-23 14.5 -49.5 18.5q-26.5 4 -48.5 4q-60 0 -103 -28.5q-43 -28.5 -70.5 -74q-27.5 -45.5 -41 -101q-13.5 -55.5 -13.5 -109.5q0 -62 13 -117q13 -55 40 -96.5q27 -41.5 69 -65.5q42 -24 100 -24q22 0 49.5 3q27.5 3 52 15q24.5 12 41 35q16.5 23 16.5 62v17h87v-106q-49 -38 -113.5 -58.5q-64.5 -20.5 -132.5 -20.5q-68 0 -127.5 20q-59.5 20 -103.5 62.5q-44 42.5 -69 110q-25 67.5 -25 163.5zt0 0zM310 852q0 25 18 43q18 18 43 18q25 0 43 -18q18 -18 18 -43q0 -25 -18 -43q-18 -18 -43 -18q-25 0 -43 18t-18 43z" />
<glyph unicode="&#267;" horiz-adv-x="492" d="M35 238q0 68 19.5 117.5q19.5 49.5 53 82q33.5 32.5 77.5 48q44 15.5 93 15.5q32 0 59 -6.5q27 -6.5 49 -17q22 -10.5 38 -23.5q16 -13 26 -25l0 -87h-79v13q0 31 -9 50.5q-9 19.5 -23 31q-14 11.5 -31.5 15.5q-17.5 4 -34.5 4q-39 0 -66 -18q-27 -18 -43.5 -48q-16.5 -30 -23.5 -69.5q-7 -39.5 -7 -81.5q0 -39 8 -74.5q8 -35.5 26.5 -62.5q18.5 -27 47.5 -43.5q29 -16.5 71 -16.5q48 0 80.5 20q32.5 20 61.5 53l34 -32q-14 -17 -32.5 -34q-18.5 -17 -42.5 -30.5q-24 -13.5 -53.5 -21.5q-29.5 -8 -63.5 -8q-45 0 -87.5 14.5q-42.5 14.5 -75 44.5q-32.5 30 -52.5 77q-20 47 -20 113zt0 0zM215 627q0 24 17 41q17 17 40 17q24 0 41.5 -17q17.5 -17 17.5 -41q0 -23 -17.5 -40q-17.5 -17 -41.5 -17q-23 0 -40 17t-17 40z" />
</font>
</defs>
</svg>
