<?xml version="1.0" encoding="UTF-8" standalone="no"?>
<!DOCTYPE svg PUBLIC "-//W3C//DTD SVG 1.1//EN" "http://www.w3.org/Graphics/SVG/1.1/DTD/svg11.dtd" >
<svg xmlns="http://www.w3.org/2000/svg">
<metadata>
Generated by SVGconv.
Copyright   : Copyright  2017 ParaType, Inc., ParaType Ltd. All rights reserved.
Designer    : Manvel Shmavonyan, Alexander Lubovenko
Foundry     : ParaType Ltd
Foundry URL : http://www.paratype.com
</metadata>
<defs>
<font id="MediatorSerifWeb-ExtraLight" horiz-adv-x="591" >
<font-face units-per-em="1000" ascent="985" descent="350" >
<font-face-src>
<font-face-name/>
</font-face-src>
</font-face>
<missing-glyph horiz-adv-x="500" />
<glyph unicode="&#13;" horiz-adv-x="290" />
<glyph unicode="&#32;" horiz-adv-x="290" />
<glyph unicode="&#33;" horiz-adv-x="336" d="M125 31q0 19 12.5 31q12.5 12 29.5 12q19 0 31.5 -12q12.5 -12 12.5 -31q0 -17 -12.5 -29.5q-12.5 -12.5 -31.5 -12.5q-17 0 -29.5 12.5q-12.5 12.5 -12.5 29.5zt0 0zM132 690q1 11 11 16q10 5 24 5q13 0 23.5 -5q10.5 -5 12.5 -16l-20 -510l-32 0z" />
<glyph unicode="&#34;" horiz-adv-x="412" d="M96 690q2 6 10 11.5q8 5.5 21 5.5q12 0 20.5 -5.5q8.5 -5.5 9.5 -11.5l-18 -171h-25zM255 690q2 6 10 11.5q8 5.5 21 5.5q12 0 20.5 -5.5q8.5 -5.5 9.5 -11.5l-18 -171l-25 0z" />
<glyph unicode="&#35;" horiz-adv-x="622" d="M35 211l3 32h108l38 228h-106l2 32h109l26 158h51l-26 -158h191l26 158h50l-26 -158h106l-2 -32h-109l-38 -228h106l-2 -32h-108l-26 -159h-51l26 159h-191l-26 -159h-51l26 159zM425 471h-191l-37 -228l191 0z" />
<glyph unicode="&#36;" horiz-adv-x="597" d="M281 -11q-66 4 -121.5 29q-55.5 25 -90.5 64l0 110h52v-38q0 -33 13.5 -57.5q13.5 -24.5 36 -40.5q22.5 -16 51.5 -24.5q29 -8.5 59 -9.5l0 314q-56 18 -93.5 38.5q-37.5 20.5 -61 45q-23.5 24.5 -33.5 53.5q-10 29 -10 62q0 37 13.5 68q13.5 31 39 54q25.5 23 62.5 37q37 14 83 17l0 103h38v-103q60 -5 106.5 -28q46.5 -23 71.5 -47l0 -110h-52v38q0 51 -34.5 80.5q-34.5 29.5 -91.5 33.5l0 -303q64 -20 104.5 -41.5q40.5 -21.5 63.5 -46.5q23 -25 32 -54q9 -29 9 -63q0 -38 -15 -70q-15 -32 -43 -56q-28 -24 -66.5 -38.5q-38.5 -14.5 -84.5 -16.5l0 -109h-38zM281 678q-37 -2 -63.5 -14.5q-26.5 -12.5 -43.5 -31.5q-17 -19 -25 -42q-8 -23 -8 -47q0 -24 5.5 -46.5q5.5 -22.5 21 -42.5q15.5 -20 43 -37q27.5 -17 70.5 -31zM470 167q0 28 -7 51q-7 23 -24.5 42.5q-17.5 19.5 -46.5 35.5q-29 16 -73 30l0 -304q37 1 65.5 13.5q28.5 12.5 47.5 32q19 19.5 28.5 45t9.5 54.5z" />
<glyph unicode="&#37;" horiz-adv-x="884" d="M70 528q0 32 7.5 64.5q7.5 32.5 25 59q17.5 26.5 44.5 43q27 16.5 66 16.5q39 0 66.5 -16.5q27.5 -16.5 44.5 -43q17 -26.5 25 -59q8 -32.5 8 -64.5q0 -33 -8 -65.5q-8 -32.5 -25 -58.5q-17 -26 -44.5 -42.5q-27.5 -16.5 -66.5 -16.5q-39 0 -66 16.5q-27 16.5 -44.5 42.5q-17.5 26 -25 58.5q-7.5 32.5 -7.5 65.5zt0 0zM304 528q0 29 -4 57q-4 28 -14.5 49.5q-10.5 21.5 -28 35q-17.5 13.5 -44.5 13.5q-27 0 -44 -13.5q-17 -13.5 -27.5 -35q-10.5 -21.5 -14.5 -49.5q-4 -28 -4 -57q0 -46 8 -76q8 -30 20.5 -47.5q12.5 -17.5 28.5 -24.5q16 -7 33 -7q16 0 32.5 7q16.5 7 29.5 24.5q13 17.5 21 47.5q8 30 8 76zt0 0zM528 172q0 32 7.5 64.5q7.5 32.5 25 59q17.5 26.5 44.5 43q27 16.5 66 16.5q39 0 66 -16.5q27 -16.5 44.5 -43q17.5 -26.5 25 -59q7.5 -32.5 7.5 -64.5q0 -33 -7.5 -65.5q-7.5 -32.5 -25 -58.5q-17.5 -26 -44.5 -42.5q-27 -16.5 -66 -16.5q-39 0 -66 16.5q-27 16.5 -44.5 42.5q-17.5 26 -25 58.5q-7.5 32.5 -7.5 65.5zt0 0zM761 172q0 29 -4 57q-4 28 -14 49.5q-10 21.5 -27.5 35q-17.5 13.5 -44.5 13.5q-27 0 -44 -13.5q-17 -13.5 -27.5 -35q-10.5 -21.5 -14.5 -49.5q-4 -28 -4 -57q0 -46 8 -76q8 -30 20.5 -47.5q12.5 -17.5 28.5 -24.5q16 -7 33 -7q16 0 32 7q16 7 29 24.5q13 17.5 21 47.5q8 30 8 76zt0 0zM660 711l35 -21l-473 -702l-35 22z" />
<glyph unicode="&#38;" horiz-adv-x="710" d="M65 175q0 45 14.5 78.5q14.5 33.5 39 58q24.5 24.5 56 43q31.5 18.5 66.5 33.5q-44 51 -68.5 93.5q-24.5 42.5 -24.5 84.5q0 22 7.5 47.5q7.5 25.5 26.5 47q19 21.5 52.5 36q33.5 14.5 86.5 14.5q72 0 113 -36.5q41 -36.5 41 -102.5q0 -63 -43.5 -108.5q-43.5 -45.5 -120.5 -81.5l190 -241q19 26 33.5 56q14.5 30 14.5 50q0 10 -5 16q-5 6 -19 6h-41v32h180v-32h-24q-25 0 -37.5 -12q-12.5 -12 -20.5 -33q-13 -34 -28.5 -63q-15.5 -29 -30.5 -46l66 -83h91v-32h-133l-57 74q-17 -16 -38 -31.5q-21 -15.5 -47 -27.5q-26 -12 -56.5 -19q-30.5 -7 -64.5 -7q-106 0 -162.5 50.5q-56.5 50.5 -56.5 135.5zt0 0zM433 570q0 20 -6.5 39.5q-6.5 19.5 -20.5 34.5q-14 15 -35 24.5q-21 9.5 -50 9.5q-54 0 -84.5 -29.5q-30.5 -29.5 -30.5 -80.5q0 -35 21 -73q21 -38 65 -89q41 19 68 38q27 19 43.5 39q16.5 20 23 41.5q6.5 21.5 6.5 45.5zt0 0zM261 363q-67 -31 -100 -73q-33 -42 -33 -115q0 -25 7 -51.5q7 -26.5 25.5 -49q18.5 -22.5 51 -37q32.5 -14.5 82.5 -14.5q57 0 99.5 23q42.5 23 73.5 56z" />
<glyph unicode="&#39;" horiz-adv-x="253" d="M96 690q2 6 10 11.5q8 5.5 21 5.5q12 0 20.5 -5.5q8.5 -5.5 9.5 -11.5l-18 -171h-25l-18 171z" />
<glyph unicode="&#40;" horiz-adv-x="369" d="M233 -188q-24 43 -46 95.5q-22 52.5 -38.5 112.5q-16.5 60 -26.5 125.5q-10 65.5 -10 134.5q0 69 10 134.5q10 65.5 26.5 125.5q16.5 60 38.5 112.5q22 52.5 46 95.5l18 32l36 -15l-10 -22q-20 -43 -39 -93q-19 -50 -34 -107q-15 -57 -24 -122.5q-9 -65.5 -9 -140.5q0 -75 9 -140.5q9 -65.5 24 -122.5q15 -57 34 -107q19 -50 39 -93l10 -22l-36 -15l-18 32z" />
<glyph unicode="&#41;" horiz-adv-x="369" d="M92 -183q19 43 38 93q19 50 34 107q15 57 24.5 122.5q9.5 65.5 9.5 140.5q0 75 -9.5 140.5q-9.5 65.5 -24.5 122.5q-15 57 -34 107q-19 50 -38 93l-10 22l36 15l18 -32q24 -43 46 -95.5q22 -52.5 38.5 -112.5q16.5 -60 26.5 -125.5q10 -65.5 10 -134.5q0 -69 -10 -134.5q-10 -65.5 -26.5 -125.5q-16.5 -60 -38.5 -112.5q-22 -52.5 -46 -95.5l-18 -32l-36 15z" />
<glyph unicode="&#42;" horiz-adv-x="448" d="M210 518l-6 3l-105 -74q-11 5 -17.5 20q-6.5 15 -6.5 21l118 56v7l-118 55q0 10 7.5 23q7.5 13 15.5 17l106 -72l6 3l-10 128q3 3 9.5 4.5q6.5 1.5 14.5 1.5q16 0 24 -6l-11 -128l6 -3l106 72q5 -2 9.5 -7.5q4.5 -5.5 7.5 -12q3 -6.5 5 -12q2 -5.5 2 -8.5l-116 -55v-8l116 -55q0 -8 -6.5 -22q-6.5 -14 -16.5 -18l-107 72l-6 -3l12 -129q-8 -5 -25 -5q-7 0 -13.5 1q-6.5 1 -9.5 4z" />
<glyph unicode="&#43;" horiz-adv-x="673" d="M90 332v43h225v225h43v-225h225v-43h-225v-225h-43l0 225z" />
<glyph unicode="&#44;" horiz-adv-x="305" d="M110 -125q10 13 18.5 28q8.5 15 14.5 29.5q6 14.5 9.5 28q3.5 13.5 3.5 22.5q0 8 -7 11q-7 3 -16 6.5q-9 3.5 -16 11.5q-7 8 -7 26q0 19 12.5 30q12.5 11 27.5 11q21 0 33 -14q12 -14 12 -35q0 -11 -1.5 -28.5q-1.5 -17.5 -7.5 -39.5q-6 -22 -19 -48q-13 -26 -36 -54l-21 15z" />
<glyph unicode="&#45;" horiz-adv-x="492" d="M392 287v-43h-292l0 43z" />
<glyph unicode="&#46;" horiz-adv-x="305" d="M110 36q0 19 12.5 31q12.5 12 29.5 12q19 0 31 -12q12 -12 12 -31q0 -17 -12 -29.5q-12 -12.5 -31 -12.5q-17 0 -29.5 12.5t-12.5 29.5z" />
<glyph unicode="&#47;" horiz-adv-x="573" d="M458 780l43 -17l-411 -973l-44 18z" />
<glyph unicode="&#48;" horiz-adv-x="618" d="M68 350q0 87 16.5 154q16.5 67 48 113q31.5 46 75.5 70q44 24 100 24q113 0 177.5 -93.5q64.5 -93.5 64.5 -267.5q0 -175 -64.5 -268q-64.5 -93 -177.5 -93q-112 0 -176 93q-64 93 -64 268zt0 0zM487 350q0 167 -47 247.5q-47 80.5 -132 80.5q-85 0 -131 -80.5q-46 -80.5 -46 -247.5q0 -167 46 -247.5q46 -80.5 131 -80.5q85 0 132 80.5t47 247.5z" />
<glyph unicode="&#49;" horiz-adv-x="451" d="M189 32q21 0 28.5 12.5q7.5 12.5 7.5 36.5v572h-162v32h36q49 0 97 8q48 8 88 18l0 -679h97v-32h-255l0 32z" />
<glyph unicode="&#50;" horiz-adv-x="560" d="M187 165q72 70 118 119q46 49 71.5 89q25.5 40 35 75.5q9.5 35.5 9.5 77.5q0 26 -8 53q-8 27 -26.5 49q-18.5 22 -48.5 36q-30 14 -73 14q-27 0 -53.5 -7.5q-26.5 -7.5 -47.5 -22.5q-21 -15 -34 -38q-13 -23 -13 -54v-37h-51v107q35 35 92 60q57 25 120 25q60 0 100 -17q40 -17 63.5 -43.5q23.5 -26.5 33.5 -58.5q10 -32 10 -63q0 -44 -14 -83.5q-14 -39.5 -46 -83.5q-32 -44 -83.5 -97.5q-51.5 -53.5 -127.5 -125.5l-92 -88v-1h368l-13 -50h-425l0 35z" />
<glyph unicode="&#51;" horiz-adv-x="575" d="M60 172h50v-38q0 -30 14 -51.5q14 -21.5 37 -35q23 -13.5 51.5 -19.5q28.5 -6 57.5 -6q80 0 126.5 45.5q46.5 45.5 46.5 123.5q0 36 -13.5 64q-13.5 28 -36.5 47.5q-23 19.5 -55.5 29.5q-32.5 10 -69.5 10h-66v34h63q33 0 62.5 12q29.5 12 52 33q22.5 21 35.5 50q13 29 13 63q0 30 -9.5 56q-9.5 26 -28 45.5q-18.5 19.5 -47.5 31q-29 11.5 -68 11.5q-30 0 -57 -7.5q-27 -7.5 -47 -22.5q-20 -15 -32 -37.5q-12 -22.5 -12 -52.5v-38h-51v108q38 38 94 60.5q56 22.5 116 22.5q53 0 91.5 -13.5q38.5 -13.5 64 -36.5q25.5 -23 37.5 -54.5q12 -31.5 12 -68.5q0 -36 -13 -66q-13 -30 -34.5 -52.5q-21.5 -22.5 -49 -36.5q-27.5 -14 -56.5 -20l0 -3q41 -3 72.5 -18q31.5 -15 52.5 -38q21 -23 31.5 -52.5q10.5 -29.5 10.5 -63.5q0 -40 -15 -76q-15 -36 -44.5 -63.5q-29.5 -27.5 -73 -43.5q-43.5 -16 -100.5 -16q-64 0 -120 20.5q-56 20.5 -92 54.5z" />
<glyph unicode="&#52;" horiz-adv-x="574" d="M33 195v39l354 469h41v-459h111l-14 -49h-97v-195h-59v195zM371 622h-3l-284 -379v-1l287 0z" />
<glyph unicode="&#53;" horiz-adv-x="563" d="M66 160h51v-41q0 -26 12.5 -44.5q12.5 -18.5 32.5 -30q20 -11.5 45 -17q25 -5.5 49 -5.5q45 0 78.5 16.5q33.5 16.5 55.5 44.5q22 28 33 66q11 38 11 80q0 46 -12 79.5q-12 33.5 -33 56q-21 22.5 -49.5 33.5q-28.5 11 -62.5 11q-26 0 -46 -4q-20 -4 -37.5 -12.5q-17.5 -8.5 -33 -20.5q-15.5 -12 -31.5 -28l-31 5l45 351h338l-13 -50h-291l-35 -260h2q26 26 63 43q37 17 88 17q52 0 90.5 -17.5q38.5 -17.5 63 -47q24.5 -29.5 36.5 -69q12 -39.5 12 -82.5q0 -54 -17.5 -99.5q-17.5 -45.5 -48.5 -77.5q-31 -32 -75 -50q-44 -18 -96 -18q-60 0 -111 19.5q-51 19.5 -83 51.5z" />
<glyph unicode="&#54;" horiz-adv-x="580" d="M70 269q0 113 25.5 196.5q25.5 83.5 72 138q46.5 54.5 111.5 81q65 26.5 145 26.5q9 0 28.5 -1.5q19.5 -1.5 34.5 -5.5l-4 -32q-11 2 -30 3.5q-19 1.5 -28 1.5q-140 0 -214 -91q-74 -91 -81 -275l3 0q10 26 27.5 49q17.5 23 41.5 40.5q24 17.5 53.5 28q29.5 10.5 62.5 10.5q98 0 151.5 -59q53.5 -59 53.5 -161q0 -53 -17.5 -95.5q-17.5 -42.5 -47.5 -72.5q-30 -30 -70.5 -46q-40.5 -16 -86.5 -16q-54 0 -97 19.5q-43 19.5 -72.5 56q-29.5 36.5 -45.5 88q-16 51.5 -16 116.5zt0 0zM460 218q0 81 -37.5 131.5q-37.5 50.5 -119.5 50.5q-38 0 -66.5 -16q-28.5 -16 -49.5 -39.5q-21 -23.5 -34 -50q-13 -26.5 -19 -48.5q0 -50 11 -91.5q11 -41.5 32 -71q21 -29.5 52 -45.5q31 -16 71 -16q32 0 61 12.5q29 12.5 51 37q22 24.5 35 61t13 85.5z" />
<glyph unicode="&#55;" horiz-adv-x="516" d="M413 650h-261q-31 0 -48 -9q-17 -9 -17 -48v-47h-37v154h414v-33l-306 -667h-48l303 648z" />
<glyph unicode="&#56;" horiz-adv-x="586" d="M65 170q0 63 44.5 107.5q44.5 44.5 128.5 76.5l0 1q-54 19 -85.5 42.5q-31.5 23.5 -48 47.5q-16.5 24 -21 47q-4.5 23 -4.5 41q0 39 17.5 71.5q17.5 32.5 46.5 56q29 23.5 68 37q39 13.5 83 13.5q55 0 94.5 -15q39.5 -15 65 -39.5q25.5 -24.5 37.5 -56q12 -31.5 12 -63.5q0 -21 -7 -44q-7 -23 -25 -45.5q-18 -22.5 -48.5 -43.5q-30.5 -21 -78.5 -38l0 -1q91 -33 134 -82.5q43 -49.5 43 -110.5q0 -31 -14.5 -63.5q-14.5 -32.5 -43.5 -59q-29 -26.5 -72 -43.5q-43 -17 -100 -17q-45 0 -86 12q-41 12 -72 35q-31 23 -49.5 56.5q-18.5 33.5 -18.5 77.5zt0 0zM458 170q0 36 -15.5 62.5q-15.5 26.5 -40 46.5q-24.5 20 -55.5 34q-31 14 -62 25q-23 -7 -53 -20q-30 -13 -57 -33.5q-27 -20.5 -45.5 -49q-18.5 -28.5 -18.5 -65.5q0 -39 16 -67q16 -28 42 -45.5q26 -17.5 58 -26q32 -8.5 64 -8.5q38 0 69 11q31 11 52.5 30.5q21.5 19.5 33.5 46.5q12 27 12 59zt0 0zM457 536q0 64 -42.5 102.5q-42.5 38.5 -120.5 38.5q-33 0 -61 -10q-28 -10 -48.5 -29q-20.5 -19 -31.5 -45q-11 -26 -11 -58q0 -32 11.5 -55.5q11.5 -23.5 32.5 -41.5q21 -18 50.5 -31q29.5 -13 64.5 -25q81 28 118.5 65.5t37.5 88.5z" />
<glyph unicode="&#57;" horiz-adv-x="580" d="M98 28q11 -2 30 -3.5q19 -1.5 28 -1.5q140 0 213.5 93q73.5 93 80.5 273l-3 0q-10 -26 -27.5 -49q-17.5 -23 -41.5 -40.5q-24 -17.5 -53 -28q-29 -10.5 -62 -10.5q-98 0 -152 59q-54 59 -54 161q0 52 17.5 94.5q17.5 42.5 48 72.5q30.5 30 71 46.5q40.5 16.5 86.5 16.5q110 0 170 -74q60 -74 60 -206q0 -112 -25.5 -195q-25.5 -83 -71.5 -138q-46 -55 -111.5 -82q-65.5 -27 -144.5 -27q-9 0 -29 1.5q-20 1.5 -34 5.5zM446 454q0 50 -11 91.5q-11 41.5 -31.5 71q-20.5 29.5 -51 45.5q-30.5 16 -70.5 16q-33 0 -62 -12.5q-29 -12.5 -51.5 -37q-22.5 -24.5 -35.5 -61q-13 -36.5 -13 -85.5q0 -81 37.5 -131.5q37.5 -50.5 120.5 -50.5q37 0 65.5 16q28.5 16 49.5 39q21 23 34 50t19 49z" />
<glyph unicode="&#58;" horiz-adv-x="305" d="M110 36q0 19 12.5 31q12.5 12 29.5 12q19 0 31 -12q12 -12 12 -31q0 -17 -12 -29.5q-12 -12.5 -31 -12.5q-17 0 -29.5 12.5q-12.5 12.5 -12.5 29.5zt0 0zM110 447q0 19 12.5 31q12.5 12 29.5 12q19 0 31 -12q12 -12 12 -31q0 -17 -12 -29.5q-12 -12.5 -31 -12.5q-17 0 -29.5 12.5t-12.5 29.5z" />
<glyph unicode="&#59;" horiz-adv-x="305" d="M110 -125q10 13 18.5 28q8.5 15 14.5 29.5q6 14.5 9.5 28q3.5 13.5 3.5 22.5q0 8 -7 11q-7 3 -16 6.5q-9 3.5 -16 11.5q-7 8 -7 26q0 19 12.5 30q12.5 11 27.5 11q21 0 33 -14q12 -14 12 -35q0 -11 -1.5 -28.5q-1.5 -17.5 -7.5 -39.5q-6 -22 -19 -48q-13 -26 -36 -54l-21 15zM110 447q0 19 12.5 31q12.5 12 29.5 12q19 0 31 -12q12 -12 12 -31q0 -17 -12 -29.5q-12 -12.5 -31 -12.5q-17 0 -29.5 12.5t-12.5 29.5z" />
<glyph unicode="&#60;" horiz-adv-x="660" d="M90 362l480 279v-49l-415 -238v-2l415 -238v-49l-480 279z" />
<glyph unicode="&#61;" horiz-adv-x="673" d="M583 271v-43h-493v43zM583 465v-43h-493l0 43z" />
<glyph unicode="&#62;" horiz-adv-x="660" d="M505 352v2l-415 238v49l480 -279v-18l-480 -279l0 49z" />
<glyph unicode="&#63;" horiz-adv-x="531" d="M306 380q54 47 80.5 86.5q26.5 39.5 26.5 87.5q0 51 -39.5 87.5q-39.5 36.5 -118.5 36.5q-29 0 -57.5 -7q-28.5 -7 -51 -21q-22.5 -14 -36.5 -36q-14 -22 -14 -52v-40h-51v107q35 35 94.5 58.5q59.5 23.5 122.5 23.5q58 0 99 -12.5q41 -12.5 66.5 -34q25.5 -21.5 37 -50q11.5 -28.5 11.5 -60.5q0 -32 -11 -59q-11 -27 -30 -51q-19 -24 -43 -46q-24 -22 -51 -44q-29 -24 -48 -44q-19 -20 -30.5 -40.5q-11.5 -20.5 -16.5 -42q-5 -21.5 -5 -47.5l-33 0q0 29 3.5 54q3.5 25 14 48q10.5 23 29.5 47q19 24 51 51zt0 0zM183 31q0 19 12.5 31q12.5 12 29.5 12q19 0 31 -12q12 -12 12 -31q0 -17 -12 -29.5q-12 -12.5 -31 -12.5q-17 0 -29.5 12.5t-12.5 29.5z" />
<glyph unicode="&#64;" horiz-adv-x="856" d="M70 246q0 76 26 144q26 68 74 119q48 51 114.5 80.5q66.5 29.5 147.5 29.5q75 0 139.5 -23q64.5 -23 112.5 -65q48 -42 75 -100.5q27 -58.5 27 -129.5q0 -68 -18.5 -115q-18.5 -47 -47 -76.5q-28.5 -29.5 -62 -43q-33.5 -13.5 -64.5 -13.5q-32 0 -57 14.5q-25 14.5 -25 52.5q0 11 1 22.5q1 11.5 3 22.5l-1 0q-25 -48 -65 -79.5q-40 -31.5 -91 -31.5q-32 0 -55 11.5q-23 11.5 -37.5 32q-14.5 20.5 -21.5 48.5q-7 28 -7 60q0 46 11.5 93q11.5 47 36 85q24.5 38 62 61.5q37.5 23.5 89.5 23.5q36 0 64.5 -15.5q28.5 -15.5 47.5 -39.5l1 0l14 46h44q-5 -14 -10 -31q-5 -17 -9 -42l-30 -205q-2 -14 -3 -27.5q-1 -13.5 -1 -27.5q0 -23 12.5 -32.5q12.5 -9.5 29.5 -9.5q37 0 65.5 17q28.5 17 47.5 46q19 29 29 68.5q10 39.5 10 84.5q0 56 -22 107.5q-22 51.5 -63 91.5q-41 40 -99.5 63.5q-58.5 23.5 -132.5 23.5q-60 0 -118.5 -22q-58.5 -22 -104 -65.5q-45.5 -43.5 -74 -107q-28.5 -63.5 -28.5 -145.5q0 -83 27 -144q27 -61 72 -101q45 -40 104 -59.5q59 -19.5 123 -19.5q39 0 83 8q44 8 77 27l13 -30q-35 -18 -82.5 -27.5q-47.5 -9.5 -90.5 -9.5q-77 0 -143.5 23.5q-66.5 23.5 -115.5 69q-49 45.5 -76.5 111.5q-27.5 66 -27.5 151zt0 0zM542 386q-12 16 -35 32q-23 16 -65 16q-34 0 -62 -17.5q-28 -17.5 -48.5 -48q-20.5 -30.5 -31.5 -72q-11 -41.5 -11 -89.5q0 -54 19 -84.5q19 -30.5 61 -30.5q33 0 60 16q27 16 46.5 39q19.5 23 31.5 48.5q12 25.5 15 44.5z" />
<glyph unicode="&#65;" horiz-adv-x="821" d="M58 32q46 0 70 58l252 610h60l276 -668h88v-32h-253v32h54q17 0 23.5 9q6.5 9 6.5 21q0 15 -6 27l-47 119h-361l-49 -118q-8 -19 -8 -34q0 -24 26 -24h59v-32h-232v32zM427 582q-5 13 -11.5 31.5q-6.5 18.5 -11.5 35.5l-3 0q-7 -18 -14 -35q-7 -17 -12 -30l-142 -343l337 0z" />
<glyph unicode="&#66;" horiz-adv-x="668" d="M104 32q21 0 28.5 12.5q7.5 12.5 7.5 36.5v587h-94v32h335q35 0 72 -7q37 -7 67.5 -26q30.5 -19 50 -51.5q19.5 -32.5 19.5 -84.5q0 -60 -38 -104q-38 -44 -101 -56l0 -3q46 -6 76.5 -24q30.5 -18 49 -41.5q18.5 -23.5 26 -50.5q7.5 -27 7.5 -52q0 -61 -25.5 -99.5q-25.5 -38.5 -62.5 -61q-37 -22.5 -78.5 -31q-41.5 -8.5 -74.5 -8.5h-323v32zM369 33q27 0 58 7.5q31 7.5 57.5 27q26.5 19.5 44.5 51.5q18 32 18 82q0 69 -44.5 108q-44.5 39 -119.5 39h-184v-315zM367 380q22 0 49.5 6.5q27.5 6.5 52 23.5q24.5 17 41.5 46q17 29 17 73q0 67 -39.5 102.5q-39.5 35.5 -105.5 35.5h-183l0 -287z" />
<glyph unicode="&#67;" horiz-adv-x="669" d="M59 347q0 84 23 151.5q23 67.5 65.5 114.5q42.5 47 102 72.5q59.5 25.5 131.5 25.5q76 0 134 -25.5q58 -25.5 97 -64.5l0 -112h-53v34q0 36 -17 62q-17 26 -43.5 42q-26.5 16 -58.5 23.5q-32 7.5 -61 7.5q-66 0 -114 -29q-48 -29 -80 -76q-32 -47 -47.5 -106q-15.5 -59 -15.5 -120q0 -69 15 -128.5q15 -59.5 46.5 -103q31.5 -43.5 79.5 -68.5q48 -25 114 -25q31 0 63 6.5q32 6.5 58.5 21.5q26.5 15 43.5 38.5q17 23.5 17 58.5v31h53v-103q-19 -18 -45 -34q-26 -16 -57 -27.5q-31 -11.5 -65.5 -18q-34.5 -6.5 -70.5 -6.5q-66 0 -123.5 19q-57.5 19 -100 62q-42.5 43 -67 111t-24.5 166z" />
<glyph unicode="&#68;" horiz-adv-x="739" d="M104 32q21 0 28.5 12.5q7.5 12.5 7.5 36.5v587h-94v32h290q79 0 143 -17.5q64 -17.5 108.5 -58q44.5 -40.5 68.5 -106.5q24 -66 24 -162q0 -89 -28 -156q-28 -67 -75.5 -111.5q-47.5 -44.5 -110 -66.5q-62.5 -22 -132.5 -22h-288v32zM331 33q55 0 106.5 19.5q51.5 19.5 91.5 59q40 39.5 64 100.5q24 61 24 144q0 87 -20.5 146.5q-20.5 59.5 -57.5 96q-37 36.5 -89.5 52.5q-52.5 16 -115.5 16h-135l0 -634z" />
<glyph unicode="&#69;" horiz-adv-x="628" d="M104 32q21 0 28.5 12.5q7.5 12.5 7.5 36.5v587h-94v32h510v-158h-37v41q0 27 -6 43.5q-6 16.5 -16.5 25.5q-10.5 9 -25 12q-14.5 3 -31.5 3h-241v-293h213v87h37v-209h-37v88h-213v-307h253q16 0 30.5 3q14.5 3 25 12q10.5 9 16.5 25.5q6 16.5 6 43.5v48h37v-165h-521l0 32z" />
<glyph unicode="&#70;" horiz-adv-x="599" d="M104 32q21 0 28.5 12.5q7.5 12.5 7.5 36.5v587h-94v32h500v-159h-37v42q0 27 -6 43.5q-6 16.5 -16.5 25.5q-10.5 9 -25 12q-14.5 3 -31.5 3h-231v-304h207v88h37v-210h-37v88h-207v-297h102v-32h-255l0 32z" />
<glyph unicode="&#71;" horiz-adv-x="716" d="M59 347q0 84 23 151.5q23 67.5 65 114.5q42 47 101.5 72.5q59.5 25.5 132.5 25.5q77 0 135.5 -25.5q58.5 -25.5 97.5 -63.5l0 -113h-52v34q0 36 -17.5 62q-17.5 26 -44.5 42q-27 16 -59.5 23.5q-32.5 7.5 -62.5 7.5q-65 0 -113 -29q-48 -29 -80 -76q-32 -47 -47.5 -106q-15.5 -59 -15.5 -120q0 -69 14.5 -128.5q14.5 -59.5 45.5 -103q31 -43.5 78 -68.5q47 -25 113 -25q30 0 62.5 5q32.5 5 60 17.5q27.5 12.5 45.5 34.5q18 22 18 56v151h-94v32h230v-32h-46q-20 0 -27.5 -12q-7.5 -12 -7.5 -37v-166q-39 -35 -102 -58.5q-63 -23.5 -143 -23.5q-65 0 -121.5 19.5q-56.5 19.5 -98.5 62q-42 42.5 -66 110.5t-24 166z" />
<glyph unicode="&#72;" horiz-adv-x="801" d="M104 32q21 0 28.5 12.5q7.5 12.5 7.5 36.5v587h-94v32h245v-32h-58q-34 0 -34 -49v-235h403v284h-92v32h245v-32h-59q-35 0 -35 -49v-587h94v-32h-245v32h58q34 0 34 49v269h-403v-318h92v-32h-245l0 32z" />
<glyph unicode="&#73;" horiz-adv-x="349" d="M109 32q21 0 28.5 12.5q7.5 12.5 7.5 36.5v587h-99v32h257v-32h-63q-21 0 -28.5 -12.5q-7.5 -12.5 -7.5 -36.5v-587h99v-32h-257l0 32z" />
<glyph unicode="&#74;" horiz-adv-x="563" d="M66 149h51v-41q0 -46 31 -66q31 -20 76 -20q31 0 57.5 11q26.5 11 46 33q19.5 22 30.5 54q11 32 11 74v474h-99v32h252v-32h-58q-21 0 -28.5 -12.5q-7.5 -12.5 -7.5 -36.5v-420q0 -56 -17.5 -95.5q-17.5 -39.5 -46.5 -65q-29 -25.5 -65.5 -37.5q-36.5 -12 -75.5 -12q-46 0 -87.5 12.5q-41.5 12.5 -69.5 36.5z" />
<glyph unicode="&#75;" horiz-adv-x="718" d="M104 32q21 0 28.5 12q7.5 12 7.5 37v587h-94v32h245v-32h-50q-23 0 -32.5 -10q-9.5 -10 -9.5 -38v-239h128l179 233q16 21 16 35q0 19 -29 19h-56v32h237v-32h-18q-31 0 -52.5 -10q-21.5 -10 -41.5 -36l-194 -250l241 -340h91v-32h-140l-242 347h-119v-315h92v-32h-245l0 32z" />
<glyph unicode="&#76;" horiz-adv-x="597" d="M104 32q21 0 28.5 12.5q7.5 12.5 7.5 36.5v587h-94v32h252v-32h-63q-21 0 -28.5 -12.5q-7.5 -12.5 -7.5 -36.5v-586h231q15 0 28.5 3q13.5 3 23.5 12q10 9 16 25.5q6 16.5 6 43.5v56h37v-173h-495l0 32z" />
<glyph unicode="&#77;" horiz-adv-x="935" d="M92 32q21 0 29.5 16.5q8.5 16.5 11.5 46.5l53 573h-94v32h161l185 -430q7 -15 12.5 -32.5q5.5 -17.5 10.5 -34.5l4 0q9 31 24 66l191 431h163v-32h-57q-19 0 -26.5 -11.5q-7.5 -11.5 -7.5 -33.5q0 -5 0 -10q0 -5 1 -12l51 -569h95v-32h-253v32h61q20 0 26 12q6 12 6 31q0 6 0 12q0 6 -1 11l-39 433q-2 20 -3.5 47q-1.5 27 -1.5 50l-4 0l-210 -480h-44l-210 480h-4q0 -23 -1.5 -52q-1.5 -29 -3.5 -47l-41 -434q-1 -5 -1 -10.5q0 -5.5 0 -10.5q0 -20 7 -31q7 -11 29 -11h57v-32h-232l0 32z" />
<glyph unicode="&#78;" horiz-adv-x="818" d="M104 32q21 0 28.5 13.5q7.5 13.5 7.5 37.5v585h-94v32h152l385 -545q16 -22 30 -47q14 -25 23 -41l2 0q-1 26 -1.5 54.5q-0.5 28.5 -0.5 45.5v450q0 24 -7.5 37.5q-7.5 13.5 -28.5 13.5h-58v32h230v-32h-58q-21 0 -28.5 -13.5q-7.5 -13.5 -7.5 -37.5v-617h-53l-392 554q-17 23 -30 45.5q-13 22.5 -21 38.5l-3 0q1 -25 2 -55q1 -30 1 -49v-451q0 -24 7.5 -37.5q7.5 -13.5 28.5 -13.5h58v-32h-230l0 32z" />
<glyph unicode="&#79;" horiz-adv-x="766" d="M59 350q0 81 22 147.5q22 66.5 64 114q42 47.5 102 73.5q60 26 136 26q76 0 136 -26q60 -26 102 -73.5q42 -47.5 64 -114q22 -66.5 22 -147.5q0 -81 -22 -147.5q-22 -66.5 -64 -114q-42 -47.5 -102 -73.5q-60 -26 -136 -26q-76 0 -136 26q-60 26 -102 73.5q-42 47.5 -64 114q-22 66.5 -22 147.5zt0 0zM644 350q0 49 -12 106.5q-12 57.5 -41.5 106.5q-29.5 49 -80 82q-50.5 33 -127.5 33q-77 0 -127.5 -33q-50.5 -33 -80 -82q-29.5 -49 -41.5 -106.5q-12 -57.5 -12 -106.5q0 -49 12 -106.5q12 -57.5 41.5 -106.5q29.5 -49 80 -82q50.5 -33 127.5 -33q77 0 127.5 33q50.5 33 80 82q29.5 49 41.5 106.5t12 106.5z" />
<glyph unicode="&#80;" horiz-adv-x="635" d="M104 32q21 0 28.5 12.5q7.5 12.5 7.5 36.5v587h-94v32h313q40 0 81 -7.5q41 -7.5 74.5 -29q33.5 -21.5 55 -60q21.5 -38.5 21.5 -100.5q0 -54 -20 -94q-20 -40 -53.5 -66q-33.5 -26 -77 -39q-43.5 -13 -89.5 -13h-152v-259h106v-32h-259v32zM346 325q20 0 51 7q31 7 60.5 26.5q29.5 19.5 50.5 54.5q21 35 21 90q0 54 -19 86q-19 32 -46 49.5q-27 17.5 -57.5 23q-30.5 5.5 -53.5 5.5h-155l0 -342z" />
<glyph unicode="&#81;" horiz-adv-x="766" d="M427 -7q-10 -2 -21.5 -3q-11.5 -1 -22.5 -1q-76 0 -136 26q-60 26 -102 73.5q-42 47.5 -64 114q-22 66.5 -22 147.5q0 81 22 147.5q22 66.5 64 114q42 47.5 102 73.5q60 26 136 26q76 0 136 -26q60 -26 102 -73.5q42 -47.5 64 -114q22 -66.5 22 -147.5q0 -136 -61 -228q-61 -92 -171 -121q39 -30 80.5 -48q41.5 -18 86.5 -18h27v-54q-8 -2 -14 -2.5q-6 -0.5 -14 -0.5q-28 0 -56 10q-28 10 -55 26q-27 16 -53 36.5q-26 20.5 -50 42.5zt0 0zM644 350q0 49 -12 106.5q-12 57.5 -41.5 106.5q-29.5 49 -80 82q-50.5 33 -127.5 33q-77 0 -127.5 -33q-50.5 -33 -80 -82q-29.5 -49 -41.5 -106.5q-12 -57.5 -12 -106.5q0 -49 12 -106.5q12 -57.5 41.5 -106.5q29.5 -49 80 -82q50.5 -33 127.5 -33q77 0 127.5 33q50.5 33 80 82q29.5 49 41.5 106.5t12 106.5z" />
<glyph unicode="&#82;" horiz-adv-x="704" d="M104 32q21 0 28.5 12.5q7.5 12.5 7.5 36.5v587h-94v32h330q30 0 66 -6.5q36 -6.5 67 -26q31 -19.5 52 -56.5q21 -37 21 -98q0 -33 -10.5 -65.5q-10.5 -32.5 -33 -59.5q-22.5 -27 -57 -46.5q-34.5 -19.5 -82.5 -26.5l192 -283h92v-32h-141l-206 308h-137v-276h92v-32h-245v32zM338 341q36 0 69 10.5q33 10.5 58 32q25 21.5 40 53.5q15 32 15 76q0 44 -14 73.5q-14 29.5 -37 47.5q-23 18 -52 25.5q-29 7.5 -58 7.5h-161l0 -326z" />
<glyph unicode="&#83;" horiz-adv-x="586" d="M58 192h52v-37q0 -36 16.5 -61q16.5 -25 43 -41q26.5 -16 59 -23.5q32.5 -7.5 65.5 -7.5q41 0 74 11q33 11 55.5 30.5q22.5 19.5 34.5 45.5q12 26 12 56q0 56 -33.5 94q-33.5 38 -117.5 64l-78 24q-91 28 -130 73q-39 45 -39 114q0 39 15.5 71.5q15.5 32.5 44.5 56q29 23.5 70 36.5q41 13 91 13q33 0 63.5 -7q30.5 -7 57.5 -18q27 -11 48 -24q21 -13 34 -26l0 -110h-52v37q0 27 -12 48.5q-12 21.5 -32.5 36.5q-20.5 15 -48 22.5q-27.5 7.5 -59.5 7.5q-42 0 -73 -12q-31 -12 -50.5 -31.5q-19.5 -19.5 -29 -44q-9.5 -24.5 -9.5 -49.5q0 -24 6 -46q6 -22 21 -41.5q15 -19.5 40.5 -35q25.5 -15.5 64.5 -27.5l81 -24q55 -17 90.5 -37q35.5 -20 56.5 -44.5q21 -24.5 29.5 -53.5q8.5 -29 8.5 -63q0 -40 -18 -73q-18 -33 -49.5 -57q-31.5 -24 -74 -37q-42.5 -13 -92.5 -13q-36 0 -70.5 7q-34.5 7 -65 19q-30.5 12 -56 29q-25.5 17 -44.5 38z" />
<glyph unicode="&#84;" horiz-adv-x="661" d="M265 32q21 0 28.5 12.5q7.5 12.5 7.5 36.5v586h-124q-17 0 -32 -2.5q-15 -2.5 -26 -11q-11 -8.5 -17.5 -24q-6.5 -15.5 -6.5 -42.5v-53h-36v166h543v-166h-37v53q0 27 -6.5 42.5q-6.5 15.5 -17 24q-10.5 8.5 -25.5 11q-15 2.5 -31 2.5h-125v-635h99v-32h-257l0 32z" />
<glyph unicode="&#85;" horiz-adv-x="795" d="M134 668h-94v32h244v-32h-55q-21 0 -28.5 -12.5q-7.5 -12.5 -7.5 -36.5v-386q0 -41 10 -78q10 -37 33.5 -65.5q23.5 -28.5 63.5 -45.5q40 -17 100 -17q60 0 101.5 17.5q41.5 17.5 67.5 46q26 28.5 37.5 65.5q11.5 37 11.5 77v384q0 24 -7.5 37.5q-7.5 13.5 -28.5 13.5h-58v32h231v-32h-58q-22 0 -29.5 -13.5q-7.5 -13.5 -7.5 -37.5v-384q0 -59 -18.5 -104.5q-18.5 -45.5 -52.5 -76.5q-34 -31 -82 -47q-48 -16 -108 -16q-60 0 -109 15.5q-49 15.5 -83.5 46.5q-34.5 31 -53.5 76.5q-19 45.5 -19 105.5z" />
<glyph unicode="&#86;" horiz-adv-x="783" d="M17 668v32h253v-32h-55q-17 0 -23.5 -9q-6.5 -9 -6.5 -21q0 -7 2 -14.5q2 -7.5 4 -14.5l183 -490q5 -13 11 -32.5q6 -19.5 11 -35.5l3 0q5 17 12 35q7 18 12 31l187 492q8 21 8 33q0 26 -32 26h-53v32h233v-32h-38q-53 0 -74 -58l-234 -610h-59l-256 668z" />
<glyph unicode="&#87;" horiz-adv-x="1096" d="M23 668v32h245v-32h-55q-28 0 -28 -28q0 -9 2.5 -20q2.5 -11 5.5 -22l126 -472q5 -17 7 -35.5q2 -18.5 5 -35.5l4 0q5 17 8 34q3 17 9 37l174 574h60l168 -575q5 -20 8.5 -37.5q3.5 -17.5 7.5 -34.5l4 0q3 16 6.5 35q3.5 19 9.5 39l130 472q3 12 5.5 22.5q2.5 10.5 2.5 18.5q0 28 -34 28h-52v32h231v-32h-38q-28 0 -45 -15q-17 -15 -28 -53l-166 -600h-60l-170 569q-5 14 -8.5 34.5q-3.5 20.5 -6.5 36.5l-3 0q-5 -17 -9.5 -35.5q-4.5 -18.5 -9.5 -36.5l-175 -568h-59l-184 668z" />
<glyph unicode="&#88;" horiz-adv-x="689" d="M46 32q32 0 51.5 16.5q19.5 16.5 36.5 42.5l175 275l-192 302h-88v32h255v-32h-52q-26 0 -26 -25q0 -17 12 -35l105 -164q6 -9 11.5 -19q5.5 -10 10.5 -20l4 0q6 11 11.5 20q5.5 9 11.5 19l104 165q15 25 15 38q0 12 -8.5 16.5q-8.5 4.5 -20.5 4.5h-51v32h226v-32h-27q-32 0 -52 -16.5q-20 -16.5 -37 -42.5l-151 -237l214 -340h87v-32h-256v32h53q26 0 26 25q0 15 -12 35l-125 199q-6 9 -11 20q-5 11 -12 20l-3 0q-6 -11 -12 -20.5q-6 -9.5 -12 -19.5l-128 -200q-8 -13 -11 -22q-3 -9 -3 -16q0 -12 8.5 -16.5q8.5 -4.5 19.5 -4.5h52v-32h-227l0 32z" />
<glyph unicode="&#89;" horiz-adv-x="715" d="M290 32q21 0 28.5 12.5q7.5 12.5 7.5 36.5v162l-222 425h-87v32h252v-32h-54q-29 0 -29 -26q0 -15 9 -33l141 -273q6 -12 12.5 -26.5q6.5 -14.5 11.5 -28.5l3 0q6 14 13 28q7 14 15 28l151 274q12 22 12 36q0 21 -30 21h-53v32h227v-32h-35q-45 0 -76 -57l-203 -368v-211h99v-32h-255l0 32z" />
<glyph unicode="&#90;" horiz-adv-x="629" d="M467 619q10 14 18.5 25.5q8.5 11.5 16.5 20.5l0 2h-291q-17 0 -31.5 -3q-14.5 -3 -25 -12q-10.5 -9 -16.5 -25.5q-6 -16.5 -6 -43.5v-54h-36v171h470v-31l-405 -585q-8 -12 -19.5 -25.5q-11.5 -13.5 -19.5 -23.5l0 -2h336q15 0 29 3q14 3 24 12q10 9 16 25.5q6 16.5 6 43.5v54h37v-171h-511l0 31z" />
<glyph unicode="&#91;" horiz-adv-x="363" d="M318 780v-32h-83q-32 0 -46.5 -11q-14.5 -11 -14.5 -46v-869h144v-32h-198l0 990z" />
<glyph unicode="&#92;" horiz-adv-x="573" d="M115 780l412 -972l-44 -18l-411 973z" />
<glyph unicode="&#93;" horiz-adv-x="363" d="M128 -178q32 0 46.5 11q14.5 11 14.5 46v869h-144v32h198v-990h-198l0 32z" />
<glyph unicode="&#94;" horiz-adv-x="565" d="M291 700l184 -284h-54l-139 216l-138 -216h-54l185 284z" />
<glyph unicode="&#95;" horiz-adv-x="499" d="M499 -211v-39h-499l0 39z" />
<glyph unicode="&#96;" horiz-adv-x="580" d="M245 699l69 -128h-30l-107 128z" />
<glyph unicode="&#97;" horiz-adv-x="570" d="M56 123q0 46 18.5 76q18.5 30 49 47q30.5 17 71.5 23.5q41 6.5 86 6.5h115v58q0 38 -10 64.5q-10 26.5 -26.5 43q-16.5 16.5 -38.5 24q-22 7.5 -47 7.5q-21 0 -43 -5q-22 -5 -40 -15q-18 -10 -29.5 -26q-11.5 -16 -11.5 -38v-30h-49v77q80 65 190 65q48 0 79 -14q31 -14 49 -37.5q18 -23.5 25.5 -53.5q7.5 -30 7.5 -62v-305h85v-29h-140v112h-2q-12 -18 -30.5 -39.5q-18.5 -21.5 -43 -40q-24.5 -18.5 -55 -31q-30.5 -12.5 -66.5 -12.5q-63 0 -103.5 35q-40.5 35 -40.5 99zt0 0zM396 246h-120q-30 0 -59 -5.5q-29 -5.5 -52 -19q-23 -13.5 -37 -36.5q-14 -23 -14 -59q0 -43 25.5 -68q25.5 -25 79.5 -25q31 0 62.5 13q31.5 13 57 34.5q25.5 21.5 41.5 48q16 26.5 16 53.5z" />
<glyph unicode="&#98;" horiz-adv-x="600" d="M159 59l-8 -59h-43v711h-85v29h141v-299q0 -14 -0.5 -25.5q-0.5 -11.5 -1.5 -34.5l2 0q13 22 32 43.5q19 21.5 43.5 38.5q24.5 17 54.5 27.5q30 10.5 65 10.5q48 0 83.5 -18.5q35.5 -18.5 59 -51q23.5 -32.5 34.5 -77q11 -44.5 11 -95.5q0 -57 -14 -106.5q-14 -49.5 -42 -86q-28 -36.5 -70 -57q-42 -20.5 -99 -20.5q-48 0 -89 19q-41 19 -73 51zM489 254q0 43 -9 80q-9 37 -27 64.5q-18 27.5 -46 43q-28 15.5 -66 15.5q-37 0 -69.5 -14.5q-32.5 -14.5 -56.5 -36q-24 -21.5 -38 -47.5q-14 -26 -14 -49v-219q23 -23 59 -43q36 -20 94 -20q77 0 125 56.5t48 169.5z" />
<glyph unicode="&#99;" horiz-adv-x="502" d="M49 240q0 63 17.5 111.5q17.5 48.5 49 81.5q31.5 33 74.5 50.5q43 17.5 94 17.5q60 0 101.5 -20.5q41.5 -20.5 64.5 -46.5l0 -85h-48v24q0 28 -11.5 47q-11.5 19 -29 31q-17.5 12 -39 17q-21.5 5 -41.5 5q-39 0 -71.5 -17q-32.5 -17 -55 -47.5q-22.5 -30.5 -35 -73.5q-12.5 -43 -12.5 -95q0 -40 9.5 -78.5q9.5 -38.5 31.5 -69q22 -30.5 56 -49.5q34 -19 84 -19q50 0 89 21q39 21 63 50l21 -20q-12 -16 -30.5 -31.5q-18.5 -15.5 -42 -27.5q-23.5 -12 -51 -19.5q-27.5 -7.5 -57.5 -7.5q-48 0 -90 15.5q-42 15.5 -73.5 47q-31.5 31.5 -49.5 78.5t-18 110z" />
<glyph unicode="&#100;" horiz-adv-x="615" d="M53 230q0 60 14.5 109.5q14.5 49.5 43 85.5q28.5 36 70 56q41.5 20 96.5 20q48 0 87.5 -18q39.5 -18 71.5 -50l2 0q-1 23 -1.5 37q-0.5 14 -0.5 23v218h-93v29h149v-711h85v-29h-140v107h-2q-13 -21 -32 -42.5q-19 -21.5 -43.5 -38q-24.5 -16.5 -54 -27q-29.5 -10.5 -64.5 -10.5q-47 0 -82.5 18.5q-35.5 18.5 -59 50.5q-23.5 32 -35 76.5q-11.5 44.5 -11.5 95.5zt0 0zM437 398q-22 22 -59 43q-37 21 -95 21q-43 0 -75.5 -17.5q-32.5 -17.5 -54 -48q-21.5 -30.5 -32 -73q-10.5 -42.5 -10.5 -93.5q0 -41 9 -76.5q9 -35.5 27 -62.5q18 -27 46 -42.5q28 -15.5 66 -15.5q36 0 68 14q32 14 56.5 35q24.5 21 39 47q14.5 26 14.5 50z" />
<glyph unicode="&#101;" horiz-adv-x="525" d="M49 241q0 58 17 106q17 48 47.5 82.5q30.5 34.5 72 53q41.5 18.5 91.5 18.5q59 0 98 -20q39 -20 62 -51.5q23 -31.5 32.5 -71q9.5 -39.5 9.5 -78.5v-31h-372q0 -38 8.5 -78q8.5 -40 29 -72.5q20.5 -32.5 55.5 -53.5q35 -21 88 -21q53 0 93.5 20.5q40.5 20.5 68.5 52.5l21 -21q-30 -36 -79.5 -61.5q-49.5 -25.5 -112.5 -25.5q-44 0 -85.5 14q-41.5 14 -73.5 44.5q-32 30.5 -51.5 78.5q-19.5 48 -19.5 115zt0 0zM423 279q-2 91 -38 142.5q-36 51.5 -108 51.5q-30 0 -58.5 -12.5q-28.5 -12.5 -51 -36.5q-22.5 -24 -38 -60.5q-15.5 -36.5 -20.5 -84.5z" />
<glyph unicode="&#102;" horiz-adv-x="389" d="M108 29q19 0 26 11q7 11 7 35v386h-95v29h95v42q0 108 47.5 158q47.5 50 124.5 50q36 0 65.5 -11q29.5 -11 50.5 -31l0 -68h-48v27q0 29 -20 42q-20 13 -51 13q-52 0 -82.5 -42.5q-30.5 -42.5 -30.5 -123.5v-56h159v-29h-159v-432h79v-29h-210l0 29z" />
<glyph unicode="&#103;" horiz-adv-x="554" d="M53 -145q0 32 18 56.5q18 24.5 51 51.5l35 -9q-29 -34 -38 -52q-9 -18 -9 -35q0 -24 14 -42q14 -18 38.5 -30q24.5 -12 57.5 -18q33 -6 71 -6q39 0 74 8.5q35 8.5 61.5 24q26.5 15.5 42.5 37.5q16 22 16 49q0 15 -6 31q-6 16 -23.5 29.5q-17.5 13.5 -49 23q-31.5 9.5 -82.5 12.5l-34 2q-42 3 -77.5 7q-35.5 4 -61.5 12q-26 8 -40.5 22.5q-14.5 14.5 -14.5 37.5q0 30 22 55q22 25 57 52l0 1q-42 20 -63 59.5q-21 39.5 -21 91.5q0 42 15 74.5q15 32.5 40.5 55q25.5 22.5 59 34q33.5 11.5 71.5 11.5q22 0 58.5 -7.5q36.5 -7.5 70.5 -35.5q23 21 41 48.5q18 27.5 27 51.5l40 -20q-10 -16 -19.5 -29q-9.5 -13 -20 -24.5q-10.5 -11.5 -22.5 -22q-12 -10.5 -27 -22.5q18 -23 27.5 -51q9.5 -28 9.5 -63q0 -31 -12.5 -62.5q-12.5 -31.5 -36 -56.5q-23.5 -25 -58 -40.5q-34.5 -15.5 -78.5 -15.5q-17 0 -39 3.5q-22 3.5 -38 9.5q-23 -21 -37.5 -38.5q-14.5 -17.5 -14.5 -37.5q0 -12 5.5 -21q5.5 -9 21.5 -16q16 -7 45.5 -11.5q29.5 -4.5 77.5 -6.5l40 -2q56 -3 91.5 -15.5q35.5 -12.5 56 -31q20.5 -18.5 28 -41q7.5 -22.5 7.5 -45.5q0 -37 -20 -66.5q-20 -29.5 -53.5 -50q-33.5 -20.5 -77 -31.5q-43.5 -11 -90.5 -11q-67 0 -110.5 12q-43.5 12 -69.5 29.5q-26 17.5 -36.5 37.5q-10.5 20 -10.5 37zt0 0zM404 326q0 43 -13 71.5q-13 28.5 -32.5 45q-19.5 16.5 -41.5 23.5q-22 7 -40 7q-18 0 -40.5 -7q-22.5 -7 -42 -23.5q-19.5 -16.5 -32.5 -45q-13 -28.5 -13 -71.5q0 -30 8.5 -56.5q8.5 -26.5 24.5 -47q16 -20.5 40 -32q24 -11.5 55 -11.5q31 0 55 11.5q24 11.5 40 32q16 20.5 24 47t8 56.5z" />
<glyph unicode="&#104;" horiz-adv-x="639" d="M90 29q19 0 26 11q7 11 7 34v637h-85v29h141v-291q0 -14 0 -33.5q0 -19.5 -1 -42.5l2 0q10 16 29.5 38q19.5 22 46.5 42q27 20 60.5 34q33.5 14 72.5 14q38 0 64.5 -12q26.5 -12 42.5 -32.5q16 -20.5 23 -48q7 -27.5 7 -58.5v-321h75v-29h-202v29h37q20 0 27 10q7 10 7 35v260q0 27 -5 50q-5 23 -16.5 39q-11.5 16 -30.5 25q-19 9 -48 9q-37 0 -71.5 -14.5q-34.5 -14.5 -61 -37q-26.5 -22.5 -42.5 -50q-16 -27.5 -16 -52.5v-274h71v-29h-202l0 29z" />
<glyph unicode="&#105;" horiz-adv-x="302" d="M90 29q19 0 26 11q7 11 7 35v386h-85v29h141v-461h75v-29h-206v29zM104 636q0 17 12 29q12 12 28 12q17 0 29.5 -12q12.5 -12 12.5 -29q0 -16 -12.5 -28.5q-12.5 -12.5 -29.5 -12.5q-16 0 -28 12.5t-12 28.5z" />
<glyph unicode="&#106;" horiz-adv-x="283" d="M30 -226q56 10 75.5 57q19.5 47 19.5 129v501h-85v29h141v-547q0 -94 -39 -143.5q-39 -49.5 -112 -60.5zM106 636q0 17 12 29q12 12 28 12q17 0 29.5 -12q12.5 -12 12.5 -29q0 -16 -12.5 -28.5q-12.5 -12.5 -29.5 -12.5q-16 0 -28 12.5t-12 28.5z" />
<glyph unicode="&#107;" horiz-adv-x="585" d="M90 29q19 0 26 11q7 11 7 35v636h-85v29h141v-458h75l143 136q18 18 18 29q0 14 -20 14h-37v29h187v-29h-6q-23 0 -48 -11q-25 -11 -52 -37l-148 -140l192 -244h73v-29h-118l-194 252h-65v-223h72v-29h-203l0 29z" />
<glyph unicode="&#108;" horiz-adv-x="302" d="M90 29q19 0 26 11q7 11 7 35v636h-85v29h141v-711h75v-29h-206l0 29z" />
<glyph unicode="&#109;" horiz-adv-x="942" d="M90 29q19 0 26 11q7 11 7 34v387h-85v29h141v-116h1q10 15 27 36.5q17 21.5 41.5 41.5q24.5 20 56.5 34.5q32 14.5 72 14.5q32 0 54.5 -9.5q22.5 -9.5 37.5 -26.5q15 -17 23 -40q8 -23 11 -50l2 0q10 14 26.5 35.5q16.5 21.5 40.5 41.5q24 20 55.5 34.5q31.5 14.5 70.5 14.5q38 0 63 -12.5q25 -12.5 40 -33.5q15 -21 21.5 -49.5q6.5 -28.5 6.5 -60.5v-316h75v-29h-199v29h34q20 0 27 10q7 10 7 35v260q0 28 -3 50.5q-3 22.5 -13 38.5q-10 16 -27.5 24.5q-17.5 8.5 -46.5 8.5q-32 0 -63.5 -14q-31.5 -14 -57.5 -36q-26 -22 -42 -49q-16 -27 -16 -54v-274h67v-29h-191v29h34q20 0 27 10q7 10 7 35v260q0 28 -3.5 50.5q-3.5 22.5 -13 38.5q-9.5 16 -27 24.5q-17.5 8.5 -45.5 8.5q-37 0 -70 -15.5q-33 -15.5 -57.5 -38.5q-24.5 -23 -38.5 -50q-14 -27 -14 -49v-274h67v-29h-198l0 29z" />
<glyph unicode="&#110;" horiz-adv-x="639" d="M90 29q19 0 26 11q7 11 7 34v387h-85v29h141v-116h1q10 15 29 37q19 22 45.5 42q26.5 20 60 34q33.5 14 74.5 14q38 0 64.5 -12q26.5 -12 42.5 -32.5q16 -20.5 23 -48q7 -27.5 7 -58.5v-321h75v-29h-202v29h37q20 0 27 10q7 10 7 35v261q0 27 -5 49.5q-5 22.5 -16.5 38.5q-11.5 16 -30.5 25q-19 9 -48 9q-37 0 -71.5 -14.5q-34.5 -14.5 -61 -37q-26.5 -22.5 -42.5 -50q-16 -27.5 -16 -52.5v-274h71v-29h-202l0 29z" />
<glyph unicode="&#111;" horiz-adv-x="580" d="M49 244q0 60 18 107.5q18 47.5 50 81q32 33.5 76 51q44 17.5 97 17.5q53 0 97.5 -17.5q44.5 -17.5 76.5 -51q32 -33.5 49.5 -81q17.5 -47.5 17.5 -107.5q0 -60 -17.5 -107q-17.5 -47 -49.5 -80q-32 -33 -76.5 -50.5q-44.5 -17.5 -97.5 -17.5q-53 0 -97 17.5q-44 17.5 -76 50.5q-32 33 -50 80q-18 47 -18 107zt0 0zM473 244q0 40 -10.5 81q-10.5 41 -32.5 74q-22 33 -57 53.5q-35 20.5 -83 20.5q-46 0 -80.5 -20q-34.5 -20 -57 -52q-22.5 -32 -34 -73q-11.5 -41 -11.5 -84q0 -42 11.5 -83q11.5 -41 34 -73q22.5 -32 57 -51.5q34.5 -19.5 80.5 -19.5q52 0 87.5 22.5q35.5 22.5 56.5 56q21 33.5 30 73.5t9 75z" />
<glyph unicode="&#112;" horiz-adv-x="615" d="M88 -221q22 0 28.5 12q6.5 12 6.5 35v635h-85v29h141v-108h1q13 21 32 42q19 21 43.5 38.5q24.5 17.5 54.5 28q30 10.5 65 10.5q48 0 83 -18.5q35 -18.5 58.5 -51q23.5 -32.5 34.5 -77q11 -44.5 11 -95.5q0 -59 -14.5 -108.5q-14.5 -49.5 -42.5 -85.5q-28 -36 -69.5 -56q-41.5 -20 -95.5 -20q-48 0 -88 18q-40 18 -73 49l-1 0q1 -23 1 -36.5q0 -13.5 0 -22.5v-218h90v-29h-221v29zM504 254q0 43 -9 80q-9 37 -27 64.5q-18 27.5 -45.5 43q-27.5 15.5 -65.5 15.5q-36 0 -68.5 -14q-32.5 -14 -57 -36q-24.5 -22 -38.5 -47.5q-14 -25.5 -14 -49.5v-219q11 -11 25 -22.5q14 -11.5 33 -20.5q19 -9 42.5 -14.5q23.5 -5.5 52.5 -5.5q77 0 124.5 56.5t47.5 169.5z" />
<glyph unicode="&#113;" horiz-adv-x="599" d="M401 -221q22 0 28 12q6 12 6 35v222q0 14 0.5 25.5q0.5 11.5 1.5 34.5l-2 0q-13 -21 -32 -42.5q-19 -21.5 -43.5 -38.5q-24.5 -17 -54.5 -27.5q-30 -10.5 -64 -10.5q-48 0 -83.5 18.5q-35.5 18.5 -58.5 51q-23 32.5 -34.5 76.5q-11.5 44 -11.5 94q0 58 14 108q14 50 41.5 86.5q27.5 36.5 69.5 57q42 20.5 99 20.5q51 0 91 -20q40 -20 71 -51l1 0l8 60h43v-711h75v-29h-220v29zM436 398q-23 23 -60 43.5q-37 20.5 -93 20.5q-77 0 -124.5 -58q-47.5 -58 -47.5 -174q0 -40 8.5 -76q8.5 -36 26.5 -63q18 -27 46 -42.5q28 -15.5 66 -15.5q36 0 68 14q32 14 56.5 35q24.5 21 39 47q14.5 26 14.5 50z" />
<glyph unicode="&#114;" horiz-adv-x="409" d="M90 29q19 0 26 11q7 11 7 34v387h-85v29h141v-126h1q17 26 35 50.5q18 24.5 40 44q22 19.5 48 31q26 11.5 60 11.5l0 -60h-27q-36 0 -65 -17.5q-29 -17.5 -49.5 -42q-20.5 -24.5 -31.5 -50q-11 -25.5 -11 -41.5v-261h76v-29h-207l0 29z" />
<glyph unicode="&#115;" horiz-adv-x="486" d="M58 138h48v-28q0 -25 12 -42.5q12 -17.5 32 -29q20 -11.5 44.5 -16.5q24.5 -5 50.5 -5q63 0 98 27.5q35 27.5 35 69.5q0 18 -5.5 33.5q-5.5 15.5 -19 28.5q-13.5 13 -37.5 24.5q-24 11.5 -61 21.5l-55 15q-38 10 -63 24.5q-25 14.5 -39.5 32q-14.5 17.5 -20 38q-5.5 20.5 -5.5 42.5q0 26 11 49q11 23 32.5 40.5q21.5 17.5 53 27.5q31.5 10 73.5 10q57 0 99 -18q42 -18 65 -40l0 -80h-48v28q0 21 -10 36.5q-10 15.5 -26.5 25.5q-16.5 10 -37.5 15q-21 5 -44 5q-33 0 -55.5 -8.5q-22.5 -8.5 -36.5 -22q-14 -13.5 -20 -30.5q-6 -17 -6 -33q0 -29 21 -55.5q21 -26.5 77 -41.5l56 -15q48 -13 78 -28q30 -15 46.5 -33q16.5 -18 22 -39q5.5 -21 5.5 -46q0 -29 -13.5 -53q-13.5 -24 -37.5 -41.5q-24 -17.5 -58 -27.5q-34 -10 -76 -10q-60 0 -107 19.5q-47 19.5 -78 49.5z" />
<glyph unicode="&#116;" horiz-adv-x="414" d="M130 461h-95v24q35 2 58 9.5q23 7.5 37 23.5q14 16 21 41.5q7 25.5 10 63.5l25 0v-133h163v-29h-163v-332q0 -31 6.5 -51q6.5 -20 18 -31.5q11.5 -11.5 27 -16q15.5 -4.5 33.5 -4.5q32 0 54.5 13q22.5 13 44.5 36l18 -21q-26 -29 -58.5 -47q-32.5 -18 -70.5 -18q-27 0 -50.5 7q-23.5 7 -41 23.5q-17.5 16.5 -27.5 42q-10 25.5 -10 63.5z" />
<glyph unicode="&#117;" horiz-adv-x="639" d="M113 461h-85v29h141v-335q0 -55 21.5 -88.5q21.5 -33.5 79.5 -33.5q37 0 71 14.5q34 14.5 60.5 37q26.5 22.5 42.5 49.5q16 27 16 53v274h-81v29h137v-461h85v-29h-141v116h-1q-11 -15 -29.5 -37q-18.5 -22 -44.5 -42q-26 -20 -60 -34q-34 -14 -74 -14q-38 0 -64.5 12q-26.5 12 -43 32.5q-16.5 20.5 -23.5 48q-7 27.5 -7 58.5z" />
<glyph unicode="&#118;" horiz-adv-x="612" d="M20 461v29h209v-29h-37q-25 0 -25 -22q0 -9 5 -24l123 -304q5 -14 10 -30q5 -16 9 -30l3 0q5 14 10 27.5q5 13.5 12 30.5l123 299q5 12 7 19.5q2 7.5 2 13.5q0 20 -24 20h-42v29h187v-29h-27q-24 0 -39 -14q-15 -14 -25 -37l-171 -412h-45l-192 463z" />
<glyph unicode="&#119;" horiz-adv-x="855" d="M23 461v29h203v-29h-35q-15 0 -20.5 -6.5q-5.5 -6.5 -5.5 -16.5q0 -5 1 -11.5q1 -6.5 3 -13.5l87 -288q5 -14 7.5 -32.5q2.5 -18.5 5.5 -32.5l3 0q3 14 7.5 30.5q4.5 16.5 10.5 33.5l122 366h46l117 -366q4 -12 8.5 -31.5q4.5 -19.5 7.5 -33.5l3 0q3 14 7.5 31.5q4.5 17.5 10.5 34.5l90 279q2 8 5 17.5q3 9.5 3 17.5q0 22 -24 22h-44v29h190v-29h-29q-23 0 -37.5 -12.5q-14.5 -12.5 -23.5 -41.5l-133 -409h-46l-122 376q-3 9 -7 24q-4 15 -6 26l-2 0q-2 -11 -7 -25.5q-5 -14.5 -8 -24.5l-127 -376h-45l-143 463z" />
<glyph unicode="&#120;" horiz-adv-x="582" d="M52 29q23 0 41.5 13.5q18.5 13.5 41.5 43.5l122 164l-149 211h-67v29h209v-29h-36q-23 0 -23 -18q0 -14 11 -29l69 -100q5 -6 10.5 -15.5q5.5 -9.5 10.5 -16.5l3 0q5 7 10.5 15q5.5 8 10.5 16l67 94q7 10 12.5 19.5q5.5 9.5 5.5 17.5q0 17 -23 17h-40v29h186v-29h-14q-26 0 -44.5 -12.5q-18.5 -12.5 -41.5 -44.5l-107 -147l163 -228h67v-29h-210v29h35q24 0 24 19q0 11 -11 27l-83 117q-6 8 -10.5 16.5q-4.5 8.5 -9.5 15.5l-2 0q-6 -8 -11.5 -15.5q-5.5 -7.5 -10.5 -14.5l-81 -111q-8 -10 -13.5 -20q-5.5 -10 -5.5 -18q0 -16 22 -16h41v-29h-186l0 29z" />
<glyph unicode="&#121;" horiz-adv-x="612" d="M103 -209h59q13 0 27 4q14 4 28.5 17q14.5 13 29.5 36q15 23 30 62l30 80l-214 471h-73v29h209v-29h-37q-25 0 -25 -19q0 -6 2 -12.5q2 -6.5 6 -14.5l134 -301q6 -14 11.5 -30.5q5.5 -16.5 10.5 -31.5l3 0q4 12 9 28q5 16 11 33l108 295q5 12 7 19.5q2 7.5 2 13.5q0 20 -24 20h-42v29h187v-29h-27q-24 0 -39.5 -14q-15.5 -14 -23.5 -37l-182 -490q-20 -54 -40 -89q-20 -35 -41 -55.5q-21 -20.5 -45 -28.5q-24 -8 -51 -8q-23 0 -40 7z" />
<glyph unicode="&#122;" horiz-adv-x="507" d="M344 404q11 14 22 28q11 14 22 27l0 2h-209q-20 0 -39 -12q-19 -12 -19 -43v-42h-34v126h362v-28l-282 -371q-12 -16 -24 -30q-12 -14 -24 -29l0 -3h238q10 0 20 3q10 3 18.5 9.5q8.5 6.5 14 17q5.5 10.5 5.5 25.5v42h34v-126h-391l0 29z" />
<glyph unicode="&#123;" horiz-adv-x="389" d="M172 149q0 18 -3 39q-3 21 -12 38q-9 17 -25 28.5q-16 11.5 -42 11.5h-20v38h20q26 0 42 11q16 11 25 28.5q9 17.5 12 38q3 20.5 3 39.5v195q0 27 6 55q6 28 23 51q17 23 47.5 39q30.5 16 80.5 19l0 -31q-35 -4 -54.5 -16q-19.5 -12 -30 -29q-10.5 -17 -13 -38.5q-2.5 -21.5 -2.5 -44.5v-192q0 -17 -3.5 -39q-3.5 -22 -13.5 -42.5q-10 -20.5 -28 -37.5q-18 -17 -47 -24l0 -2q29 -7 47 -24q18 -17 28 -37.5q10 -20.5 13.5 -42.5q3.5 -22 3.5 -39v-192q0 -23 2.5 -44.5q2.5 -21.5 13 -38.5q10.5 -17 30 -29q19.5 -12 54.5 -16l0 -31q-50 3 -80.5 19q-30.5 16 -47.5 39q-17 23 -23 51q-6 28 -6 55z" />
<glyph unicode="&#124;" horiz-adv-x="293" d="M173 780v-990h-53l0 990z" />
<glyph unicode="&#125;" horiz-adv-x="389" d="M60 -179q34 4 54 16q20 12 30.5 29q10.5 17 13 38.5q2.5 21.5 2.5 44.5v192q0 17 3.5 39q3.5 22 13.5 42.5q10 20.5 28 37.5q18 17 47 24l0 2q-29 7 -47 24q-18 17 -28 37.5q-10 20.5 -13.5 42.5q-3.5 22 -3.5 39v192q0 23 -2.5 44.5q-2.5 21.5 -13 38.5q-10.5 17 -30.5 29q-20 12 -54 16l0 31q50 -3 80.5 -19q30.5 -16 47.5 -39q17 -23 23 -51q6 -28 6 -55v-195q0 -18 3 -39q3 -21 12 -38q9 -17 25 -28.5q16 -11.5 42 -11.5h20v-38h-20q-26 0 -42 -11.5q-16 -11.5 -25 -28.5q-9 -17 -12 -37.5q-3 -20.5 -3 -39.5v-195q0 -27 -6 -55q-6 -28 -23 -51q-17 -23 -47.5 -39q-30.5 -16 -80.5 -19l0 31z" />
<glyph unicode="&#126;" horiz-adv-x="669" d="M90 327q29 32 66 50.5q37 18.5 78 18.5q36 0 65 -9.5q29 -9.5 46 -14.5q29 -10 49 -15q20 -5 43 -5q32 0 63 11q31 11 54 34l25 -20q-29 -32 -66 -51.5q-37 -19.5 -78 -19.5q-37 0 -66 10q-29 10 -46 16q-28 10 -48 15q-20 5 -44 5q-32 0 -63 -11.5q-31 -11.5 -54 -34.5l-24 21z" />
<glyph unicode="&#160;" horiz-adv-x="290" />
<glyph unicode="&#161;" horiz-adv-x="336" d="M212 459q0 -19 -12.5 -31q-12.5 -12 -29.5 -12q-19 0 -31.5 12q-12.5 12 -12.5 31q0 17 12.5 29.5q12.5 12.5 31.5 12.5q17 0 29.5 -12.5q12.5 -12.5 12.5 -29.5zt0 0zM205 -200q-1 -11 -11 -16q-10 -5 -24 -5q-13 0 -23.5 5q-10.5 5 -12.5 16l20 510l32 0z" />
<glyph unicode="&#162;" horiz-adv-x="572" d="M296 -10q-44 4 -81.5 21.5q-37.5 17.5 -65 49q-27.5 31.5 -43.5 76q-16 44.5 -16 103.5q0 58 15.5 104q15.5 46 42.5 79q27 33 65 52q38 19 83 24l0 95h37v-93q56 -2 95.5 -21.5q39.5 -19.5 62.5 -45.5l0 -85h-48v24q0 26 -10 44q-10 18 -26 30q-16 12 -35.5 18q-19.5 6 -38.5 7l0 -448q48 1 86 21.5q38 20.5 62 49.5l21 -20q-23 -31 -68 -56.5q-45 -25.5 -101 -28.5l0 -94h-37zM296 471q-34 -6 -61.5 -25q-27.5 -19 -46.5 -49q-19 -30 -29.5 -69.5q-10.5 -39.5 -10.5 -87.5q0 -36 8 -72q8 -36 26 -65q18 -29 46 -50q28 -21 68 -27z" />
<glyph unicode="&#163;" horiz-adv-x="641" d="M40 32q35 2 63.5 20.5q28.5 18.5 48 49.5q19.5 31 30 71q10.5 40 10.5 85q0 37 -6 75l-106 0v32h100q-6 29 -12 66q-6 37 -6 72q0 97 59 152.5q59 55.5 168 55.5q56 0 104 -19.5q48 -19.5 77 -48.5l0 -107h-50v39q0 26 -10.5 45.5q-10.5 19.5 -28.5 32q-18 12.5 -42 19q-24 6.5 -51 6.5q-48 0 -80 -14.5q-32 -14.5 -50.5 -38q-18.5 -23.5 -26.5 -54q-8 -30.5 -8 -63.5q0 -33 5.5 -73.5q5.5 -40.5 12.5 -69.5l204 0v-32h-198q2 -17 3 -33q1 -16 1 -31q0 -78 -33 -138.5q-33 -60.5 -90 -96.5l0 -1h333q16 0 30.5 2q14.5 2 25 10q10.5 8 16.5 23.5q6 15.5 6 42.5v54h37v-165h-536l0 32z" />
<glyph unicode="&#164;" horiz-adv-x="629" d="M133 189q-23 27 -40 65.5q-17 38.5 -17 87.5q0 51 16 88.5q16 37.5 41 65.5l-84 83l29 29l84 -84q27 23 65.5 39.5q38.5 16.5 86.5 16.5q51 0 89.5 -16.5q38.5 -16.5 64.5 -39.5l84 84l28 -29l-83 -83q24 -29 40 -67q16 -38 16 -87q0 -48 -16 -87q-16 -39 -40 -66l84 -84l-28 -29l-84 85q-28 -25 -67 -41.5q-39 -16.5 -88 -16.5q-50 0 -88.5 16.5q-38.5 16.5 -64.5 41.5l-84 -85l-29 29zM508 342q0 39 -15.5 74q-15.5 35 -42 61.5q-26.5 26.5 -62 42q-35.5 15.5 -74.5 15.5q-39 0 -74 -15.5q-35 -15.5 -61.5 -42q-26.5 -26.5 -42 -61.5q-15.5 -35 -15.5 -74q0 -39 15.5 -74q15.5 -35 42 -61.5q26.5 -26.5 61.5 -42.5q35 -16 74 -16q39 0 74.5 16q35.5 16 62 42.5q26.5 26.5 42 61.5t15.5 74z" />
<glyph unicode="&#165;" horiz-adv-x="701" d="M283 32q21 0 28.5 12.5q7.5 12.5 7.5 36.5v72h-142v32h142v76h-142v33h126l-188 374h-88v32h253v-32h-54q-16 0 -22 -7.5q-6 -7.5 -6 -18.5q0 -17 8 -33l125 -254q5 -10 11.5 -25.5q6.5 -15.5 11.5 -29.5l3 0q5 13 12.5 29q7.5 16 14.5 28l134 254q5 9 8.5 18.5q3.5 9.5 3.5 17.5q0 9 -6.5 15q-6.5 6 -23.5 6h-53v32h227v-32h-35q-45 0 -76 -57l-169 -317h126v-33h-142v-76h142v-32h-142v-121h98v-32h-255l0 32z" />
<glyph unicode="&#166;" horiz-adv-x="293" d="M173 189v-399h-53v399zM173 780v-399h-53l0 399z" />
<glyph unicode="&#167;" horiz-adv-x="550" d="M85 -108h48v-25q0 -27 12 -45q12 -18 30 -29.5q18 -11.5 40 -16q22 -4.5 42 -4.5q25 0 48.5 7q23.5 7 41.5 21q18 14 28.5 34.5q10.5 20.5 10.5 48.5q0 25 -9.5 44q-9.5 19 -26.5 35.5q-17 16.5 -39.5 31q-22.5 14.5 -49.5 29.5l-93 52q-23 13 -44 28q-21 15 -37 34.5q-16 19.5 -25 44q-9 24.5 -9 56.5q0 60 35 103.5q35 43.5 102 87.5q-43 29 -61.5 59q-18.5 30 -18.5 75q0 42 18 70q18 28 45 45.5q27 17.5 59.5 25q32.5 7.5 61.5 7.5q62 0 106 -21q44 -21 67 -47l0 -85h-48v25q0 27 -11.5 45q-11.5 18 -30 29.5q-18.5 11.5 -41.5 16q-23 4.5 -45 4.5q-62 0 -94 -30.5q-32 -30.5 -32 -75.5q0 -22 5.5 -39.5q5.5 -17.5 19 -33.5q13.5 -16 36 -31.5q22.5 -15.5 55.5 -33.5l83 -44q27 -14 51 -30q24 -16 42 -36q18 -20 29 -45q11 -25 11 -58q0 -30 -10.5 -57q-10.5 -27 -28.5 -52q-18 -25 -41 -48.5q-23 -23.5 -48 -45.5q45 -33 58 -63.5q13 -30.5 13 -64.5q0 -33 -14 -60.5q-14 -27.5 -38.5 -47.5q-24.5 -20 -58 -31.5q-33.5 -11.5 -72.5 -11.5q-61 0 -105 21q-44 21 -67 47zM440 213q0 52 -30.5 83q-30.5 31 -78.5 57q-25 14 -53 28q-28 14 -58 30q-51 -35 -80.5 -73.5q-29.5 -38.5 -29.5 -92.5q0 -26 7.5 -46q7.5 -20 20.5 -36q13 -16 31 -29q18 -13 38 -25q14 -8 32 -18.5q18 -10.5 36.5 -20.5q18.5 -10 35.5 -19.5q17 -9.5 29 -16.5q50 46 75 87t25 92z" />
<glyph unicode="&#168;" horiz-adv-x="580" d="M162 633q0 15 11 26q11 11 26 11q15 0 26.5 -11q11.5 -11 11.5 -26q0 -15 -11.5 -26.5q-11.5 -11.5 -26.5 -11.5q-15 0 -26 11.5q-11 11.5 -11 26.5zt0 0zM343 633q0 15 11.5 26q11.5 11 25.5 11q15 0 26.5 -11q11.5 -11 11.5 -26q0 -15 -11.5 -26.5q-11.5 -11.5 -26.5 -11.5q-14 0 -25.5 11.5t-11.5 26.5z" />
<glyph unicode="&#169;" horiz-adv-x="862" d="M268 349q0 45 13 81.5q13 36.5 36.5 62q23.5 25.5 56.5 39.5q33 14 74 14q43 0 75.5 -14q32.5 -14 54.5 -36l0 -66h-42v16q0 21 -8.5 35q-8.5 14 -21 22q-12.5 8 -28 11.5q-15.5 3.5 -29.5 3.5q-32 0 -55 -14.5q-23 -14.5 -38 -38.5q-15 -24 -22.5 -54.5q-7.5 -30.5 -7.5 -61.5q0 -73 30 -119.5q30 -46.5 92 -46.5q15 0 30.5 3q15.5 3 28 10q12.5 7 21 19.5q8.5 12.5 8.5 31.5v15h42v-61q-20 -20 -56 -33q-36 -13 -77 -13q-38 0 -70.5 11q-32.5 11 -56 34q-23.5 23 -37 60q-13.5 37 -13.5 89zt0 0zM70 350q0 75 28.5 141q28.5 66 77 114.5q48.5 48.5 114.5 77q66 28.5 141 28.5q75 0 141 -28.5q66 -28.5 114.5 -77q48.5 -48.5 77 -114.5q28.5 -66 28.5 -141q0 -75 -28.5 -141q-28.5 -66 -77 -114.5q-48.5 -48.5 -114.5 -77q-66 -28.5 -141 -28.5q-75 0 -141 28.5q-66 28.5 -114.5 77q-48.5 48.5 -77 114.5q-28.5 66 -28.5 141zt0 0zM755 350q0 67 -25.5 126q-25.5 59 -69.5 103q-44 44 -103 69.5q-59 25.5 -126 25.5q-67 0 -126 -25.5q-59 -25.5 -103 -69.5q-44 -44 -69.5 -103q-25.5 -59 -25.5 -126q0 -67 25.5 -126q25.5 -59 69.5 -103q44 -44 103 -69.5q59 -25.5 126 -25.5q67 0 126 25.5q59 25.5 103 69.5q44 44 69.5 103t25.5 126z" />
<glyph unicode="&#170;" horiz-adv-x="410" d="M53 469q0 28 11 47q11 19 30 30q19 11 44 16q25 5 52 5h83v35q0 46 -22 65q-22 19 -53 19q-13 0 -26.5 -3q-13.5 -3 -24 -9q-10.5 -6 -17.5 -16q-7 -10 -7 -25v-19h-40v53q26 20 59 32q33 12 71 12q30 0 51 -8.5q21 -8.5 33.5 -23.5q12.5 -15 18.5 -35.5q6 -20.5 6 -43.5v-189h53v-24h-102v68h-1q-8 -12 -20 -25q-12 -13 -28 -24q-16 -11 -35.5 -18.5q-19.5 -7.5 -41.5 -7.5q-42 0 -68 23.5q-26 23.5 -26 65.5zt0 0zM273 544h-74q-17 0 -34 -3.5q-17 -3.5 -30.5 -11.5q-13.5 -8 -22 -21.5q-8.5 -13.5 -8.5 -34.5q0 -26 15.5 -42q15.5 -16 47.5 -16q18 0 37 7.5q19 7.5 34.5 20q15.5 12.5 25 28q9.5 15.5 9.5 31.5z" />
<glyph unicode="&#171;" horiz-adv-x="485" d="M226 460l31 -19l-111 -178l111 -179l-31 -19l-141 198zM379 443l31 -18l-101 -162l101 -162l-31 -18l-128 180z" />
<glyph unicode="&#172;" horiz-adv-x="763" d="M75 377v43h583v-207h-47l0 164z" />
<glyph unicode="&#173;" horiz-adv-x="492" d="M392 287v-43h-292l0 43z" />
<glyph unicode="&#174;" horiz-adv-x="862" d="M297 191q11 0 15 6.5q4 6.5 4 18.5v293h-46v26h183q15 0 35 -3.5q20 -3.5 38 -14.5q18 -11 30.5 -32q12.5 -21 12.5 -56q0 -37 -23 -64.5q-23 -27.5 -67 -37.5l93 -136h43v-26h-87l-102 155h-58v-129h45v-26h-143v26zM70 350q0 75 28.5 141q28.5 66 77 114.5q48.5 48.5 114.5 77q66 28.5 141 28.5q75 0 141 -28.5q66 -28.5 114.5 -77q48.5 -48.5 77 -114.5q28.5 -66 28.5 -141q0 -75 -28.5 -141q-28.5 -66 -77 -114.5q-48.5 -48.5 -114.5 -77q-66 -28.5 -141 -28.5q-75 0 -141 28.5q-66 28.5 -114.5 77q-48.5 48.5 -77 114.5q-28.5 66 -28.5 141zt0 0zM755 350q0 67 -25.5 126q-25.5 59 -69.5 103q-44 44 -103 69.5q-59 25.5 -126 25.5q-67 0 -126 -25.5q-59 -25.5 -103 -69.5q-44 -44 -69.5 -103q-25.5 -59 -25.5 -126q0 -67 25.5 -126q25.5 -59 69.5 -103q44 -44 103 -69.5q59 -25.5 126 -25.5q67 0 126 25.5q59 25.5 103 69.5q44 44 69.5 103q25.5 59 25.5 126zt0 0zM426 347q34 0 61 20q27 20 27 62q0 42 -23.5 60.5q-23.5 18.5 -55.5 18.5h-68l0 -161z" />
<glyph unicode="&#175;" horiz-adv-x="580" d="M410 642v-39h-241l0 39z" />
<glyph unicode="&#176;" horiz-adv-x="379" d="M70 591q0 25 9.5 47q9.5 22 25.5 38q16 16 38 25.5q22 9.5 47 9.5q25 0 46.5 -9.5q21.5 -9.5 37.5 -25.5q16 -16 25.5 -38q9.5 -22 9.5 -47q0 -25 -9.5 -46.5q-9.5 -21.5 -25.5 -37.5q-16 -16 -37.5 -25.5q-21.5 -9.5 -46.5 -9.5q-25 0 -47 9.5q-22 9.5 -38 25.5q-16 16 -25.5 37.5q-9.5 21.5 -9.5 46.5zt0 0zM275 591q0 18 -7 33.5q-7 15.5 -19 27.5q-12 12 -27.5 18.5q-15.5 6.5 -32.5 6.5q-17 0 -32.5 -7q-15.5 -7 -27 -18.5q-11.5 -11.5 -18.5 -27q-7 -15.5 -7 -33.5q0 -18 7 -33.5q7 -15.5 18.5 -27q11.5 -11.5 27 -18q15.5 -6.5 32.5 -6.5q36 0 61 25t25 60z" />
<glyph unicode="&#177;" horiz-adv-x="673" d="M90 400v43h225v191h43v-191h225v-43h-225v-191h-43v191zM583 114v-43h-493l0 43z" />
<glyph unicode="&#178;" horiz-adv-x="413" d="M146 546q39 36 63 62q24 26 38 47.5q14 21.5 19 41q5 19.5 5 42.5q0 13 -4 26.5q-4 13.5 -13 24.5q-9 11 -23.5 18q-14.5 7 -36.5 7q-30 0 -53 -16.5q-23 -16.5 -23 -49.5v-19h-36v65q20 18 53.5 32q33.5 14 72.5 14q33 0 55.5 -9q22.5 -9 36 -23q13.5 -14 19.5 -31.5q6 -17.5 6 -35.5q0 -26 -8.5 -48.5q-8.5 -22.5 -27 -46q-18.5 -23.5 -47 -51q-28.5 -27.5 -68.5 -63.5l-45 -42v-2h199l-10 -40h-243l0 32z" />
<glyph unicode="&#179;" horiz-adv-x="413" d="M75 547h36v-20q0 -33 25.5 -47.5q25.5 -14.5 58.5 -14.5q42 0 65.5 24q23.5 24 23.5 63q0 39 -25 59.5q-25 20.5 -67 20.5h-33v25h32q36 0 60 22.5q24 22.5 24 60.5q0 33 -19 54q-19 21 -60 21q-32 0 -54 -16q-22 -16 -22 -48v-21h-36v67q20 19 53.5 31.5q33.5 12.5 69.5 12.5q62 0 92.5 -27.5q30.5 -27.5 30.5 -69.5q0 -20 -7.5 -36.5q-7.5 -16.5 -19.5 -28.5q-12 -12 -27.5 -20q-15.5 -8 -31.5 -11l0 -2q42 -4 68 -30q26 -26 26 -64q0 -49 -37.5 -81q-37.5 -32 -100.5 -32q-39 0 -72 12q-33 12 -53 30z" />
<glyph unicode="&#180;" horiz-adv-x="580" d="M416 699l-107 -128h-30l70 128z" />
<glyph unicode="&#181;" horiz-adv-x="648" d="M88 -221q22 0 28.5 12q6.5 12 6.5 35v635h-85v29h141v-331q0 -62 33.5 -94q33.5 -32 84.5 -32q31 0 62 14q31 14 55.5 36.5q24.5 22.5 39.5 50q15 27.5 15 53.5v274h-80v29h136v-461h85v-29h-141v115h-1q-10 -17 -26 -38.5q-16 -21.5 -38.5 -41q-22.5 -19.5 -52 -33q-29.5 -13.5 -65.5 -13.5q-31 0 -60 12q-29 12 -47 43l-2 0q1 -20 1.5 -40q0.5 -20 0.5 -34v-191h90v-29h-222l0 29z" />
<glyph unicode="&#182;" horiz-adv-x="511" d="M226 421q-43 0 -75 12q-32 12 -53.5 31.5q-21.5 19.5 -32 44.5q-10.5 25 -10.5 51q0 24 7.5 49q7.5 25 26 45.5q18.5 20.5 49 33q30.5 12.5 76.5 12.5h56v-950h-44zM406 700v-950h-44l0 950z" />
<glyph unicode="&#183;" horiz-adv-x="212" d="M60 367q0 20 13 33q13 13 32 13q20 0 33.5 -13q13.5 -13 13.5 -33q0 -20 -13.5 -33q-13.5 -13 -33.5 -13q-19 0 -32 13t-13 33z" />
<glyph unicode="&#184;" horiz-adv-x="491" d="M202 -151q13 -7 26.5 -11q13.5 -4 27.5 -4q25 0 39 11q14 11 14 33q0 27 -19 35.5q-19 8.5 -41 8.5h-32l12 78h32l-8 -54q6 1 11 1q5 0 10 0q42 0 61.5 -18q19.5 -18 19.5 -49q0 -35 -28 -55.5q-28 -20.5 -69 -20.5q-19 0 -37.5 5q-18.5 5 -30.5 14z" />
<glyph unicode="&#185;" horiz-adv-x="413" d="M180 474q19 0 19 24v304h-89v24h23q32 0 63 4.5q31 4.5 52 10.5l0 -367h51v-25h-153l0 25z" />
<glyph unicode="&#186;" horiz-adv-x="410" d="M45 545q0 79 45 122.5q45 43.5 115 43.5q70 0 115 -43.5q45 -43.5 45 -122.5q0 -79 -45 -122q-45 -43 -115 -43q-71 0 -115.5 43q-44.5 43 -44.5 122zt0 0zM314 545q0 25 -6 50.5q-6 25.5 -19 45.5q-13 20 -34 33q-21 13 -50 13q-28 0 -48.5 -12.5q-20.5 -12.5 -34 -32.5q-13.5 -20 -20 -45.5q-6.5 -25.5 -6.5 -51.5q0 -26 6.5 -51.5q6.5 -25.5 20 -45.5q13.5 -20 34 -32q20.5 -12 48.5 -12q31 0 52 13.5q21 13.5 33.5 34.5q12.5 21 18 45.5t5.5 47.5z" />
<glyph unicode="&#187;" horiz-adv-x="485" d="M176 263l-101 162l31 18l128 -180l-128 -180l-31 18zM339 263l-111 178l32 19l140 -197l-140 -198l-32 19z" />
<glyph unicode="&#188;" horiz-adv-x="804" d="M570 742l35 -15l-352 -780l-35 16zM463 103v31l197 256h38v-248h65l-10 -39h-55v-103h-48v103zM652 334h-1l-149 -193v-1h150zM165 344q19 0 19 24v304h-89v24h23q32 0 63 4.5q31 4.5 52 10.5l0 -367h51v-25h-153l0 25z" />
<glyph unicode="&#189;" horiz-adv-x="804" d="M570 742l35 -15l-352 -780l-35 16zM583 97q39 36 63 62q24 26 38 47.5q14 21.5 19 41q5 19.5 5 42.5q0 13 -4 26.5q-4 13.5 -13 24.5q-9 11 -23.5 18q-14.5 7 -36.5 7q-30 0 -53 -16.5q-23 -16.5 -23 -49.5v-19h-36v65q20 18 53.5 32q33.5 14 72.5 14q33 0 55.5 -9q22.5 -9 36 -23q13.5 -14 19.5 -31.5q6 -17.5 6 -35.5q0 -26 -8.5 -48.5q-8.5 -22.5 -27 -46q-18.5 -23.5 -47 -51q-28.5 -27.5 -68.5 -63.5l-45 -42v-2h199l-10 -40h-243v32zM165 344q19 0 19 24v304h-89v24h23q32 0 63 4.5q31 4.5 52 10.5l0 -367h51v-25h-153l0 25z" />
<glyph unicode="&#190;" horiz-adv-x="804" d="M590 742l35 -15l-352 -780l-35 16zM472 103v31l197 256h38v-248h65l-10 -39h-55v-103h-48v103zM661 334h-1l-149 -193v-1h150zM75 417h36v-20q0 -33 25.5 -47.5q25.5 -14.5 58.5 -14.5q42 0 65.5 24q23.5 24 23.5 63q0 39 -25 59.5q-25 20.5 -67 20.5h-33v25h32q36 0 60 22.5q24 22.5 24 60.5q0 33 -19 54q-19 21 -60 21q-32 0 -54 -16q-22 -16 -22 -48v-21h-36v67q20 19 53.5 31.5q33.5 12.5 69.5 12.5q62 0 92.5 -27.5q30.5 -27.5 30.5 -69.5q0 -20 -7.5 -36.5q-7.5 -16.5 -19.5 -28.5q-12 -12 -27.5 -20q-15.5 -8 -31.5 -11l0 -2q42 -4 68 -30q26 -26 26 -64q0 -49 -37.5 -81q-37.5 -32 -100.5 -32q-39 0 -72 12q-33 12 -53 30z" />
<glyph unicode="&#191;" horiz-adv-x="531" d="M225 110q-54 -47 -80.5 -86.5q-26.5 -39.5 -26.5 -87.5q0 -51 39.5 -87.5q39.5 -36.5 118.5 -36.5q29 0 57.5 7q28.5 7 51 21q22.5 14 36.5 36q14 22 14 52v40h51v-107q-35 -35 -94.5 -58.5q-59.5 -23.5 -122.5 -23.5q-58 0 -99 12.5q-41 12.5 -66.5 34q-25.5 21.5 -37 50q-11.5 28.5 -11.5 60.5q0 32 11 59q11 27 30 51q19 24 43 46q24 22 51 44q29 24 48 44q19 20 30.5 40.5q11.5 20.5 16.5 42q5 21.5 5 47.5l33 0q0 -29 -3.5 -54q-3.5 -25 -14 -48q-10.5 -23 -29.5 -47q-19 -24 -51 -51zt0 0zM348 459q0 -19 -12.5 -31q-12.5 -12 -29.5 -12q-19 0 -31 12q-12 12 -12 31q0 17 12 29.5q12 12.5 31 12.5q17 0 29.5 -12.5t12.5 -29.5z" />
<glyph unicode="&#192;" horiz-adv-x="821" d="M58 32q46 0 70 58l252 610h60l276 -668h88v-32h-253v32h54q17 0 23.5 9q6.5 9 6.5 21q0 15 -6 27l-47 119h-361l-49 -118q-8 -19 -8 -34q0 -24 26 -24h59v-32h-232v32zM427 582q-5 13 -11.5 31.5q-6.5 18.5 -11.5 35.5l-3 0q-7 -18 -14 -35q-7 -17 -12 -30l-142 -343h337zM368 921l74 -142h-33l-116 142z" />
<glyph unicode="&#193;" horiz-adv-x="821" d="M58 32q46 0 70 58l252 610h60l276 -668h88v-32h-253v32h54q17 0 23.5 9q6.5 9 6.5 21q0 15 -6 27l-47 119h-361l-49 -118q-8 -19 -8 -34q0 -24 26 -24h59v-32h-232v32zM427 582q-5 13 -11.5 31.5q-6.5 18.5 -11.5 35.5l-3 0q-7 -18 -14 -35q-7 -17 -12 -30l-142 -343h337zM554 921l-116 -142h-34l75 142z" />
<glyph unicode="&#194;" horiz-adv-x="821" d="M58 32q46 0 70 58l252 610h60l276 -668h88v-32h-253v32h54q17 0 23.5 9q6.5 9 6.5 21q0 15 -6 27l-47 119h-361l-49 -118q-8 -19 -8 -34q0 -24 26 -24h59v-32h-232v32zM427 582q-5 13 -11.5 31.5q-6.5 18.5 -11.5 35.5l-3 0q-7 -18 -14 -35q-7 -17 -12 -30l-142 -343h337zM428 913l122 -128h-42l-106 88l-105 -88h-42l122 128z" />
<glyph unicode="&#195;" horiz-adv-x="821" d="M58 32q46 0 70 58l252 610h60l276 -668h88v-32h-253v32h54q17 0 23.5 9q6.5 9 6.5 21q0 15 -6 27l-47 119h-361l-49 -118q-8 -19 -8 -34q0 -24 26 -24h59v-32h-232v32zM427 582q-5 13 -11.5 31.5q-6.5 18.5 -11.5 35.5l-3 0q-7 -18 -14 -35q-7 -17 -12 -30l-142 -343h337zM405 818q-20 8 -34.5 14q-14.5 6 -31.5 6q-14 0 -27.5 -7q-13.5 -7 -20.5 -30l-30 0q2 32 23.5 55q21.5 23 57.5 23q17 0 34 -5q17 -5 40 -15q20 -8 36.5 -14.5q16.5 -6.5 30.5 -6.5q15 0 27.5 6.5q12.5 6.5 20.5 29.5l29 0q-1 -19 -8 -33.5q-7 -14.5 -18 -24q-11 -9.5 -25 -14.5q-14 -5 -28 -5q-7 0 -13 0.5q-6 0.5 -14.5 3q-8.5 2.5 -20 6.5t-28.5 11z" />
<glyph unicode="&#196;" horiz-adv-x="821" d="M58 32q46 0 70 58l252 610h60l276 -668h88v-32h-253v32h54q17 0 23.5 9q6.5 9 6.5 21q0 15 -6 27l-47 119h-361l-49 -118q-8 -19 -8 -34q0 -24 26 -24h59v-32h-232v32zM427 582q-5 13 -11.5 31.5q-6.5 18.5 -11.5 35.5l-3 0q-7 -18 -14 -35q-7 -17 -12 -30l-142 -343h337zM255 848q0 16 11.5 27.5q11.5 11.5 27.5 11.5q16 0 27.5 -11.5q11.5 -11.5 11.5 -27.5q0 -16 -11.5 -27.5q-11.5 -11.5 -27.5 -11.5q-16 0 -27.5 11.5q-11.5 11.5 -11.5 27.5zt0 0zM475 848q0 16 12 27.5q12 11.5 27 11.5q17 0 28.5 -11.5q11.5 -11.5 11.5 -27.5q0 -16 -11.5 -27.5q-11.5 -11.5 -28.5 -11.5q-15 0 -27 11.5t-12 27.5z" />
<glyph unicode="&#197;" horiz-adv-x="821" d="M58 32q46 0 70 58l252 610h60l276 -668h88v-32h-253v32h54q17 0 23.5 9q6.5 9 6.5 21q0 15 -6 27l-47 119h-361l-49 -118q-8 -19 -8 -34q0 -24 26 -24h59v-32h-232v32zM427 582q-5 13 -11.5 31.5q-6.5 18.5 -11.5 35.5l-3 0q-7 -18 -14 -35q-7 -17 -12 -30l-142 -343h337zM312 858q0 39 26.5 66q26.5 27 65.5 27q39 0 65.5 -27q26.5 -27 26.5 -66q0 -39 -26.5 -66q-26.5 -27 -65.5 -27q-39 0 -65.5 27q-26.5 27 -26.5 66zt0 0zM463 858q0 24 -17.5 41q-17.5 17 -41.5 17q-23 0 -40 -17q-17 -17 -17 -41q0 -24 17 -40.5q17 -16.5 40 -16.5q24 0 41.5 16.5t17.5 40.5z" />
<glyph unicode="&#198;" horiz-adv-x="1032" d="M56 32q23 0 44 16q21 16 38 42l369 578h-95v32h548v-158h-37v41q0 27 -6 43.5q-6 16.5 -16.5 25.5q-10.5 9 -25 12q-14.5 3 -31.5 3h-241v-293h213v87h37v-209h-37v88h-213v-307h253q16 0 30.5 3q14.5 3 25 12q10.5 9 16.5 25.5q6 16.5 6 43.5v48h37v-165h-521v32h58q21 0 28.5 12.5q7.5 12.5 7.5 36.5v127h-286l-74 -118q-5 -8 -10 -19.5q-5 -11.5 -5 -21.5q0 -8 4.5 -12.5q4.5 -4.5 17.5 -4.5h57v-32h-231v32zM544 655h-3q-11 -19 -21 -35.5q-10 -16.5 -18 -29.5l-224 -349l266 0z" />
<glyph unicode="&#199;" horiz-adv-x="669" d="M59 347q0 84 23 151.5q23 67.5 65.5 114.5q42.5 47 102 72.5q59.5 25.5 131.5 25.5q76 0 134 -25.5q58 -25.5 97 -64.5l0 -112h-53v34q0 36 -17 62q-17 26 -43.5 42q-26.5 16 -58.5 23.5q-32 7.5 -61 7.5q-66 0 -114 -29q-48 -29 -80 -76q-32 -47 -47.5 -106q-15.5 -59 -15.5 -120q0 -69 15 -128.5q15 -59.5 46.5 -103q31.5 -43.5 79.5 -68.5q48 -25 114 -25q31 0 63 6.5q32 6.5 58.5 21.5q26.5 15 43.5 38.5q17 23.5 17 58.5v31h53v-103q-19 -18 -45 -34q-26 -16 -57 -27.5q-31 -11.5 -65.5 -18q-34.5 -6.5 -70.5 -6.5q-66 0 -123.5 19q-57.5 19 -100 62q-42.5 43 -67 111q-24.5 68 -24.5 166zt0 0zM311 -176q15 -8 31 -12.5q16 -4.5 35 -4.5q25 0 41.5 14q16.5 14 16.5 40q0 26 -18 39q-18 13 -49 13h-36l12 87h41l-9 -60q7 1 12 1q5 0 13 0q45 0 66.5 -22q21.5 -22 21.5 -57q0 -40 -32 -64.5q-32 -24.5 -79 -24.5q-23 0 -45 6q-22 6 -36 17z" />
<glyph unicode="&#200;" horiz-adv-x="628" d="M104 32q21 0 28.5 12.5q7.5 12.5 7.5 36.5v587h-94v32h510v-158h-37v41q0 27 -6 43.5q-6 16.5 -16.5 25.5q-10.5 9 -25 12q-14.5 3 -31.5 3h-241v-293h213v87h37v-209h-37v88h-213v-307h253q16 0 30.5 3q14.5 3 25 12q10.5 9 16.5 25.5q6 16.5 6 43.5v48h37v-165h-521v32zM271 921l74 -142h-33l-116 142z" />
<glyph unicode="&#201;" horiz-adv-x="628" d="M104 32q21 0 28.5 12.5q7.5 12.5 7.5 36.5v587h-94v32h510v-158h-37v41q0 27 -6 43.5q-6 16.5 -16.5 25.5q-10.5 9 -25 12q-14.5 3 -31.5 3h-241v-293h213v87h37v-209h-37v88h-213v-307h253q16 0 30.5 3q14.5 3 25 12q10.5 9 16.5 25.5q6 16.5 6 43.5v48h37v-165h-521v32zM457 921l-116 -142h-34l75 142z" />
<glyph unicode="&#202;" horiz-adv-x="628" d="M104 32q21 0 28.5 12.5q7.5 12.5 7.5 36.5v587h-94v32h510v-158h-37v41q0 27 -6 43.5q-6 16.5 -16.5 25.5q-10.5 9 -25 12q-14.5 3 -31.5 3h-241v-293h213v87h37v-209h-37v88h-213v-307h253q16 0 30.5 3q14.5 3 25 12q10.5 9 16.5 25.5q6 16.5 6 43.5v48h37v-165h-521v32zM355 913l122 -128h-42l-106 88l-105 -88h-42l122 128z" />
<glyph unicode="&#203;" horiz-adv-x="628" d="M104 32q21 0 28.5 12.5q7.5 12.5 7.5 36.5v587h-94v32h510v-158h-37v41q0 27 -6 43.5q-6 16.5 -16.5 25.5q-10.5 9 -25 12q-14.5 3 -31.5 3h-241v-293h213v87h37v-209h-37v88h-213v-307h253q16 0 30.5 3q14.5 3 25 12q10.5 9 16.5 25.5q6 16.5 6 43.5v48h37v-165h-521v32zM164 848q0 16 11.5 27.5q11.5 11.5 27.5 11.5q16 0 27.5 -11.5q11.5 -11.5 11.5 -27.5q0 -16 -11.5 -27.5q-11.5 -11.5 -27.5 -11.5q-16 0 -27.5 11.5q-11.5 11.5 -11.5 27.5zt0 0zM384 848q0 16 12 27.5q12 11.5 27 11.5q17 0 28.5 -11.5q11.5 -11.5 11.5 -27.5q0 -16 -11.5 -27.5q-11.5 -11.5 -28.5 -11.5q-15 0 -27 11.5t-12 27.5z" />
<glyph unicode="&#204;" horiz-adv-x="349" d="M109 32q21 0 28.5 12.5q7.5 12.5 7.5 36.5v587h-99v32h257v-32h-63q-21 0 -28.5 -12.5q-7.5 -12.5 -7.5 -36.5v-587h99v-32h-257v32zM132 921l74 -142h-33l-116 142z" />
<glyph unicode="&#205;" horiz-adv-x="349" d="M109 32q21 0 28.5 12.5q7.5 12.5 7.5 36.5v587h-99v32h257v-32h-63q-21 0 -28.5 -12.5q-7.5 -12.5 -7.5 -36.5v-587h99v-32h-257v32zM318 921l-116 -142h-34l75 142z" />
<glyph unicode="&#206;" horiz-adv-x="349" d="M109 32q21 0 28.5 12.5q7.5 12.5 7.5 36.5v587h-99v32h257v-32h-63q-21 0 -28.5 -12.5q-7.5 -12.5 -7.5 -36.5v-587h99v-32h-257v32zM200 913l122 -128h-42l-106 88l-105 -88h-42l122 128z" />
<glyph unicode="&#207;" horiz-adv-x="349" d="M109 32q21 0 28.5 12.5q7.5 12.5 7.5 36.5v587h-99v32h257v-32h-63q-21 0 -28.5 -12.5q-7.5 -12.5 -7.5 -36.5v-587h99v-32h-257v32zM25 848q0 16 11.5 27.5q11.5 11.5 27.5 11.5q16 0 27.5 -11.5q11.5 -11.5 11.5 -27.5q0 -16 -11.5 -27.5q-11.5 -11.5 -27.5 -11.5q-16 0 -27.5 11.5q-11.5 11.5 -11.5 27.5zt0 0zM245 848q0 16 12 27.5q12 11.5 27 11.5q17 0 28.5 -11.5q11.5 -11.5 11.5 -27.5q0 -16 -11.5 -27.5q-11.5 -11.5 -28.5 -11.5q-15 0 -27 11.5t-12 27.5z" />
<glyph unicode="&#208;" horiz-adv-x="739" d="M104 32q21 0 28.5 12.5q7.5 12.5 7.5 36.5v269h-106v34h106v284h-94v32h290q79 0 143 -17.5q64 -17.5 108.5 -58q44.5 -40.5 68.5 -106.5q24 -66 24 -162q0 -89 -28 -156q-28 -67 -75.5 -111.5q-47.5 -44.5 -110 -66.5q-62.5 -22 -132.5 -22h-288v32zM331 33q55 0 106.5 19.5q51.5 19.5 91.5 59q40 39.5 64 100.5q24 61 24 144q0 87 -20.5 146.5q-20.5 59.5 -57.5 96q-37 36.5 -89.5 52.5q-52.5 16 -115.5 16h-135v-283h195v-34h-195l0 -317z" />
<glyph unicode="&#209;" horiz-adv-x="818" d="M104 32q21 0 28.5 13.5q7.5 13.5 7.5 37.5v585h-94v32h152l385 -545q16 -22 30 -47q14 -25 23 -41l2 0q-1 26 -1.5 54.5q-0.5 28.5 -0.5 45.5v450q0 24 -7.5 37.5q-7.5 13.5 -28.5 13.5h-58v32h230v-32h-58q-21 0 -28.5 -13.5q-7.5 -13.5 -7.5 -37.5v-617h-53l-392 554q-17 23 -30 45.5q-13 22.5 -21 38.5l-3 0q1 -25 2 -55q1 -30 1 -49v-451q0 -24 7.5 -37.5q7.5 -13.5 28.5 -13.5h58v-32h-230v32zM402 818q-20 8 -34.5 14q-14.5 6 -31.5 6q-14 0 -27.5 -7q-13.5 -7 -20.5 -30l-30 0q2 32 23.5 55q21.5 23 57.5 23q17 0 34 -5q17 -5 40 -15q20 -8 36.5 -14.5q16.5 -6.5 30.5 -6.5q15 0 27.5 6.5q12.5 6.5 20.5 29.5l29 0q-1 -19 -8 -33.5q-7 -14.5 -18 -24q-11 -9.5 -25 -14.5q-14 -5 -28 -5q-7 0 -13 0.5q-6 0.5 -14.5 3q-8.5 2.5 -20 6.5t-28.5 11z" />
<glyph unicode="&#210;" horiz-adv-x="766" d="M59 350q0 81 22 147.5q22 66.5 64 114q42 47.5 102 73.5q60 26 136 26q76 0 136 -26q60 -26 102 -73.5q42 -47.5 64 -114q22 -66.5 22 -147.5q0 -81 -22 -147.5q-22 -66.5 -64 -114q-42 -47.5 -102 -73.5q-60 -26 -136 -26q-76 0 -136 26q-60 26 -102 73.5q-42 47.5 -64 114q-22 66.5 -22 147.5zt0 0zM644 350q0 49 -12 106.5q-12 57.5 -41.5 106.5q-29.5 49 -80 82q-50.5 33 -127.5 33q-77 0 -127.5 -33q-50.5 -33 -80 -82q-29.5 -49 -41.5 -106.5q-12 -57.5 -12 -106.5q0 -49 12 -106.5q12 -57.5 41.5 -106.5q29.5 -49 80 -82q50.5 -33 127.5 -33q77 0 127.5 33q50.5 33 80 82q29.5 49 41.5 106.5q12 57.5 12 106.5zt0 0zM340 921l74 -142h-33l-116 142z" />
<glyph unicode="&#211;" horiz-adv-x="766" d="M59 350q0 81 22 147.5q22 66.5 64 114q42 47.5 102 73.5q60 26 136 26q76 0 136 -26q60 -26 102 -73.5q42 -47.5 64 -114q22 -66.5 22 -147.5q0 -81 -22 -147.5q-22 -66.5 -64 -114q-42 -47.5 -102 -73.5q-60 -26 -136 -26q-76 0 -136 26q-60 26 -102 73.5q-42 47.5 -64 114q-22 66.5 -22 147.5zt0 0zM644 350q0 49 -12 106.5q-12 57.5 -41.5 106.5q-29.5 49 -80 82q-50.5 33 -127.5 33q-77 0 -127.5 -33q-50.5 -33 -80 -82q-29.5 -49 -41.5 -106.5q-12 -57.5 -12 -106.5q0 -49 12 -106.5q12 -57.5 41.5 -106.5q29.5 -49 80 -82q50.5 -33 127.5 -33q77 0 127.5 33q50.5 33 80 82q29.5 49 41.5 106.5q12 57.5 12 106.5zt0 0zM526 921l-116 -142h-34l75 142z" />
<glyph unicode="&#212;" horiz-adv-x="766" d="M59 350q0 81 22 147.5q22 66.5 64 114q42 47.5 102 73.5q60 26 136 26q76 0 136 -26q60 -26 102 -73.5q42 -47.5 64 -114q22 -66.5 22 -147.5q0 -81 -22 -147.5q-22 -66.5 -64 -114q-42 -47.5 -102 -73.5q-60 -26 -136 -26q-76 0 -136 26q-60 26 -102 73.5q-42 47.5 -64 114q-22 66.5 -22 147.5zt0 0zM644 350q0 49 -12 106.5q-12 57.5 -41.5 106.5q-29.5 49 -80 82q-50.5 33 -127.5 33q-77 0 -127.5 -33q-50.5 -33 -80 -82q-29.5 -49 -41.5 -106.5q-12 -57.5 -12 -106.5q0 -49 12 -106.5q12 -57.5 41.5 -106.5q29.5 -49 80 -82q50.5 -33 127.5 -33q77 0 127.5 33q50.5 33 80 82q29.5 49 41.5 106.5q12 57.5 12 106.5zt0 0zM408 913l122 -128h-42l-106 88l-105 -88h-42l122 128z" />
<glyph unicode="&#213;" horiz-adv-x="766" d="M59 350q0 81 22 147.5q22 66.5 64 114q42 47.5 102 73.5q60 26 136 26q76 0 136 -26q60 -26 102 -73.5q42 -47.5 64 -114q22 -66.5 22 -147.5q0 -81 -22 -147.5q-22 -66.5 -64 -114q-42 -47.5 -102 -73.5q-60 -26 -136 -26q-76 0 -136 26q-60 26 -102 73.5q-42 47.5 -64 114q-22 66.5 -22 147.5zt0 0zM644 350q0 49 -12 106.5q-12 57.5 -41.5 106.5q-29.5 49 -80 82q-50.5 33 -127.5 33q-77 0 -127.5 -33q-50.5 -33 -80 -82q-29.5 -49 -41.5 -106.5q-12 -57.5 -12 -106.5q0 -49 12 -106.5q12 -57.5 41.5 -106.5q29.5 -49 80 -82q50.5 -33 127.5 -33q77 0 127.5 33q50.5 33 80 82q29.5 49 41.5 106.5q12 57.5 12 106.5zt0 0zM376 818q-20 8 -34.5 14q-14.5 6 -31.5 6q-14 0 -27.5 -7q-13.5 -7 -20.5 -30l-30 0q2 32 23.5 55q21.5 23 57.5 23q17 0 34 -5q17 -5 40 -15q20 -8 36.5 -14.5q16.5 -6.5 30.5 -6.5q15 0 27.5 6.5q12.5 6.5 20.5 29.5l29 0q-1 -19 -8 -33.5q-7 -14.5 -18 -24q-11 -9.5 -25 -14.5q-14 -5 -28 -5q-7 0 -13 0.5q-6 0.5 -14.5 3q-8.5 2.5 -20 6.5t-28.5 11z" />
<glyph unicode="&#214;" horiz-adv-x="766" d="M59 350q0 81 22 147.5q22 66.5 64 114q42 47.5 102 73.5q60 26 136 26q76 0 136 -26q60 -26 102 -73.5q42 -47.5 64 -114q22 -66.5 22 -147.5q0 -81 -22 -147.5q-22 -66.5 -64 -114q-42 -47.5 -102 -73.5q-60 -26 -136 -26q-76 0 -136 26q-60 26 -102 73.5q-42 47.5 -64 114q-22 66.5 -22 147.5zt0 0zM644 350q0 49 -12 106.5q-12 57.5 -41.5 106.5q-29.5 49 -80 82q-50.5 33 -127.5 33q-77 0 -127.5 -33q-50.5 -33 -80 -82q-29.5 -49 -41.5 -106.5q-12 -57.5 -12 -106.5q0 -49 12 -106.5q12 -57.5 41.5 -106.5q29.5 -49 80 -82q50.5 -33 127.5 -33q77 0 127.5 33q50.5 33 80 82q29.5 49 41.5 106.5q12 57.5 12 106.5zt0 0zM233 848q0 16 11.5 27.5q11.5 11.5 27.5 11.5q16 0 27.5 -11.5q11.5 -11.5 11.5 -27.5q0 -16 -11.5 -27.5q-11.5 -11.5 -27.5 -11.5q-16 0 -27.5 11.5q-11.5 11.5 -11.5 27.5zt0 0zM453 848q0 16 12 27.5q12 11.5 27 11.5q17 0 28.5 -11.5q11.5 -11.5 11.5 -27.5q0 -16 -11.5 -27.5q-11.5 -11.5 -28.5 -11.5q-15 0 -27 11.5t-12 27.5z" />
<glyph unicode="&#215;" horiz-adv-x="607" d="M273 355l-168 167l30 31l168 -168l168 168l31 -31l-168 -167l168 -168l-31 -31l-168 168l-164 -164l-31 30z" />
<glyph unicode="&#216;" horiz-adv-x="766" d="M172 62q-55 48 -84 121q-29 73 -29 167q0 81 22 147.5q22 66.5 64 114q42 47.5 102 73.5q60 26 136 26q54 0 100 -13.5q46 -13.5 84 -39.5l61 93l29 -18l-63 -95q54 -48 83.5 -121.5q29.5 -73.5 29.5 -166.5q0 -81 -22 -147.5q-22 -66.5 -64 -114q-42 -47.5 -102 -73.5q-60 -26 -136 -26q-55 0 -101 13.5q-46 13.5 -84 39.5l-61 -93l-28 18zM644 350q0 29 -4 61.5q-4 32.5 -13 65q-9 32.5 -23.5 63.5q-14.5 31 -36.5 57l-344 -519q29 -26 68.5 -41q39.5 -15 91.5 -15q77 0 127.5 33q50.5 33 80 82q29.5 49 41.5 106.5q12 57.5 12 106.5zt0 0zM542 622q-29 26 -68.5 41q-39.5 15 -90.5 15q-77 0 -127.5 -33q-50.5 -33 -80 -82q-29.5 -49 -41.5 -106.5q-12 -57.5 -12 -106.5q0 -29 4 -61.5q4 -32.5 13 -65q9 -32.5 23.5 -63.5q14.5 -31 36.5 -57z" />
<glyph unicode="&#217;" horiz-adv-x="795" d="M134 668h-94v32h244v-32h-55q-21 0 -28.5 -12.5q-7.5 -12.5 -7.5 -36.5v-386q0 -41 10 -78q10 -37 33.5 -65.5q23.5 -28.5 63.5 -45.5q40 -17 100 -17q60 0 101.5 17.5q41.5 17.5 67.5 46q26 28.5 37.5 65.5q11.5 37 11.5 77v384q0 24 -7.5 37.5q-7.5 13.5 -28.5 13.5h-58v32h231v-32h-58q-22 0 -29.5 -13.5q-7.5 -13.5 -7.5 -37.5v-384q0 -59 -18.5 -104.5q-18.5 -45.5 -52.5 -76.5q-34 -31 -82 -47q-48 -16 -108 -16q-60 0 -109 15.5q-49 15.5 -83.5 46.5q-34.5 31 -53.5 76.5q-19 45.5 -19 105.5zM349 921l74 -142h-33l-116 142z" />
<glyph unicode="&#218;" horiz-adv-x="795" d="M134 668h-94v32h244v-32h-55q-21 0 -28.5 -12.5q-7.5 -12.5 -7.5 -36.5v-386q0 -41 10 -78q10 -37 33.5 -65.5q23.5 -28.5 63.5 -45.5q40 -17 100 -17q60 0 101.5 17.5q41.5 17.5 67.5 46q26 28.5 37.5 65.5q11.5 37 11.5 77v384q0 24 -7.5 37.5q-7.5 13.5 -28.5 13.5h-58v32h231v-32h-58q-22 0 -29.5 -13.5q-7.5 -13.5 -7.5 -37.5v-384q0 -59 -18.5 -104.5q-18.5 -45.5 -52.5 -76.5q-34 -31 -82 -47q-48 -16 -108 -16q-60 0 -109 15.5q-49 15.5 -83.5 46.5q-34.5 31 -53.5 76.5q-19 45.5 -19 105.5zM541 921l-116 -142h-34l75 142z" />
<glyph unicode="&#219;" horiz-adv-x="795" d="M134 668h-94v32h244v-32h-55q-21 0 -28.5 -12.5q-7.5 -12.5 -7.5 -36.5v-386q0 -41 10 -78q10 -37 33.5 -65.5q23.5 -28.5 63.5 -45.5q40 -17 100 -17q60 0 101.5 17.5q41.5 17.5 67.5 46q26 28.5 37.5 65.5q11.5 37 11.5 77v384q0 24 -7.5 37.5q-7.5 13.5 -28.5 13.5h-58v32h231v-32h-58q-22 0 -29.5 -13.5q-7.5 -13.5 -7.5 -37.5v-384q0 -59 -18.5 -104.5q-18.5 -45.5 -52.5 -76.5q-34 -31 -82 -47q-48 -16 -108 -16q-60 0 -109 15.5q-49 15.5 -83.5 46.5q-34.5 31 -53.5 76.5q-19 45.5 -19 105.5zM423 913l122 -128h-42l-106 88l-105 -88h-42l122 128z" />
<glyph unicode="&#220;" horiz-adv-x="795" d="M134 668h-94v32h244v-32h-55q-21 0 -28.5 -12.5q-7.5 -12.5 -7.5 -36.5v-386q0 -41 10 -78q10 -37 33.5 -65.5q23.5 -28.5 63.5 -45.5q40 -17 100 -17q60 0 101.5 17.5q41.5 17.5 67.5 46q26 28.5 37.5 65.5q11.5 37 11.5 77v384q0 24 -7.5 37.5q-7.5 13.5 -28.5 13.5h-58v32h231v-32h-58q-22 0 -29.5 -13.5q-7.5 -13.5 -7.5 -37.5v-384q0 -59 -18.5 -104.5q-18.5 -45.5 -52.5 -76.5q-34 -31 -82 -47q-48 -16 -108 -16q-60 0 -109 15.5q-49 15.5 -83.5 46.5q-34.5 31 -53.5 76.5q-19 45.5 -19 105.5zM248 848q0 16 11.5 27.5q11.5 11.5 27.5 11.5q16 0 27.5 -11.5q11.5 -11.5 11.5 -27.5q0 -16 -11.5 -27.5q-11.5 -11.5 -27.5 -11.5q-16 0 -27.5 11.5q-11.5 11.5 -11.5 27.5zt0 0zM468 848q0 16 12 27.5q12 11.5 27 11.5q17 0 28.5 -11.5q11.5 -11.5 11.5 -27.5q0 -16 -11.5 -27.5q-11.5 -11.5 -28.5 -11.5q-15 0 -27 11.5t-12 27.5z" />
<glyph unicode="&#221;" horiz-adv-x="715" d="M290 32q21 0 28.5 12.5q7.5 12.5 7.5 36.5v162l-222 425h-87v32h252v-32h-54q-29 0 -29 -26q0 -15 9 -33l141 -273q6 -12 12.5 -26.5q6.5 -14.5 11.5 -28.5l3 0q6 14 13 28q7 14 15 28l151 274q12 22 12 36q0 21 -30 21h-53v32h227v-32h-35q-45 0 -76 -57l-203 -368v-211h99v-32h-255v32zM499 921l-116 -142h-34l75 142z" />
<glyph unicode="&#222;" horiz-adv-x="635" d="M104 32q21 0 28.5 12.5q7.5 12.5 7.5 36.5v592h-94v32h249v-32h-60q-21 0 -28.5 -12.5q-7.5 -12.5 -7.5 -36.5v-54h160q40 0 81 -7.5q41 -7.5 74.5 -29q33.5 -21.5 55 -60q21.5 -38.5 21.5 -100.5q0 -54 -20 -94q-20 -40 -53.5 -66q-33.5 -26 -77 -39q-43.5 -13 -89.5 -13h-152v-129h106v-32h-259v32zM346 195q20 0 51 7q31 7 60.5 26.5q29.5 19.5 50.5 54.5q21 35 21 90q0 54 -19 86q-19 32 -46 49.5q-27 17.5 -57.5 23q-30.5 5.5 -53.5 5.5h-155l0 -342z" />
<glyph unicode="&#223;" horiz-adv-x="608" d="M272 0q2 6 3.5 13.5q1.5 7.5 3.5 12.5q13 -3 27.5 -5q14.5 -2 31.5 -2q22 0 50.5 8q28.5 8 53 29.5q24.5 21.5 41.5 58.5q17 37 17 95q0 48 -13 80q-13 32 -34.5 51.5q-21.5 19.5 -48.5 27.5q-27 8 -55 8h-58v30h51q21 0 43 9q22 9 39.5 28.5q17.5 19.5 28.5 49.5q11 30 11 71q0 28 -7.5 54.5q-7.5 26.5 -24 47q-16.5 20.5 -42 32.5q-25.5 12 -62.5 12q-46 0 -76 -15.5q-30 -15.5 -47 -40q-17 -24.5 -24 -55.5q-7 -31 -7 -62v-538h-131v29h42q19 0 26 11q7 11 7 34v454q0 34 9 71q9 37 33 68.5q24 31.5 64.5 52q40.5 20.5 103.5 20.5q36 0 71 -9q35 -9 62.5 -30q27.5 -21 44.5 -54.5q17 -33.5 17 -82.5q0 -66 -33 -107.5q-33 -41.5 -83 -58.5l0 -2q39 -5 67.5 -20.5q28.5 -15.5 47.5 -40.5q19 -25 28 -56.5q9 -31.5 9 -67.5q0 -63 -21.5 -105.5q-21.5 -42.5 -54 -68q-32.5 -25.5 -70.5 -36q-38 -10.5 -71 -10.5q-13 0 -33 1.5t-37 7.5z" />
<glyph unicode="&#224;" horiz-adv-x="570" d="M56 123q0 46 18.5 76q18.5 30 49 47q30.5 17 71.5 23.5q41 6.5 86 6.5h115v58q0 38 -10 64.5q-10 26.5 -26.5 43q-16.5 16.5 -38.5 24q-22 7.5 -47 7.5q-21 0 -43 -5q-22 -5 -40 -15q-18 -10 -29.5 -26q-11.5 -16 -11.5 -38v-30h-49v77q80 65 190 65q48 0 79 -14q31 -14 49 -37.5q18 -23.5 25.5 -53.5q7.5 -30 7.5 -62v-305h85v-29h-140v112h-2q-12 -18 -30.5 -39.5q-18.5 -21.5 -43 -40q-24.5 -18.5 -55 -31q-30.5 -12.5 -66.5 -12.5q-63 0 -103.5 35q-40.5 35 -40.5 99zt0 0zM396 246h-120q-30 0 -59 -5.5q-29 -5.5 -52 -19q-23 -13.5 -37 -36.5q-14 -23 -14 -59q0 -43 25.5 -68q25.5 -25 79.5 -25q31 0 62.5 13q31.5 13 57 34.5q25.5 21.5 41.5 48q16 26.5 16 53.5zM240 699l69 -128h-30l-107 128z" />
<glyph unicode="&#225;" horiz-adv-x="570" d="M56 123q0 46 18.5 76q18.5 30 49 47q30.5 17 71.5 23.5q41 6.5 86 6.5h115v58q0 38 -10 64.5q-10 26.5 -26.5 43q-16.5 16.5 -38.5 24q-22 7.5 -47 7.5q-21 0 -43 -5q-22 -5 -40 -15q-18 -10 -29.5 -26q-11.5 -16 -11.5 -38v-30h-49v77q80 65 190 65q48 0 79 -14q31 -14 49 -37.5q18 -23.5 25.5 -53.5q7.5 -30 7.5 -62v-305h85v-29h-140v112h-2q-12 -18 -30.5 -39.5q-18.5 -21.5 -43 -40q-24.5 -18.5 -55 -31q-30.5 -12.5 -66.5 -12.5q-63 0 -103.5 35q-40.5 35 -40.5 99zt0 0zM396 246h-120q-30 0 -59 -5.5q-29 -5.5 -52 -19q-23 -13.5 -37 -36.5q-14 -23 -14 -59q0 -43 25.5 -68q25.5 -25 79.5 -25q31 0 62.5 13q31.5 13 57 34.5q25.5 21.5 41.5 48q16 26.5 16 53.5zM411 699l-107 -128h-30l70 128z" />
<glyph unicode="&#226;" horiz-adv-x="570" d="M56 123q0 46 18.5 76q18.5 30 49 47q30.5 17 71.5 23.5q41 6.5 86 6.5h115v58q0 38 -10 64.5q-10 26.5 -26.5 43q-16.5 16.5 -38.5 24q-22 7.5 -47 7.5q-21 0 -43 -5q-22 -5 -40 -15q-18 -10 -29.5 -26q-11.5 -16 -11.5 -38v-30h-49v77q80 65 190 65q48 0 79 -14q31 -14 49 -37.5q18 -23.5 25.5 -53.5q7.5 -30 7.5 -62v-305h85v-29h-140v112h-2q-12 -18 -30.5 -39.5q-18.5 -21.5 -43 -40q-24.5 -18.5 -55 -31q-30.5 -12.5 -66.5 -12.5q-63 0 -103.5 35q-40.5 35 -40.5 99zt0 0zM396 246h-120q-30 0 -59 -5.5q-29 -5.5 -52 -19q-23 -13.5 -37 -36.5q-14 -23 -14 -59q0 -43 25.5 -68q25.5 -25 79.5 -25q31 0 62.5 13q31.5 13 57 34.5q25.5 21.5 41.5 48q16 26.5 16 53.5zM309 686l101 -115h-37l-88 77l-88 -77h-38l102 115z" />
<glyph unicode="&#227;" horiz-adv-x="570" d="M56 123q0 46 18.5 76q18.5 30 49 47q30.5 17 71.5 23.5q41 6.5 86 6.5h115v58q0 38 -10 64.5q-10 26.5 -26.5 43q-16.5 16.5 -38.5 24q-22 7.5 -47 7.5q-21 0 -43 -5q-22 -5 -40 -15q-18 -10 -29.5 -26q-11.5 -16 -11.5 -38v-30h-49v77q80 65 190 65q48 0 79 -14q31 -14 49 -37.5q18 -23.5 25.5 -53.5q7.5 -30 7.5 -62v-305h85v-29h-140v112h-2q-12 -18 -30.5 -39.5q-18.5 -21.5 -43 -40q-24.5 -18.5 -55 -31q-30.5 -12.5 -66.5 -12.5q-63 0 -103.5 35q-40.5 35 -40.5 99zt0 0zM396 246h-120q-30 0 -59 -5.5q-29 -5.5 -52 -19q-23 -13.5 -37 -36.5q-14 -23 -14 -59q0 -43 25.5 -68q25.5 -25 79.5 -25q31 0 62.5 13q31.5 13 57 34.5q25.5 21.5 41.5 48q16 26.5 16 53.5zM279 604q-17 7 -31 12.5q-14 5.5 -29 5.5q-13 0 -25 -6q-12 -6 -19 -27l-28 0q3 29 22.5 50q19.5 21 51.5 21q17 0 32 -5q15 -5 37 -13q17 -7 33 -13q16 -6 28 -6q14 0 25.5 6q11.5 6 18.5 26l27 0q-3 -34 -24.5 -52q-21.5 -18 -47.5 -18q-6 0 -12 0.5q-6 0.5 -13.5 2.5q-7.5 2 -18.5 5.5t-27 10.5z" />
<glyph unicode="&#228;" horiz-adv-x="570" d="M56 123q0 46 18.5 76q18.5 30 49 47q30.5 17 71.5 23.5q41 6.5 86 6.5h115v58q0 38 -10 64.5q-10 26.5 -26.5 43q-16.5 16.5 -38.5 24q-22 7.5 -47 7.5q-21 0 -43 -5q-22 -5 -40 -15q-18 -10 -29.5 -26q-11.5 -16 -11.5 -38v-30h-49v77q80 65 190 65q48 0 79 -14q31 -14 49 -37.5q18 -23.5 25.5 -53.5q7.5 -30 7.5 -62v-305h85v-29h-140v112h-2q-12 -18 -30.5 -39.5q-18.5 -21.5 -43 -40q-24.5 -18.5 -55 -31q-30.5 -12.5 -66.5 -12.5q-63 0 -103.5 35q-40.5 35 -40.5 99zt0 0zM396 246h-120q-30 0 -59 -5.5q-29 -5.5 -52 -19q-23 -13.5 -37 -36.5q-14 -23 -14 -59q0 -43 25.5 -68q25.5 -25 79.5 -25q31 0 62.5 13q31.5 13 57 34.5q25.5 21.5 41.5 48q16 26.5 16 53.5zM157 633q0 15 11 26q11 11 26 11q15 0 26.5 -11q11.5 -11 11.5 -26q0 -15 -11.5 -26.5q-11.5 -11.5 -26.5 -11.5q-15 0 -26 11.5q-11 11.5 -11 26.5zt0 0zM338 633q0 15 11.5 26q11.5 11 25.5 11q15 0 26.5 -11q11.5 -11 11.5 -26q0 -15 -11.5 -26.5q-11.5 -11.5 -26.5 -11.5q-14 0 -25.5 11.5t-11.5 26.5z" />
<glyph unicode="&#229;" horiz-adv-x="570" d="M56 123q0 46 18.5 76q18.5 30 49 47q30.5 17 71.5 23.5q41 6.5 86 6.5h115v58q0 38 -10 64.5q-10 26.5 -26.5 43q-16.5 16.5 -38.5 24q-22 7.5 -47 7.5q-21 0 -43 -5q-22 -5 -40 -15q-18 -10 -29.5 -26q-11.5 -16 -11.5 -38v-30h-49v77q80 65 190 65q48 0 79 -14q31 -14 49 -37.5q18 -23.5 25.5 -53.5q7.5 -30 7.5 -62v-305h85v-29h-140v112h-2q-12 -18 -30.5 -39.5q-18.5 -21.5 -43 -40q-24.5 -18.5 -55 -31q-30.5 -12.5 -66.5 -12.5q-63 0 -103.5 35q-40.5 35 -40.5 99zt0 0zM396 246h-120q-30 0 -59 -5.5q-29 -5.5 -52 -19q-23 -13.5 -37 -36.5q-14 -23 -14 -59q0 -43 25.5 -68q25.5 -25 79.5 -25q31 0 62.5 13q31.5 13 57 34.5q25.5 21.5 41.5 48q16 26.5 16 53.5zM198 648q0 37 24.5 62q24.5 25 62.5 25q37 0 62 -25q25 -25 25 -62q0 -37 -25 -62.5q-25 -25.5 -62 -25.5q-38 0 -62.5 25.5q-24.5 25.5 -24.5 62.5zt0 0zM339 648q0 23 -15.5 38.5q-15.5 15.5 -38.5 15.5q-23 0 -38.5 -15.5q-15.5 -15.5 -15.5 -38.5q0 -22 15.5 -38q15.5 -16 38.5 -16q23 0 38.5 16t15.5 38z" />
<glyph unicode="&#230;" horiz-adv-x="871" d="M56 125q0 46 18 75.5q18 29.5 48.5 46.5q30.5 17 70.5 23q40 6 84 6h119v58q0 38 -10 64.5q-10 26.5 -26.5 42.5q-16.5 16 -38.5 23q-22 7 -47 7q-21 0 -43 -4.5q-22 -4.5 -40 -14.5q-18 -10 -29.5 -26q-11.5 -16 -11.5 -39v-30h-49v77q39 32 87.5 49.5q48.5 17.5 102.5 17.5q34 0 59.5 -8.5q25.5 -8.5 43 -22.5q17.5 -14 28.5 -33.5q11 -19.5 17 -40.5q29 49 76 77q47 28 107 28q59 0 98 -20q39 -20 62.5 -52q23.5 -32 33 -71q9.5 -39 9.5 -78v-31h-372q0 -38 8.5 -78q8.5 -40 29 -72.5q20.5 -32.5 55 -53.5q34.5 -21 87.5 -21q53 0 94 20q41 20 68 52l21 -21q-29 -35 -79 -60.5q-50 -25.5 -112 -25.5q-66 0 -123 30.5q-57 30.5 -86 100.5q-40 -58 -93.5 -94.5q-53.5 -36.5 -119.5 -36.5q-66 0 -106.5 36q-40.5 36 -40.5 100zt0 0zM396 246h-120q-30 0 -59 -5q-29 -5 -52 -18.5q-23 -13.5 -37 -37q-14 -23.5 -14 -60.5q0 -41 26 -66.5q26 -25.5 79 -25.5q35 0 67 13q32 13 56.5 34q24.5 21 39 47.5q14.5 26.5 14.5 54.5zM768 278q-2 91 -37.5 143q-35.5 52 -108.5 52q-30 0 -58.5 -12.5q-28.5 -12.5 -51 -37q-22.5 -24.5 -38 -61q-15.5 -36.5 -19.5 -84.5z" />
<glyph unicode="&#231;" horiz-adv-x="502" d="M49 240q0 63 17.5 111.5q17.5 48.5 49 81.5q31.5 33 74.5 50.5q43 17.5 94 17.5q60 0 101.5 -20.5q41.5 -20.5 64.5 -46.5l0 -85h-48v24q0 28 -11.5 47q-11.5 19 -29 31q-17.5 12 -39 17q-21.5 5 -41.5 5q-39 0 -71.5 -17q-32.5 -17 -55 -47.5q-22.5 -30.5 -35 -73.5q-12.5 -43 -12.5 -95q0 -40 9.5 -78.5q9.5 -38.5 31.5 -69q22 -30.5 56 -49.5q34 -19 84 -19q50 0 89 21q39 21 63 50l21 -20q-12 -16 -30.5 -31.5q-18.5 -15.5 -42 -27.5q-23.5 -12 -51 -19.5q-27.5 -7.5 -57.5 -7.5q-48 0 -90 15.5q-42 15.5 -73.5 47q-31.5 31.5 -49.5 78.5q-18 47 -18 110zt0 0zM231 -151q13 -7 26.5 -11q13.5 -4 27.5 -4q25 0 39 11q14 11 14 33q0 27 -19 35.5q-19 8.5 -41 8.5h-32l12 78h32l-8 -54q6 1 11 1q5 0 10 0q42 0 61.5 -18q19.5 -18 19.5 -49q0 -35 -28 -55.5q-28 -20.5 -69 -20.5q-19 0 -37.5 5q-18.5 5 -30.5 14z" />
<glyph unicode="&#232;" horiz-adv-x="525" d="M49 241q0 58 17 106q17 48 47.5 82.5q30.5 34.5 72 53q41.5 18.5 91.5 18.5q59 0 98 -20q39 -20 62 -51.5q23 -31.5 32.5 -71q9.5 -39.5 9.5 -78.5v-31h-372q0 -38 8.5 -78q8.5 -40 29 -72.5q20.5 -32.5 55.5 -53.5q35 -21 88 -21q53 0 93.5 20.5q40.5 20.5 68.5 52.5l21 -21q-30 -36 -79.5 -61.5q-49.5 -25.5 -112.5 -25.5q-44 0 -85.5 14q-41.5 14 -73.5 44.5q-32 30.5 -51.5 78.5q-19.5 48 -19.5 115zt0 0zM423 279q-2 91 -38 142.5q-36 51.5 -108 51.5q-30 0 -58.5 -12.5q-28.5 -12.5 -51 -36.5q-22.5 -24 -38 -60.5q-15.5 -36.5 -20.5 -84.5zM232 699l69 -128h-30l-107 128z" />
<glyph unicode="&#233;" horiz-adv-x="525" d="M49 241q0 58 17 106q17 48 47.5 82.5q30.5 34.5 72 53q41.5 18.5 91.5 18.5q59 0 98 -20q39 -20 62 -51.5q23 -31.5 32.5 -71q9.5 -39.5 9.5 -78.5v-31h-372q0 -38 8.5 -78q8.5 -40 29 -72.5q20.5 -32.5 55.5 -53.5q35 -21 88 -21q53 0 93.5 20.5q40.5 20.5 68.5 52.5l21 -21q-30 -36 -79.5 -61.5q-49.5 -25.5 -112.5 -25.5q-44 0 -85.5 14q-41.5 14 -73.5 44.5q-32 30.5 -51.5 78.5q-19.5 48 -19.5 115zt0 0zM423 279q-2 91 -38 142.5q-36 51.5 -108 51.5q-30 0 -58.5 -12.5q-28.5 -12.5 -51 -36.5q-22.5 -24 -38 -60.5q-15.5 -36.5 -20.5 -84.5zM388 699l-107 -128h-30l70 128z" />
<glyph unicode="&#234;" horiz-adv-x="525" d="M49 241q0 58 17 106q17 48 47.5 82.5q30.5 34.5 72 53q41.5 18.5 91.5 18.5q59 0 98 -20q39 -20 62 -51.5q23 -31.5 32.5 -71q9.5 -39.5 9.5 -78.5v-31h-372q0 -38 8.5 -78q8.5 -40 29 -72.5q20.5 -32.5 55.5 -53.5q35 -21 88 -21q53 0 93.5 20.5q40.5 20.5 68.5 52.5l21 -21q-30 -36 -79.5 -61.5q-49.5 -25.5 -112.5 -25.5q-44 0 -85.5 14q-41.5 14 -73.5 44.5q-32 30.5 -51.5 78.5q-19.5 48 -19.5 115zt0 0zM423 279q-2 91 -38 142.5q-36 51.5 -108 51.5q-30 0 -58.5 -12.5q-28.5 -12.5 -51 -36.5q-22.5 -24 -38 -60.5q-15.5 -36.5 -20.5 -84.5zM306 686l101 -115h-37l-88 77l-88 -77h-38l102 115z" />
<glyph unicode="&#235;" horiz-adv-x="525" d="M49 241q0 58 17 106q17 48 47.5 82.5q30.5 34.5 72 53q41.5 18.5 91.5 18.5q59 0 98 -20q39 -20 62 -51.5q23 -31.5 32.5 -71q9.5 -39.5 9.5 -78.5v-31h-372q0 -38 8.5 -78q8.5 -40 29 -72.5q20.5 -32.5 55.5 -53.5q35 -21 88 -21q53 0 93.5 20.5q40.5 20.5 68.5 52.5l21 -21q-30 -36 -79.5 -61.5q-49.5 -25.5 -112.5 -25.5q-44 0 -85.5 14q-41.5 14 -73.5 44.5q-32 30.5 -51.5 78.5q-19.5 48 -19.5 115zt0 0zM423 279q-2 91 -38 142.5q-36 51.5 -108 51.5q-30 0 -58.5 -12.5q-28.5 -12.5 -51 -36.5q-22.5 -24 -38 -60.5q-15.5 -36.5 -20.5 -84.5zM150 633q0 15 11 26q11 11 26 11q15 0 26.5 -11q11.5 -11 11.5 -26q0 -15 -11.5 -26.5q-11.5 -11.5 -26.5 -11.5q-15 0 -26 11.5q-11 11.5 -11 26.5zt0 0zM331 633q0 15 11.5 26q11.5 11 25.5 11q15 0 26.5 -11q11.5 -11 11.5 -26q0 -15 -11.5 -26.5q-11.5 -11.5 -26.5 -11.5q-14 0 -25.5 11.5t-11.5 26.5z" />
<glyph unicode="&#236;" horiz-adv-x="302" d="M90 29q19 0 26 11q7 11 7 35v386h-85v29h141v-461h75v-29h-206v29zM86 699l69 -128h-30l-107 128z" />
<glyph unicode="&#237;" horiz-adv-x="302" d="M90 29q19 0 26 11q7 11 7 35v386h-85v29h141v-461h75v-29h-206v29zM247 699l-107 -128h-30l70 128z" />
<glyph unicode="&#238;" horiz-adv-x="302" d="M90 29q19 0 26 11q7 11 7 35v386h-85v29h141v-461h75v-29h-206v29zM145 686l101 -115h-37l-88 77l-88 -77h-38l102 115z" />
<glyph unicode="&#239;" horiz-adv-x="302" d="M90 29q19 0 26 11q7 11 7 35v386h-85v29h141v-461h75v-29h-206v29zM-9 633q0 15 11 26q11 11 26 11q15 0 26.5 -11q11.5 -11 11.5 -26q0 -15 -11.5 -26.5q-11.5 -11.5 -26.5 -11.5q-15 0 -26 11.5q-11 11.5 -11 26.5zt0 0zM172 633q0 15 11.5 26q11.5 11 25.5 11q15 0 26.5 -11q11.5 -11 11.5 -26q0 -15 -11.5 -26.5q-11.5 -11.5 -26.5 -11.5q-14 0 -25.5 11.5t-11.5 26.5z" />
<glyph unicode="&#240;" horiz-adv-x="579" d="M49 230q0 62 18 110.5q18 48.5 49.5 81.5q31.5 33 73.5 50.5q42 17.5 89 17.5q72 0 119 -33.5q47 -33.5 67 -81.5l3 0q-11 78 -49.5 150.5q-38.5 72.5 -110.5 123.5l-109 -89l-20 23l101 83q-31 17 -65.5 28.5q-34.5 11.5 -77.5 16.5l5 29q48 -4 89.5 -17q41.5 -13 79.5 -33l97 81l20 -23l-89 -74q55 -38 91.5 -85q36.5 -47 58 -99q21.5 -52 30.5 -105q9 -53 9 -103q0 -67 -17.5 -121q-17.5 -54 -49.5 -92.5q-32 -38.5 -77.5 -59q-45.5 -20.5 -101.5 -20.5q-42 0 -83.5 14q-41.5 14 -75 43q-33.5 29 -54 75q-20.5 46 -20.5 109zt0 0zM466 236q0 44 -10 83q-10 39 -31.5 68.5q-21.5 29.5 -55.5 47q-34 17.5 -81 17.5q-47 0 -81 -19q-34 -19 -56.5 -50q-22.5 -31 -33 -70.5q-10.5 -39.5 -10.5 -81.5q0 -36 9 -74q9 -38 30 -69q21 -31 54.5 -51q33.5 -20 81.5 -20q47 0 82 19.5q35 19.5 57.5 51q22.5 31.5 33.5 70.5t11 78z" />
<glyph unicode="&#241;" horiz-adv-x="639" d="M90 29q19 0 26 11q7 11 7 34v387h-85v29h141v-116h1q10 15 29 37q19 22 45.5 42q26.5 20 60 34q33.5 14 74.5 14q38 0 64.5 -12q26.5 -12 42.5 -32.5q16 -20.5 23 -48q7 -27.5 7 -58.5v-321h75v-29h-202v29h37q20 0 27 10q7 10 7 35v261q0 27 -5 49.5q-5 22.5 -16.5 38.5q-11.5 16 -30.5 25q-19 9 -48 9q-37 0 -71.5 -14.5q-34.5 -14.5 -61 -37q-26.5 -22.5 -42.5 -50q-16 -27.5 -16 -52.5v-274h71v-29h-202v29zM313 604q-17 7 -31 12.5q-14 5.5 -29 5.5q-13 0 -25 -6q-12 -6 -19 -27l-28 0q3 29 22.5 50q19.5 21 51.5 21q17 0 32 -5q15 -5 37 -13q17 -7 33 -13q16 -6 28 -6q14 0 25.5 6q11.5 6 18.5 26l27 0q-3 -34 -24.5 -52q-21.5 -18 -47.5 -18q-6 0 -12 0.5q-6 0.5 -13.5 2.5q-7.5 2 -18.5 5.5t-27 10.5z" />
<glyph unicode="&#242;" horiz-adv-x="580" d="M49 244q0 60 18 107.5q18 47.5 50 81q32 33.5 76 51q44 17.5 97 17.5q53 0 97.5 -17.5q44.5 -17.5 76.5 -51q32 -33.5 49.5 -81q17.5 -47.5 17.5 -107.5q0 -60 -17.5 -107q-17.5 -47 -49.5 -80q-32 -33 -76.5 -50.5q-44.5 -17.5 -97.5 -17.5q-53 0 -97 17.5q-44 17.5 -76 50.5q-32 33 -50 80q-18 47 -18 107zt0 0zM473 244q0 40 -10.5 81q-10.5 41 -32.5 74q-22 33 -57 53.5q-35 20.5 -83 20.5q-46 0 -80.5 -20q-34.5 -20 -57 -52q-22.5 -32 -34 -73q-11.5 -41 -11.5 -84q0 -42 11.5 -83q11.5 -41 34 -73q22.5 -32 57 -51.5q34.5 -19.5 80.5 -19.5q52 0 87.5 22.5q35.5 22.5 56.5 56q21 33.5 30 73.5q9 40 9 75zt0 0zM245 699l69 -128h-30l-107 128z" />
<glyph unicode="&#243;" horiz-adv-x="580" d="M49 244q0 60 18 107.5q18 47.5 50 81q32 33.5 76 51q44 17.5 97 17.5q53 0 97.5 -17.5q44.5 -17.5 76.5 -51q32 -33.5 49.5 -81q17.5 -47.5 17.5 -107.5q0 -60 -17.5 -107q-17.5 -47 -49.5 -80q-32 -33 -76.5 -50.5q-44.5 -17.5 -97.5 -17.5q-53 0 -97 17.5q-44 17.5 -76 50.5q-32 33 -50 80q-18 47 -18 107zt0 0zM473 244q0 40 -10.5 81q-10.5 41 -32.5 74q-22 33 -57 53.5q-35 20.5 -83 20.5q-46 0 -80.5 -20q-34.5 -20 -57 -52q-22.5 -32 -34 -73q-11.5 -41 -11.5 -84q0 -42 11.5 -83q11.5 -41 34 -73q22.5 -32 57 -51.5q34.5 -19.5 80.5 -19.5q52 0 87.5 22.5q35.5 22.5 56.5 56q21 33.5 30 73.5q9 40 9 75zt0 0zM416 699l-107 -128h-30l70 128z" />
<glyph unicode="&#244;" horiz-adv-x="580" d="M49 244q0 60 18 107.5q18 47.5 50 81q32 33.5 76 51q44 17.5 97 17.5q53 0 97.5 -17.5q44.5 -17.5 76.5 -51q32 -33.5 49.5 -81q17.5 -47.5 17.5 -107.5q0 -60 -17.5 -107q-17.5 -47 -49.5 -80q-32 -33 -76.5 -50.5q-44.5 -17.5 -97.5 -17.5q-53 0 -97 17.5q-44 17.5 -76 50.5q-32 33 -50 80q-18 47 -18 107zt0 0zM473 244q0 40 -10.5 81q-10.5 41 -32.5 74q-22 33 -57 53.5q-35 20.5 -83 20.5q-46 0 -80.5 -20q-34.5 -20 -57 -52q-22.5 -32 -34 -73q-11.5 -41 -11.5 -84q0 -42 11.5 -83q11.5 -41 34 -73q22.5 -32 57 -51.5q34.5 -19.5 80.5 -19.5q52 0 87.5 22.5q35.5 22.5 56.5 56q21 33.5 30 73.5q9 40 9 75zt0 0zM314 686l101 -115h-37l-88 77l-88 -77h-38l102 115z" />
<glyph unicode="&#245;" horiz-adv-x="580" d="M49 244q0 60 18 107.5q18 47.5 50 81q32 33.5 76 51q44 17.5 97 17.5q53 0 97.5 -17.5q44.5 -17.5 76.5 -51q32 -33.5 49.5 -81q17.5 -47.5 17.5 -107.5q0 -60 -17.5 -107q-17.5 -47 -49.5 -80q-32 -33 -76.5 -50.5q-44.5 -17.5 -97.5 -17.5q-53 0 -97 17.5q-44 17.5 -76 50.5q-32 33 -50 80q-18 47 -18 107zt0 0zM473 244q0 40 -10.5 81q-10.5 41 -32.5 74q-22 33 -57 53.5q-35 20.5 -83 20.5q-46 0 -80.5 -20q-34.5 -20 -57 -52q-22.5 -32 -34 -73q-11.5 -41 -11.5 -84q0 -42 11.5 -83q11.5 -41 34 -73q22.5 -32 57 -51.5q34.5 -19.5 80.5 -19.5q52 0 87.5 22.5q35.5 22.5 56.5 56q21 33.5 30 73.5q9 40 9 75zt0 0zM284 604q-17 7 -31 12.5q-14 5.5 -29 5.5q-13 0 -25 -6q-12 -6 -19 -27l-28 0q3 29 22.5 50q19.5 21 51.5 21q17 0 32 -5q15 -5 37 -13q17 -7 33 -13q16 -6 28 -6q14 0 25.5 6q11.5 6 18.5 26l27 0q-3 -34 -24.5 -52q-21.5 -18 -47.5 -18q-6 0 -12 0.5q-6 0.5 -13.5 2.5q-7.5 2 -18.5 5.5t-27 10.5z" />
<glyph unicode="&#246;" horiz-adv-x="580" d="M49 244q0 60 18 107.5q18 47.5 50 81q32 33.5 76 51q44 17.5 97 17.5q53 0 97.5 -17.5q44.5 -17.5 76.5 -51q32 -33.5 49.5 -81q17.5 -47.5 17.5 -107.5q0 -60 -17.5 -107q-17.5 -47 -49.5 -80q-32 -33 -76.5 -50.5q-44.5 -17.5 -97.5 -17.5q-53 0 -97 17.5q-44 17.5 -76 50.5q-32 33 -50 80q-18 47 -18 107zt0 0zM473 244q0 40 -10.5 81q-10.5 41 -32.5 74q-22 33 -57 53.5q-35 20.5 -83 20.5q-46 0 -80.5 -20q-34.5 -20 -57 -52q-22.5 -32 -34 -73q-11.5 -41 -11.5 -84q0 -42 11.5 -83q11.5 -41 34 -73q22.5 -32 57 -51.5q34.5 -19.5 80.5 -19.5q52 0 87.5 22.5q35.5 22.5 56.5 56q21 33.5 30 73.5q9 40 9 75zt0 0zM162 633q0 15 11 26q11 11 26 11q15 0 26.5 -11q11.5 -11 11.5 -26q0 -15 -11.5 -26.5q-11.5 -11.5 -26.5 -11.5q-15 0 -26 11.5q-11 11.5 -11 26.5zt0 0zM343 633q0 15 11.5 26q11.5 11 25.5 11q15 0 26.5 -11q11.5 -11 11.5 -26q0 -15 -11.5 -26.5q-11.5 -11.5 -26.5 -11.5q-14 0 -25.5 11.5t-11.5 26.5z" />
<glyph unicode="&#247;" horiz-adv-x="673" d="M292 189q0 20 13 32.5q13 12.5 32 12.5q19 0 32 -12.5q13 -12.5 13 -32.5q0 -19 -13 -32.5q-13 -13.5 -32 -13.5q-19 0 -32 13.5q-13 13.5 -13 32.5zt0 0zM292 519q0 20 13 32.5q13 12.5 32 12.5q19 0 32 -12.5q13 -12.5 13 -32.5q0 -19 -13 -32.5q-13 -13.5 -32 -13.5q-19 0 -32 13.5q-13 13.5 -13 32.5zt0 0zM583 375v-43h-493l0 43z" />
<glyph unicode="&#248;" horiz-adv-x="580" d="M140 36q-43 32 -67 84.5q-24 52.5 -24 123.5q0 60 18 107.5q18 47.5 50 81q32 33.5 76 51q44 17.5 97 17.5q70 0 123 -30l47 75l26 -15l-48 -76q44 -33 68.5 -86q24.5 -53 24.5 -125q0 -60 -17.5 -107q-17.5 -47 -49.5 -80q-32 -33 -76.5 -50.5q-44.5 -17.5 -97.5 -17.5q-35 0 -66.5 8q-31.5 8 -57.5 22l-47 -75l-26 16zM473 244q0 47 -14 93q-14 46 -44 81l-229 -366q21 -17 46.5 -26q25.5 -9 57.5 -9q52 0 87.5 22.5q35.5 22.5 56.5 56q21 33.5 30 73.5q9 40 9 75zt0 0zM393 439q-20 16 -45.5 25q-25.5 9 -57.5 9q-46 0 -80.5 -20q-34.5 -20 -57 -52q-22.5 -32 -34 -73q-11.5 -41 -11.5 -84q0 -48 14 -93q14 -45 43 -78z" />
<glyph unicode="&#249;" horiz-adv-x="639" d="M113 461h-85v29h141v-335q0 -55 21.5 -88.5q21.5 -33.5 79.5 -33.5q37 0 71 14.5q34 14.5 60.5 37q26.5 22.5 42.5 49.5q16 27 16 53v274h-81v29h137v-461h85v-29h-141v116h-1q-11 -15 -29.5 -37q-18.5 -22 -44.5 -42q-26 -20 -60 -34q-34 -14 -74 -14q-38 0 -64.5 12q-26.5 12 -43 32.5q-16.5 20.5 -23.5 48q-7 27.5 -7 58.5zM252 699l69 -128h-30l-107 128z" />
<glyph unicode="&#250;" horiz-adv-x="639" d="M113 461h-85v29h141v-335q0 -55 21.5 -88.5q21.5 -33.5 79.5 -33.5q37 0 71 14.5q34 14.5 60.5 37q26.5 22.5 42.5 49.5q16 27 16 53v274h-81v29h137v-461h85v-29h-141v116h-1q-11 -15 -29.5 -37q-18.5 -22 -44.5 -42q-26 -20 -60 -34q-34 -14 -74 -14q-38 0 -64.5 12q-26.5 12 -43 32.5q-16.5 20.5 -23.5 48q-7 27.5 -7 58.5zM423 699l-107 -128h-30l70 128z" />
<glyph unicode="&#251;" horiz-adv-x="639" d="M113 461h-85v29h141v-335q0 -55 21.5 -88.5q21.5 -33.5 79.5 -33.5q37 0 71 14.5q34 14.5 60.5 37q26.5 22.5 42.5 49.5q16 27 16 53v274h-81v29h137v-461h85v-29h-141v116h-1q-11 -15 -29.5 -37q-18.5 -22 -44.5 -42q-26 -20 -60 -34q-34 -14 -74 -14q-38 0 -64.5 12q-26.5 12 -43 32.5q-16.5 20.5 -23.5 48q-7 27.5 -7 58.5zM331 686l101 -115h-37l-88 77l-88 -77h-38l102 115z" />
<glyph unicode="&#252;" horiz-adv-x="639" d="M113 461h-85v29h141v-335q0 -55 21.5 -88.5q21.5 -33.5 79.5 -33.5q37 0 71 14.5q34 14.5 60.5 37q26.5 22.5 42.5 49.5q16 27 16 53v274h-81v29h137v-461h85v-29h-141v116h-1q-11 -15 -29.5 -37q-18.5 -22 -44.5 -42q-26 -20 -60 -34q-34 -14 -74 -14q-38 0 -64.5 12q-26.5 12 -43 32.5q-16.5 20.5 -23.5 48q-7 27.5 -7 58.5zM179 633q0 15 11 26q11 11 26 11q15 0 26.5 -11q11.5 -11 11.5 -26q0 -15 -11.5 -26.5q-11.5 -11.5 -26.5 -11.5q-15 0 -26 11.5q-11 11.5 -11 26.5zt0 0zM360 633q0 15 11.5 26q11.5 11 25.5 11q15 0 26.5 -11q11.5 -11 11.5 -26q0 -15 -11.5 -26.5q-11.5 -11.5 -26.5 -11.5q-14 0 -25.5 11.5t-11.5 26.5z" />
<glyph unicode="&#253;" horiz-adv-x="612" d="M103 -209h59q13 0 27 4q14 4 28.5 17q14.5 13 29.5 36q15 23 30 62l30 80l-214 471h-73v29h209v-29h-37q-25 0 -25 -19q0 -6 2 -12.5q2 -6.5 6 -14.5l134 -301q6 -14 11.5 -30.5q5.5 -16.5 10.5 -31.5l3 0q4 12 9 28q5 16 11 33l108 295q5 12 7 19.5q2 7.5 2 13.5q0 20 -24 20h-42v29h187v-29h-27q-24 0 -39.5 -14q-15.5 -14 -23.5 -37l-182 -490q-20 -54 -40 -89q-20 -35 -41 -55.5q-21 -20.5 -45 -28.5q-24 -8 -51 -8q-23 0 -40 7zM432 699l-107 -128h-30l70 128z" />
<glyph unicode="&#254;" horiz-adv-x="615" d="M88 -221q22 0 28.5 12q6.5 12 6.5 35v885h-85v29h141v-248q0 -14 0 -25.5q0 -11.5 0 -23.5q0 -12 -0.5 -26.5q-0.5 -14.5 -0.5 -35.5l1 0q13 21 32.5 42.5q19.5 21.5 44 39q24.5 17.5 54.5 28q30 10.5 65 10.5q48 0 83 -18.5q35 -18.5 58.5 -51q23.5 -32.5 34.5 -77q11 -44.5 11 -95.5q0 -59 -14.5 -108.5q-14.5 -49.5 -42.5 -85.5q-28 -36 -69.5 -56q-41.5 -20 -95.5 -20q-48 0 -88 18q-40 18 -73 49l-1 0q1 -23 1 -36.5q0 -13.5 0 -22.5v-218h90v-29h-221v29zM504 254q0 43 -9 80q-9 37 -27 64.5q-18 27.5 -45.5 43q-27.5 15.5 -65.5 15.5q-36 0 -68.5 -14q-32.5 -14 -57 -36q-24.5 -22 -38.5 -47.5q-14 -25.5 -14 -49.5v-219q22 -23 58 -43q36 -20 95 -20q77 0 124.5 56.5t47.5 169.5z" />
<glyph unicode="&#255;" horiz-adv-x="612" d="M103 -209h59q13 0 27 4q14 4 28.5 17q14.5 13 29.5 36q15 23 30 62l30 80l-214 471h-73v29h209v-29h-37q-25 0 -25 -19q0 -6 2 -12.5q2 -6.5 6 -14.5l134 -301q6 -14 11.5 -30.5q5.5 -16.5 10.5 -31.5l3 0q4 12 9 28q5 16 11 33l108 295q5 12 7 19.5q2 7.5 2 13.5q0 20 -24 20h-42v29h187v-29h-27q-24 0 -39.5 -14q-15.5 -14 -23.5 -37l-182 -490q-20 -54 -40 -89q-20 -35 -41 -55.5q-21 -20.5 -45 -28.5q-24 -8 -51 -8q-23 0 -40 7zM178 633q0 15 11 26q11 11 26 11q15 0 26.5 -11q11.5 -11 11.5 -26q0 -15 -11.5 -26.5q-11.5 -11.5 -26.5 -11.5q-15 0 -26 11.5q-11 11.5 -11 26.5zt0 0zM359 633q0 15 11.5 26q11.5 11 25.5 11q15 0 26.5 -11q11.5 -11 11.5 -26q0 -15 -11.5 -26.5q-11.5 -11.5 -26.5 -11.5q-14 0 -25.5 11.5t-11.5 26.5z" />
<glyph unicode="&#256;" horiz-adv-x="821" d="M58 32q46 0 70 58l252 610h60l276 -668h88v-32h-253v32h54q17 0 23.5 9q6.5 9 6.5 21q0 15 -6 27l-47 119h-361l-49 -118q-8 -19 -8 -34q0 -24 26 -24h59v-32h-232v32zM427 582q-5 13 -11.5 31.5q-6.5 18.5 -11.5 35.5l-3 0q-7 -18 -14 -35q-7 -17 -12 -30l-142 -343h337zM552 858v-40h-283l0 40z" />
<glyph unicode="&#257;" horiz-adv-x="570" d="M56 123q0 46 18.5 76q18.5 30 49 47q30.5 17 71.5 23.5q41 6.5 86 6.5h115v58q0 38 -10 64.5q-10 26.5 -26.5 43q-16.5 16.5 -38.5 24q-22 7.5 -47 7.5q-21 0 -43 -5q-22 -5 -40 -15q-18 -10 -29.5 -26q-11.5 -16 -11.5 -38v-30h-49v77q80 65 190 65q48 0 79 -14q31 -14 49 -37.5q18 -23.5 25.5 -53.5q7.5 -30 7.5 -62v-305h85v-29h-140v112h-2q-12 -18 -30.5 -39.5q-18.5 -21.5 -43 -40q-24.5 -18.5 -55 -31q-30.5 -12.5 -66.5 -12.5q-63 0 -103.5 35q-40.5 35 -40.5 99zt0 0zM396 246h-120q-30 0 -59 -5.5q-29 -5.5 -52 -19q-23 -13.5 -37 -36.5q-14 -23 -14 -59q0 -43 25.5 -68q25.5 -25 79.5 -25q31 0 62.5 13q31.5 13 57 34.5q25.5 21.5 41.5 48q16 26.5 16 53.5zM405 642v-39h-241l0 39z" />
<glyph unicode="&#258;" horiz-adv-x="821" d="M58 32q46 0 70 58l252 610h60l276 -668h88v-32h-253v32h54q17 0 23.5 9q6.5 9 6.5 21q0 15 -6 27l-47 119h-361l-49 -118q-8 -19 -8 -34q0 -24 26 -24h59v-32h-232v32zM427 582q-5 13 -11.5 31.5q-6.5 18.5 -11.5 35.5l-3 0q-7 -18 -14 -35q-7 -17 -12 -30l-142 -343h337zM297 903q14 -33 39.5 -54q25.5 -21 73.5 -21q48 0 74.5 21q26.5 21 40.5 54l34 0q-9 -54 -50.5 -86q-41.5 -32 -98.5 -32q-28 0 -53 8.5q-25 8.5 -44.5 24q-19.5 15.5 -32.5 37q-13 21.5 -17 48.5z" />
<glyph unicode="&#259;" horiz-adv-x="570" d="M56 123q0 46 18.5 76q18.5 30 49 47q30.5 17 71.5 23.5q41 6.5 86 6.5h115v58q0 38 -10 64.5q-10 26.5 -26.5 43q-16.5 16.5 -38.5 24q-22 7.5 -47 7.5q-21 0 -43 -5q-22 -5 -40 -15q-18 -10 -29.5 -26q-11.5 -16 -11.5 -38v-30h-49v77q80 65 190 65q48 0 79 -14q31 -14 49 -37.5q18 -23.5 25.5 -53.5q7.5 -30 7.5 -62v-305h85v-29h-140v112h-2q-12 -18 -30.5 -39.5q-18.5 -21.5 -43 -40q-24.5 -18.5 -55 -31q-30.5 -12.5 -66.5 -12.5q-63 0 -103.5 35q-40.5 35 -40.5 99zt0 0zM396 246h-120q-30 0 -59 -5.5q-29 -5.5 -52 -19q-23 -13.5 -37 -36.5q-14 -23 -14 -59q0 -43 25.5 -68q25.5 -25 79.5 -25q31 0 62.5 13q31.5 13 57 34.5q25.5 21.5 41.5 48q16 26.5 16 53.5zM185 676q13 -29 35.5 -47q22.5 -18 64.5 -18q42 0 64.5 18q22.5 18 34.5 47l29 0q-8 -48 -43 -76q-35 -28 -85 -28q-50 0 -85 28q-35 28 -43 76z" />
<glyph unicode="&#260;" horiz-adv-x="821" d="M58 32q46 0 70 58l252 610h60l276 -668h88v-32h-253v32h54q17 0 23.5 9q6.5 9 6.5 21q0 15 -6 27l-47 119h-361l-49 -118q-8 -19 -8 -34q0 -24 26 -24h59v-32h-232v32zM427 582q-5 13 -11.5 31.5q-6.5 18.5 -11.5 35.5l-3 0q-7 -18 -14 -35q-7 -17 -12 -30l-142 -343h337zM624 -128q0 34 22.5 71q22.5 37 73.5 72l33 0q-42 -34 -60.5 -65q-18.5 -31 -18.5 -65q0 -20 14.5 -37q14.5 -17 44.5 -17q13 0 28 4q15 4 26 12l17 -32q-16 -13 -39 -18.5q-23 -5.5 -42 -5.5q-26 0 -45 7q-19 7 -31 18q-12 11 -17.5 26t-5.5 30z" />
<glyph unicode="&#261;" horiz-adv-x="570" d="M56 123q0 46 18.5 76q18.5 30 49 47q30.5 17 71.5 23.5q41 6.5 86 6.5h115v58q0 38 -10 64.5q-10 26.5 -26.5 43q-16.5 16.5 -38.5 24q-22 7.5 -47 7.5q-21 0 -43 -5q-22 -5 -40 -15q-18 -10 -29.5 -26q-11.5 -16 -11.5 -38v-30h-49v77q80 65 190 65q48 0 79 -14q31 -14 49 -37.5q18 -23.5 25.5 -53.5q7.5 -30 7.5 -62v-305h85v-29h-140v112h-2q-12 -18 -30.5 -39.5q-18.5 -21.5 -43 -40q-24.5 -18.5 -55 -31q-30.5 -12.5 -66.5 -12.5q-63 0 -103.5 35q-40.5 35 -40.5 99zt0 0zM396 246h-120q-30 0 -59 -5.5q-29 -5.5 -52 -19q-23 -13.5 -37 -36.5q-14 -23 -14 -59q0 -43 25.5 -68q25.5 -25 79.5 -25q31 0 62.5 13q31.5 13 57 34.5q25.5 21.5 41.5 48q16 26.5 16 53.5zM377 -109q0 27 18 58q18 31 63 63l34 0q-40 -30 -56 -57q-16 -27 -16 -57q0 -20 13 -34.5q13 -14.5 38 -14.5q14 0 27 4q13 4 24 12l15 -28q-16 -13 -35 -18q-19 -5 -36 -5q-48 0 -68.5 22t-20.5 55z" />
<glyph unicode="&#262;" horiz-adv-x="669" d="M59 347q0 84 23 151.5q23 67.5 65.5 114.5q42.5 47 102 72.5q59.5 25.5 131.5 25.5q76 0 134 -25.5q58 -25.5 97 -64.5l0 -112h-53v34q0 36 -17 62q-17 26 -43.5 42q-26.5 16 -58.5 23.5q-32 7.5 -61 7.5q-66 0 -114 -29q-48 -29 -80 -76q-32 -47 -47.5 -106q-15.5 -59 -15.5 -120q0 -69 15 -128.5q15 -59.5 46.5 -103q31.5 -43.5 79.5 -68.5q48 -25 114 -25q31 0 63 6.5q32 6.5 58.5 21.5q26.5 15 43.5 38.5q17 23.5 17 58.5v31h53v-103q-19 -18 -45 -34q-26 -16 -57 -27.5q-31 -11.5 -65.5 -18q-34.5 -6.5 -70.5 -6.5q-66 0 -123.5 19q-57.5 19 -100 62q-42.5 43 -67 111q-24.5 68 -24.5 166zt0 0zM498 921l-116 -142h-34l75 142z" />
<glyph unicode="&#263;" horiz-adv-x="502" d="M49 240q0 63 17.5 111.5q17.5 48.5 49 81.5q31.5 33 74.5 50.5q43 17.5 94 17.5q60 0 101.5 -20.5q41.5 -20.5 64.5 -46.5l0 -85h-48v24q0 28 -11.5 47q-11.5 19 -29 31q-17.5 12 -39 17q-21.5 5 -41.5 5q-39 0 -71.5 -17q-32.5 -17 -55 -47.5q-22.5 -30.5 -35 -73.5q-12.5 -43 -12.5 -95q0 -40 9.5 -78.5q9.5 -38.5 31.5 -69q22 -30.5 56 -49.5q34 -19 84 -19q50 0 89 21q39 21 63 50l21 -20q-12 -16 -30.5 -31.5q-18.5 -15.5 -42 -27.5q-23.5 -12 -51 -19.5q-27.5 -7.5 -57.5 -7.5q-48 0 -90 15.5q-42 15.5 -73.5 47q-31.5 31.5 -49.5 78.5q-18 47 -18 110zt0 0zM406 699l-107 -128h-30l70 128z" />
<glyph unicode="&#264;" horiz-adv-x="669" d="M59 347q0 84 23 151.5q23 67.5 65.5 114.5q42.5 47 102 72.5q59.5 25.5 131.5 25.5q76 0 134 -25.5q58 -25.5 97 -64.5l0 -112h-53v34q0 36 -17 62q-17 26 -43.5 42q-26.5 16 -58.5 23.5q-32 7.5 -61 7.5q-66 0 -114 -29q-48 -29 -80 -76q-32 -47 -47.5 -106q-15.5 -59 -15.5 -120q0 -69 15 -128.5q15 -59.5 46.5 -103q31.5 -43.5 79.5 -68.5q48 -25 114 -25q31 0 63 6.5q32 6.5 58.5 21.5q26.5 15 43.5 38.5q17 23.5 17 58.5v31h53v-103q-19 -18 -45 -34q-26 -16 -57 -27.5q-31 -11.5 -65.5 -18q-34.5 -6.5 -70.5 -6.5q-66 0 -123.5 19q-57.5 19 -100 62q-42.5 43 -67 111q-24.5 68 -24.5 166zt0 0zM409 913l122 -128h-42l-106 88l-105 -88h-42l122 128z" />
<glyph unicode="&#265;" horiz-adv-x="502" d="M49 240q0 63 17.5 111.5q17.5 48.5 49 81.5q31.5 33 74.5 50.5q43 17.5 94 17.5q60 0 101.5 -20.5q41.5 -20.5 64.5 -46.5l0 -85h-48v24q0 28 -11.5 47q-11.5 19 -29 31q-17.5 12 -39 17q-21.5 5 -41.5 5q-39 0 -71.5 -17q-32.5 -17 -55 -47.5q-22.5 -30.5 -35 -73.5q-12.5 -43 -12.5 -95q0 -40 9.5 -78.5q9.5 -38.5 31.5 -69q22 -30.5 56 -49.5q34 -19 84 -19q50 0 89 21q39 21 63 50l21 -20q-12 -16 -30.5 -31.5q-18.5 -15.5 -42 -27.5q-23.5 -12 -51 -19.5q-27.5 -7.5 -57.5 -7.5q-48 0 -90 15.5q-42 15.5 -73.5 47q-31.5 31.5 -49.5 78.5q-18 47 -18 110zt0 0zM310 686l101 -115h-37l-88 77l-88 -77h-38l102 115z" />
<glyph unicode="&#266;" horiz-adv-x="669" d="M59 347q0 84 23 151.5q23 67.5 65.5 114.5q42.5 47 102 72.5q59.5 25.5 131.5 25.5q76 0 134 -25.5q58 -25.5 97 -64.5l0 -112h-53v34q0 36 -17 62q-17 26 -43.5 42q-26.5 16 -58.5 23.5q-32 7.5 -61 7.5q-66 0 -114 -29q-48 -29 -80 -76q-32 -47 -47.5 -106q-15.5 -59 -15.5 -120q0 -69 15 -128.5q15 -59.5 46.5 -103q31.5 -43.5 79.5 -68.5q48 -25 114 -25q31 0 63 6.5q32 6.5 58.5 21.5q26.5 15 43.5 38.5q17 23.5 17 58.5v31h53v-103q-19 -18 -45 -34q-26 -16 -57 -27.5q-31 -11.5 -65.5 -18q-34.5 -6.5 -70.5 -6.5q-66 0 -123.5 19q-57.5 19 -100 62q-42.5 43 -67 111q-24.5 68 -24.5 166zt0 0zM332 850q0 17 12.5 29.5q12.5 12.5 29.5 12.5q17 0 29 -12.5q12 -12.5 12 -29.5q0 -17 -12 -29q-12 -12 -29 -12q-17 0 -29.5 12t-12.5 29z" />
<glyph unicode="&#267;" horiz-adv-x="502" d="M49 240q0 63 17.5 111.5q17.5 48.5 49 81.5q31.5 33 74.5 50.5q43 17.5 94 17.5q60 0 101.5 -20.5q41.5 -20.5 64.5 -46.5l0 -85h-48v24q0 28 -11.5 47q-11.5 19 -29 31q-17.5 12 -39 17q-21.5 5 -41.5 5q-39 0 -71.5 -17q-32.5 -17 -55 -47.5q-22.5 -30.5 -35 -73.5q-12.5 -43 -12.5 -95q0 -40 9.5 -78.5q9.5 -38.5 31.5 -69q22 -30.5 56 -49.5q34 -19 84 -19q50 0 89 21q39 21 63 50l21 -20q-12 -16 -30.5 -31.5q-18.5 -15.5 -42 -27.5q-23.5 -12 -51 -19.5q-27.5 -7.5 -57.5 -7.5q-48 0 -90 15.5q-42 15.5 -73.5 47q-31.5 31.5 -49.5 78.5q-18 47 -18 110zt0 0zM238 632q0 16 11.5 28q11.5 12 26.5 12q16 0 28 -12q12 -12 12 -28q0 -15 -12 -26.5q-12 -11.5 -28 -11.5q-15 0 -26.5 11.5t-11.5 26.5z" />
<glyph unicode="&#268;" horiz-adv-x="669" d="M59 347q0 84 23 151.5q23 67.5 65.5 114.5q42.5 47 102 72.5q59.5 25.5 131.5 25.5q76 0 134 -25.5q58 -25.5 97 -64.5l0 -112h-53v34q0 36 -17 62q-17 26 -43.5 42q-26.5 16 -58.5 23.5q-32 7.5 -61 7.5q-66 0 -114 -29q-48 -29 -80 -76q-32 -47 -47.5 -106q-15.5 -59 -15.5 -120q0 -69 15 -128.5q15 -59.5 46.5 -103q31.5 -43.5 79.5 -68.5q48 -25 114 -25q31 0 63 6.5q32 6.5 58.5 21.5q26.5 15 43.5 38.5q17 23.5 17 58.5v31h53v-103q-19 -18 -45 -34q-26 -16 -57 -27.5q-31 -11.5 -65.5 -18q-34.5 -6.5 -70.5 -6.5q-66 0 -123.5 19q-57.5 19 -100 62q-42.5 43 -67 111q-24.5 68 -24.5 166zt0 0zM268 913l106 -88l105 88h42l-122 -128h-51l-122 128z" />
</font>
</defs>
</svg>
