<?xml version="1.0" encoding="UTF-8" standalone="no"?>
<!DOCTYPE svg PUBLIC "-//W3C//DTD SVG 1.1//EN" "http://www.w3.org/Graphics/SVG/1.1/DTD/svg11.dtd" >
<svg xmlns="http://www.w3.org/2000/svg">
<metadata>
Generated by SVGconv.
Copyright   : Copyright  2017 ParaType, Inc., ParaType Ltd. All rights reserved.
Designer    : Manvel Shmavonyan, Alexander Lubovenko
Foundry     : ParaType Ltd
Foundry URL : http://www.paratype.com
</metadata>
<defs>
<font id="MediatorSerifWeb-NarrowLightIta" horiz-adv-x="528" >
<font-face units-per-em="1000" ascent="985" descent="350" >
<font-face-src>
<font-face-name/>
</font-face-src>
</font-face>
<missing-glyph horiz-adv-x="500" />
<glyph unicode="&#13;" horiz-adv-x="295" />
<glyph unicode="&#32;" horiz-adv-x="295" />
<glyph unicode="&#33;" horiz-adv-x="329" d="M122 39q0 23 14.5 37.5q14.5 14.5 36.5 14.5q23 0 37 -14.5q14 -14.5 14 -37.5q0 -20 -14.5 -35q-14.5 -15 -36.5 -15q-22 0 -36.5 15q-14.5 15 -14.5 35zt0 0zM215 682q2 12 16.5 20.5q14.5 8.5 31.5 8.5q17 0 30 -8.5q13 -8.5 13 -20.5l-94 -498l-42 0z" />
<glyph unicode="&#34;" horiz-adv-x="404" d="M177 687q1 11 13 16.5q12 5.5 26 5.5q14 0 26 -5.5q12 -5.5 12 -16.5l-47 -172h-31zM337 687q1 11 13.5 16.5q12.5 5.5 26.5 5.5q14 0 25.5 -5.5q11.5 -5.5 12.5 -16.5l-48 -172l-31 0z" />
<glyph unicode="&#35;" horiz-adv-x="607" d="M81 214l4 41h103l34 205h-100l3 41h104l25 152h64l-25 -152h168l26 152h64l-25 -152h101l-4 -41h-104l-33 -205h101l-4 -41h-103l-26 -154h-64l25 154h-169l-25 -154h-64l25 154zM455 460h-169l-34 -205l169 0z" />
<glyph unicode="&#36;" horiz-adv-x="568" d="M276 -10q-66 5 -116 30.5q-50 25.5 -78 60.5l16 111h65l-4 -30q-1 -5 -1.5 -10q-0.5 -5 -0.5 -10q0 -27 10 -46.5q10 -19.5 26.5 -33.5q16.5 -14 39 -21.5q22.5 -7.5 47.5 -10.5l39 297q-45 18 -77 37.5q-32 19.5 -52.5 42q-20.5 22.5 -30.5 50q-10 27.5 -10 62.5q0 39 14.5 73q14.5 34 42.5 59.5q28 25.5 68.5 41q40.5 15.5 93.5 17.5l13 105h43l-14 -106q30 -3 55.5 -11.5q25.5 -8.5 46 -19.5q20.5 -11 35 -23q14.5 -12 23.5 -23l-16 -110h-65l5 29q1 5 1 10.5q0 5.5 0 10.5q0 42 -24 66q-24 24 -66 30l-38 -290q48 -20 82.5 -39q34.5 -19 56.5 -41q22 -22 32 -48.5q10 -26.5 10 -60.5q0 -39 -16.5 -74q-16.5 -35 -46.5 -62q-30 -27 -72.5 -44q-42.5 -17 -94.5 -20l-14 -107h-42zM362 669q-39 -3 -65.5 -17.5q-26.5 -14.5 -42.5 -35q-16 -20.5 -23 -45q-7 -24.5 -7 -47.5q0 -42 21 -73.5q21 -31.5 82 -55.5zM473 180q0 43 -25.5 73q-25.5 30 -88.5 57l-36 -280q75 5 112.5 46t37.5 104z" />
<glyph unicode="&#37;" horiz-adv-x="764" d="M129 484q0 44 11 85q11 41 31.5 72.5q20.5 31.5 49.5 50.5q29 19 65 19q27 0 47.5 -11q20.5 -11 35 -30q14.5 -19 22 -45.5q7.5 -26.5 7.5 -57.5q0 -43 -11.5 -83.5q-11.5 -40.5 -32 -72q-20.5 -31.5 -49.5 -50.5q-29 -19 -64 -19q-54 0 -83 40q-29 40 -29 102zt0 0zM334 584q0 42 -12.5 66.5q-12.5 24.5 -39.5 24.5q-21 0 -38 -17q-17 -17 -28.5 -45q-11.5 -28 -17.5 -65q-6 -37 -6 -77q0 -42 12.5 -67q12.5 -25 39.5 -25q21 0 38 16.5q17 16.5 28.5 45q11.5 28.5 17.5 65.5q6 37 6 78zt0 0zM476 130q0 45 11 86q11 41 31.5 72.5q20.5 31.5 49 50.5q28.5 19 64.5 19q54 0 82.5 -40.5q28.5 -40.5 28.5 -103.5q0 -44 -11 -84.5q-11 -40.5 -31.5 -71.5q-20.5 -31 -49 -50q-28.5 -19 -63.5 -19q-54 0 -83 40q-29 40 -29 101zt0 0zM681 230q0 42 -12.5 67q-12.5 25 -39.5 25q-21 0 -38 -16.5q-17 -16.5 -28.5 -44.5q-11.5 -28 -17.5 -65q-6 -37 -6 -78q0 -42 12.5 -67q12.5 -25 39.5 -25q21 0 38 16.5q17 16.5 28.5 44.5q11.5 28 17.5 65q6 37 6 78zt0 0zM673 711l35 -29l-508 -694l-38 29z" />
<glyph unicode="&#38;" horiz-adv-x="621" d="M76 155q0 43 11.5 77q11.5 34 34 61q22.5 27 56.5 49q34 22 78 42q-25 45 -35 84q-10 39 -10 72q0 34 13 65q13 31 36.5 54.5q23.5 23.5 56.5 37.5q33 14 73 14q59 0 93 -34q34 -34 34 -91q0 -69 -44.5 -117.5q-44.5 -48.5 -132.5 -90.5l116 -220q8 11 19 29q11 18 19 35q11 19 11 31q0 16 -19 16h-29l7 42h161l-8 -42h-17q-17 0 -30 -9q-13 -9 -24 -30q-40 -73 -69 -105l44 -84h74l-8 -41h-129l-35 69q-40 -38 -83 -59q-43 -21 -92 -21q-41 0 -73 12.5q-32 12.5 -54 35q-22 22.5 -33.5 53q-11.5 30.5 -11.5 65.5zt0 0zM462 575q0 41 -19 67.5q-19 26.5 -58 26.5q-44 0 -72.5 -31q-28.5 -31 -28.5 -91q0 -28 8 -62.5q8 -34.5 31 -75.5q37 18 63 35.5q26 17.5 43 37.5q17 20 25 42.5q8 22.5 8 50.5zt0 0zM274 351q-60 -33 -89.5 -75q-29.5 -42 -29.5 -110q0 -24 6.5 -47q6.5 -23 20.5 -41q14 -18 35.5 -29q21.5 -11 50.5 -11q41 0 74.5 18q33.5 18 61.5 49z" />
<glyph unicode="&#39;" horiz-adv-x="243" d="M177 687q1 11 13 16.5q12 5.5 26 5.5q14 0 26 -5.5q12 -5.5 12 -16.5l-47 -172h-31l1 172z" />
<glyph unicode="&#40;" horiz-adv-x="351" d="M192 -187q-12 28 -23 65.5q-11 37.5 -20 81q-9 43.5 -14 92q-5 48.5 -5 98.5q0 87 16 170.5q16 83.5 42.5 160.5q26.5 77 61.5 144.5q35 67.5 73 121.5l23 33l45 -22l-11 -18q-33 -54 -65 -121.5q-32 -67.5 -56.5 -145.5q-24.5 -78 -40 -165.5q-15.5 -87.5 -15.5 -182.5q0 -94 14 -168.5q14 -74.5 33 -136.5l7 -19l-51 -21l-14 33z" />
<glyph unicode="&#41;" horiz-adv-x="351" d="M56 -180q33 54 65 121.5q32 67.5 56.5 145.5q24.5 78 40 165.5q15.5 87.5 15.5 182.5q0 94 -14 168.5q-14 74.5 -33 136.5l-6 19l50 21l14 -33q12 -28 23.5 -65.5q11.5 -37.5 20 -81q8.5 -43.5 14 -92q5.5 -48.5 5.5 -98.5q0 -87 -16 -170.5q-16 -83.5 -43 -160.5q-27 -77 -62 -144.5q-35 -67.5 -73 -121.5l-23 -33l-45 22z" />
<glyph unicode="&#42;" horiz-adv-x="427" d="M287 509l-6 4l-100 -71q-9 4 -18 19.5q-9 15.5 -9 29.5l112 51v7l-112 51q0 15 8 29q8 14 19 19l101 -70l5 4l-11 122q3 4 11.5 5.5q8.5 1.5 16.5 1.5q22 0 30 -7l-13 -122l6 -3l100 70q11 -5 20 -21q9 -16 10 -28l-112 -50v-9l112 -50q-1 -14 -10 -29.5q-9 -15.5 -20 -19.5l-99 71l-7 -5l14 -122q-5 -4 -13 -5q-8 -1 -17 -1q-9 0 -17.5 1q-8.5 1 -11.5 5z" />
<glyph unicode="&#43;" horiz-adv-x="640" d="M134 326v55h212v212h55v-212h212v-55h-212v-212h-55l0 212z" />
<glyph unicode="&#44;" horiz-adv-x="314" d="M120 -133q11 12 23 27.5q12 15.5 22 31.5q10 16 16.5 30.5q6.5 14.5 6.5 24.5q0 10 -8.5 13q-8.5 3 -19 7q-10.5 4 -19 13q-8.5 9 -8.5 31q0 24 16 38q16 14 33 14q26 0 40 -15.5q14 -15.5 14 -39.5q0 -16 -3.5 -37q-3.5 -21 -13.5 -46q-10 -25 -28 -53q-18 -28 -47 -58l-24 19z" />
<glyph unicode="&#45;" horiz-adv-x="472" d="M431 293l-8 -55h-291l8 55z" />
<glyph unicode="&#46;" horiz-adv-x="314" d="M133 44q0 23 15 38q15 15 35 15q22 0 37.5 -15q15.5 -15 15.5 -38q0 -20 -15.5 -35q-15.5 -15 -37.5 -15q-20 0 -35 15t-15 35z" />
<glyph unicode="&#47;" horiz-adv-x="542" d="M545 780l52 -27l-532 -963l-53 27z" />
<glyph unicode="&#48;" horiz-adv-x="520" d="M91 242q0 104 20.5 190.5q20.5 86.5 57.5 148.5q37 62 89 96q52 34 115 34q82 0 129 -66q47 -66 47 -189q0 -104 -20.5 -190q-20.5 -86 -57.5 -147.5q-37 -61.5 -89 -95.5q-52 -34 -115 -34q-83 0 -129.5 65.5q-46.5 65.5 -46.5 187.5zt0 0zM469 472q0 198 -104 198q-45 0 -81.5 -33.5q-36.5 -33.5 -62 -93q-25.5 -59.5 -39 -140.5q-13.5 -81 -13.5 -176q0 -197 105 -197q44 0 80 33q36 33 61.5 91.5q25.5 58.5 39.5 140t14 177.5z" />
<glyph unicode="&#49;" horiz-adv-x="376" d="M145 41q20 0 28.5 13.5q8.5 13.5 13.5 39.5l87 546h-133l7 41h31q47 0 91 9q44 9 90 21l-107 -670h79l-8 -41h-234l8 41z" />
<glyph unicode="&#50;" horiz-adv-x="495" d="M206 182q72 67 118.5 114.5q46.5 47.5 73 87q26.5 39.5 37 77.5q10.5 38 10.5 86q0 20 -5 42q-5 22 -17 40q-12 18 -32 29.5q-20 11.5 -50 11.5q-18 0 -38.5 -6q-20.5 -6 -39 -20q-18.5 -14 -32.5 -37.5q-14 -23.5 -20 -58.5l-4 -29h-63l18 105q18 18 41 33.5q23 15.5 49 27.5q26 12 54.5 19q28.5 7 58.5 7q45 0 76.5 -14.5q31.5 -14.5 50.5 -37.5q19 -23 27.5 -51q8.5 -28 8.5 -55q0 -51 -15 -92.5q-15 -41.5 -49.5 -85.5q-34.5 -44 -90.5 -98q-56 -54 -139 -130l-86 -79l-1 -2h310l-27 -66h-378l8 48z" />
<glyph unicode="&#51;" horiz-adv-x="489" d="M55 66q5 29 9 53q3 20 6 36.5q3 16.5 3 17.5l62 0l-4 -29q-1 -5 -1.5 -10.5q-0.5 -5.5 -0.5 -13.5q0 -24 9 -41.5q9 -17.5 24 -28q15 -10.5 34.5 -15.5q19.5 -5 41.5 -5q34 0 63 13.5q29 13.5 50.5 38.5q21.5 25 33.5 59.5q12 34.5 12 76.5q0 57 -31 88.5q-31 31.5 -84 31.5h-60l8 44h55q30 0 57 13.5q27 13.5 48 36.5q21 23 33.5 55q12.5 32 12.5 68q0 48 -24 81.5q-24 33.5 -77 33.5q-23 0 -44.5 -6.5q-21.5 -6.5 -40 -21.5q-18.5 -15 -31.5 -38.5q-13 -23.5 -19 -56.5l-5 -30h-61l17 105q42 43 96 66q54 23 108 23q79 0 120.5 -41q41.5 -41 41.5 -105q0 -41 -13 -74.5q-13 -33.5 -34.5 -59q-21.5 -25.5 -49.5 -42.5q-28 -17 -59 -24l0 -4q54 -6 85 -44.5q31 -38.5 31 -96.5q0 -44 -16 -85.5q-16 -41.5 -47 -73.5q-31 -32 -75.5 -52q-44.5 -20 -101.5 -20q-60 0 -107 21t-75 56z" />
<glyph unicode="&#52;" horiz-adv-x="499" d="M58 194l8 51l376 455h53l-70 -443h97l-28 -63h-80l-32 -194h-75l32 194zM404 591h-2l-273 -334v-3l223 0z" />
<glyph unicode="&#53;" horiz-adv-x="485" d="M75 160h63l-6 -32q-1 -5 -1 -9q0 -4 0 -10q0 -22 8.5 -37q8.5 -15 21.5 -24.5q13 -9.5 29 -13.5q16 -4 31 -4q44 0 77 21q33 21 54.5 55q21.5 34 32 76q10.5 42 10.5 84q0 67 -27 101q-27 34 -75 34q-43 0 -70 -16.5q-27 -16.5 -56 -44.5l-37 6l91 354h304l-27 -66h-247l-61 -235h2q26 23 58.5 39.5q32.5 16.5 76.5 16.5q38 0 66 -13q28 -13 46.5 -36q18.5 -23 27.5 -54.5q9 -31.5 9 -69.5q0 -61 -19 -114.5q-19 -53.5 -53 -93q-34 -39.5 -80 -62.5q-46 -23 -100 -23q-58 0 -99.5 21q-41.5 21 -64.5 53z" />
<glyph unicode="&#54;" horiz-adv-x="497" d="M84 206q0 61 11 122q11 61 33 117q22 56 54.5 105q32.5 49 74.5 84.5q42 35.5 94 56q52 20.5 114 20.5q11 0 31 -2q20 -2 35 -6l-12 -41q-6 1 -14 2.5q-8 1.5 -17 2q-9 0.5 -17 1q-8 0.5 -13 0.5q-111 0 -186.5 -89q-75.5 -89 -101.5 -256l4 0q29 56 75.5 87q46.5 31 93.5 31q71 0 112 -46.5q41 -46.5 41 -127.5q0 -62 -19 -113.5q-19 -51.5 -51.5 -88q-32.5 -36.5 -75 -56.5q-42.5 -20 -90.5 -20q-85 0 -130.5 57q-45.5 57 -45.5 160zt0 0zM416 257q0 60 -23.5 96q-23.5 36 -76.5 36q-28 0 -51.5 -14q-23.5 -14 -42.5 -35q-19 -21 -33 -46q-14 -25 -22 -47q-4 -23 -4 -58q0 -34 6 -63q6 -29 18 -50.5q12 -21.5 31 -33.5q19 -12 45 -12q30 0 57.5 15q27.5 15 49 44q21.5 29 34 71.5t12.5 96.5z" />
<glyph unicode="&#55;" horiz-adv-x="445" d="M451 634h-211q-25 0 -42 -9.5q-17 -9.5 -23 -48.5q-2 -11 -3 -20q-1 -4 -1 -7.5q0 -3.5 -1 -5.5q-1 -4 -1 -6l-43 0l26 163h374q-1 0 -1.5 -6.5q-0.5 -6.5 -2.5 -14.5q-2 -9 -3 -20l-366 -659h-58l356 632z" />
<glyph unicode="&#56;" horiz-adv-x="499" d="M73 143q0 75 43 125.5q43 50.5 124 85.5l0 2q-32 14 -52 32.5q-20 18.5 -31 39q-11 20.5 -15.5 41q-4.5 20.5 -4.5 38.5q0 44 18 81.5q18 37.5 48.5 64.5q30.5 27 71.5 42.5q41 15.5 86 15.5q43 0 74.5 -12q31.5 -12 52.5 -32.5q21 -20.5 31 -47.5q10 -27 10 -56q0 -24 -7 -50.5q-7 -26.5 -24 -52.5q-17 -26 -47.5 -51q-30.5 -25 -76.5 -44l0 -1q60 -29 88.5 -71q28.5 -42 28.5 -93q0 -36 -15.5 -73.5q-15.5 -37.5 -45.5 -68q-30 -30.5 -74.5 -50q-44.5 -19.5 -101.5 -19.5q-38 0 -71 10q-33 10 -57.5 29.5q-24.5 19.5 -38.5 48q-14 28.5 -14 66.5zt0 0zM410 191q0 29 -10.5 51q-10.5 22 -27.5 39q-17 17 -38.5 30q-21.5 13 -43.5 23q-22 -8 -49.5 -22q-27.5 -14 -52 -36q-24.5 -22 -41 -53q-16.5 -31 -16.5 -73q0 -31 11 -53.5q11 -22.5 28.5 -37.5q17.5 -15 40 -22q22.5 -7 45.5 -7q34 0 62.5 13q28.5 13 49 35q20.5 22 31.5 51q11 29 11 62zt0 0zM470 557q0 52 -29 82.5q-29 30.5 -82 30.5q-31 0 -57 -12q-26 -12 -44.5 -33q-18.5 -21 -29 -48.5q-10.5 -27.5 -10.5 -58.5q0 -53 29.5 -82.5q29.5 -29.5 79.5 -50.5q76 30 109.5 72.5t33.5 99.5z" />
<glyph unicode="&#57;" horiz-adv-x="497" d="M91 38q6 -2 14 -3q8 -1 17 -1.5q9 -0.5 17 -1q8 -0.5 13 -0.5q111 0 186.5 89q75.5 89 101.5 256l-5 0q-29 -56 -76 -87q-47 -31 -93 -31q-71 0 -112 47.5q-41 47.5 -41 129.5q0 62 19 112.5q19 50.5 51.5 86.5q32.5 36 75.5 56q43 20 92 20q86 0 130 -58q44 -58 44 -162q0 -61 -11 -121.5q-11 -60.5 -33 -116.5q-22 -56 -54.5 -104q-32.5 -48 -74.5 -83.5q-42 -35.5 -94.5 -56q-52.5 -20.5 -113.5 -20.5q-11 0 -30 2q-19 2 -34 6zM443 453q2 14 2.5 26q0.5 12 1.5 25q1 35 -5 65q-6 30 -18.5 52.5q-12.5 22.5 -32 35.5q-19.5 13 -46.5 13q-30 0 -57.5 -15q-27.5 -15 -48.5 -44q-21 -29 -33.5 -71.5q-12.5 -42.5 -12.5 -96.5q0 -60 23 -96q23 -36 76 -36q28 0 52 14q24 14 43 35q19 21 33.5 46t22.5 47z" />
<glyph unicode="&#58;" horiz-adv-x="314" d="M133 44q0 23 15 38q15 15 35 15q22 0 37.5 -15q15.5 -15 15.5 -38q0 -20 -15.5 -35q-15.5 -15 -37.5 -15q-20 0 -35 15q-15 15 -15 35zt0 0zM187 437q0 23 15 38q15 15 35 15q22 0 37.5 -15q15.5 -15 15.5 -38q0 -20 -15.5 -35q-15.5 -15 -37.5 -15q-20 0 -35 15t-15 35z" />
<glyph unicode="&#59;" horiz-adv-x="314" d="M120 -133q11 12 23 27.5q12 15.5 22 31.5q10 16 16.5 30.5q6.5 14.5 6.5 24.5q0 10 -8.5 13q-8.5 3 -19 7q-10.5 4 -19 13q-8.5 9 -8.5 31q0 24 16 38q16 14 33 14q26 0 40 -15.5q14 -15.5 14 -39.5q0 -16 -3.5 -37q-3.5 -21 -13.5 -46q-10 -25 -28 -53q-18 -28 -47 -58l-24 19zM187 437q0 23 15 38q15 15 35 15q22 0 37.5 -15q15.5 -15 15.5 -38q0 -20 -15.5 -35q-15.5 -15 -37.5 -15q-20 0 -35 15t-15 35z" />
<glyph unicode="&#60;" horiz-adv-x="627" d="M134 366l466 269v-61l-383 -219v-2l383 -219v-62l-466 270z" />
<glyph unicode="&#61;" horiz-adv-x="640" d="M613 283v-56h-479v56zM613 468v-55h-479l0 55z" />
<glyph unicode="&#62;" horiz-adv-x="627" d="M517 353v2l-383 219v61l466 -269v-24l-466 -270l0 62z" />
<glyph unicode="&#63;" horiz-adv-x="509" d="M342 386q30 24 52.5 44.5q22.5 20.5 37.5 41q15 20.5 22.5 43q7.5 22.5 7.5 49.5q0 20 -7 39q-7 19 -21.5 34q-14.5 15 -37.5 24q-23 9 -56 9q-24 0 -50.5 -6q-26.5 -6 -49 -20q-22.5 -14 -39 -36.5q-16.5 -22.5 -21.5 -56.5l-4 -31h-64l15 105q20 18 46.5 34q26.5 16 56.5 27.5q30 11.5 62 18q32 6.5 64 6.5q52 0 88 -11.5q36 -11.5 58 -31q22 -19.5 31.5 -45.5q9.5 -26 9.5 -54q0 -39 -13.5 -69q-13.5 -30 -35.5 -55q-22 -25 -50.5 -46.5q-28.5 -21.5 -57.5 -42.5q-29 -21 -50.5 -40.5q-21.5 -19.5 -36.5 -39q-15 -19.5 -23.5 -40.5q-8.5 -21 -12.5 -46l-41 0q4 30 11 54.5q7 24.5 20.5 48q13.5 23.5 35 46q21.5 22.5 53.5 47.5zt0 0zM176 39q0 23 15 37.5q15 14.5 36 14.5q23 0 37.5 -14.5q14.5 -14.5 14.5 -37.5q0 -20 -14.5 -35q-14.5 -15 -37.5 -15q-21 0 -36 15t-15 35z" />
<glyph unicode="&#64;" horiz-adv-x="857" d="M120 246q0 76 26.5 144q26.5 68 74 119q47.5 51 114 80.5q66.5 29.5 147.5 29.5q73 0 138 -22.5q65 -22.5 113 -64q48 -41.5 76 -100q28 -58.5 28 -131.5q0 -67 -18.5 -114.5q-18.5 -47.5 -47 -77.5q-28.5 -30 -62.5 -43.5q-34 -13.5 -66 -13.5q-16 0 -31.5 3.5q-15.5 3.5 -28 11.5q-12.5 8 -20.5 21q-8 13 -8 33q0 8 1 18q1 10 3 19v0q-25 -44 -64.5 -75q-39.5 -31 -87.5 -31q-32 0 -55 12q-23 12 -37.5 32.5q-14.5 20.5 -21.5 47.5q-7 27 -7 57q0 45 11.5 92q11.5 47 36 86q24.5 39 62.5 63.5q38 24.5 91 24.5q36 0 62.5 -16q26.5 -16 43.5 -38l1 0l15 45h55q-6 -16 -11 -32.5q-5 -16.5 -8 -36.5l-29 -204q-2 -14 -3.5 -27q-1.5 -13 -1.5 -26q0 -20 11 -30.5q11 -10.5 26 -10.5q34 0 60.5 17.5q26.5 17.5 44.5 46.5q18 29 27.5 66.5q9.5 37.5 9.5 78.5q0 54 -21 104q-21 50 -60.5 88.5q-39.5 38.5 -96.5 62q-57 23.5 -129 23.5q-57 0 -113.5 -21.5q-56.5 -21.5 -101 -63q-44.5 -41.5 -72.5 -103.5q-28 -62 -28 -143q0 -80 25.5 -139q25.5 -59 69 -98q43.5 -39 101 -58q57.5 -19 120.5 -19q39 0 83.5 8.5q44.5 8.5 76.5 28.5l17 -40q-35 -19 -84 -29.5q-49 -10.5 -94 -10.5q-77 0 -143.5 23.5q-66.5 23.5 -115 69q-48.5 45.5 -76.5 112q-28 66.5 -28 151.5zt0 0zM583 380q-10 13 -30 27.5q-20 14.5 -58 14.5q-31 0 -57 -18q-26 -18 -45 -48q-19 -30 -29.5 -69.5q-10.5 -39.5 -10.5 -82.5q0 -46 16 -74.5q16 -28.5 54 -28.5q29 0 53.5 14.5q24.5 14.5 43.5 36.5q19 22 30.5 46q11.5 24 14.5 44z" />
<glyph unicode="&#65;" horiz-adv-x="718" d="M57 41q43 0 75 64l302 595h76l126 -659h71l-7 -41h-234l8 41h39q20 0 27 11.5q7 11.5 7 26.5q0 12 -3 24l-17 101h-291l-48 -100q-6 -11 -11 -22q-5 -11 -5 -21q0 -20 22 -20h41l-6 -41h-209l7 41zM463 557q-3 14 -6.5 35.5q-3.5 21.5 -5.5 38.5l-4 0q-8 -19 -17.5 -38.5q-9.5 -19.5 -17.5 -33.5l-155 -311l264 0z" />
<glyph unicode="&#66;" horiz-adv-x="579" d="M43 41h44q19 0 27.5 13.5q8.5 13.5 12.5 39.5l90 565h-76l6 41h288q31 0 62 -6q31 -6 55.5 -21.5q24.5 -15.5 40 -43.5q15.5 -28 15.5 -72q0 -36 -11.5 -66.5q-11.5 -30.5 -31.5 -55q-20 -24.5 -46.5 -41q-26.5 -16.5 -57.5 -23.5l0 -3q31 -6 52.5 -20q21.5 -14 34.5 -33q13 -19 19 -41.5q6 -22.5 6 -44.5q0 -69 -27 -113.5q-27 -44.5 -66 -70q-39 -25.5 -83.5 -35.5q-44.5 -10 -78.5 -10h-282zM322 43q27 0 56.5 9q29.5 9 55 30.5q25.5 21.5 42 57q16.5 35.5 16.5 87.5q0 52 -30 83.5q-30 31.5 -89 31.5h-132l-47 -299zM376 384q21 0 47.5 8q26.5 8 49.5 27.5q23 19.5 38.5 51q15.5 31.5 15.5 79.5q0 51 -26.5 79q-26.5 28 -80.5 28h-128l-42 -273z" />
<glyph unicode="&#67;" horiz-adv-x="583" d="M95 264q0 97 24.5 179q24.5 82 69.5 141.5q45 59.5 108 93q63 33.5 140 33.5q66 0 116.5 -24q50.5 -24 79.5 -65l-18 -113h-64l4 24q1 7 1.5 13.5q0.5 6.5 0.5 14.5q0 32 -12 53q-12 21 -30 33.5q-18 12.5 -40.5 17.5q-22.5 5 -43.5 5q-60 0 -107.5 -37q-47.5 -37 -80.5 -95q-33 -58 -50 -129.5q-17 -71.5 -17 -139.5q0 -50 9.5 -94q9.5 -44 30 -76q20.5 -32 52 -50.5q31.5 -18.5 75.5 -18.5q20 0 45 5q25 5 47.5 18.5q22.5 13.5 39.5 37q17 23.5 22 60.5l4 25h64l-18 -105q-39 -38 -96 -60q-57 -22 -114 -22q-53 0 -97.5 16q-44.5 16 -76.5 49.5q-32 33.5 -50 85.5t-18 124z" />
<glyph unicode="&#68;" horiz-adv-x="646" d="M87 41q19 0 27.5 13.5q8.5 13.5 12.5 39.5l90 565h-76l6 41h253q60 0 108.5 -14q48.5 -14 82 -44.5q33.5 -30.5 51.5 -80.5q18 -50 18 -122q0 -110 -32 -192.5q-32 -82.5 -84 -137q-52 -54.5 -119 -82q-67 -27.5 -137 -27.5h-252l7 41zM293 43q48 0 99 23q51 23 93 71q42 48 68.5 122q26.5 74 26.5 176q0 119 -50.5 170.5q-50.5 51.5 -135.5 51.5h-102l-98 -614z" />
<glyph unicode="&#69;" horiz-adv-x="543" d="M87 41q19 0 27.5 13.5q8.5 13.5 12.5 39.5l90 565h-76l6 41h452l-27 -167h-43l6 34q3 15 3 29q0 37 -17 49q-17 12 -41 12h-188l-44 -279h162l13 84h42l-33 -211h-43l12 84h-161l-46 -292h198q28 0 50.5 18q22.5 18 32.5 72l6 41h43l-28 -174h-460l7 41z" />
<glyph unicode="&#70;" horiz-adv-x="520" d="M87 41q19 0 27.5 13.5q8.5 13.5 12.5 39.5l90 565h-76l6 41h443l-27 -170h-43l6 37q3 15 3 29q0 37 -17 49q-17 12 -41 12h-179l-46 -290h159l13 84h44l-35 -212h-43l14 85h-159l-45 -283h83l-7 -41h-234l7 41z" />
<glyph unicode="&#71;" horiz-adv-x="625" d="M95 264q0 97 25 179q25 82 70 141.5q45 59.5 108.5 93q63.5 33.5 140.5 33.5q66 0 118 -24q52 -24 80 -66l-17 -113h-65l4 22q1 6 1.5 14q0.5 8 0.5 16q0 32 -12 53q-12 21 -31 34q-19 13 -41.5 18q-22.5 5 -43.5 5q-61 0 -108.5 -37q-47.5 -37 -80.5 -95q-33 -58 -50.5 -129.5q-17.5 -71.5 -17.5 -139.5q0 -50 9.5 -93.5q9.5 -43.5 30 -76q20.5 -32.5 51.5 -51q31 -18.5 74 -18.5q22 0 46.5 5q24.5 5 45.5 17q21 12 36.5 32q15.5 20 20.5 50l23 145h-77l7 41h212l-7 -41h-32q-32 0 -41 -52l-26 -161q-38 -34 -91.5 -55.5q-53.5 -21.5 -122.5 -21.5q-52 0 -96 16q-44 16 -76 49.5q-32 33.5 -50 85.5t-18 124z" />
<glyph unicode="&#72;" horiz-adv-x="687" d="M87 41q19 0 27.5 13.5q8.5 13.5 12.5 39.5l90 565h-76l6 41h225l-6 -41h-44q-30 0 -39 -53l-33 -217h314l43 270h-73l7 41h224l-6 -41h-46q-31 0 -40 -53l-89 -565h76l-7 -41h-225l8 41h43q30 0 38 53l40 251h-314l-49 -304h73l-7 -41h-224l7 41z" />
<glyph unicode="&#73;" horiz-adv-x="306" d="M91 41q19 0 28 13.5q9 13.5 13 39.5l90 565h-81l6 41h237l-7 -41h-48q-19 0 -28 -13.5q-9 -13.5 -13 -39.5l-89 -565h80l-7 -41h-236l7 41z" />
<glyph unicode="&#74;" horiz-adv-x="481" d="M75 148h63l-6 -36q-3 -14 -3 -25q0 -31 18.5 -44q18.5 -13 49.5 -13q51 0 86.5 43q35.5 43 49.5 124l72 462h-81l7 41h232l-7 -41h-43q-19 0 -28 -13.5q-9 -13.5 -14 -39.5l-63 -399q-9 -57 -30.5 -98.5q-21.5 -41.5 -51.5 -68q-30 -26.5 -65.5 -39q-35.5 -12.5 -72.5 -12.5q-39 0 -74 12.5q-35 12.5 -57 36.5z" />
<glyph unicode="&#75;" horiz-adv-x="625" d="M87 41q19 0 27.5 13.5q8.5 13.5 12.5 39.5l90 565h-76l6 41h224l-6 -41h-32q-22 0 -32.5 -9.5q-10.5 -9.5 -15.5 -41.5l-35 -219h94l175 215q19 22 19 37q0 18 -22 18h-39l7 41h215l-7 -41h-10q-32 0 -58.5 -16q-26.5 -16 -52.5 -47l-177 -218l148 -337h74l-8 -41h-136l-145 345h-85l-48 -304h73l-7 -41h-224l7 41z" />
<glyph unicode="&#76;" horiz-adv-x="516" d="M87 41q19 0 27.5 13.5q8.5 13.5 12.5 39.5l90 565h-76l6 41h231l-7 -41h-46q-19 0 -28 -13.5q-9 -13.5 -14 -39.5l-89 -563h180q25 0 47 18q22 18 31 72l7 49h44l-30 -182h-437l7 41z" />
<glyph unicode="&#77;" horiz-adv-x="803" d="M73 41q26 0 36.5 22q10.5 22 17.5 51l127 545h-77l6 41h162l79 -402q2 -13 4.5 -36.5q2.5 -23.5 4.5 -40.5l4 0q7 17 16 36.5q9 19.5 18 37.5l212 405h164l-6 -41h-46q-20 0 -29 -18.5q-9 -18.5 -11 -51.5l-47 -548h77l-7 -41h-233l7 41h42q12 0 20 6.5q8 6.5 12.5 17q4.5 10.5 7 23q2.5 12.5 3.5 24.5l33 389q1 17 4 45q3 28 8 54l-4 0l-236 -453h-56l-93 460h-4q-5 -24 -11 -55q-6 -31 -11 -51l-87 -387q-2 -9 -4.5 -21q-2.5 -12 -2.5 -21q0 -14 6 -22.5q6 -8.5 21 -8.5h41l-6 -41h-207l7 41z" />
<glyph unicode="&#78;" horiz-adv-x="701" d="M82 41q23 0 32.5 15.5q9.5 15.5 13.5 41.5l90 561h-77l6 41h153l222 -517q8 -20 17.5 -47q9.5 -27 14.5 -47l4 0q3 30 6.5 57.5q3.5 27.5 6.5 44.5l65 411q1 7 2 12.5q1 5.5 1 12.5q0 15 -6 23.5q-6 8.5 -21 8.5h-44l7 41h204l-7 -41h-39q-22 0 -31.5 -15.5q-9.5 -15.5 -14.5 -41.5l-96 -602h-68l-230 533q-10 23 -17.5 45.5q-7.5 22.5 -13.5 40.5l-3 0q-3 -29 -7 -58.5q-4 -29.5 -7 -48.5l-65 -414q-1 -8 -2 -14q-1 -6 -1 -13q0 -14 6 -22q6 -8 22 -8h43l-7 -41h-205l7 41z" />
<glyph unicode="&#79;" horiz-adv-x="665" d="M96 279q0 92 23.5 171q23.5 79 67 137q43.5 58 106 91q62.5 33 139.5 33q58 0 104 -20.5q46 -20.5 77.5 -58.5q31.5 -38 48 -91.5q16.5 -53.5 16.5 -119.5q0 -92 -23 -171q-23 -79 -66.5 -137q-43.5 -58 -105.5 -91q-62 -33 -140 -33q-59 0 -104.5 20.5q-45.5 20.5 -77.5 58.5q-32 38 -48.5 91.5q-16.5 53.5 -16.5 119.5zt0 0zM598 421q0 42 -8 86q-8 44 -27.5 80q-19.5 36 -52.5 59.5q-33 23.5 -83 23.5q-48 0 -85.5 -20q-37.5 -20 -65 -52q-27.5 -32 -47 -74q-19.5 -42 -31 -85q-11.5 -43 -17 -85q-5.5 -42 -5.5 -75q0 -42 8 -86q8 -44 28 -80q20 -36 52.5 -59.5q32.5 -23.5 82.5 -23.5q48 0 85.5 20q37.5 20 65.5 52.5q28 32.5 47 74q19 41.5 31 85q12 43.5 17 85t5 74.5z" />
<glyph unicode="&#80;" horiz-adv-x="554" d="M43 41h44q19 0 27.5 13.5q8.5 13.5 12.5 39.5l90 565h-76l6 41h273q31 0 63.5 -7q32.5 -7 59 -25q26.5 -18 43.5 -50q17 -32 17 -82q0 -63 -21.5 -110q-21.5 -47 -57 -78.5q-35.5 -31.5 -82 -47.5q-46.5 -16 -96.5 -16h-113l-39 -243h89l-8 -41h-239zM350 328q20 0 49.5 9q29.5 9 57 32q27.5 23 47 62q19.5 39 19.5 100q0 39 -11.5 63.5q-11.5 24.5 -29 38.5q-17.5 14 -37.5 19q-20 5 -36 5h-118l-52 -329z" />
<glyph unicode="&#81;" horiz-adv-x="665" d="M368 -9q-7 -2 -13.5 -2q-6.5 0 -11.5 0q-59 0 -104.5 20.5q-45.5 20.5 -77.5 58.5q-32 38 -48.5 91.5q-16.5 53.5 -16.5 119.5q0 92 23.5 171q23.5 79 67 137q43.5 58 106 91q62.5 33 139.5 33q58 0 104 -20.5q46 -20.5 78 -58.5q32 -38 48.5 -91.5q16.5 -53.5 16.5 -119.5q0 -80 -18 -150q-18 -70 -51 -125.5q-33 -55.5 -80.5 -93.5q-47.5 -38 -107.5 -53q24 -23 54.5 -39q30.5 -16 68.5 -16h31l-12 -69q-15 -4 -29 -4q-26 0 -49.5 11.5q-23.5 11.5 -44.5 29q-21 17.5 -39 38.5q-18 21 -34 41zt0 0zM599 421q0 42 -8 86q-8 44 -28 80q-20 36 -53 59.5q-33 23.5 -83 23.5q-48 0 -85.5 -20q-37.5 -20 -65 -52q-27.5 -32 -47 -74q-19.5 -42 -31 -85q-11.5 -43 -17 -85q-5.5 -42 -5.5 -75q0 -42 8 -86q8 -44 28 -80q20 -36 52.5 -59.5q32.5 -23.5 82.5 -23.5q48 0 85.5 20q37.5 20 65.5 52.5q28 32.5 47.5 74q19.5 41.5 31 85q11.5 43.5 17 85t5.5 74.5z" />
<glyph unicode="&#82;" horiz-adv-x="608" d="M87 41q19 0 27.5 13.5q8.5 13.5 12.5 39.5l90 565h-76l6 41h278q28 0 58.5 -5.5q30.5 -5.5 55.5 -23q25 -17.5 41.5 -49q16.5 -31.5 16.5 -82.5q0 -40 -12.5 -77q-12.5 -37 -36.5 -67.5q-24 -30.5 -58.5 -52.5q-34.5 -22 -77.5 -32l113 -270h74l-8 -41h-138l-122 301h-96l-41 -260h73l-7 -41h-224l7 41zM346 344q30 0 60.5 11.5q30.5 11.5 54.5 35.5q24 24 39.5 59.5q15.5 35.5 15.5 83.5q0 32 -8.5 55.5q-8.5 23.5 -23.5 38.5q-15 15 -34 22q-19 7 -40 7h-119l-49 -313z" />
<glyph unicode="&#83;" horiz-adv-x="528" d="M91 192h64l-5 -29q-2 -6 -2.5 -11q-0.5 -5 -0.5 -13q0 -29 11 -49.5q11 -20.5 30 -34q19 -13.5 43 -19.5q24 -6 50 -6q38 0 67 13q29 13 49 35q20 22 30.5 50q10.5 28 10.5 58q0 42 -24.5 71.5q-24.5 29.5 -80.5 54.5l-53 24q-65 29 -99 68.5q-34 39.5 -34 105.5q0 41 16 77.5q16 36.5 45 64q29 27.5 71 43.5q42 16 94 16q33 0 61 -7.5q28 -7.5 51 -19.5q23 -12 39 -26q16 -14 25 -26l-19 -110h-64l5 29q3 10 3 24q0 46 -29.5 70.5q-29.5 24.5 -75.5 24.5q-40 0 -68 -14.5q-28 -14.5 -45 -37q-17 -22.5 -25 -48.5q-8 -26 -8 -50q0 -40 20.5 -70q20.5 -30 68.5 -52l58 -26q39 -17 66.5 -35q27.5 -18 44.5 -38.5q17 -20.5 25 -45q8 -24.5 8 -54.5q0 -43 -17.5 -81.5q-17.5 -38.5 -49 -67q-31.5 -28.5 -75.5 -45q-44 -16.5 -97 -16.5q-34 0 -65 7.5q-31 7.5 -57.5 20q-26.5 12.5 -46.5 29.5q-20 17 -33 36z" />
<glyph unicode="&#84;" horiz-adv-x="566" d="M220 41q19 0 28 13q9 13 14 40l89 563h-87q-15 0 -28.5 -3q-13.5 -3 -24.5 -12q-11 -9 -20 -26q-9 -17 -13 -44l-8 -49h-43l29 177h479l-29 -177h-42l7 49q1 8 1.5 14.5q0.5 6.5 0.5 14.5q0 36 -17 46q-17 10 -43 10h-87l-98 -616h80l-7 -41h-236l7 41z" />
<glyph unicode="&#85;" horiz-adv-x="678" d="M139 179q0 14 1.5 27.5q1.5 13.5 3.5 30.5l68 422h-76l6 41h225l-7 -41h-40q-20 0 -28.5 -13.5q-8.5 -13.5 -12.5 -39.5l-60 -369q-2 -15 -3 -28q-1 -13 -1 -26q0 -31 7.5 -57.5q7.5 -26.5 23.5 -46q16 -19.5 42 -30.5q26 -11 64 -11q46 0 82 16q36 16 61.5 43.5q25.5 27.5 41.5 63.5q16 36 22 76l58 365q2 8 3 14q1 6 1 13q0 30 -29 30h-41l6 41h205l-7 -41h-40q-23 0 -32 -15.5q-9 -15.5 -13 -41.5l-59 -365q-19 -121 -90 -184.5q-71 -63.5 -177 -63.5q-97 0 -151 47.5t-54 142.5z" />
<glyph unicode="&#86;" horiz-adv-x="683" d="M124 659l7 41h235l-8 -41h-40q-20 0 -26.5 -12q-6.5 -12 -6.5 -29q0 -5 0.5 -11q0.5 -6 1.5 -11l66 -451q2 -14 4 -36.5q2 -22.5 4 -39.5l4 0q8 18 17 38.5q9 20.5 15 34.5l215 453q5 11 8.5 22q3.5 11 3.5 19q0 11 -6 17q-6 6 -21 6h-33l8 41h207l-7 -41h-22q-53 0 -84 -64l-288 -595h-75l-108 659z" />
<glyph unicode="&#87;" horiz-adv-x="955" d="M130 659l8 41h226l-7 -41h-40q-19 0 -25 -13.5q-6 -13.5 -6 -36.5q0 -8 0 -16.5q0 -8.5 1 -14.5l24 -420q1 -17 1 -41q0 -24 -1 -42l5 0q5 19 11.5 39q6.5 20 17.5 45l219 541h77l39 -543q2 -23 2 -44.5q0 -21.5 -1 -40.5l4 0q6 18 14 39.5q8 21.5 18 47.5l161 420q15 36 15 55q0 25 -30 25h-32l7 41h207l-7 -41h-26q-26 0 -45 -17q-19 -17 -37 -63l-229 -579h-77l-42 533q-2 20 -2 42q0 22 0 42l-4 0q-9 -23 -17.5 -43.5q-8.5 -20.5 -16.5 -40.5l-216 -533h-77l-47 659z" />
<glyph unicode="&#88;" horiz-adv-x="608" d="M47 41q29 0 50 18q21 18 42 47l184 259l-114 294h-70l7 41h235l-6 -41h-34q-19 0 -26.5 -9.5q-7.5 -9.5 -7.5 -22.5q0 -8 2.5 -17q2.5 -9 5.5 -17l50 -133q4 -11 7.5 -22q3.5 -11 7.5 -23l2 0q9 14 15.5 24q6.5 10 14.5 21l91 134q7 11 14 23q7 12 7 22q0 8 -5 14q-5 6 -17 6h-33l6 41h199l-7 -41h-16q-29 0 -50 -18q-21 -18 -42 -47l-157 -220l127 -333h69l-6 -41h-239l7 41h38q19 0 26 8.5q7 8.5 7 21.5q0 9 -3 18.5q-3 9.5 -6 17.5l-60 167q-4 11 -8 22.5q-4 11.5 -8 22.5l-3 0q-8 -11 -15.5 -23q-7.5 -12 -15.5 -23l-116 -167q-8 -11 -15.5 -22.5q-7.5 -11.5 -7.5 -20.5q0 -9 5.5 -15.5q5.5 -6.5 18.5 -6.5h33l-7 -41h-199l7 41z" />
<glyph unicode="&#89;" horiz-adv-x="628" d="M249 41q20 0 28.5 13.5q8.5 13.5 12.5 39.5l23 149l-119 416h-70l7 41h234l-6 -41h-40q-19 0 -26.5 -9q-7.5 -9 -7.5 -22q0 -9 2 -17.5q2 -8.5 4 -16.5l65 -242q4 -14 7 -29q3 -15 5 -31l4 0q8 16 16.5 31q8.5 15 17.5 29l150 246q6 10 11 21q5 11 5 19q0 8 -4.5 14.5q-4.5 6.5 -17.5 6.5h-35l7 41h200l-7 -41h-19q-26 0 -47 -16.5q-21 -16.5 -38 -43.5l-222 -356l-33 -202h81l-8 -41h-234l7 41z" />
<glyph unicode="&#90;" horiz-adv-x="538" d="M468 600q12 16 24 30.5q12 14.5 20 23.5l1 3h-221q-28 0 -50 -18.5q-22 -18.5 -32 -72.5l-8 -46h-42l28 180h413l-5 -41l-411 -554q-11 -14 -26 -31.5q-15 -17.5 -23 -27.5l0 -3h259q12 0 24 4q12 4 22.5 14.5q10.5 10.5 19 28q8.5 17.5 12.5 44.5l7 46h43l-29 -180h-449l7 41z" />
<glyph unicode="&#91;" horiz-adv-x="359" d="M424 780l-6 -41h-94q-21 0 -30.5 -10.5q-9.5 -10.5 -13.5 -39.5l-121 -858h131l-5 -41h-201l139 990z" />
<glyph unicode="&#92;" horiz-adv-x="542" d="M222 780l259 -974l-56 -16l-259 974z" />
<glyph unicode="&#93;" horiz-adv-x="359" d="M114 -169q21 0 31 10.5q10 10.5 14 39.5l121 858h-132l6 41h201l-139 -990h-201l6 41z" />
<glyph unicode="&#94;" horiz-adv-x="525" d="M340 700l184 -281h-68l-127 198l-126 -198h-68l184 281z" />
<glyph unicode="&#95;" horiz-adv-x="485" d="M485 -200v-50h-485l0 50z" />
<glyph unicode="&#96;" horiz-adv-x="493" d="M318 698l46 -130h-40l-87 130z" />
<glyph unicode="&#97;" horiz-adv-x="520" d="M82 167q0 70 17 131q17 61 47.5 106q30.5 45 73.5 71q43 26 96 26q42 0 72 -19.5q30 -19.5 51 -47.5l1 0l20 56h66q-8 -17 -15 -43q-7 -26 -11 -49l-58 -362h72l-7 -36h-32q-28 0 -56.5 -2.5q-28.5 -2.5 -55.5 -8.5l23 128h-2q-11 -19 -28 -41q-17 -22 -39 -41.5q-22 -19.5 -49.5 -32.5q-27.5 -13 -59.5 -13q-32 0 -56 13.5q-24 13.5 -39.5 37.5q-15.5 24 -23 56.5q-7.5 32.5 -7.5 70.5zt0 0zM428 392q-14 20 -38 39q-24 19 -65 19q-36 0 -67 -18.5q-31 -18.5 -53.5 -54q-22.5 -35.5 -35.5 -87.5q-13 -52 -13 -118q0 -24 4.5 -46.5q4.5 -22.5 14.5 -40q10 -17.5 26 -28q16 -10.5 40 -10.5q33 0 60.5 17.5q27.5 17.5 48 42q20.5 24.5 33.5 51.5q13 27 16 47z" />
<glyph unicode="&#98;" horiz-adv-x="526" d="M90 0q7 17 14 43q7 26 11 49l96 601h-71l5 36h32q29 0 59.5 2.5q30.5 2.5 53.5 8.5l-39 -247q-5 -30 -10.5 -60q-5.5 -30 -11.5 -60l2 0q11 19 27.5 41q16.5 22 38.5 41.5q22 19.5 49.5 32.5q27.5 13 60.5 13q32 0 55.5 -13.5q23.5 -13.5 39.5 -37.5q16 -24 23.5 -57q7.5 -33 7.5 -71q0 -69 -17 -130q-17 -61 -48 -106q-31 -45 -74.5 -71q-43.5 -26 -95.5 -26q-42 0 -71.5 19.5q-29.5 19.5 -50.5 47.5l-27 -56zM459 317q0 24 -4.5 46.5q-4.5 22.5 -14.5 40.5q-10 18 -26.5 28.5q-16.5 10.5 -40.5 10.5q-33 0 -60.5 -17.5q-27.5 -17.5 -47.5 -42q-20 -24.5 -33 -52q-13 -27.5 -16 -46.5q0 0 -2 -14q-2 -14 -5.5 -34.5q-3.5 -20.5 -7 -45q-3.5 -24.5 -7 -45q-3.5 -20.5 -6 -34.5q-2.5 -14 -2.5 -14q14 -20 38.5 -39q24.5 -19 65.5 -19q36 0 67 18.5q31 18.5 53.5 54q22.5 35.5 35.5 87t13 117.5z" />
<glyph unicode="&#99;" horiz-adv-x="426" d="M80 184q0 75 19.5 134q19.5 59 53 99.5q33.5 40.5 78 62q44.5 21.5 94.5 21.5q54 0 88 -22q34 -22 49 -47v-85h-72l3 17q1 6 1.5 12.5q0.5 6.5 0.5 13.5q0 21 -6.5 35.5q-6.5 14.5 -16.5 23.5q-10 9 -23.5 12.5q-13.5 3.5 -26.5 3.5q-42 0 -74 -25.5q-32 -25.5 -53 -66q-21 -40.5 -31.5 -89.5q-10.5 -49 -10.5 -97q0 -29 6 -57q6 -28 19 -49.5q13 -21.5 34 -34.5q21 -13 51 -13q39 0 70 19q31 19 57 51l26 -22q-13 -17 -30.5 -33.5q-17.5 -16.5 -39 -29.5q-21.5 -13 -46.5 -21q-25 -8 -52 -8q-35 0 -65.5 12q-30.5 12 -53.5 36q-23 24 -36 60.5t-13 86.5z" />
<glyph unicode="&#100;" horiz-adv-x="520" d="M82 167q0 70 17 131q17 61 47.5 106q30.5 45 73.5 71q43 26 95 26q42 0 72 -20q30 -20 48 -44l1 0q3 19 6 37.5q3 18.5 5 35.5l29 183h-71l6 36h31q29 0 59.5 2.5q30.5 2.5 53.5 8.5l-112 -704h71l-7 -36h-32q-28 0 -56.5 -2.5q-28.5 -2.5 -55.5 -8.5l23 128h-2q-11 -19 -28 -41q-17 -22 -39 -41.5q-22 -19.5 -49.5 -32.5q-27.5 -13 -59.5 -13q-32 0 -56 13.5q-24 13.5 -39.5 37.5q-15.5 24 -23 56.5q-7.5 32.5 -7.5 70.5zt0 0zM428 392q-14 20 -38 39q-24 19 -65 19q-36 0 -67 -18.5q-31 -18.5 -53.5 -54q-22.5 -35.5 -35.5 -87q-13 -51.5 -13 -117.5q0 -24 4.5 -46.5q4.5 -22.5 14.5 -40.5q10 -18 26 -28.5q16 -10.5 40 -10.5q33 0 60.5 17.5q27.5 17.5 48 42q20.5 24.5 33.5 51.5q13 27 16 47z" />
<glyph unicode="&#101;" horiz-adv-x="440" d="M79 179q0 56 14 113q14 57 45 103.5q31 46.5 80.5 76q49.5 29.5 120.5 29.5q38 0 63 -9.5q25 -9.5 40 -24.5q15 -15 21 -32.5q6 -17.5 6 -33.5q0 -52 -28.5 -86.5q-28.5 -34.5 -73.5 -56.5q-45 -22 -101.5 -34q-56.5 -12 -112.5 -19q-1 -2 -1 -13q0 -29 4.5 -57q4.5 -28 17 -51q12.5 -23 34 -37q21.5 -14 55.5 -14q38 0 69.5 17q31.5 17 63.5 58l27 -21q-31 -39 -76 -68.5q-45 -29.5 -105 -29.5q-30 0 -59.5 10.5q-29.5 10.5 -52.5 33.5q-23 23 -37 59q-14 36 -14 87zt0 0zM399 393q0 12 -3 25q-3 13 -10.5 23.5q-7.5 10.5 -21 17q-13.5 6.5 -35.5 6.5q-29 0 -56.5 -13.5q-27.5 -13.5 -51 -41.5q-23.5 -28 -41 -70q-17.5 -42 -25.5 -100q74 7 121.5 23q47.5 16 74.5 37q27 21 37.5 45t10.5 48z" />
<glyph unicode="&#102;" horiz-adv-x="329" d="M23 -199q29 0 45 22q16 22 24 73l88 557h-78l6 37h79l8 51q17 100 65 149.5q48 49.5 118 49.5q31 0 53.5 -8q22.5 -8 42.5 -24l-13 -76h-53l4 18q1 4 1.5 7.5q0.5 3.5 0.5 8.5q0 38 -44 38q-79 0 -103 -154l-9 -60h127l-7 -37h-126l-79 -492q-17 -106 -63 -159q-46 -53 -127 -63l11 62z" />
<glyph unicode="&#103;" horiz-adv-x="473" d="M27 -149q0 38 18 63q18 25 52 52l43 -12q-24 -30 -32.5 -48.5q-8.5 -18.5 -8.5 -38.5q0 -41 35 -64q35 -23 96 -23q36 0 67.5 9q31.5 9 55 25q23.5 16 37.5 38q14 22 14 48q0 12 -4.5 25q-4.5 13 -18 23.5q-13.5 10.5 -37 18.5q-23.5 8 -60.5 11l-61 5q-28 2 -51.5 7q-23.5 5 -41 14q-17.5 9 -27.5 22q-10 13 -10 32q0 34 22 59q22 25 62 55q-20 15 -36 45q-16 30 -16 77q0 46 14.5 84.5q14.5 38.5 40.5 65.5q26 27 61 42q35 15 77 15q23 0 53 -8q30 -8 53 -34q23 23 41.5 50.5q18.5 27.5 29.5 50.5l42 -26q-20 -30 -42 -53q-22 -23 -50 -45q9 -16 14.5 -36.5q5.5 -20.5 5.5 -45.5q0 -39 -13 -76.5q-13 -37.5 -37.5 -67.5q-24.5 -30 -60.5 -48.5q-36 -18.5 -82 -18.5q-17 0 -36 4q-19 4 -30 10q-18 -16 -31.5 -31.5q-13.5 -15.5 -13.5 -35.5q0 -8 3 -15.5q3 -7.5 12 -13.5q9 -6 25 -10q16 -4 42 -6l66 -5q43 -3 70 -14q27 -11 42.5 -27q15.5 -16 21.5 -36q6 -20 6 -41q0 -41 -19 -75q-19 -34 -51.5 -58q-32.5 -24 -76.5 -37q-44 -13 -94 -13q-53 0 -88 11q-35 11 -55.5 27.5q-20.5 16.5 -29 36.5q-8.5 20 -8.5 37zt0 0zM390 357q0 33 -8 54q-8 21 -19.5 33q-11.5 12 -25 16.5q-13.5 4.5 -25.5 4.5q-20 0 -40 -9.5q-20 -9.5 -36.5 -30q-16.5 -20.5 -26.5 -53q-10 -32.5 -10 -78.5q0 -51 20.5 -83q20.5 -32 58.5 -32q29 0 50 15q21 15 35 40q14 25 20.5 57t6.5 66z" />
<glyph unicode="&#104;" horiz-adv-x="536" d="M434 313q2 15 4 32q2 17 2 30q0 29 -14 48.5q-14 19.5 -45 19.5q-29 0 -57 -17.5q-28 -17.5 -51 -44q-23 -26.5 -39 -58q-16 -31.5 -20 -58.5l-42 -265h-82q8 17 15.5 43q7.5 26 10.5 49l97 601h-72l6 36h31q29 0 60 2.5q31 2.5 54 8.5l-46 -280q-5 -26 -9 -50q-4 -24 -9 -53l2 0q17 28 37.5 54q20.5 26 44.5 46q24 20 50.5 32q26.5 12 55.5 12q25 0 43.5 -8q18.5 -8 30.5 -22q12 -14 17.5 -32.5q5.5 -18.5 5.5 -39.5q0 -23 -2 -38q-2 -15 -4 -27l-52 -298h72l-7 -36h-32q-28 0 -58.5 -2.5q-30.5 -2.5 -53.5 -8.5l56 324z" />
<glyph unicode="&#105;" horiz-adv-x="256" d="M102 454l6 36h32q28 0 59 2.5q31 2.5 54 8.5l-75 -465h71l-7 -36h-31q-28 0 -58.5 -2.5q-30.5 -2.5 -53.5 -8.5l75 465zM174 638q0 18 13.5 32.5q13.5 14.5 36.5 14.5q22 0 34.5 -14.5q12.5 -14.5 12.5 -33.5q0 -20 -13.5 -34.5q-13.5 -14.5 -36.5 -14.5q-22 0 -34.5 15t-12.5 35z" />
<glyph unicode="&#106;" horiz-adv-x="245" d="M15 -199q29 0 45.5 22q16.5 22 24.5 73l89 558h-72l6 36h31q29 0 59.5 2.5q30.5 2.5 54.5 8.5l-87 -540q-17 -106 -63 -159q-46 -53 -127 -63l10 62zM174 638q0 18 13.5 32.5q13.5 14.5 36.5 14.5q22 0 34.5 -14.5q12.5 -14.5 12.5 -33.5q0 -20 -13.5 -34.5q-13.5 -14.5 -36.5 -14.5q-22 0 -34.5 15t-12.5 35z" />
<glyph unicode="&#107;" horiz-adv-x="503" d="M211 246l-39 -246h-82q8 17 15.5 43q7.5 26 10.5 49l97 601h-72l6 36h31q29 0 60 2.5q31 2.5 54 8.5l-74 -455h64l118 111q15 14 30.5 31q15.5 17 23.5 27l-69 0l5 36h37q9 0 23.5 0.5q14.5 0.5 30.5 2q16 1.5 32 3.5q16 2 28 5l0 -28l-212 -200l111 -237h70l-6 -36h-14q-28 0 -57 -2.5q-29 -2.5 -52 -8.5l-115 257z" />
<glyph unicode="&#108;" horiz-adv-x="256" d="M141 693l6 36h32q29 0 59 2.5q30 2.5 54 8.5l-113 -704h71l-7 -36h-32q-28 0 -58.5 -2.5q-30.5 -2.5 -53.5 -8.5l113 704z" />
<glyph unicode="&#109;" horiz-adv-x="788" d="M686 313q3 15 4.5 32.5q1.5 17.5 1.5 31.5q0 28 -11 47q-11 19 -41 19q-28 0 -54.5 -17.5q-26.5 -17.5 -48 -44.5q-21.5 -27 -36.5 -58q-15 -31 -19 -58l-44 -265h-81q7 17 14 43q7 26 11 49l37 221q2 14 4.5 31q2.5 17 2.5 33q0 28 -11.5 47q-11.5 19 -41.5 19q-29 0 -56 -18q-27 -18 -48.5 -44.5q-21.5 -26.5 -36 -57.5q-14.5 -31 -18.5 -58l-42 -265h-82q8 17 15.5 43q7.5 26 10.5 49l58 362h-71l6 36h36q27 0 55.5 2.5q28.5 2.5 51.5 8.5l-24 -144h2q17 28 36.5 54q19.5 26 41.5 46q22 20 47 32q25 12 54 12q26 0 43.5 -8.5q17.5 -8.5 28 -22.5q10.5 -14 15 -33q4.5 -19 4.5 -40q0 -5 -1 -18.5q-1 -13.5 -1 -18.5l2 0q17 27 36 52.5q19 25.5 40.5 45q21.5 19.5 46.5 31.5q25 12 53 12q25 0 42.5 -8q17.5 -8 28.5 -22q11 -14 15.5 -32q4.5 -18 4.5 -39q0 -23 -1.5 -38.5q-1.5 -15.5 -3.5 -27.5l-51 -298h71l-7 -36h-32q-28 0 -58.5 -2.5q-30.5 -2.5 -54.5 -8.5l56 324z" />
<glyph unicode="&#110;" horiz-adv-x="536" d="M434 313q2 15 4 32q2 17 2 30q0 29 -14 48.5q-14 19.5 -45 19.5q-29 0 -57 -17.5q-28 -17.5 -51 -44q-23 -26.5 -39 -58q-16 -31.5 -20 -58.5l-42 -265h-82q8 17 15.5 43q7.5 26 10.5 49l58 362h-71l6 36h31q28 0 58.5 2.5q30.5 2.5 53.5 8.5l-24 -144h2q17 28 37.5 54q20.5 26 44.5 46q24 20 50.5 32q26.5 12 55.5 12q25 0 43.5 -8q18.5 -8 30.5 -22q12 -14 17.5 -32.5q5.5 -18.5 5.5 -39.5q0 -23 -2 -38q-2 -15 -4 -27l-52 -298h72l-7 -36h-32q-28 0 -58.5 -2.5q-30.5 -2.5 -53.5 -8.5l56 324z" />
<glyph unicode="&#111;" horiz-adv-x="493" d="M80 194q0 70 18.5 127q18.5 57 51 97q32.5 40 76.5 61.5q44 21.5 95 21.5q82 0 131.5 -54q49.5 -54 49.5 -152q0 -71 -18.5 -127.5q-18.5 -56.5 -51 -96q-32.5 -39.5 -76 -61q-43.5 -21.5 -93.5 -21.5q-85 0 -134 54q-49 54 -49 151zt0 0zM428 297q0 30 -5.5 60q-5.5 30 -18 54q-12.5 24 -33.5 39q-21 15 -52 15q-45 0 -76.5 -29q-31.5 -29 -51 -71q-19.5 -42 -28.5 -89q-9 -47 -9 -83q0 -30 5.5 -60q5.5 -30 18 -54q12.5 -24 33.5 -39q21 -15 53 -15q44 0 75.5 28.5q31.5 28.5 51 70.5q19.5 42 28.5 89t9 84z" />
<glyph unicode="&#112;" horiz-adv-x="526" d="M173 454h-71l7 36h31q28 0 57 2.5q29 2.5 55 8.5l-22 -128h1q11 19 28 41q17 22 39 41.5q22 19.5 49.5 32.5q27.5 13 60.5 13q32 0 56 -13.5q24 -13.5 39.5 -37.5q15.5 -24 23 -57q7.5 -33 7.5 -72q0 -69 -17.5 -129.5q-17.5 -60.5 -48.5 -105.5q-31 -45 -74 -71q-43 -26 -95 -26q-42 0 -72 20q-30 20 -47 44l-2 0q-2 -20 -4.5 -37q-2.5 -17 -4.5 -31l-37 -235h-82q8 17 15 43q7 26 11 49zM459 312q0 26 -4.5 49.5q-4.5 23.5 -14.5 41.5q-10 18 -26.5 29q-16.5 11 -40.5 11q-33 0 -60.5 -17.5q-27.5 -17.5 -48 -42q-20.5 -24.5 -32.5 -52q-12 -27.5 -15 -46.5l-31 -187q14 -20 39 -39q25 -19 66 -19q36 0 66.5 18q30.5 18 53 53q22.5 35 35.5 85.5t13 115.5z" />
<glyph unicode="&#113;" horiz-adv-x="510" d="M364 -3q5 30 10.5 60q5.5 30 10.5 60l-1 0q-11 -19 -27.5 -41q-16.5 -22 -39 -41.5q-22.5 -19.5 -50 -32.5q-27.5 -13 -59.5 -13q-32 0 -56 13.5q-24 13.5 -39.5 37.5q-15.5 24 -23 56.5q-7.5 32.5 -7.5 70.5q0 70 17 131q17 61 48 106q31 45 74.5 71q43.5 26 96.5 26q42 0 71 -19.5q29 -19.5 50 -47.5l1 0l20 56h66q-8 -17 -15.5 -43q-7.5 -26 -10.5 -49l-104 -648h-82q8 17 15 43q7 26 11 49zM428 392q-14 20 -38 39q-24 19 -65 19q-36 0 -67 -18.5q-31 -18.5 -53.5 -54q-22.5 -35.5 -35.5 -87.5q-13 -52 -13 -118q0 -24 4.5 -46.5q4.5 -22.5 14.5 -40q10 -17.5 26 -28q16 -10.5 40 -10.5q33 0 60.5 17.5q27.5 17.5 48 42q20.5 24.5 33.5 51.5q13 27 16 47z" />
<glyph unicode="&#114;" horiz-adv-x="367" d="M174 454h-71l6 36h31q28 0 58.5 2.5q30.5 2.5 53.5 8.5l-25 -147h1q19 30 37.5 56.5q18.5 26.5 39.5 46.5q21 20 45 32q24 12 54 12l-14 -82h-32q-28 0 -52 -14.5q-24 -14.5 -43 -38q-19 -23.5 -32 -52.5q-13 -29 -18 -58l-41 -256h-82q8 17 15.5 43q7.5 26 10.5 49z" />
<glyph unicode="&#115;" horiz-adv-x="440" d="M88 136h57l-4 -20q-2 -5 -2 -8.5q0 -3.5 0 -9.5q0 -20 8.5 -33.5q8.5 -13.5 22.5 -22.5q14 -9 33 -13q19 -4 39 -4q59 0 87 30q28 30 28 69q0 31 -18.5 51q-18.5 20 -65.5 37l-47 17q-53 20 -77.5 49.5q-24.5 29.5 -24.5 74.5q0 30 11.5 57q11.5 27 33.5 47q22 20 55 32q33 12 76 12q26 0 49 -6q23 -6 41 -15q18 -9 31 -19.5q13 -10.5 20 -19.5l-12 -78h-57l4 19q1 5 1 9q0 4 0 9q0 34 -25 49.5q-25 15.5 -60 15.5q-29 0 -48.5 -9q-19.5 -9 -31.5 -23q-12 -14 -17 -31q-5 -17 -5 -33q0 -54 68 -80l49 -18q63 -23 90 -51q27 -28 27 -75q0 -31 -13 -59.5q-13 -28.5 -38 -50q-25 -21.5 -60 -34q-35 -12.5 -78 -12.5q-54 0 -95.5 21q-41.5 21 -63.5 49z" />
<glyph unicode="&#116;" horiz-adv-x="351" d="M125 90q0 10 1 20q1 10 4 28l50 315h-78l5 30q61 5 94 40.5q33 35.5 54 105.5l26 0l-23 -139h130l-7 -37h-129l-50 -315q-4 -23 -4 -43q0 -61 50 -61q23 0 43.5 12.5q20.5 12.5 38.5 32.5l21 -23q-24 -28 -57.5 -47.5q-33.5 -19.5 -69.5 -19.5q-45 0 -72 23t-27 78z" />
<glyph unicode="&#117;" horiz-adv-x="536" d="M117 91q0 22 2 37q2 15 4 28l50 298h-70l7 36h31q28 0 58.5 2.5q30.5 2.5 53.5 8.5l-55 -324q-2 -14 -4.5 -30.5q-2.5 -16.5 -2.5 -31.5q0 -29 14 -48.5q14 -19.5 45 -19.5q29 0 57 17.5q28 17.5 51 44q23 26.5 38.5 58q15.5 31.5 19.5 58.5l43 265h82q-8 -17 -15 -43q-7 -26 -11 -49l-58 -362h72l-7 -36h-32q-28 0 -58 -2.5q-30 -2.5 -53 -8.5l25 144h-2q-17 -28 -38 -54q-21 -26 -45 -46q-24 -20 -51 -32q-27 -12 -55 -12q-26 0 -44 8q-18 8 -29.5 22q-11.5 14 -17 32.5t-5.5 39.5z" />
<glyph unicode="&#118;" horiz-adv-x="497" d="M70 454l7 36h14q29 0 60 3q31 3 54 8l64 -368q2 -14 5 -32.5q3 -18.5 5 -41.5l4 0q23 30 50.5 77q27.5 47 53.5 101.5q26 54.5 47 111q21 56.5 31 105.5l-75 0l6 36h30q18 0 45 2.5q27 2.5 52 8.5l-1 -28q-16 -59 -41.5 -125q-25.5 -66 -57.5 -130q-32 -64 -68 -121.5q-36 -57.5 -72 -97.5l-59 0l-85 455z" />
<glyph unicode="&#119;" horiz-adv-x="718" d="M75 454l7 36h14q29 0 61 3q32 3 55 8l26 -352q1 -8 1.5 -19.5q0.5 -11.5 0.5 -24q0 -12.5 -0.5 -23.5q-0.5 -11 -0.5 -18l4 0q46 74 88.5 181q42.5 107 75.5 245l66 0l37 -341q2 -17 3 -38.5q1 -21.5 2 -50.5l5 0q21 31 45 75q24 44 45.5 96q21.5 52 39.5 109q18 57 28 114l-72 0l6 36h30q18 0 45 2.5q27 2.5 52 8.5l-1 -28q-38 -148 -92 -264q-54 -116 -124 -210l-59 0l-35 311q-2 17 -3 37.5q-1 20.5 -3 40.5l-3 0q-13 -51 -31.5 -103q-18.5 -52 -41 -102q-22.5 -50 -48.5 -97q-26 -47 -54 -87l-60 0l-39 455z" />
<glyph unicode="&#120;" horiz-adv-x="493" d="M257 252l-86 202h-68l5 36h15q28 0 56 3q28 3 51 8l71 -178q3 -7 5.5 -15q2.5 -8 6.5 -17l2 0q5 8 11 15.5q6 7.5 14 17.5l51 69q15 20 24 33.5q9 13.5 16 27.5l-63 0l5 36h36q19 0 48.5 2.5q29.5 2.5 54.5 8.5l-1 -29l-175 -216l94 -220h69l-7 -36h-14q-29 0 -56 -2.5q-27 -2.5 -50 -8.5l-78 194q-3 8 -6.5 17q-3.5 9 -5.5 17l-2 0q-7 -9 -13 -17q-6 -8 -14 -19l-66 -85q-17 -20 -26 -34.5q-9 -14.5 -16 -25.5l64 0l-7 -36h-31q-19 0 -50.5 -2.5q-31.5 -2.5 -56.5 -8.5l1 29z" />
<glyph unicode="&#121;" horiz-adv-x="497" d="M83 -188q11 0 30.5 10q19.5 10 43 31.5q23.5 21.5 49.5 54.5q26 33 52 80l-119 466h-69l6 36h14q29 0 60.5 3q31.5 3 54.5 8l86 -358q4 -14 8 -36q4 -22 8 -46l3 0q19 31 42 78q23 47 45 100.5q22 53.5 39.5 109.5q17.5 56 25.5 105l-72 0l5 36h30q18 0 45 2.5q27 2.5 53 8.5l-2 -28q-14 -54 -39 -127q-25 -73 -60.5 -152q-35.5 -79 -79.5 -157.5q-44 -78.5 -96 -142q-52 -63.5 -110.5 -106q-58.5 -42.5 -121.5 -49.5l14 73z" />
<glyph unicode="&#122;" horiz-adv-x="436" d="M330 389q10 13 23.5 30.5q13.5 17.5 23.5 30.5l1 3h-139q-20 0 -39 -13.5q-19 -13.5 -25 -48.5l-6 -37h-39l22 136h327l-3 -14l-276 -372q-11 -14 -25 -32.5q-14 -18.5 -25 -31.5l0 -3h164q20 0 38.5 13.5q18.5 13.5 23.5 48.5l7 39h39l-23 -138h-349l2 15z" />
<glyph unicode="&#123;" horiz-adv-x="383" d="M152 -83q0 14 0.5 23q0.5 9 1.5 17l28 192q1 8 1.5 15q0.5 7 0.5 15q0 15 -3 29.5q-3 14.5 -10 25.5q-7 11 -19 18q-12 7 -30 7h-22l8 52h21q23 0 39 10.5q16 10.5 26.5 27q10.5 16.5 16.5 35.5q6 19 9 37l26 192q4 25 13 53.5q9 28.5 30 53q21 24.5 57 41.5q36 17 93 19l-6 -40q-33 -3 -54 -14q-21 -11 -33.5 -27.5q-12.5 -16.5 -18 -37q-5.5 -20.5 -8.5 -42.5l-26 -189q-3 -23 -9.5 -45.5q-6.5 -22.5 -19 -42q-12.5 -19.5 -32.5 -34q-20 -14.5 -50 -21.5l-1 -4q44 -11 58.5 -39.5q14.5 -28.5 14.5 -63.5q0 -9 -0.5 -20.5q-0.5 -11.5 -1.5 -19.5l-27 -189q-3 -20 -3 -39q0 -32 16.5 -54.5q16.5 -22.5 66.5 -27.5l-5 -40q-47 1 -76 14q-29 13 -45 31.5q-16 18.5 -21.5 40.5t-5.5 41z" />
<glyph unicode="&#124;" horiz-adv-x="279" d="M284 780l-139 -990h-68l139 990z" />
<glyph unicode="&#125;" horiz-adv-x="383" d="M31 -170q34 3 55 14q21 11 33 27.5q12 16.5 17.5 37q5.5 20.5 8.5 42.5l27 189q3 23 9.5 45.5q6.5 22.5 19 42q12.5 19.5 32 34q19.5 14.5 49.5 21.5l1 4q-22 6 -36 16q-14 10 -22.5 23.5q-8.5 13.5 -11.5 29.5q-3 16 -3 34q0 9 0.5 20.5q0.5 11.5 2.5 19.5l26 189q3 19 3 39q0 16 -3.5 29.5q-3.5 13.5 -13 24.5q-9.5 11 -25.5 18q-16 7 -41 10l5 40q47 -1 76 -14q29 -13 45.5 -31.5q16.5 -18.5 22 -40.5q5.5 -22 5.5 -41q0 -14 -0.5 -23q-0.5 -9 -2.5 -17l-27 -192q-3 -15 -3 -30q0 -15 3 -29.5q3 -14.5 10 -25.5q7 -11 19.5 -18q12.5 -7 30.5 -7h21l-8 -52h-21q-23 0 -39 -10.5q-16 -10.5 -26.5 -27q-10.5 -16.5 -16.5 -35.5q-6 -19 -9 -37l-26 -192q-3 -25 -12.5 -53.5q-9.5 -28.5 -30.5 -53.5q-21 -25 -57 -42q-36 -17 -93 -18l6 40z" />
<glyph unicode="&#126;" horiz-adv-x="633" d="M134 325q27 35 64 56q37 21 79 21q35 0 62 -9.5q27 -9.5 44 -15.5q25 -9 43.5 -14q18.5 -5 40.5 -5q29 0 58.5 10.5q29.5 10.5 48.5 32.5l32 -25q-28 -35 -64 -56q-36 -21 -79 -21q-35 0 -62 9.5q-27 9.5 -44 15.5q-26 9 -44.5 14.5q-18.5 5.5 -39.5 5.5q-29 0 -58.5 -11.5q-29.5 -11.5 -49.5 -33.5l-31 26z" />
<glyph unicode="&#160;" horiz-adv-x="295" />
<glyph unicode="&#161;" horiz-adv-x="329" d="M264 451q0 -23 -14.5 -37.5q-14.5 -14.5 -36.5 -14.5q-23 0 -37 14.5q-14 14.5 -14 37.5q0 20 14.5 35q14.5 15 36.5 15q22 0 36.5 -15q14.5 -15 14.5 -35zt0 0zM171 -192q-2 -12 -16.5 -20.5q-14.5 -8.5 -31.5 -8.5q-17 0 -30 8.5q-13 8.5 -13 20.5l94 498l42 0z" />
<glyph unicode="&#162;" horiz-adv-x="509" d="M255 -8q-34 4 -63 18q-29 14 -50.5 38.5q-21.5 24.5 -33.5 60q-12 35.5 -12 83.5q0 69 18 123q18 54 49 93q31 39 73 62q42 23 91 29l13 95h43l-13 -94q52 -3 86.5 -24q34.5 -21 51.5 -45l-13 -84h-59l3 17q1 6 1.5 11.5q0.5 5.5 0.5 11.5q0 20 -6.5 34.5q-6.5 14.5 -17 23.5q-10.5 9 -24.5 13.5q-14 4.5 -28 5.5l-61 -432q46 0 80 20.5q34 20.5 63 54.5l23 -26q-14 -17 -32 -33q-18 -16 -40 -29q-22 -13 -47 -21q-25 -8 -53 -9l-13 -93h-43zM321 461q-38 -8 -66.5 -34.5q-28.5 -26.5 -47.5 -63q-19 -36.5 -28 -80.5q-9 -44 -9 -87q0 -26 5 -51.5q5 -25.5 16 -47q11 -21.5 28.5 -37.5q17.5 -16 42.5 -23z" />
<glyph unicode="&#163;" horiz-adv-x="548" d="M35 41q43 4 73.5 31.5q30.5 27.5 50 69q19.5 41.5 29.5 90.5q10 49 13 95l-90 0l7 43h83q0 10 -0.5 21q-0.5 11 -0.5 21q0 141 62.5 220q62.5 79 178.5 79q54 0 94.5 -20q40.5 -20 59.5 -51l-17 -104h-62l6 37q1 6 1.5 11q0.5 5 0.5 12q0 40 -25 57q-25 17 -66 17q-51 0 -82 -26.5q-31 -26.5 -47.5 -66q-16.5 -39.5 -21.5 -86q-5 -46.5 -5 -85.5q0 -8 0 -18q0 -10 1 -18l170 0l-8 -43h-161q-5 -86 -41.5 -161q-36.5 -75 -98.5 -120l0 -2h254q14 0 27 2.5q13 2.5 23.5 11q10.5 8.5 18.5 24.5q8 16 13 43l8 47h41l-27 -172h-470l8 41z" />
<glyph unicode="&#164;" horiz-adv-x="613" d="M179 200q-17 22 -33.5 58q-16.5 36 -16.5 85q0 52 16 87.5q16 35.5 34 56.5l-81 82l37 38l82 -82q22 18 58 34q36 16 85 16q53 0 88.5 -16.5q35.5 -16.5 55.5 -33.5l81 81l37 -39l-80 -80q18 -22 34 -57.5q16 -35.5 16 -86.5q0 -49 -16 -85q-16 -36 -34 -58l80 -80l-37 -38l-80 81q-23 -18 -59 -34.5q-36 -16.5 -86 -16.5q-51 0 -87 16.5q-36 16.5 -56 34.5l-82 -82l-37 38zM535 343q0 36 -14 68q-14 32 -37.5 55.5q-23.5 23.5 -55.5 37.5q-32 14 -68 14q-35 0 -66.5 -14q-31.5 -14 -55.5 -38q-24 -24 -38 -55.5q-14 -31.5 -14 -67.5q0 -36 14 -67.5q14 -31.5 37.5 -55.5q23.5 -24 55 -38q31.5 -14 67.5 -14q36 0 68 14q32 14 55.5 38q23.5 24 37.5 56t14 67z" />
<glyph unicode="&#165;" horiz-adv-x="590" d="M229 41q20 0 28.5 13.5q8.5 13.5 12.5 39.5l9 57h-123l6 43h124l10 67h-123l7 43h103l-93 355h-70l8 41h233l-8 -41h-38q-19 0 -26 -9.5q-7 -9.5 -7 -23.5q0 -8 1.5 -16.5q1.5 -8.5 3.5 -15.5l53 -222q2 -11 5.5 -28q3.5 -17 5.5 -31l4 0q7 15 16.5 31q9.5 16 16.5 29l132 225q6 10 11.5 20.5q5.5 10.5 5.5 18.5q0 9 -4.5 15.5q-4.5 6.5 -18.5 6.5h-33l7 41h198l-8 -41h-23q-22 0 -42.5 -16.5q-20.5 -16.5 -37.5 -43.5l-176 -295h103l-7 -43h-124l-11 -67h124l-6 -43h-124l-18 -110h80l-7 -41h-233l7 41z" />
<glyph unicode="&#166;" horiz-adv-x="279" d="M202 198l-57 -408h-68l57 408zM284 780l-57 -408h-68l57 408z" />
<glyph unicode="&#167;" horiz-adv-x="479" d="M64 -104h58l-3 -19q0 -5 -0.5 -9.5q-0.5 -4.5 -0.5 -9.5q0 -42 25 -60q25 -18 60 -18q51 0 82 32q31 32 31 86q0 42 -25.5 68.5q-25.5 26.5 -60.5 52.5l-67 51q-32 24 -56.5 60q-24.5 36 -24.5 87q0 36 10 64q10 28 28 52q18 24 44 45q26 21 58 44q-23 23 -35 51.5q-12 28.5 -12 64.5q0 49 17 82q17 33 44 53q27 20 60.5 29q33.5 9 66.5 9q28 0 52.5 -6.5q24.5 -6.5 43.5 -16.5q19 -10 33 -22.5q14 -12.5 22 -25.5l-14 -86h-59l2 16q1 7 1.5 12.5q0.5 5.5 0.5 10.5q0 21 -7.5 36q-7.5 15 -19.5 24q-12 9 -28 13q-16 4 -33 4q-28 0 -48.5 -11q-20.5 -11 -34.5 -28.5q-14 -17.5 -21 -38.5q-7 -21 -7 -41q0 -35 18 -60.5q18 -25.5 62 -54.5l57 -38q19 -12 36 -28q17 -16 30.5 -35.5q13.5 -19.5 21.5 -43.5q8 -24 8 -52q0 -34 -11.5 -63.5q-11.5 -29.5 -31 -55q-19.5 -25.5 -44 -48.5q-24.5 -23 -49.5 -45q24 -26 34 -53.5q10 -27.5 10 -59.5q0 -37 -13 -69q-13 -32 -37.5 -55.5q-24.5 -23.5 -59.5 -37q-35 -13.5 -79 -13.5q-57 0 -95 22.5q-38 22.5 -53 48.5zM405 221q0 22 -5.5 38.5q-5.5 16.5 -14 30q-8.5 13.5 -19.5 24.5q-11 11 -23 21q-17 14 -40.5 30.5q-23.5 16.5 -46.5 31.5q-47 -33 -74 -69.5q-27 -36.5 -27 -94.5q0 -43 20 -70.5q20 -27.5 46 -47.5q20 -17 45 -35.5q25 -18.5 45 -32.5q24 24 42 45.5q18 21.5 29.5 41.5q11.5 20 17 41.5t5.5 45.5z" />
<glyph unicode="&#168;" horiz-adv-x="493" d="M222 630q0 17 13.5 31q13.5 14 33.5 14q20 0 32.5 -14q12.5 -14 12.5 -31q0 -19 -13.5 -32.5q-13.5 -13.5 -34.5 -13.5q-20 0 -32 14q-12 14 -12 32zt0 0zM387 630q0 17 13 31q13 14 33 14q20 0 32.5 -14q12.5 -14 12.5 -31q0 -19 -13 -32.5q-13 -13.5 -34 -13.5q-20 0 -32 14t-12 32z" />
<glyph unicode="&#169;" horiz-adv-x="857" d="M314 348q0 91 49.5 145q49.5 54 136.5 54q45 0 79 -14q34 -14 57 -36l0 -69h-53v13q0 22 -7.5 36q-7.5 14 -19.5 21.5q-12 7.5 -26 10q-14 2.5 -26 2.5q-30 0 -51.5 -14q-21.5 -14 -35 -37q-13.5 -23 -19.5 -52.5q-6 -29.5 -6 -59.5q0 -71 26.5 -114.5q26.5 -43.5 83.5 -43.5q13 0 27 2q14 2 26 9q12 7 20 18.5q8 11.5 8 31.5v13h53v-65q-22 -19 -59 -32q-37 -13 -79 -13q-41 0 -74.5 11q-33.5 11 -58 35q-24.5 24 -38 60.5q-13.5 36.5 -13.5 87.5zt0 0zM124 350q0 75 28.5 141q28.5 66 77 114.5q48.5 48.5 114.5 77q66 28.5 141 28.5q75 0 141 -28.5q66 -28.5 114.5 -77q48.5 -48.5 77 -114.5q28.5 -66 28.5 -141q0 -75 -28.5 -141q-28.5 -66 -77 -114.5q-48.5 -48.5 -114.5 -77q-66 -28.5 -141 -28.5q-75 0 -141 28.5q-66 28.5 -114.5 77q-48.5 48.5 -77 114.5q-28.5 66 -28.5 141zt0 0zM797 349q0 64 -24.5 121q-24.5 57 -67.5 100q-43 43 -100 67.5q-57 24.5 -121 24.5q-64 0 -121 -24.5q-57 -24.5 -99.5 -67.5q-42.5 -43 -67 -100q-24.5 -57 -24.5 -121q0 -64 24.5 -120.5q24.5 -56.5 67 -99q42.5 -42.5 99.5 -67q57 -24.5 121 -24.5q64 0 121 24.5q57 24.5 100 67q43 42.5 67.5 99t24.5 120.5z" />
<glyph unicode="&#170;" horiz-adv-x="358" d="M116 491q0 46 11.5 86q11.5 40 32.5 70q21 30 49.5 47q28.5 17 63.5 17q26 0 44.5 -12.5q18.5 -12.5 32.5 -31.5l14 37h55q-5 -11 -10 -28.5q-5 -17.5 -8 -32.5l-38 -235h48l-5 -27h-24q-19 0 -42 -1.5q-23 -1.5 -41 -5.5l16 82h-2q-8 -12 -18 -26.5q-10 -14.5 -24 -27q-14 -12.5 -31.5 -20.5q-17.5 -8 -39.5 -8q-43 0 -63.5 33q-20.5 33 -20.5 84zt0 0zM341 635q-8 13 -21.5 24q-13.5 11 -38.5 11q-45 0 -73.5 -45.5q-28.5 -45.5 -28.5 -128.5q0 -29 12 -52.5q12 -23.5 41 -23.5q19 0 35 11q16 11 28 26.5q12 15.5 19 32.5q7 17 9 29z" />
<glyph unicode="&#171;" horiz-adv-x="470" d="M287 467l36 -27l-131 -179l81 -178l-43 -22l-115 203zM435 449l37 -26l-119 -162l74 -161l-44 -21l-104 185z" />
<glyph unicode="&#172;" horiz-adv-x="734" d="M120 366v56h564v-216h-62l0 160z" />
<glyph unicode="&#173;" horiz-adv-x="472" d="M431 293l-8 -55h-291l8 55z" />
<glyph unicode="&#174;" horiz-adv-x="857" d="M337 197q12 0 16 6q4 6 4 19v282h-44v33h191q14 0 35 -3q21 -3 40.5 -14.5q19.5 -11.5 33 -33q13.5 -21.5 13.5 -58.5q0 -38 -23 -65q-23 -27 -63 -38l88 -128h40v-33h-98l-98 151h-45v-118h41v-33h-155v33zM124 350q0 75 28.5 141q28.5 66 77 114.5q48.5 48.5 114.5 77q66 28.5 141 28.5q75 0 141 -28.5q66 -28.5 114.5 -77q48.5 -48.5 77 -114.5q28.5 -66 28.5 -141q0 -75 -28.5 -141q-28.5 -66 -77 -114.5q-48.5 -48.5 -114.5 -77q-66 -28.5 -141 -28.5q-75 0 -141 28.5q-66 28.5 -114.5 77q-48.5 48.5 -77 114.5q-28.5 66 -28.5 141zt0 0zM797 349q0 64 -24.5 121q-24.5 57 -67.5 100q-43 43 -100 67.5q-57 24.5 -121 24.5q-64 0 -121 -24.5q-57 -24.5 -99.5 -67.5q-42.5 -43 -67 -100q-24.5 -57 -24.5 -121q0 -64 24.5 -120.5q24.5 -56.5 67 -99q42.5 -42.5 99.5 -67q57 -24.5 121 -24.5q64 0 121 24.5q57 24.5 100 67q43 42.5 67.5 99q24.5 56.5 24.5 120.5zt0 0zM474 349q32 0 56 19.5q24 19.5 24 59.5q0 38 -21 56.5q-21 18.5 -52 18.5h-56l0 -154z" />
<glyph unicode="&#175;" horiz-adv-x="493" d="M470 648l-9 -49h-223l9 49z" />
<glyph unicode="&#176;" horiz-adv-x="348" d="M138 586q0 26 9.5 49q9.5 23 26.5 40q17 17 40 26.5q23 9.5 49 9.5q26 0 48.5 -9.5q22.5 -9.5 39.5 -26.5q17 -17 26.5 -40q9.5 -23 9.5 -49q0 -26 -9.5 -48.5q-9.5 -22.5 -26.5 -39.5q-17 -17 -39.5 -26.5q-22.5 -9.5 -48.5 -9.5q-26 0 -49 9.5q-23 9.5 -40 26.5q-17 17 -26.5 39.5q-9.5 22.5 -9.5 48.5zt0 0zM344 586q0 35 -25 58q-25 23 -57 23q-16 0 -30.5 -6.5q-14.5 -6.5 -25.5 -17.5q-11 -11 -17.5 -26q-6.5 -15 -6.5 -31q0 -17 6.5 -31.5q6.5 -14.5 17.5 -25q11 -10.5 25.5 -17q14.5 -6.5 30.5 -6.5q34 0 58 23.5t24 56.5z" />
<glyph unicode="&#177;" horiz-adv-x="640" d="M134 394v55h212v176h55v-176h212v-55h-212v-175h-55v175zM613 137v-55h-479l0 55z" />
<glyph unicode="&#178;" horiz-adv-x="404" d="M214 548q42 33 69.5 58q27.5 25 44 47.5q16.5 22.5 23 44q6.5 21.5 6.5 48.5q0 22 -12.5 42q-12.5 20 -45.5 20q-28 0 -50 -16q-22 -16 -27 -50l-3 -18h-44l10 69q23 19 59.5 33.5q36.5 14.5 78.5 14.5q29 0 49 -7.5q20 -7.5 32.5 -20.5q12.5 -13 18 -29q5.5 -16 5.5 -32q0 -29 -10 -52q-10 -23 -31.5 -47.5q-21.5 -24.5 -55.5 -52.5q-34 -28 -82 -67l-45 -37l-1 -2h192l-20 -51h-245l6 43z" />
<glyph unicode="&#179;" horiz-adv-x="404" d="M145 546h44l-3 -18q-5 -34 16 -48.5q21 -14.5 51 -14.5q43 0 67.5 27q24.5 27 24.5 69q0 31 -18.5 47q-18.5 16 -53.5 16h-31l4 32h30q38 0 63 25q25 25 25 67q0 28 -15 44q-15 16 -47 16q-29 0 -50.5 -15q-21.5 -15 -26.5 -49l-3 -18h-43l10 70q22 19 58 32q36 13 74 13q56 0 84.5 -24.5q28.5 -24.5 28.5 -63.5q0 -22 -9 -40.5q-9 -18.5 -23 -32.5q-14 -14 -31.5 -23q-17.5 -9 -34.5 -12l-1 -3q35 -3 57.5 -25q22.5 -22 22.5 -57q0 -28 -12 -51.5q-12 -23.5 -33.5 -40.5q-21.5 -17 -50 -26.5q-28.5 -9.5 -61.5 -9.5q-42 0 -74 12.5q-32 12.5 -49 31.5z" />
<glyph unicode="&#180;" horiz-adv-x="493" d="M487 698l-127 -130h-41l86 130z" />
<glyph unicode="&#181;" horiz-adv-x="539" d="M175 454h-71l7 36h31q29 0 59.5 2.5q30.5 2.5 53.5 8.5l-54 -322q-3 -12 -4.5 -26q-1.5 -14 -1.5 -25q0 -34 17.5 -57.5q17.5 -23.5 56.5 -23.5q29 0 54.5 18q25.5 18 45 44.5q19.5 26.5 32.5 57q13 30.5 17 55.5l44 268h81q-8 -17 -14.5 -43q-6.5 -26 -10.5 -49l-58 -362h70l-5 -36h-32q-28 0 -58 -2.5q-30 -2.5 -54 -8.5v138h22q-31 -71 -74.5 -104.5q-43.5 -33.5 -80.5 -33.5q-27 0 -45 11q-18 11 -28 28l-1 0q-2 -15 -4 -35.5q-2 -20.5 -6 -42.5l-32 -200h-82q8 17 15 43q7 26 11 49z" />
<glyph unicode="&#182;" horiz-adv-x="491" d="M270 417q-37 0 -64.5 10.5q-27.5 10.5 -45.5 28q-18 17.5 -26.5 41q-8.5 23.5 -8.5 50.5q0 23 9 50q9 27 30 50q21 23 56 38q35 15 86 15h58l-134 -950h-54zM497 700l-134 -950h-54l134 950z" />
<glyph unicode="&#183;" horiz-adv-x="210" d="M103 369q0 23 15.5 39q15.5 16 38.5 16q25 0 40 -16q15 -16 15 -39q0 -22 -15 -38q-15 -16 -40 -16q-23 0 -38.5 15.5t-15.5 38.5z" />
<glyph unicode="&#184;" horiz-adv-x="422" d="M165 -142q11 -8 23 -12.5q12 -4.5 26 -4.5q22 0 34 13.5q12 13.5 12 33.5q0 19 -13 26q-13 7 -33 7h-26l25 79h37l-16 -51q5 1 8 1.5q3 0.5 8 0.5q33 0 48.5 -15.5q15.5 -15.5 15.5 -41.5q0 -19 -8 -35q-8 -16 -21.5 -28q-13.5 -12 -31.5 -19q-18 -7 -39 -7q-22 0 -40 6.5q-18 6.5 -28 15.5z" />
<glyph unicode="&#185;" horiz-adv-x="404" d="M235 473q20 0 23 25l42 297h-88l5 30h22q37 0 72.5 5q35.5 5 58.5 11l-52 -368h48l-4 -30h-163l4 30z" />
<glyph unicode="&#186;" horiz-adv-x="358" d="M120 508q0 46 13 83.5q13 37.5 35.5 64q22.5 26.5 53.5 41q31 14.5 67 14.5q57 0 92 -35.5q35 -35.5 35 -100.5q0 -47 -13 -84q-13 -37 -35.5 -63q-22.5 -26 -52.5 -40q-30 -14 -65 -14q-60 0 -95 35q-35 35 -35 99zt0 0zM353 581q0 18 -2.5 35.5q-2.5 17.5 -9.5 31.5q-7 14 -20 23q-13 9 -33 9q-30 0 -50 -19q-20 -19 -32.5 -46q-12.5 -27 -17.5 -57.5q-5 -30.5 -5 -52.5q0 -18 3 -36q3 -18 10.5 -32q7.5 -14 21 -23q13.5 -9 33.5 -9q31 0 51 20q20 20 31.5 48q11.5 28 15.5 58t4 50z" />
<glyph unicode="&#187;" horiz-adv-x="470" d="M205 266l-74 162l44 21l104 -185l-156 -185l-38 26zM366 266l-82 179l44 22l114 -203l-171 -203l-37 27z" />
<glyph unicode="&#188;" horiz-adv-x="884" d="M644 742l46 -19l-350 -776l-46 19zM523 101l5 39l225 254h50l-34 -243h65l-19 -50h-53l-14 -101h-62l14 101zM735 326h-2l-155 -177l-1 -2h132zM220 343q20 0 23 25l42 297h-88l5 30h22q37 0 72.5 5q35.5 5 58.5 11l-52 -368h48l-4 -30h-163l4 30z" />
<glyph unicode="&#189;" horiz-adv-x="884" d="M624 742l46 -19l-350 -776l-46 19zM631 105q42 33 69.5 58q27.5 25 44 47.5q16.5 22.5 23 44q6.5 21.5 6.5 48.5q0 22 -12.5 42q-12.5 20 -45.5 20q-28 0 -50 -16q-22 -16 -27 -50l-3 -18h-44l10 69q23 19 59.5 33.5q36.5 14.5 78.5 14.5q29 0 49 -7.5q20 -7.5 32.5 -20.5q12.5 -13 18 -29q5.5 -16 5.5 -32q0 -29 -10 -52q-10 -23 -31.5 -47.5q-21.5 -24.5 -55.5 -52.5q-34 -28 -82 -67l-45 -37l-1 -2h192l-20 -51h-245l6 43zM200 343q20 0 23 25l42 297h-88l5 30h22q37 0 72.5 5q35.5 5 58.5 11l-52 -368h48l-4 -30h-163l4 30z" />
<glyph unicode="&#190;" horiz-adv-x="884" d="M664 742l46 -19l-350 -776l-46 19zM542 101l5 39l225 254h50l-34 -243h65l-19 -50h-53l-14 -101h-62l14 101zM754 326h-2l-155 -177l-1 -2h132zM145 416h44l-3 -18q-5 -34 16 -48.5q21 -14.5 51 -14.5q43 0 67.5 27q24.5 27 24.5 69q0 31 -18.5 47q-18.5 16 -53.5 16h-31l4 32h30q38 0 63 25q25 25 25 67q0 28 -15 44q-15 16 -47 16q-29 0 -50.5 -15q-21.5 -15 -26.5 -49l-3 -18h-43l10 70q22 19 58 32q36 13 74 13q56 0 84.5 -24.5q28.5 -24.5 28.5 -63.5q0 -22 -9 -40.5q-9 -18.5 -23 -32.5q-14 -14 -31.5 -23q-17.5 -9 -34.5 -12l-1 -3q35 -3 57.5 -25q22.5 -22 22.5 -57q0 -28 -12 -51.5q-12 -23.5 -33.5 -40.5q-21.5 -17 -50 -26.5q-28.5 -9.5 -61.5 -9.5q-42 0 -74 12.5q-32 12.5 -49 31.5z" />
<glyph unicode="&#191;" horiz-adv-x="509" d="M241 104q-30 -24 -52.5 -44.5q-22.5 -20.5 -37.5 -41q-15 -20.5 -22.5 -43q-7.5 -22.5 -7.5 -49.5q0 -20 7 -39q7 -19 21.5 -34q14.5 -15 37.5 -24q23 -9 56 -9q24 0 50.5 6q26.5 6 49 20q22.5 14 39 36.5q16.5 22.5 21.5 56.5l4 31h64l-15 -105q-20 -18 -46.5 -34q-26.5 -16 -56.5 -27.5q-30 -11.5 -62 -18q-32 -6.5 -64 -6.5q-52 0 -88 11.5q-36 11.5 -58 31q-22 19.5 -31.5 45.5q-9.5 26 -9.5 54q0 39 13.5 69q13.5 30 35.5 55q22 25 50.5 46.5q28.5 21.5 57.5 42.5q29 21 50.5 40.5q21.5 19.5 36.5 39q15 19.5 23.5 40.5q8.5 21 12.5 46l41 0q-4 -30 -11 -54.5q-7 -24.5 -20.5 -48q-13.5 -23.5 -35 -46q-21.5 -22.5 -53.5 -47.5zt0 0zM407 451q0 -23 -15 -37.5q-15 -14.5 -36 -14.5q-23 0 -37.5 14.5q-14.5 14.5 -14.5 37.5q0 20 14.5 35q14.5 15 37.5 15q21 0 36 -15t15 -35z" />
<glyph unicode="&#192;" horiz-adv-x="718" d="M57 41q43 0 75 64l302 595h76l126 -659h71l-7 -41h-234l8 41h39q20 0 27 11.5q7 11.5 7 26.5q0 12 -3 24l-17 101h-291l-48 -100q-6 -11 -11 -22q-5 -11 -5 -21q0 -20 22 -20h41l-6 -41h-209l7 41zM463 557q-3 14 -6.5 35.5q-3.5 21.5 -5.5 38.5l-4 0q-8 -19 -17.5 -38.5q-9.5 -19.5 -17.5 -33.5l-155 -311h264zM449 921l48 -144h-43l-95 144z" />
<glyph unicode="&#193;" horiz-adv-x="718" d="M57 41q43 0 75 64l302 595h76l126 -659h71l-7 -41h-234l8 41h39q20 0 27 11.5q7 11.5 7 26.5q0 12 -3 24l-17 101h-291l-48 -100q-6 -11 -11 -22q-5 -11 -5 -21q0 -20 22 -20h41l-6 -41h-209l7 41zM463 557q-3 14 -6.5 35.5q-3.5 21.5 -5.5 38.5l-4 0q-8 -19 -17.5 -38.5q-9.5 -19.5 -17.5 -33.5l-155 -311h264zM644 921l-142 -144h-43l92 144z" />
<glyph unicode="&#194;" horiz-adv-x="718" d="M57 41q43 0 75 64l302 595h76l126 -659h71l-7 -41h-234l8 41h39q20 0 27 11.5q7 11.5 7 26.5q0 12 -3 24l-17 101h-291l-48 -100q-6 -11 -11 -22q-5 -11 -5 -21q0 -20 22 -20h41l-6 -41h-209l7 41zM463 557q-3 14 -6.5 35.5q-3.5 21.5 -5.5 38.5l-4 0q-8 -19 -17.5 -38.5q-9.5 -19.5 -17.5 -33.5l-155 -311h264zM536 915l88 -134h-54l-74 84l-101 -84h-52l129 134z" />
<glyph unicode="&#195;" horiz-adv-x="718" d="M57 41q43 0 75 64l302 595h76l126 -659h71l-7 -41h-234l8 41h39q20 0 27 11.5q7 11.5 7 26.5q0 12 -3 24l-17 101h-291l-48 -100q-6 -11 -11 -22q-5 -11 -5 -21q0 -20 22 -20h41l-6 -41h-209l7 41zM463 557q-3 14 -6.5 35.5q-3.5 21.5 -5.5 38.5l-4 0q-8 -19 -17.5 -38.5q-9.5 -19.5 -17.5 -33.5l-155 -311h264zM483 812q-17 8 -30 13.5q-13 5.5 -27 5.5q-13 0 -25 -6.5q-12 -6.5 -20 -29.5l-37 0q7 36 32 62.5q25 26.5 62 26.5q16 0 32 -6q16 -6 34 -14q16 -8 30 -14q14 -6 25 -6q13 0 25.5 6.5q12.5 6.5 20.5 28.5l36 0q-9 -42 -36 -65q-27 -23 -56 -23q-14 0 -26 4t-40 17z" />
<glyph unicode="&#196;" horiz-adv-x="718" d="M57 41q43 0 75 64l302 595h76l126 -659h71l-7 -41h-234l8 41h39q20 0 27 11.5q7 11.5 7 26.5q0 12 -3 24l-17 101h-291l-48 -100q-6 -11 -11 -22q-5 -11 -5 -21q0 -20 22 -20h41l-6 -41h-209l7 41zM463 557q-3 14 -6.5 35.5q-3.5 21.5 -5.5 38.5l-4 0q-8 -19 -17.5 -38.5q-9.5 -19.5 -17.5 -33.5l-155 -311h264zM350 849q0 18 13.5 32.5q13.5 14.5 35.5 14.5q23 0 35.5 -14.5q12.5 -14.5 12.5 -33.5q0 -20 -13.5 -34.5q-13.5 -14.5 -36.5 -14.5q-22 0 -34.5 15q-12.5 15 -12.5 35zt0 0zM544 849q0 18 13.5 32.5q13.5 14.5 35.5 14.5q23 0 35.5 -14.5q12.5 -14.5 12.5 -33.5q0 -20 -13.5 -34.5q-13.5 -14.5 -36.5 -14.5q-22 0 -34.5 15t-12.5 35z" />
<glyph unicode="&#197;" horiz-adv-x="718" d="M57 41q43 0 75 64l302 595h76l126 -659h71l-7 -41h-234l8 41h39q20 0 27 11.5q7 11.5 7 26.5q0 12 -3 24l-17 101h-291l-48 -100q-6 -11 -11 -22q-5 -11 -5 -21q0 -20 22 -20h41l-6 -41h-209l7 41zM463 557q-3 14 -6.5 35.5q-3.5 21.5 -5.5 38.5l-4 0q-8 -19 -17.5 -38.5q-9.5 -19.5 -17.5 -33.5l-155 -311h264zM369 858q0 41 27.5 69q27.5 28 68.5 28q43 0 70.5 -26.5q27.5 -26.5 27.5 -70.5q0 -42 -27.5 -69.5q-27.5 -27.5 -70.5 -27.5q-41 0 -68.5 27.5q-27.5 27.5 -27.5 69.5zt0 0zM518 860q0 24 -15 38q-15 14 -38 14q-20 0 -35.5 -14.5q-15.5 -14.5 -15.5 -39.5q0 -23 14.5 -38.5q14.5 -15.5 37.5 -15.5q23 0 37.5 15.5t14.5 40.5z" />
<glyph unicode="&#198;" horiz-adv-x="902" d="M56 41q21 0 42.5 17q21.5 17 42.5 47l388 554h-77l7 41h498l-26 -167h-43l6 34q3 15 3 29q0 37 -16.5 49q-16.5 12 -42.5 12h-187l-44 -279h162l13 84h42l-33 -211h-43l12 84h-161l-46 -292h199q13 0 26 4q13 4 23.5 14q10.5 10 18.5 27.5q8 17.5 13 44.5l7 41h42l-27 -174h-461l8 41h44q18 0 27 13.5q9 13.5 13 39.5l18 110h-240l-67 -100q-4 -6 -13 -20q-9 -14 -9 -26q0 -5 4 -11q4 -6 14 -6h43l-7 -41h-209l7 41zM573 640h-5q-12 -19 -25.5 -38q-13.5 -19 -23.5 -33l-224 -321l216 0z" />
<glyph unicode="&#199;" horiz-adv-x="583" d="M95 264q0 97 24.5 179q24.5 82 69.5 141.5q45 59.5 108 93q63 33.5 140 33.5q66 0 116.5 -24q50.5 -24 79.5 -65l-18 -113h-64l4 24q1 7 1.5 13.5q0.5 6.5 0.5 14.5q0 32 -12 53q-12 21 -30 33.5q-18 12.5 -40.5 17.5q-22.5 5 -43.5 5q-60 0 -107.5 -37q-47.5 -37 -80.5 -95q-33 -58 -50 -129.5q-17 -71.5 -17 -139.5q0 -50 9.5 -94q9.5 -44 30 -76q20.5 -32 52 -50.5q31.5 -18.5 75.5 -18.5q20 0 45 5q25 5 47.5 18.5q22.5 13.5 39.5 37q17 23.5 22 60.5l4 25h64l-18 -105q-39 -38 -96 -60q-57 -22 -114 -22q-53 0 -97.5 16q-44.5 16 -76.5 49.5q-32 33.5 -50 85.5q-18 52 -18 124zt0 0zM245 -165q12 -9 25.5 -14q13.5 -5 31.5 -5q23 0 38 13.5q15 13.5 15 39.5q0 21 -14 31q-14 10 -37 10h-31l28 90h44l-18 -58q6 1 10 1q4 0 9 0q38 0 55 -18.5q17 -18.5 17 -46.5q0 -48 -34.5 -75.5q-34.5 -27.5 -82.5 -27.5q-24 0 -46 7q-22 7 -33 18z" />
<glyph unicode="&#200;" horiz-adv-x="543" d="M87 41q19 0 27.5 13.5q8.5 13.5 12.5 39.5l90 565h-76l6 41h452l-27 -167h-43l6 34q3 15 3 29q0 37 -17 49q-17 12 -41 12h-188l-44 -279h162l13 84h42l-33 -211h-43l12 84h-161l-46 -292h198q28 0 50.5 18q22.5 18 32.5 72l6 41h43l-28 -174h-460l7 41zM375 921l48 -144h-43l-95 144z" />
<glyph unicode="&#201;" horiz-adv-x="543" d="M87 41q19 0 27.5 13.5q8.5 13.5 12.5 39.5l90 565h-76l6 41h452l-27 -167h-43l6 34q3 15 3 29q0 37 -17 49q-17 12 -41 12h-188l-44 -279h162l13 84h42l-33 -211h-43l12 84h-161l-46 -292h198q28 0 50.5 18q22.5 18 32.5 72l6 41h43l-28 -174h-460l7 41zM559 921l-142 -144h-43l92 144z" />
<glyph unicode="&#202;" horiz-adv-x="543" d="M87 41q19 0 27.5 13.5q8.5 13.5 12.5 39.5l90 565h-76l6 41h452l-27 -167h-43l6 34q3 15 3 29q0 37 -17 49q-17 12 -41 12h-188l-44 -279h162l13 84h42l-33 -211h-43l12 84h-161l-46 -292h198q28 0 50.5 18q22.5 18 32.5 72l6 41h43l-28 -174h-460l7 41zM444 915l88 -134h-54l-74 84l-101 -84h-52l129 134z" />
<glyph unicode="&#203;" horiz-adv-x="543" d="M87 41q19 0 27.5 13.5q8.5 13.5 12.5 39.5l90 565h-76l6 41h452l-27 -167h-43l6 34q3 15 3 29q0 37 -17 49q-17 12 -41 12h-188l-44 -279h162l13 84h42l-33 -211h-43l12 84h-161l-46 -292h198q28 0 50.5 18q22.5 18 32.5 72l6 41h43l-28 -174h-460l7 41zM260 849q0 18 13.5 32.5q13.5 14.5 35.5 14.5q23 0 35.5 -14.5q12.5 -14.5 12.5 -33.5q0 -20 -13.5 -34.5q-13.5 -14.5 -36.5 -14.5q-22 0 -34.5 15q-12.5 15 -12.5 35zt0 0zM454 849q0 18 13.5 32.5q13.5 14.5 35.5 14.5q23 0 35.5 -14.5q12.5 -14.5 12.5 -33.5q0 -20 -13.5 -34.5q-13.5 -14.5 -36.5 -14.5q-22 0 -34.5 15t-12.5 35z" />
<glyph unicode="&#204;" horiz-adv-x="306" d="M91 41q19 0 28 13.5q9 13.5 13 39.5l90 565h-81l6 41h237l-7 -41h-48q-19 0 -28 -13.5q-9 -13.5 -13 -39.5l-89 -565h80l-7 -41h-236l7 41zM249 921l48 -144h-43l-95 144z" />
<glyph unicode="&#205;" horiz-adv-x="306" d="M91 41q19 0 28 13.5q9 13.5 13 39.5l90 565h-81l6 41h237l-7 -41h-48q-19 0 -28 -13.5q-9 -13.5 -13 -39.5l-89 -565h80l-7 -41h-236l7 41zM438 921l-142 -144h-43l92 144z" />
<glyph unicode="&#206;" horiz-adv-x="306" d="M91 41q19 0 28 13.5q9 13.5 13 39.5l90 565h-81l6 41h237l-7 -41h-48q-19 0 -28 -13.5q-9 -13.5 -13 -39.5l-89 -565h80l-7 -41h-236l7 41zM321 915l88 -134h-54l-74 84l-101 -84h-52l129 134z" />
<glyph unicode="&#207;" horiz-adv-x="306" d="M91 41q19 0 28 13.5q9 13.5 13 39.5l90 565h-81l6 41h237l-7 -41h-48q-19 0 -28 -13.5q-9 -13.5 -13 -39.5l-89 -565h80l-7 -41h-236l7 41zM133 849q0 18 13.5 32.5q13.5 14.5 35.5 14.5q23 0 35.5 -14.5q12.5 -14.5 12.5 -33.5q0 -20 -13.5 -34.5q-13.5 -14.5 -36.5 -14.5q-22 0 -34.5 15q-12.5 15 -12.5 35zt0 0zM327 849q0 18 13.5 32.5q13.5 14.5 35.5 14.5q23 0 35.5 -14.5q12.5 -14.5 12.5 -33.5q0 -20 -13.5 -34.5q-13.5 -14.5 -36.5 -14.5q-22 0 -34.5 15t-12.5 35z" />
<glyph unicode="&#208;" horiz-adv-x="646" d="M87 41q19 0 27.5 13.5q8.5 13.5 12.5 39.5l39 251h-88l8 44h89l43 270h-77l6 41h253q60 0 108.5 -14q48.5 -14 82 -44.5q33.5 -30.5 51.5 -80.5q18 -50 18 -122q0 -110 -32 -192.5q-32 -82.5 -84 -137q-52 -54.5 -119 -82q-67 -27.5 -137 -27.5h-252l7 41zM293 43q48 0 99 23q51 23 93 71q42 48 68.5 122q26.5 74 26.5 176q0 119 -50.5 170.5q-50.5 51.5 -135.5 51.5h-102l-42 -268h158l-8 -44h-158l-48 -302z" />
<glyph unicode="&#209;" horiz-adv-x="701" d="M82 41q23 0 32.5 15.5q9.5 15.5 13.5 41.5l90 561h-77l6 41h153l222 -517q8 -20 17.5 -47q9.5 -27 14.5 -47l4 0q3 30 6.5 57.5q3.5 27.5 6.5 44.5l65 411q1 7 2 12.5q1 5.5 1 12.5q0 15 -6 23.5q-6 8.5 -21 8.5h-44l7 41h204l-7 -41h-39q-22 0 -31.5 -15.5q-9.5 -15.5 -14.5 -41.5l-96 -602h-68l-230 533q-10 23 -17.5 45.5q-7.5 22.5 -13.5 40.5l-3 0q-3 -29 -7 -58.5q-4 -29.5 -7 -48.5l-65 -414q-1 -8 -2 -14q-1 -6 -1 -13q0 -14 6 -22q6 -8 22 -8h43l-7 -41h-205l7 41zM476 812q-17 8 -30 13.5q-13 5.5 -27 5.5q-13 0 -25 -6.5q-12 -6.5 -20 -29.5l-37 0q7 36 32 62.5q25 26.5 62 26.5q16 0 32 -6q16 -6 34 -14q16 -8 30 -14q14 -6 25 -6q13 0 25.5 6.5q12.5 6.5 20.5 28.5l36 0q-9 -42 -36 -65q-27 -23 -56 -23q-14 0 -26 4t-40 17z" />
<glyph unicode="&#210;" horiz-adv-x="665" d="M96 279q0 92 23.5 171q23.5 79 67 137q43.5 58 106 91q62.5 33 139.5 33q58 0 104 -20.5q46 -20.5 77.5 -58.5q31.5 -38 48 -91.5q16.5 -53.5 16.5 -119.5q0 -92 -23 -171q-23 -79 -66.5 -137q-43.5 -58 -105.5 -91q-62 -33 -140 -33q-59 0 -104.5 20.5q-45.5 20.5 -77.5 58.5q-32 38 -48.5 91.5q-16.5 53.5 -16.5 119.5zt0 0zM598 421q0 42 -8 86q-8 44 -27.5 80q-19.5 36 -52.5 59.5q-33 23.5 -83 23.5q-48 0 -85.5 -20q-37.5 -20 -65 -52q-27.5 -32 -47 -74q-19.5 -42 -31 -85q-11.5 -43 -17 -85q-5.5 -42 -5.5 -75q0 -42 8 -86q8 -44 28 -80q20 -36 52.5 -59.5q32.5 -23.5 82.5 -23.5q48 0 85.5 20q37.5 20 65.5 52.5q28 32.5 47 74q19 41.5 31 85q12 43.5 17 85q5 41.5 5 74.5zt0 0zM423 921l48 -144h-43l-95 144z" />
<glyph unicode="&#211;" horiz-adv-x="665" d="M96 279q0 92 23.5 171q23.5 79 67 137q43.5 58 106 91q62.5 33 139.5 33q58 0 104 -20.5q46 -20.5 77.5 -58.5q31.5 -38 48 -91.5q16.5 -53.5 16.5 -119.5q0 -92 -23 -171q-23 -79 -66.5 -137q-43.5 -58 -105.5 -91q-62 -33 -140 -33q-59 0 -104.5 20.5q-45.5 20.5 -77.5 58.5q-32 38 -48.5 91.5q-16.5 53.5 -16.5 119.5zt0 0zM598 421q0 42 -8 86q-8 44 -27.5 80q-19.5 36 -52.5 59.5q-33 23.5 -83 23.5q-48 0 -85.5 -20q-37.5 -20 -65 -52q-27.5 -32 -47 -74q-19.5 -42 -31 -85q-11.5 -43 -17 -85q-5.5 -42 -5.5 -75q0 -42 8 -86q8 -44 28 -80q20 -36 52.5 -59.5q32.5 -23.5 82.5 -23.5q48 0 85.5 20q37.5 20 65.5 52.5q28 32.5 47 74q19 41.5 31 85q12 43.5 17 85q5 41.5 5 74.5zt0 0zM619 921l-142 -144h-43l92 144z" />
<glyph unicode="&#212;" horiz-adv-x="665" d="M96 279q0 92 23.5 171q23.5 79 67 137q43.5 58 106 91q62.5 33 139.5 33q58 0 104 -20.5q46 -20.5 77.5 -58.5q31.5 -38 48 -91.5q16.5 -53.5 16.5 -119.5q0 -92 -23 -171q-23 -79 -66.5 -137q-43.5 -58 -105.5 -91q-62 -33 -140 -33q-59 0 -104.5 20.5q-45.5 20.5 -77.5 58.5q-32 38 -48.5 91.5q-16.5 53.5 -16.5 119.5zt0 0zM598 421q0 42 -8 86q-8 44 -27.5 80q-19.5 36 -52.5 59.5q-33 23.5 -83 23.5q-48 0 -85.5 -20q-37.5 -20 -65 -52q-27.5 -32 -47 -74q-19.5 -42 -31 -85q-11.5 -43 -17 -85q-5.5 -42 -5.5 -75q0 -42 8 -86q8 -44 28 -80q20 -36 52.5 -59.5q32.5 -23.5 82.5 -23.5q48 0 85.5 20q37.5 20 65.5 52.5q28 32.5 47 74q19 41.5 31 85q12 43.5 17 85q5 41.5 5 74.5zt0 0zM511 915l88 -134h-54l-74 84l-101 -84h-52l129 134z" />
<glyph unicode="&#213;" horiz-adv-x="665" d="M96 279q0 92 23.5 171q23.5 79 67 137q43.5 58 106 91q62.5 33 139.5 33q58 0 104 -20.5q46 -20.5 77.5 -58.5q31.5 -38 48 -91.5q16.5 -53.5 16.5 -119.5q0 -92 -23 -171q-23 -79 -66.5 -137q-43.5 -58 -105.5 -91q-62 -33 -140 -33q-59 0 -104.5 20.5q-45.5 20.5 -77.5 58.5q-32 38 -48.5 91.5q-16.5 53.5 -16.5 119.5zt0 0zM598 421q0 42 -8 86q-8 44 -27.5 80q-19.5 36 -52.5 59.5q-33 23.5 -83 23.5q-48 0 -85.5 -20q-37.5 -20 -65 -52q-27.5 -32 -47 -74q-19.5 -42 -31 -85q-11.5 -43 -17 -85q-5.5 -42 -5.5 -75q0 -42 8 -86q8 -44 28 -80q20 -36 52.5 -59.5q32.5 -23.5 82.5 -23.5q48 0 85.5 20q37.5 20 65.5 52.5q28 32.5 47 74q19 41.5 31 85q12 43.5 17 85q5 41.5 5 74.5zt0 0zM460 812q-17 8 -30 13.5q-13 5.5 -27 5.5q-13 0 -25 -6.5q-12 -6.5 -20 -29.5l-37 0q7 36 32 62.5q25 26.5 62 26.5q16 0 32 -6q16 -6 34 -14q16 -8 30 -14q14 -6 25 -6q13 0 25.5 6.5q12.5 6.5 20.5 28.5l36 0q-9 -42 -36 -65q-27 -23 -56 -23q-14 0 -26 4t-40 17z" />
<glyph unicode="&#214;" horiz-adv-x="665" d="M96 279q0 92 23.5 171q23.5 79 67 137q43.5 58 106 91q62.5 33 139.5 33q58 0 104 -20.5q46 -20.5 77.5 -58.5q31.5 -38 48 -91.5q16.5 -53.5 16.5 -119.5q0 -92 -23 -171q-23 -79 -66.5 -137q-43.5 -58 -105.5 -91q-62 -33 -140 -33q-59 0 -104.5 20.5q-45.5 20.5 -77.5 58.5q-32 38 -48.5 91.5q-16.5 53.5 -16.5 119.5zt0 0zM598 421q0 42 -8 86q-8 44 -27.5 80q-19.5 36 -52.5 59.5q-33 23.5 -83 23.5q-48 0 -85.5 -20q-37.5 -20 -65 -52q-27.5 -32 -47 -74q-19.5 -42 -31 -85q-11.5 -43 -17 -85q-5.5 -42 -5.5 -75q0 -42 8 -86q8 -44 28 -80q20 -36 52.5 -59.5q32.5 -23.5 82.5 -23.5q48 0 85.5 20q37.5 20 65.5 52.5q28 32.5 47 74q19 41.5 31 85q12 43.5 17 85q5 41.5 5 74.5zt0 0zM328 849q0 18 13.5 32.5q13.5 14.5 35.5 14.5q23 0 35.5 -14.5q12.5 -14.5 12.5 -33.5q0 -20 -13.5 -34.5q-13.5 -14.5 -36.5 -14.5q-22 0 -34.5 15q-12.5 15 -12.5 35zt0 0zM522 849q0 18 13.5 32.5q13.5 14.5 35.5 14.5q23 0 35.5 -14.5q12.5 -14.5 12.5 -33.5q0 -20 -13.5 -34.5q-13.5 -14.5 -36.5 -14.5q-22 0 -34.5 15t-12.5 35z" />
<glyph unicode="&#215;" horiz-adv-x="578" d="M194 162l-39 39l154 154l-159 158l39 39l159 -159l159 159l38 -39l-159 -158l159 -159l-38 -39l-159 159z" />
<glyph unicode="&#216;" horiz-adv-x="665" d="M85 -28l73 99q-31 38 -46.5 91q-15.5 53 -15.5 117q0 92 23.5 171q23.5 79 67 137q43.5 58 106 91q62.5 33 139.5 33q48 0 87 -14.5q39 -14.5 69 -40.5l70 96l31 -23l-73 -100q31 -38 46.5 -91q15.5 -53 15.5 -117q0 -92 -23.5 -171q-23.5 -79 -67 -137q-43.5 -58 -105.5 -91q-62 -33 -140 -33q-48 0 -87 14.5q-39 14.5 -69 40.5l-70 -97zM549 609q-20 27 -50 44q-30 17 -72 17q-48 0 -85.5 -20q-37.5 -20 -65 -52.5q-27.5 -32.5 -47 -74q-19.5 -41.5 -31 -85q-11.5 -43.5 -17 -85.5q-5.5 -42 -5.5 -75q0 -37 6 -77.5q6 -40.5 21 -72.5zM598 421q0 38 -6 78q-6 40 -21 73l-347 -480q20 -28 50 -45q30 -17 73 -17q48 0 85.5 20q37.5 20 65.5 52.5q28 32.5 47 74q19 41.5 31 85q12 43.5 17 85t5 74.5z" />
<glyph unicode="&#217;" horiz-adv-x="678" d="M139 179q0 14 1.5 27.5q1.5 13.5 3.5 30.5l68 422h-76l6 41h225l-7 -41h-40q-20 0 -28.5 -13.5q-8.5 -13.5 -12.5 -39.5l-60 -369q-2 -15 -3 -28q-1 -13 -1 -26q0 -31 7.5 -57.5q7.5 -26.5 23.5 -46q16 -19.5 42 -30.5q26 -11 64 -11q46 0 82 16q36 16 61.5 43.5q25.5 27.5 41.5 63.5q16 36 22 76l58 365q2 8 3 14q1 6 1 13q0 30 -29 30h-41l6 41h205l-7 -41h-40q-23 0 -32 -15.5q-9 -15.5 -13 -41.5l-59 -365q-19 -121 -90 -184.5q-71 -63.5 -177 -63.5q-97 0 -151 47.5q-54 47.5 -54 142.5zt0 0zM432 921l48 -144h-43l-95 144z" />
<glyph unicode="&#218;" horiz-adv-x="678" d="M139 179q0 14 1.5 27.5q1.5 13.5 3.5 30.5l68 422h-76l6 41h225l-7 -41h-40q-20 0 -28.5 -13.5q-8.5 -13.5 -12.5 -39.5l-60 -369q-2 -15 -3 -28q-1 -13 -1 -26q0 -31 7.5 -57.5q7.5 -26.5 23.5 -46q16 -19.5 42 -30.5q26 -11 64 -11q46 0 82 16q36 16 61.5 43.5q25.5 27.5 41.5 63.5q16 36 22 76l58 365q2 8 3 14q1 6 1 13q0 30 -29 30h-41l6 41h205l-7 -41h-40q-23 0 -32 -15.5q-9 -15.5 -13 -41.5l-59 -365q-19 -121 -90 -184.5q-71 -63.5 -177 -63.5q-97 0 -151 47.5q-54 47.5 -54 142.5zt0 0zM623 921l-142 -144h-43l92 144z" />
<glyph unicode="&#219;" horiz-adv-x="678" d="M139 179q0 14 1.5 27.5q1.5 13.5 3.5 30.5l68 422h-76l6 41h225l-7 -41h-40q-20 0 -28.5 -13.5q-8.5 -13.5 -12.5 -39.5l-60 -369q-2 -15 -3 -28q-1 -13 -1 -26q0 -31 7.5 -57.5q7.5 -26.5 23.5 -46q16 -19.5 42 -30.5q26 -11 64 -11q46 0 82 16q36 16 61.5 43.5q25.5 27.5 41.5 63.5q16 36 22 76l58 365q2 8 3 14q1 6 1 13q0 30 -29 30h-41l6 41h205l-7 -41h-40q-23 0 -32 -15.5q-9 -15.5 -13 -41.5l-59 -365q-19 -121 -90 -184.5q-71 -63.5 -177 -63.5q-97 0 -151 47.5q-54 47.5 -54 142.5zt0 0zM519 915l88 -134h-54l-74 84l-101 -84h-52l129 134z" />
<glyph unicode="&#220;" horiz-adv-x="678" d="M139 179q0 14 1.5 27.5q1.5 13.5 3.5 30.5l68 422h-76l6 41h225l-7 -41h-40q-20 0 -28.5 -13.5q-8.5 -13.5 -12.5 -39.5l-60 -369q-2 -15 -3 -28q-1 -13 -1 -26q0 -31 7.5 -57.5q7.5 -26.5 23.5 -46q16 -19.5 42 -30.5q26 -11 64 -11q46 0 82 16q36 16 61.5 43.5q25.5 27.5 41.5 63.5q16 36 22 76l58 365q2 8 3 14q1 6 1 13q0 30 -29 30h-41l6 41h205l-7 -41h-40q-23 0 -32 -15.5q-9 -15.5 -13 -41.5l-59 -365q-19 -121 -90 -184.5q-71 -63.5 -177 -63.5q-97 0 -151 47.5q-54 47.5 -54 142.5zt0 0zM332 849q0 18 13.5 32.5q13.5 14.5 35.5 14.5q23 0 35.5 -14.5q12.5 -14.5 12.5 -33.5q0 -20 -13.5 -34.5q-13.5 -14.5 -36.5 -14.5q-22 0 -34.5 15q-12.5 15 -12.5 35zt0 0zM526 849q0 18 13.5 32.5q13.5 14.5 35.5 14.5q23 0 35.5 -14.5q12.5 -14.5 12.5 -33.5q0 -20 -13.5 -34.5q-13.5 -14.5 -36.5 -14.5q-22 0 -34.5 15t-12.5 35z" />
<glyph unicode="&#221;" horiz-adv-x="628" d="M249 41q20 0 28.5 13.5q8.5 13.5 12.5 39.5l23 149l-119 416h-70l7 41h234l-6 -41h-40q-19 0 -26.5 -9q-7.5 -9 -7.5 -22q0 -9 2 -17.5q2 -8.5 4 -16.5l65 -242q4 -14 7 -29q3 -15 5 -31l4 0q8 16 16.5 31q8.5 15 17.5 29l150 246q6 10 11 21q5 11 5 19q0 8 -4.5 14.5q-4.5 6.5 -17.5 6.5h-35l7 41h200l-7 -41h-19q-26 0 -47 -16.5q-21 -16.5 -38 -43.5l-222 -356l-33 -202h81l-8 -41h-234l7 41zM597 921l-142 -144h-43l92 144z" />
<glyph unicode="&#222;" horiz-adv-x="550" d="M87 41q19 0 27.5 13.5q8.5 13.5 12.5 39.5l91 572h-76l7 41h225l-7 -41h-44q-30 0 -38 -53l-6 -40h121q31 0 63 -7q32 -7 58.5 -25q26.5 -18 43.5 -50q17 -32 17 -83q0 -62 -21.5 -109q-21.5 -47 -57 -78.5q-35.5 -31.5 -81.5 -47.5q-46 -16 -96 -16h-114l-18 -116h89l-8 -41h-239l7 41zM328 201q20 0 49.5 9q29.5 9 57.5 32q28 23 47.5 62q19.5 39 19.5 100q0 39 -12 63q-12 24 -29 38q-17 14 -37.5 19q-20.5 5 -36.5 5h-117l-52 -328z" />
<glyph unicode="&#223;" horiz-adv-x="531" d="M257 35q9 -3 22 -5q13 -2 27 -2q18 0 45.5 9q27.5 9 52.5 33.5q25 24.5 43 67.5q18 43 18 110q0 33 -8 56q-8 23 -22 38q-14 15 -32.5 22q-18.5 7 -38.5 7h-49l7 40h45q16 0 37.5 9q21.5 9 40 30q18.5 21 31.5 55q13 34 13 83q0 24 -6 45q-6 21 -17 36.5q-11 15.5 -28.5 25q-17.5 9.5 -39.5 9.5q-37 0 -61.5 -14.5q-24.5 -14.5 -40.5 -37.5q-16 -23 -25 -51.5q-9 -28.5 -13 -56.5l-87 -544h-82q8 17 15 43q7 26 11 49l70 436q6 37 20 75q14 38 40 68.5q26 30.5 65 49.5q39 19 95 19q32 0 60.5 -8q28.5 -8 50 -26q21.5 -18 34 -46.5q12.5 -28.5 12.5 -70.5q0 -39 -10.5 -70q-10.5 -31 -28.5 -54.5q-18 -23.5 -41 -40q-23 -16.5 -48 -25.5l0 -3q50 -8 77.5 -48q27.5 -40 27.5 -98q0 -76 -24.5 -126q-24.5 -50 -60 -80q-35.5 -30 -75.5 -42q-40 -12 -72 -12q-13 0 -31.5 2q-18.5 2 -32.5 10z" />
<glyph unicode="&#224;" horiz-adv-x="520" d="M82 167q0 70 17 131q17 61 47.5 106q30.5 45 73.5 71q43 26 96 26q42 0 72 -19.5q30 -19.5 51 -47.5l1 0l20 56h66q-8 -17 -15 -43q-7 -26 -11 -49l-58 -362h72l-7 -36h-32q-28 0 -56.5 -2.5q-28.5 -2.5 -55.5 -8.5l23 128h-2q-11 -19 -28 -41q-17 -22 -39 -41.5q-22 -19.5 -49.5 -32.5q-27.5 -13 -59.5 -13q-32 0 -56 13.5q-24 13.5 -39.5 37.5q-15.5 24 -23 56.5q-7.5 32.5 -7.5 70.5zt0 0zM428 392q-14 20 -38 39q-24 19 -65 19q-36 0 -67 -18.5q-31 -18.5 -53.5 -54q-22.5 -35.5 -35.5 -87.5q-13 -52 -13 -118q0 -24 4.5 -46.5q4.5 -22.5 14.5 -40q10 -17.5 26 -28q16 -10.5 40 -10.5q33 0 60.5 17.5q27.5 17.5 48 42q20.5 24.5 33.5 51.5q13 27 16 47zM329 698l46 -130h-40l-87 130z" />
<glyph unicode="&#225;" horiz-adv-x="520" d="M82 167q0 70 17 131q17 61 47.5 106q30.5 45 73.5 71q43 26 96 26q42 0 72 -19.5q30 -19.5 51 -47.5l1 0l20 56h66q-8 -17 -15 -43q-7 -26 -11 -49l-58 -362h72l-7 -36h-32q-28 0 -56.5 -2.5q-28.5 -2.5 -55.5 -8.5l23 128h-2q-11 -19 -28 -41q-17 -22 -39 -41.5q-22 -19.5 -49.5 -32.5q-27.5 -13 -59.5 -13q-32 0 -56 13.5q-24 13.5 -39.5 37.5q-15.5 24 -23 56.5q-7.5 32.5 -7.5 70.5zt0 0zM428 392q-14 20 -38 39q-24 19 -65 19q-36 0 -67 -18.5q-31 -18.5 -53.5 -54q-22.5 -35.5 -35.5 -87.5q-13 -52 -13 -118q0 -24 4.5 -46.5q4.5 -22.5 14.5 -40q10 -17.5 26 -28q16 -10.5 40 -10.5q33 0 60.5 17.5q27.5 17.5 48 42q20.5 24.5 33.5 51.5q13 27 16 47zM501 698l-127 -130h-41l86 130z" />
<glyph unicode="&#226;" horiz-adv-x="520" d="M82 167q0 70 17 131q17 61 47.5 106q30.5 45 73.5 71q43 26 96 26q42 0 72 -19.5q30 -19.5 51 -47.5l1 0l20 56h66q-8 -17 -15 -43q-7 -26 -11 -49l-58 -362h72l-7 -36h-32q-28 0 -56.5 -2.5q-28.5 -2.5 -55.5 -8.5l23 128h-2q-11 -19 -28 -41q-17 -22 -39 -41.5q-22 -19.5 -49.5 -32.5q-27.5 -13 -59.5 -13q-32 0 -56 13.5q-24 13.5 -39.5 37.5q-15.5 24 -23 56.5q-7.5 32.5 -7.5 70.5zt0 0zM428 392q-14 20 -38 39q-24 19 -65 19q-36 0 -67 -18.5q-31 -18.5 -53.5 -54q-22.5 -35.5 -35.5 -87.5q-13 -52 -13 -118q0 -24 4.5 -46.5q4.5 -22.5 14.5 -40q10 -17.5 26 -28q16 -10.5 40 -10.5q33 0 60.5 17.5q27.5 17.5 48 42q20.5 24.5 33.5 51.5q13 27 16 47zM404 685l74 -117h-49l-63 72l-84 -72h-49l112 117z" />
<glyph unicode="&#227;" horiz-adv-x="520" d="M82 167q0 70 17 131q17 61 47.5 106q30.5 45 73.5 71q43 26 96 26q42 0 72 -19.5q30 -19.5 51 -47.5l1 0l20 56h66q-8 -17 -15 -43q-7 -26 -11 -49l-58 -362h72l-7 -36h-32q-28 0 -56.5 -2.5q-28.5 -2.5 -55.5 -8.5l23 128h-2q-11 -19 -28 -41q-17 -22 -39 -41.5q-22 -19.5 -49.5 -32.5q-27.5 -13 -59.5 -13q-32 0 -56 13.5q-24 13.5 -39.5 37.5q-15.5 24 -23 56.5q-7.5 32.5 -7.5 70.5zt0 0zM428 392q-14 20 -38 39q-24 19 -65 19q-36 0 -67 -18.5q-31 -18.5 -53.5 -54q-22.5 -35.5 -35.5 -87.5q-13 -52 -13 -118q0 -24 4.5 -46.5q4.5 -22.5 14.5 -40q10 -17.5 26 -28q16 -10.5 40 -10.5q33 0 60.5 17.5q27.5 17.5 48 42q20.5 24.5 33.5 51.5q13 27 16 47zM353 599q-15 7 -27.5 12.5q-12.5 5.5 -24.5 5.5q-11 0 -22.5 -6q-11.5 -6 -20.5 -26l-32 0q7 32 30 56q23 24 55 24q16 0 30 -5q14 -5 31 -13q14 -7 27 -12.5q13 -5.5 24 -5.5q11 0 22.5 6q11.5 6 19.5 27l32 0q-8 -39 -33 -60q-25 -21 -51 -21q-12 0 -23.5 3t-36.5 15z" />
<glyph unicode="&#228;" horiz-adv-x="520" d="M82 167q0 70 17 131q17 61 47.5 106q30.5 45 73.5 71q43 26 96 26q42 0 72 -19.5q30 -19.5 51 -47.5l1 0l20 56h66q-8 -17 -15 -43q-7 -26 -11 -49l-58 -362h72l-7 -36h-32q-28 0 -56.5 -2.5q-28.5 -2.5 -55.5 -8.5l23 128h-2q-11 -19 -28 -41q-17 -22 -39 -41.5q-22 -19.5 -49.5 -32.5q-27.5 -13 -59.5 -13q-32 0 -56 13.5q-24 13.5 -39.5 37.5q-15.5 24 -23 56.5q-7.5 32.5 -7.5 70.5zt0 0zM428 392q-14 20 -38 39q-24 19 -65 19q-36 0 -67 -18.5q-31 -18.5 -53.5 -54q-22.5 -35.5 -35.5 -87.5q-13 -52 -13 -118q0 -24 4.5 -46.5q4.5 -22.5 14.5 -40q10 -17.5 26 -28q16 -10.5 40 -10.5q33 0 60.5 17.5q27.5 17.5 48 42q20.5 24.5 33.5 51.5q13 27 16 47zM235 630q0 17 13.5 31q13.5 14 33.5 14q20 0 32.5 -14q12.5 -14 12.5 -31q0 -19 -13.5 -32.5q-13.5 -13.5 -34.5 -13.5q-20 0 -32 14q-12 14 -12 32zt0 0zM400 630q0 17 13 31q13 14 33 14q20 0 32.5 -14q12.5 -14 12.5 -31q0 -19 -13 -32.5q-13 -13.5 -34 -13.5q-20 0 -32 14t-12 32z" />
<glyph unicode="&#229;" horiz-adv-x="520" d="M82 167q0 70 17 131q17 61 47.5 106q30.5 45 73.5 71q43 26 96 26q42 0 72 -19.5q30 -19.5 51 -47.5l1 0l20 56h66q-8 -17 -15 -43q-7 -26 -11 -49l-58 -362h72l-7 -36h-32q-28 0 -56.5 -2.5q-28.5 -2.5 -55.5 -8.5l23 128h-2q-11 -19 -28 -41q-17 -22 -39 -41.5q-22 -19.5 -49.5 -32.5q-27.5 -13 -59.5 -13q-32 0 -56 13.5q-24 13.5 -39.5 37.5q-15.5 24 -23 56.5q-7.5 32.5 -7.5 70.5zt0 0zM428 392q-14 20 -38 39q-24 19 -65 19q-36 0 -67 -18.5q-31 -18.5 -53.5 -54q-22.5 -35.5 -35.5 -87.5q-13 -52 -13 -118q0 -24 4.5 -46.5q4.5 -22.5 14.5 -40q10 -17.5 26 -28q16 -10.5 40 -10.5q33 0 60.5 17.5q27.5 17.5 48 42q20.5 24.5 33.5 51.5q13 27 16 47zM260 650q0 39 25.5 64.5q25.5 25.5 63.5 25.5q38 0 63.5 -25q25.5 -25 25.5 -65q0 -41 -25.5 -66q-25.5 -25 -63.5 -25q-38 0 -63.5 25.5q-25.5 25.5 -25.5 65.5zt0 0zM397 650q0 22 -13.5 36.5q-13.5 14.5 -34.5 14.5q-22 0 -35.5 -14.5q-13.5 -14.5 -13.5 -36.5q0 -22 13.5 -37q13.5 -15 35.5 -15q21 0 34.5 15t13.5 37z" />
<glyph unicode="&#230;" horiz-adv-x="732" d="M67 110q0 53 20 86q20 33 51 51q31 18 68.5 24.5q37.5 6.5 72.5 6.5h103q1 3 2 11q1 8 2.5 16.5q1.5 8.5 2.5 15.5q1 7 1 9q2 11 3 19q1 8 1 17q0 48 -22.5 73.5q-22.5 25.5 -58.5 25.5q-17 0 -34 -3.5q-17 -3.5 -30.5 -12q-13.5 -8.5 -23.5 -23q-10 -14.5 -14 -36.5l-5 -31h-62q4 21 7 39q2 15 4 27.5q2 12.5 3 12.5q39 32 84.5 47.5q45.5 15.5 93.5 15.5q27 0 46.5 -7.5q19.5 -7.5 33.5 -19.5q14 -12 22.5 -28q8.5 -16 13.5 -34q31 40 74.5 64.5q43.5 24.5 103.5 24.5q39 0 64 -9.5q25 -9.5 39.5 -24.5q14.5 -15 20.5 -32.5q6 -17.5 6 -33.5q0 -52 -28.5 -86.5q-28.5 -34.5 -73.5 -56.5q-45 -22 -101.5 -34q-56.5 -12 -112.5 -19q0 -2 -0.5 -5q-0.5 -3 -0.5 -8q0 -28 5 -56.5q5 -28.5 17.5 -51q12.5 -22.5 34 -37q21.5 -14.5 54.5 -14.5q38 0 70.5 18.5q32.5 18.5 67.5 60.5l22 -25q-31 -39 -76 -68.5q-45 -29.5 -105 -29.5q-25 0 -49 7q-24 7 -45 22q-21 15 -37 39q-16 24 -24 58q-38 -60 -85.5 -93q-47.5 -33 -104.5 -33q-54 0 -87.5 32q-33.5 32 -33.5 89zt0 0zM376 243h-91q-21 0 -45.5 -3.5q-24.5 -3.5 -45.5 -16q-21 -12.5 -35.5 -36q-14.5 -23.5 -14.5 -63.5q0 -31 17.5 -54q17.5 -23 55.5 -23q26 0 51 10.5q25 10.5 45.5 29.5q20.5 19 35 46q14.5 27 20.5 60zM690 393q0 12 -3 25q-3 13 -10.5 23.5q-7.5 10.5 -21.5 17q-14 6.5 -36 6.5q-28 0 -55.5 -13.5q-27.5 -13.5 -51 -41.5q-23.5 -28 -41.5 -70q-18 -42 -26 -100q74 7 121.5 23q47.5 16 75 37q27.5 21 38 45t10.5 48z" />
<glyph unicode="&#231;" horiz-adv-x="426" d="M80 184q0 75 19.5 134q19.5 59 53 99.5q33.5 40.5 78 62q44.5 21.5 94.5 21.5q54 0 88 -22q34 -22 49 -47v-85h-72l3 17q1 6 1.5 12.5q0.5 6.5 0.5 13.5q0 21 -6.5 35.5q-6.5 14.5 -16.5 23.5q-10 9 -23.5 12.5q-13.5 3.5 -26.5 3.5q-42 0 -74 -25.5q-32 -25.5 -53 -66q-21 -40.5 -31.5 -89.5q-10.5 -49 -10.5 -97q0 -29 6 -57q6 -28 19 -49.5q13 -21.5 34 -34.5q21 -13 51 -13q39 0 70 19q31 19 57 51l26 -22q-13 -17 -30.5 -33.5q-17.5 -16.5 -39 -29.5q-21.5 -13 -46.5 -21q-25 -8 -52 -8q-35 0 -65.5 12q-30.5 12 -53.5 36q-23 24 -36 60.5q-13 36.5 -13 86.5zt0 0zM175 -142q11 -8 23 -12.5q12 -4.5 26 -4.5q22 0 34 13.5q12 13.5 12 33.5q0 19 -13 26q-13 7 -33 7h-26l25 79h37l-16 -51q5 1 8 1.5q3 0.5 8 0.5q33 0 48.5 -15.5q15.5 -15.5 15.5 -41.5q0 -19 -8 -35q-8 -16 -21.5 -28q-13.5 -12 -31.5 -19q-18 -7 -39 -7q-22 0 -40 6.5q-18 6.5 -28 15.5z" />
<glyph unicode="&#232;" horiz-adv-x="440" d="M79 179q0 56 14 113q14 57 45 103.5q31 46.5 80.5 76q49.5 29.5 120.5 29.5q38 0 63 -9.5q25 -9.5 40 -24.5q15 -15 21 -32.5q6 -17.5 6 -33.5q0 -52 -28.5 -86.5q-28.5 -34.5 -73.5 -56.5q-45 -22 -101.5 -34q-56.5 -12 -112.5 -19q-1 -2 -1 -13q0 -29 4.5 -57q4.5 -28 17 -51q12.5 -23 34 -37q21.5 -14 55.5 -14q38 0 69.5 17q31.5 17 63.5 58l27 -21q-31 -39 -76 -68.5q-45 -29.5 -105 -29.5q-30 0 -59.5 10.5q-29.5 10.5 -52.5 33.5q-23 23 -37 59q-14 36 -14 87zt0 0zM399 393q0 12 -3 25q-3 13 -10.5 23.5q-7.5 10.5 -21 17q-13.5 6.5 -35.5 6.5q-29 0 -56.5 -13.5q-27.5 -13.5 -51 -41.5q-23.5 -28 -41 -70q-17.5 -42 -25.5 -100q74 7 121.5 23q47.5 16 74.5 37q27 21 37.5 45q10.5 24 10.5 48zt0 0zM305 698l46 -130h-40l-87 130z" />
<glyph unicode="&#233;" horiz-adv-x="440" d="M79 179q0 56 14 113q14 57 45 103.5q31 46.5 80.5 76q49.5 29.5 120.5 29.5q38 0 63 -9.5q25 -9.5 40 -24.5q15 -15 21 -32.5q6 -17.5 6 -33.5q0 -52 -28.5 -86.5q-28.5 -34.5 -73.5 -56.5q-45 -22 -101.5 -34q-56.5 -12 -112.5 -19q-1 -2 -1 -13q0 -29 4.5 -57q4.5 -28 17 -51q12.5 -23 34 -37q21.5 -14 55.5 -14q38 0 69.5 17q31.5 17 63.5 58l27 -21q-31 -39 -76 -68.5q-45 -29.5 -105 -29.5q-30 0 -59.5 10.5q-29.5 10.5 -52.5 33.5q-23 23 -37 59q-14 36 -14 87zt0 0zM399 393q0 12 -3 25q-3 13 -10.5 23.5q-7.5 10.5 -21 17q-13.5 6.5 -35.5 6.5q-29 0 -56.5 -13.5q-27.5 -13.5 -51 -41.5q-23.5 -28 -41 -70q-17.5 -42 -25.5 -100q74 7 121.5 23q47.5 16 74.5 37q27 21 37.5 45q10.5 24 10.5 48zt0 0zM479 698l-127 -130h-41l86 130z" />
<glyph unicode="&#234;" horiz-adv-x="440" d="M79 179q0 56 14 113q14 57 45 103.5q31 46.5 80.5 76q49.5 29.5 120.5 29.5q38 0 63 -9.5q25 -9.5 40 -24.5q15 -15 21 -32.5q6 -17.5 6 -33.5q0 -52 -28.5 -86.5q-28.5 -34.5 -73.5 -56.5q-45 -22 -101.5 -34q-56.5 -12 -112.5 -19q-1 -2 -1 -13q0 -29 4.5 -57q4.5 -28 17 -51q12.5 -23 34 -37q21.5 -14 55.5 -14q38 0 69.5 17q31.5 17 63.5 58l27 -21q-31 -39 -76 -68.5q-45 -29.5 -105 -29.5q-30 0 -59.5 10.5q-29.5 10.5 -52.5 33.5q-23 23 -37 59q-14 36 -14 87zt0 0zM399 393q0 12 -3 25q-3 13 -10.5 23.5q-7.5 10.5 -21 17q-13.5 6.5 -35.5 6.5q-29 0 -56.5 -13.5q-27.5 -13.5 -51 -41.5q-23.5 -28 -41 -70q-17.5 -42 -25.5 -100q74 7 121.5 23q47.5 16 74.5 37q27 21 37.5 45q10.5 24 10.5 48zt0 0zM392 685l74 -117h-49l-63 72l-84 -72h-49l112 117z" />
<glyph unicode="&#235;" horiz-adv-x="440" d="M79 179q0 56 14 113q14 57 45 103.5q31 46.5 80.5 76q49.5 29.5 120.5 29.5q38 0 63 -9.5q25 -9.5 40 -24.5q15 -15 21 -32.5q6 -17.5 6 -33.5q0 -52 -28.5 -86.5q-28.5 -34.5 -73.5 -56.5q-45 -22 -101.5 -34q-56.5 -12 -112.5 -19q-1 -2 -1 -13q0 -29 4.5 -57q4.5 -28 17 -51q12.5 -23 34 -37q21.5 -14 55.5 -14q38 0 69.5 17q31.5 17 63.5 58l27 -21q-31 -39 -76 -68.5q-45 -29.5 -105 -29.5q-30 0 -59.5 10.5q-29.5 10.5 -52.5 33.5q-23 23 -37 59q-14 36 -14 87zt0 0zM399 393q0 12 -3 25q-3 13 -10.5 23.5q-7.5 10.5 -21 17q-13.5 6.5 -35.5 6.5q-29 0 -56.5 -13.5q-27.5 -13.5 -51 -41.5q-23.5 -28 -41 -70q-17.5 -42 -25.5 -100q74 7 121.5 23q47.5 16 74.5 37q27 21 37.5 45q10.5 24 10.5 48zt0 0zM224 630q0 17 13.5 31q13.5 14 33.5 14q20 0 32.5 -14q12.5 -14 12.5 -31q0 -19 -13.5 -32.5q-13.5 -13.5 -34.5 -13.5q-20 0 -32 14q-12 14 -12 32zt0 0zM389 630q0 17 13 31q13 14 33 14q20 0 32.5 -14q12.5 -14 12.5 -31q0 -19 -13 -32.5q-13 -13.5 -34 -13.5q-20 0 -32 14t-12 32z" />
<glyph unicode="&#236;" horiz-adv-x="256" d="M102 454l6 36h32q28 0 59 2.5q31 2.5 54 8.5l-75 -465h71l-7 -36h-31q-28 0 -58.5 -2.5q-30.5 -2.5 -53.5 -8.5l75 465zM179 698l46 -130h-40l-87 130z" />
<glyph unicode="&#237;" horiz-adv-x="256" d="M102 454l6 36h32q28 0 59 2.5q31 2.5 54 8.5l-75 -465h71l-7 -36h-31q-28 0 -58.5 -2.5q-30.5 -2.5 -53.5 -8.5l75 465zM346 698l-127 -130h-41l86 130z" />
<glyph unicode="&#238;" horiz-adv-x="256" d="M102 454l6 36h32q28 0 59 2.5q31 2.5 54 8.5l-75 -465h71l-7 -36h-31q-28 0 -58.5 -2.5q-30.5 -2.5 -53.5 -8.5l75 465zM244 685l74 -117h-49l-63 72l-84 -72h-49l112 117z" />
<glyph unicode="&#239;" horiz-adv-x="256" d="M102 454l6 36h32q28 0 59 2.5q31 2.5 54 8.5l-75 -465h71l-7 -36h-31q-28 0 -58.5 -2.5q-30.5 -2.5 -53.5 -8.5l75 465zM75 630q0 17 13.5 31q13.5 14 33.5 14q20 0 32.5 -14q12.5 -14 12.5 -31q0 -19 -13.5 -32.5q-13.5 -13.5 -34.5 -13.5q-20 0 -32 14q-12 14 -12 32zt0 0zM240 630q0 17 13 31q13 14 33 14q20 0 32.5 -14q12.5 -14 12.5 -31q0 -19 -13 -32.5q-13 -13.5 -34 -13.5q-20 0 -32 14t-12 32z" />
<glyph unicode="&#240;" horiz-adv-x="491" d="M81 190q0 65 17 120q17 55 47 95q30 40 69.5 62.5q39.5 22.5 84.5 22.5q26 0 46.5 -6.5q20.5 -6.5 36.5 -16.5q16 -10 28 -22.5q12 -12.5 21 -24.5l2 0q1 64 -17.5 121q-18.5 57 -55.5 97l-103 -86l-21 27l98 81q-50 41 -123 47l8 33q38 -1 78 -13q40 -12 76 -38l101 83l19 -27l-93 -77q44 -39 72 -105.5q28 -66.5 28 -163.5q0 -44 -6 -92q-6 -48 -18.5 -93.5q-12.5 -45.5 -32.5 -86.5q-20 -41 -48 -71.5q-28 -30.5 -65 -48.5q-37 -18 -83 -18q-29 0 -58.5 10q-29.5 10 -53.5 33.5q-24 23.5 -39 62q-15 38.5 -15 95.5zt0 0zM425 372q-37 67 -115 67q-41 0 -70 -24q-29 -24 -48 -60.5q-19 -36.5 -28 -81.5q-9 -45 -9 -87q0 -29 4.5 -57.5q4.5 -28.5 15.5 -51.5q11 -23 30 -37.5q19 -14.5 49 -14.5q43 0 74.5 35.5q31.5 35.5 52.5 88.5q21 53 31.5 113t12.5 110z" />
<glyph unicode="&#241;" horiz-adv-x="536" d="M434 313q2 15 4 32q2 17 2 30q0 29 -14 48.5q-14 19.5 -45 19.5q-29 0 -57 -17.5q-28 -17.5 -51 -44q-23 -26.5 -39 -58q-16 -31.5 -20 -58.5l-42 -265h-82q8 17 15.5 43q7.5 26 10.5 49l58 362h-71l6 36h31q28 0 58.5 2.5q30.5 2.5 53.5 8.5l-24 -144h2q17 28 37.5 54q20.5 26 44.5 46q24 20 50.5 32q26.5 12 55.5 12q25 0 43.5 -8q18.5 -8 30.5 -22q12 -14 17.5 -32.5q5.5 -18.5 5.5 -39.5q0 -23 -2 -38q-2 -15 -4 -27l-52 -298h72l-7 -36h-32q-28 0 -58.5 -2.5q-30.5 -2.5 -53.5 -8.5l56 324zM358 599q-15 7 -27.5 12.5q-12.5 5.5 -24.5 5.5q-11 0 -22.5 -6q-11.5 -6 -20.5 -26l-32 0q7 32 30 56q23 24 55 24q16 0 30 -5q14 -5 31 -13q14 -7 27 -12.5q13 -5.5 24 -5.5q11 0 22.5 6q11.5 6 19.5 27l32 0q-8 -39 -33 -60q-25 -21 -51 -21q-12 0 -23.5 3t-36.5 15z" />
<glyph unicode="&#242;" horiz-adv-x="493" d="M80 194q0 70 18.5 127q18.5 57 51 97q32.5 40 76.5 61.5q44 21.5 95 21.5q82 0 131.5 -54q49.5 -54 49.5 -152q0 -71 -18.5 -127.5q-18.5 -56.5 -51 -96q-32.5 -39.5 -76 -61q-43.5 -21.5 -93.5 -21.5q-85 0 -134 54q-49 54 -49 151zt0 0zM428 297q0 30 -5.5 60q-5.5 30 -18 54q-12.5 24 -33.5 39q-21 15 -52 15q-45 0 -76.5 -29q-31.5 -29 -51 -71q-19.5 -42 -28.5 -89q-9 -47 -9 -83q0 -30 5.5 -60q5.5 -30 18 -54q12.5 -24 33.5 -39q21 -15 53 -15q44 0 75.5 28.5q31.5 28.5 51 70.5q19.5 42 28.5 89q9 47 9 84zt0 0zM315 698l46 -130h-40l-87 130z" />
<glyph unicode="&#243;" horiz-adv-x="493" d="M80 194q0 70 18.5 127q18.5 57 51 97q32.5 40 76.5 61.5q44 21.5 95 21.5q82 0 131.5 -54q49.5 -54 49.5 -152q0 -71 -18.5 -127.5q-18.5 -56.5 -51 -96q-32.5 -39.5 -76 -61q-43.5 -21.5 -93.5 -21.5q-85 0 -134 54q-49 54 -49 151zt0 0zM428 297q0 30 -5.5 60q-5.5 30 -18 54q-12.5 24 -33.5 39q-21 15 -52 15q-45 0 -76.5 -29q-31.5 -29 -51 -71q-19.5 -42 -28.5 -89q-9 -47 -9 -83q0 -30 5.5 -60q5.5 -30 18 -54q12.5 -24 33.5 -39q21 -15 53 -15q44 0 75.5 28.5q31.5 28.5 51 70.5q19.5 42 28.5 89q9 47 9 84zt0 0zM490 698l-127 -130h-41l86 130z" />
<glyph unicode="&#244;" horiz-adv-x="493" d="M80 194q0 70 18.5 127q18.5 57 51 97q32.5 40 76.5 61.5q44 21.5 95 21.5q82 0 131.5 -54q49.5 -54 49.5 -152q0 -71 -18.5 -127.5q-18.5 -56.5 -51 -96q-32.5 -39.5 -76 -61q-43.5 -21.5 -93.5 -21.5q-85 0 -134 54q-49 54 -49 151zt0 0zM428 297q0 30 -5.5 60q-5.5 30 -18 54q-12.5 24 -33.5 39q-21 15 -52 15q-45 0 -76.5 -29q-31.5 -29 -51 -71q-19.5 -42 -28.5 -89q-9 -47 -9 -83q0 -30 5.5 -60q5.5 -30 18 -54q12.5 -24 33.5 -39q21 -15 53 -15q44 0 75.5 28.5q31.5 28.5 51 70.5q19.5 42 28.5 89q9 47 9 84zt0 0zM388 685l74 -117h-49l-63 72l-84 -72h-49l112 117z" />
<glyph unicode="&#245;" horiz-adv-x="493" d="M80 194q0 70 18.5 127q18.5 57 51 97q32.5 40 76.5 61.5q44 21.5 95 21.5q82 0 131.5 -54q49.5 -54 49.5 -152q0 -71 -18.5 -127.5q-18.5 -56.5 -51 -96q-32.5 -39.5 -76 -61q-43.5 -21.5 -93.5 -21.5q-85 0 -134 54q-49 54 -49 151zt0 0zM428 297q0 30 -5.5 60q-5.5 30 -18 54q-12.5 24 -33.5 39q-21 15 -52 15q-45 0 -76.5 -29q-31.5 -29 -51 -71q-19.5 -42 -28.5 -89q-9 -47 -9 -83q0 -30 5.5 -60q5.5 -30 18 -54q12.5 -24 33.5 -39q21 -15 53 -15q44 0 75.5 28.5q31.5 28.5 51 70.5q19.5 42 28.5 89q9 47 9 84zt0 0zM338 599q-15 7 -27.5 12.5q-12.5 5.5 -24.5 5.5q-11 0 -22.5 -6q-11.5 -6 -20.5 -26l-32 0q7 32 30 56q23 24 55 24q16 0 30 -5q14 -5 31 -13q14 -7 27 -12.5q13 -5.5 24 -5.5q11 0 22.5 6q11.5 6 19.5 27l32 0q-8 -39 -33 -60q-25 -21 -51 -21q-12 0 -23.5 3t-36.5 15z" />
<glyph unicode="&#246;" horiz-adv-x="493" d="M80 194q0 70 18.5 127q18.5 57 51 97q32.5 40 76.5 61.5q44 21.5 95 21.5q82 0 131.5 -54q49.5 -54 49.5 -152q0 -71 -18.5 -127.5q-18.5 -56.5 -51 -96q-32.5 -39.5 -76 -61q-43.5 -21.5 -93.5 -21.5q-85 0 -134 54q-49 54 -49 151zt0 0zM428 297q0 30 -5.5 60q-5.5 30 -18 54q-12.5 24 -33.5 39q-21 15 -52 15q-45 0 -76.5 -29q-31.5 -29 -51 -71q-19.5 -42 -28.5 -89q-9 -47 -9 -83q0 -30 5.5 -60q5.5 -30 18 -54q12.5 -24 33.5 -39q21 -15 53 -15q44 0 75.5 28.5q31.5 28.5 51 70.5q19.5 42 28.5 89q9 47 9 84zt0 0zM222 630q0 17 13.5 31q13.5 14 33.5 14q20 0 32.5 -14q12.5 -14 12.5 -31q0 -19 -13.5 -32.5q-13.5 -13.5 -34.5 -13.5q-20 0 -32 14q-12 14 -12 32zt0 0zM387 630q0 17 13 31q13 14 33 14q20 0 32.5 -14q12.5 -14 12.5 -31q0 -19 -13 -32.5q-13 -13.5 -34 -13.5q-20 0 -32 14t-12 32z" />
<glyph unicode="&#247;" horiz-adv-x="640" d="M322 193q0 21 15 36q15 15 37 15q20 0 35.5 -15q15.5 -15 15.5 -36q0 -22 -15.5 -37.5q-15.5 -15.5 -35.5 -15.5q-22 0 -37 15.5q-15 15.5 -15 37.5zt0 0zM322 516q0 23 15 37.5q15 14.5 37 14.5q20 0 35.5 -14.5q15.5 -14.5 15.5 -37.5q0 -21 -15.5 -36.5q-15.5 -15.5 -35.5 -15.5q-22 0 -37 15.5q-15 15.5 -15 36.5zt0 0zM613 381v-55h-479l0 55z" />
<glyph unicode="&#248;" horiz-adv-x="493" d="M73 -35l55 79q-48 54 -48 149q0 71 19 128q19 57 51.5 97q32.5 40 76.5 61.5q44 21.5 95 21.5q60 0 104 -32l53 77l29 -19l-54 -80q23 -26 35.5 -65q12.5 -39 12.5 -88q0 -70 -18.5 -126.5q-18.5 -56.5 -51 -96q-32.5 -39.5 -76 -61q-43.5 -21.5 -93.5 -21.5q-32 0 -59.5 8.5q-27.5 8.5 -49.5 24.5l-55 -78zM395 429q-14 17 -32.5 26.5q-18.5 9.5 -43.5 9.5q-45 0 -76.5 -29q-31.5 -29 -51 -71.5q-19.5 -42.5 -28.5 -90q-9 -47.5 -9 -84.5q0 -24 3.5 -49q3.5 -25 11.5 -45zM428 300q0 25 -4 50q-4 25 -12 45l-227 -332q14 -18 33 -28q19 -10 46 -10q44 0 75.5 29q31.5 29 51 71q19.5 42 28.5 89.5t9 85.5z" />
<glyph unicode="&#249;" horiz-adv-x="536" d="M117 91q0 22 2 37q2 15 4 28l50 298h-70l7 36h31q28 0 58.5 2.5q30.5 2.5 53.5 8.5l-55 -324q-2 -14 -4.5 -30.5q-2.5 -16.5 -2.5 -31.5q0 -29 14 -48.5q14 -19.5 45 -19.5q29 0 57 17.5q28 17.5 51 44q23 26.5 38.5 58q15.5 31.5 19.5 58.5l43 265h82q-8 -17 -15 -43q-7 -26 -11 -49l-58 -362h72l-7 -36h-32q-28 0 -58 -2.5q-30 -2.5 -53 -8.5l25 144h-2q-17 -28 -38 -54q-21 -26 -45 -46q-24 -20 -51 -32q-27 -12 -55 -12q-26 0 -44 8q-18 8 -29.5 22q-11.5 14 -17 32.5q-5.5 18.5 -5.5 39.5zt0 0zM337 698l46 -130h-40l-87 130z" />
<glyph unicode="&#250;" horiz-adv-x="536" d="M117 91q0 22 2 37q2 15 4 28l50 298h-70l7 36h31q28 0 58.5 2.5q30.5 2.5 53.5 8.5l-55 -324q-2 -14 -4.5 -30.5q-2.5 -16.5 -2.5 -31.5q0 -29 14 -48.5q14 -19.5 45 -19.5q29 0 57 17.5q28 17.5 51 44q23 26.5 38.5 58q15.5 31.5 19.5 58.5l43 265h82q-8 -17 -15 -43q-7 -26 -11 -49l-58 -362h72l-7 -36h-32q-28 0 -58 -2.5q-30 -2.5 -53 -8.5l25 144h-2q-17 -28 -38 -54q-21 -26 -45 -46q-24 -20 -51 -32q-27 -12 -55 -12q-26 0 -44 8q-18 8 -29.5 22q-11.5 14 -17 32.5q-5.5 18.5 -5.5 39.5zt0 0zM507 698l-127 -130h-41l86 130z" />
<glyph unicode="&#251;" horiz-adv-x="536" d="M117 91q0 22 2 37q2 15 4 28l50 298h-70l7 36h31q28 0 58.5 2.5q30.5 2.5 53.5 8.5l-55 -324q-2 -14 -4.5 -30.5q-2.5 -16.5 -2.5 -31.5q0 -29 14 -48.5q14 -19.5 45 -19.5q29 0 57 17.5q28 17.5 51 44q23 26.5 38.5 58q15.5 31.5 19.5 58.5l43 265h82q-8 -17 -15 -43q-7 -26 -11 -49l-58 -362h72l-7 -36h-32q-28 0 -58 -2.5q-30 -2.5 -53 -8.5l25 144h-2q-17 -28 -38 -54q-21 -26 -45 -46q-24 -20 -51 -32q-27 -12 -55 -12q-26 0 -44 8q-18 8 -29.5 22q-11.5 14 -17 32.5q-5.5 18.5 -5.5 39.5zt0 0zM411 685l74 -117h-49l-63 72l-84 -72h-49l112 117z" />
<glyph unicode="&#252;" horiz-adv-x="536" d="M117 91q0 22 2 37q2 15 4 28l50 298h-70l7 36h31q28 0 58.5 2.5q30.5 2.5 53.5 8.5l-55 -324q-2 -14 -4.5 -30.5q-2.5 -16.5 -2.5 -31.5q0 -29 14 -48.5q14 -19.5 45 -19.5q29 0 57 17.5q28 17.5 51 44q23 26.5 38.5 58q15.5 31.5 19.5 58.5l43 265h82q-8 -17 -15 -43q-7 -26 -11 -49l-58 -362h72l-7 -36h-32q-28 0 -58 -2.5q-30 -2.5 -53 -8.5l25 144h-2q-17 -28 -38 -54q-21 -26 -45 -46q-24 -20 -51 -32q-27 -12 -55 -12q-26 0 -44 8q-18 8 -29.5 22q-11.5 14 -17 32.5q-5.5 18.5 -5.5 39.5zt0 0zM241 630q0 17 13.5 31q13.5 14 33.5 14q20 0 32.5 -14q12.5 -14 12.5 -31q0 -19 -13.5 -32.5q-13.5 -13.5 -34.5 -13.5q-20 0 -32 14q-12 14 -12 32zt0 0zM406 630q0 17 13 31q13 14 33 14q20 0 32.5 -14q12.5 -14 12.5 -31q0 -19 -13 -32.5q-13 -13.5 -34 -13.5q-20 0 -32 14t-12 32z" />
<glyph unicode="&#253;" horiz-adv-x="497" d="M83 -188q11 0 30.5 10q19.5 10 43 31.5q23.5 21.5 49.5 54.5q26 33 52 80l-119 466h-69l6 36h14q29 0 60.5 3q31.5 3 54.5 8l86 -358q4 -14 8 -36q4 -22 8 -46l3 0q19 31 42 78q23 47 45 100.5q22 53.5 39.5 109.5q17.5 56 25.5 105l-72 0l5 36h30q18 0 45 2.5q27 2.5 53 8.5l-2 -28q-14 -54 -39 -127q-25 -73 -60.5 -152q-35.5 -79 -79.5 -157.5q-44 -78.5 -96 -142q-52 -63.5 -110.5 -106q-58.5 -42.5 -121.5 -49.5l14 73zM472 698l-127 -130h-41l86 130z" />
<glyph unicode="&#254;" horiz-adv-x="526" d="M212 693h-71l5 36h32q28 0 58.5 2.5q30.5 2.5 53.5 8.5l-38 -239q-6 -32 -11 -63.5q-5 -31.5 -11 -64.5l1 0q11 19 28 41q17 22 39 41.5q22 19.5 49.5 32.5q27.5 13 60.5 13q32 0 56 -13.5q24 -13.5 39.5 -37.5q15.5 -24 23 -57q7.5 -33 7.5 -72q0 -69 -17.5 -129.5q-17.5 -60.5 -48.5 -105.5q-31 -45 -74 -71q-43 -26 -95 -26q-42 0 -72 20q-30 20 -47 44l-2 0q-2 -20 -4.5 -37q-2.5 -17 -4.5 -31l-37 -235h-82q8 17 15.5 43q7.5 26 10.5 49zM459 312q0 26 -4.5 49.5q-4.5 23.5 -14.5 41.5q-10 18 -26.5 29q-16.5 11 -40.5 11q-33 0 -60.5 -17.5q-27.5 -17.5 -48 -42q-20.5 -24.5 -32.5 -52q-12 -27.5 -15 -46.5l-31 -187q14 -20 39 -39q25 -19 66 -19q36 0 66.5 18q30.5 18 53 53q22.5 35 35.5 85.5t13 115.5z" />
<glyph unicode="&#255;" horiz-adv-x="497" d="M83 -188q11 0 30.5 10q19.5 10 43 31.5q23.5 21.5 49.5 54.5q26 33 52 80l-119 466h-69l6 36h14q29 0 60.5 3q31.5 3 54.5 8l86 -358q4 -14 8 -36q4 -22 8 -46l3 0q19 31 42 78q23 47 45 100.5q22 53.5 39.5 109.5q17.5 56 25.5 105l-72 0l5 36h30q18 0 45 2.5q27 2.5 53 8.5l-2 -28q-14 -54 -39 -127q-25 -73 -60.5 -152q-35.5 -79 -79.5 -157.5q-44 -78.5 -96 -142q-52 -63.5 -110.5 -106q-58.5 -42.5 -121.5 -49.5l14 73zM211 630q0 17 13.5 31q13.5 14 33.5 14q20 0 32.5 -14q12.5 -14 12.5 -31q0 -19 -13.5 -32.5q-13.5 -13.5 -34.5 -13.5q-20 0 -32 14q-12 14 -12 32zt0 0zM376 630q0 17 13 31q13 14 33 14q20 0 32.5 -14q12.5 -14 12.5 -31q0 -19 -13 -32.5q-13 -13.5 -34 -13.5q-20 0 -32 14t-12 32z" />
<glyph unicode="&#256;" horiz-adv-x="718" d="M57 41q43 0 75 64l302 595h76l126 -659h71l-7 -41h-234l8 41h39q20 0 27 11.5q7 11.5 7 26.5q0 12 -3 24l-17 101h-291l-48 -100q-6 -11 -11 -22q-5 -11 -5 -21q0 -20 22 -20h41l-6 -41h-209l7 41zM463 557q-3 14 -6.5 35.5q-3.5 21.5 -5.5 38.5l-4 0q-8 -19 -17.5 -38.5q-9.5 -19.5 -17.5 -33.5l-155 -311h264zM627 863l-9 -52h-263l10 52z" />
<glyph unicode="&#257;" horiz-adv-x="520" d="M82 167q0 70 17 131q17 61 47.5 106q30.5 45 73.5 71q43 26 96 26q42 0 72 -19.5q30 -19.5 51 -47.5l1 0l20 56h66q-8 -17 -15 -43q-7 -26 -11 -49l-58 -362h72l-7 -36h-32q-28 0 -56.5 -2.5q-28.5 -2.5 -55.5 -8.5l23 128h-2q-11 -19 -28 -41q-17 -22 -39 -41.5q-22 -19.5 -49.5 -32.5q-27.5 -13 -59.5 -13q-32 0 -56 13.5q-24 13.5 -39.5 37.5q-15.5 24 -23 56.5q-7.5 32.5 -7.5 70.5zt0 0zM428 392q-14 20 -38 39q-24 19 -65 19q-36 0 -67 -18.5q-31 -18.5 -53.5 -54q-22.5 -35.5 -35.5 -87.5q-13 -52 -13 -118q0 -24 4.5 -46.5q4.5 -22.5 14.5 -40q10 -17.5 26 -28q16 -10.5 40 -10.5q33 0 60.5 17.5q27.5 17.5 48 42q20.5 24.5 33.5 51.5q13 27 16 47zM484 648l-9 -49h-223l9 49z" />
<glyph unicode="&#258;" horiz-adv-x="718" d="M57 41q43 0 75 64l302 595h76l126 -659h71l-7 -41h-234l8 41h39q20 0 27 11.5q7 11.5 7 26.5q0 12 -3 24l-17 101h-291l-48 -100q-6 -11 -11 -22q-5 -11 -5 -21q0 -20 22 -20h41l-6 -41h-209l7 41zM463 557q-3 14 -6.5 35.5q-3.5 21.5 -5.5 38.5l-4 0q-8 -19 -17.5 -38.5q-9.5 -19.5 -17.5 -33.5l-155 -311h264zM403 908q5 -31 24.5 -52q19.5 -21 61.5 -21q42 0 68 21q26 21 42 52l40 0q-9 -32 -25.5 -56q-16.5 -24 -37.5 -40q-21 -16 -45.5 -24q-24.5 -8 -49.5 -8q-24 0 -45.5 8q-21.5 8 -38 24q-16.5 16 -25.5 40q-9 24 -9 56z" />
<glyph unicode="&#259;" horiz-adv-x="520" d="M82 167q0 70 17 131q17 61 47.5 106q30.5 45 73.5 71q43 26 96 26q42 0 72 -19.5q30 -19.5 51 -47.5l1 0l20 56h66q-8 -17 -15 -43q-7 -26 -11 -49l-58 -362h72l-7 -36h-32q-28 0 -56.5 -2.5q-28.5 -2.5 -55.5 -8.5l23 128h-2q-11 -19 -28 -41q-17 -22 -39 -41.5q-22 -19.5 -49.5 -32.5q-27.5 -13 -59.5 -13q-32 0 -56 13.5q-24 13.5 -39.5 37.5q-15.5 24 -23 56.5q-7.5 32.5 -7.5 70.5zt0 0zM428 392q-14 20 -38 39q-24 19 -65 19q-36 0 -67 -18.5q-31 -18.5 -53.5 -54q-22.5 -35.5 -35.5 -87.5q-13 -52 -13 -118q0 -24 4.5 -46.5q4.5 -22.5 14.5 -40q10 -17.5 26 -28q16 -10.5 40 -10.5q33 0 60.5 17.5q27.5 17.5 48 42q20.5 24.5 33.5 51.5q13 27 16 47zM287 680q5 -26 22 -44q17 -18 54 -18q36 0 58.5 18q22.5 18 36.5 44l36 0q-17 -55 -56 -83q-39 -28 -83 -28q-22 0 -41 7q-19 7 -33.5 21q-14.5 14 -22.5 35q-8 21 -7 48z" />
<glyph unicode="&#260;" horiz-adv-x="718" d="M57 41q43 0 75 64l302 595h76l126 -659h71l-7 -41h-234l8 41h39q20 0 27 11.5q7 11.5 7 26.5q0 12 -3 24l-17 101h-291l-48 -100q-6 -11 -11 -22q-5 -11 -5 -21q0 -20 22 -20h41l-6 -41h-209l7 41zM463 557q-3 14 -6.5 35.5q-3.5 21.5 -5.5 38.5l-4 0q-8 -19 -17.5 -38.5q-9.5 -19.5 -17.5 -33.5l-155 -311h264zM503 -135q0 38 29.5 77q29.5 39 83.5 75l41 0q-44 -33 -69 -65.5q-25 -32.5 -25 -67.5q0 -18 10 -30.5q10 -12.5 31 -12.5q9 0 21.5 3.5q12.5 3.5 26.5 11.5l12 -39q-20 -14 -42 -20q-22 -6 -39 -6q-44 0 -62 22t-18 52z" />
<glyph unicode="&#261;" horiz-adv-x="520" d="M82 167q0 70 17 131q17 61 47.5 106q30.5 45 73.5 71q43 26 96 26q42 0 72 -19.5q30 -19.5 51 -47.5l1 0l20 56h66q-8 -17 -15 -43q-7 -26 -11 -49l-58 -362h72l-7 -36h-32q-28 0 -56.5 -2.5q-28.5 -2.5 -55.5 -8.5l23 128h-2q-11 -19 -28 -41q-17 -22 -39 -41.5q-22 -19.5 -49.5 -32.5q-27.5 -13 -59.5 -13q-32 0 -56 13.5q-24 13.5 -39.5 37.5q-15.5 24 -23 56.5q-7.5 32.5 -7.5 70.5zt0 0zM428 392q-14 20 -38 39q-24 19 -65 19q-36 0 -67 -18.5q-31 -18.5 -53.5 -54q-22.5 -35.5 -35.5 -87.5q-13 -52 -13 -118q0 -24 4.5 -46.5q4.5 -22.5 14.5 -40q10 -17.5 26 -28q16 -10.5 40 -10.5q33 0 60.5 17.5q27.5 17.5 48 42q20.5 24.5 33.5 51.5q13 27 16 47zM342 -123q0 35 26 69.5q26 34.5 74 65.5l41 0q-42 -29 -64.5 -57.5q-22.5 -28.5 -22.5 -60.5q0 -16 9.5 -26q9.5 -10 26.5 -10q12 0 23.5 2.5q11.5 2.5 22.5 10.5l13 -34q-20 -14 -39 -19q-19 -5 -34 -5q-39 0 -57.5 18t-18.5 46z" />
<glyph unicode="&#262;" horiz-adv-x="583" d="M95 264q0 97 24.5 179q24.5 82 69.5 141.5q45 59.5 108 93q63 33.5 140 33.5q66 0 116.5 -24q50.5 -24 79.5 -65l-18 -113h-64l4 24q1 7 1.5 13.5q0.5 6.5 0.5 14.5q0 32 -12 53q-12 21 -30 33.5q-18 12.5 -40.5 17.5q-22.5 5 -43.5 5q-60 0 -107.5 -37q-47.5 -37 -80.5 -95q-33 -58 -50 -129.5q-17 -71.5 -17 -139.5q0 -50 9.5 -94q9.5 -44 30 -76q20.5 -32 52 -50.5q31.5 -18.5 75.5 -18.5q20 0 45 5q25 5 47.5 18.5q22.5 13.5 39.5 37q17 23.5 22 60.5l4 25h64l-18 -105q-39 -38 -96 -60q-57 -22 -114 -22q-53 0 -97.5 16q-44.5 16 -76.5 49.5q-32 33.5 -50 85.5q-18 52 -18 124zt0 0zM606 921l-142 -144h-43l92 144z" />
<glyph unicode="&#263;" horiz-adv-x="426" d="M80 184q0 75 19.5 134q19.5 59 53 99.5q33.5 40.5 78 62q44.5 21.5 94.5 21.5q54 0 88 -22q34 -22 49 -47v-85h-72l3 17q1 6 1.5 12.5q0.5 6.5 0.5 13.5q0 21 -6.5 35.5q-6.5 14.5 -16.5 23.5q-10 9 -23.5 12.5q-13.5 3.5 -26.5 3.5q-42 0 -74 -25.5q-32 -25.5 -53 -66q-21 -40.5 -31.5 -89.5q-10.5 -49 -10.5 -97q0 -29 6 -57q6 -28 19 -49.5q13 -21.5 34 -34.5q21 -13 51 -13q39 0 70 19q31 19 57 51l26 -22q-13 -17 -30.5 -33.5q-17.5 -16.5 -39 -29.5q-21.5 -13 -46.5 -21q-25 -8 -52 -8q-35 0 -65.5 12q-30.5 12 -53.5 36q-23 24 -36 60.5q-13 36.5 -13 86.5zt0 0zM468 698l-127 -130h-41l86 130z" />
<glyph unicode="&#264;" horiz-adv-x="583" d="M95 264q0 97 24.5 179q24.5 82 69.5 141.5q45 59.5 108 93q63 33.5 140 33.5q66 0 116.5 -24q50.5 -24 79.5 -65l-18 -113h-64l4 24q1 7 1.5 13.5q0.5 6.5 0.5 14.5q0 32 -12 53q-12 21 -30 33.5q-18 12.5 -40.5 17.5q-22.5 5 -43.5 5q-60 0 -107.5 -37q-47.5 -37 -80.5 -95q-33 -58 -50 -129.5q-17 -71.5 -17 -139.5q0 -50 9.5 -94q9.5 -44 30 -76q20.5 -32 52 -50.5q31.5 -18.5 75.5 -18.5q20 0 45 5q25 5 47.5 18.5q22.5 13.5 39.5 37q17 23.5 22 60.5l4 25h64l-18 -105q-39 -38 -96 -60q-57 -22 -114 -22q-53 0 -97.5 16q-44.5 16 -76.5 49.5q-32 33.5 -50 85.5q-18 52 -18 124zt0 0zM512 915l88 -134h-54l-74 84l-101 -84h-52l129 134z" />
</font>
</defs>
</svg>
