<?xml version="1.0" encoding="UTF-8" standalone="no"?>
<!DOCTYPE svg PUBLIC "-//W3C//DTD SVG 1.1//EN" "http://www.w3.org/Graphics/SVG/1.1/DTD/svg11.dtd" >
<svg xmlns="http://www.w3.org/2000/svg">
<metadata>
Generated by SVGconv.
Copyright   : Copyright  2016 ParaType Inc., ParaType Ltd. All rights reserved.
Designer    : Manvel Shmavonyan
Foundry     : ParaType Ltd
Foundry URL : http://www.paratype.com
</metadata>
<defs>
<font id="MediatorWeb-Regular" horiz-adv-x="558" >
<font-face units-per-em="1000" ascent="1005" descent="331" >
<font-face-src>
<font-face-name/>
</font-face-src>
</font-face>
<missing-glyph horiz-adv-x="500" />
<glyph unicode="&#13;" horiz-adv-x="300" />
<glyph unicode="&#32;" horiz-adv-x="300" />
<glyph unicode="&#33;" horiz-adv-x="294" d="M194 90v-90h-94v90zM200 700l-17 -509h-72l-17 509z" />
<glyph unicode="&#34;" horiz-adv-x="420" d="M173 700l-17 -201h-59l-17 201zM340 700l-17 -201h-59l-17 201z" />
<glyph unicode="&#35;" horiz-adv-x="620" d="M35 198l6 63h107l31 193h-102l6 63h107l24 146h71l-24 -146h150l24 146h71l-24 -146h103l-6 -63h-107l-32 -193h103l-6 -63h-107l-24 -148h-71l24 148h-151l-24 -148h-71l24 148zM401 454h-151l-31 -193l150 0z" />
<glyph unicode="&#36;" horiz-adv-x="567" d="M259 -8q-66 5 -118 31q-52 26 -86 65l44 60q26 -30 67 -54q41 -24 93 -29l0 260q-49 23 -85 45q-36 22 -59 46q-23 24 -34.5 52.5q-11.5 28.5 -11.5 64.5q0 76 50.5 122q50.5 46 139.5 53l0 97h63v-98q61 -8 103.5 -34q42.5 -26 68.5 -55l-48 -56q-25 23 -54 43q-29 20 -70 27l0 -253q49 -24 85 -44.5q36 -20.5 59 -43q23 -22.5 34.5 -50.5q11.5 -28 11.5 -65q0 -42 -15.5 -74.5q-15.5 -32.5 -41.5 -55q-26 -22.5 -60.5 -36q-34.5 -13.5 -72.5 -17.5l0 -107h-63zM259 633q-54 -6 -78.5 -33q-24.5 -27 -24.5 -65q0 -42 23.5 -70q23.5 -28 79.5 -56zM425 171q0 46 -28 73.5q-28 27.5 -75 50.5l0 -229q48 8 75.5 35t27.5 70z" />
<glyph unicode="&#37;" horiz-adv-x="917" d="M75 516q0 39 10 74q10 35 29.5 61.5q19.5 26.5 49.5 42q30 15.5 70 15.5q40 0 70 -15.5q30 -15.5 49.5 -42q19.5 -26.5 29.5 -61.5q10 -35 10 -74q0 -39 -10 -74.5q-10 -35.5 -29.5 -62q-19.5 -26.5 -49.5 -42q-30 -15.5 -70 -15.5q-40 0 -70 15.5q-30 15.5 -49.5 42q-19.5 26.5 -29.5 62q-10 35.5 -10 74.5zt0 0zM316 516q0 25 -4.5 50q-4.5 25 -14.5 44q-10 19 -25.5 31q-15.5 12 -37.5 12q-22 0 -37.5 -12q-15.5 -12 -25.5 -31q-10 -19 -14.5 -44q-4.5 -25 -4.5 -50q0 -40 7.5 -66.5q7.5 -26.5 19.5 -42q12 -15.5 26.5 -22q14.5 -6.5 28.5 -6.5q13 0 27.5 6.5q14.5 6.5 26.5 22q12 15.5 20 42q8 26.5 8 66.5zt0 0zM524 184q0 39 10 74q10 35 30 61.5q20 26.5 49.5 42.5q29.5 16 69.5 16q40 0 70 -16q30 -16 50 -42.5q20 -26.5 29.5 -61.5q9.5 -35 9.5 -74q0 -39 -9.5 -74q-9.5 -35 -29.5 -61.5q-20 -26.5 -50 -42q-30 -15.5 -70 -15.5q-40 0 -69.5 15.5q-29.5 15.5 -49.5 42q-20 26.5 -30 61.5q-10 35 -10 74zt0 0zM765 184q0 26 -4.5 50.5q-4.5 24.5 -14.5 44q-10 19.5 -25.5 31q-15.5 11.5 -37.5 11.5q-22 0 -37.5 -11.5q-15.5 -11.5 -25 -31q-9.5 -19.5 -14 -44q-4.5 -24.5 -4.5 -50.5q0 -40 7.5 -66.5q7.5 -26.5 19.5 -42q12 -15.5 26 -22q14 -6.5 28 -6.5q14 0 28.5 6.5q14.5 6.5 26.5 22q12 15.5 19.5 42q7.5 26.5 7.5 66.5zt0 0zM665 712l54 -37l-468 -689l-54 38z" />
<glyph unicode="&#38;" horiz-adv-x="662" d="M60 183q0 45 13.5 78.5q13.5 33.5 35 58q21.5 24.5 49.5 41.5q28 17 57 30q-34 36 -59 79q-25 43 -25 85q0 22 9 49q9 27 30.5 50.5q21.5 23.5 57.5 39q36 15.5 89 15.5q81 0 126.5 -39q45.5 -39 45.5 -112q0 -33 -12.5 -59.5q-12.5 -26.5 -34 -48.5q-21.5 -22 -51 -41q-29.5 -19 -63.5 -35l165 -200q13 17 23 43.5q10 26.5 15 46.5l77 0q-5 -22 -12.5 -43q-7.5 -21 -17 -39.5q-9.5 -18.5 -19 -33.5q-9.5 -15 -18.5 -24l106 -124h-102l-56 67q-31 -28 -79 -52q-48 -24 -118 -24q-54 0 -97 14q-43 14 -73 39.5q-30 25.5 -46 61q-16 35.5 -16 77.5zt0 0zM404 554q0 16 -4.5 31.5q-4.5 15.5 -15 28q-10.5 12.5 -27.5 20q-17 7.5 -41 7.5q-45 0 -72 -22.5q-27 -22.5 -27 -64.5q0 -28 14.5 -59q14.5 -31 56.5 -75q67 30 91.5 63q24.5 33 24.5 71zt0 0zM259 342q-56 -24 -84.5 -60.5q-28.5 -36.5 -28.5 -98.5q0 -18 7 -39q7 -21 24 -39.5q17 -18.5 46 -31q29 -12.5 74 -12.5q51 0 86 15.5q35 15.5 61 43.5z" />
<glyph unicode="&#39;" horiz-adv-x="253" d="M173 700l-17 -201h-59l-17 201z" />
<glyph unicode="&#40;" horiz-adv-x="369" d="M212 -186q-24 42 -45.5 95.5q-21.5 53.5 -37 113.5q-15.5 60 -25 125.5q-9.5 65.5 -9.5 131.5q0 66 9.5 131.5q9.5 65.5 25 125.5q15.5 60 37 113.5q21.5 53.5 45.5 95.5l19 34l63 -27l-7 -16q-21 -44 -40 -94q-19 -50 -33.5 -107q-14.5 -57 -23 -121q-8.5 -64 -8.5 -135q0 -71 8.5 -135q8.5 -64 23 -121q14.5 -57 33.5 -107.5q19 -50.5 40 -93.5l7 -16l-63 -27l-19 34z" />
<glyph unicode="&#41;" horiz-adv-x="369" d="M82 -177q21 43 40 93.5q19 50.5 33.5 107.5q14.5 57 23.5 121q9 64 9 135q0 71 -9 135q-9 64 -23.5 121q-14.5 57 -33.5 107q-19 50 -40 94l-7 16l64 27l19 -34q24 -42 45 -95.5q21 -53.5 37 -113.5q16 -60 25 -125.5q9 -65.5 9 -131.5q0 -66 -9 -131.5q-9 -65.5 -25 -125.5q-16 -60 -37 -113.5q-21 -53.5 -45 -95.5l-19 -34l-64 27z" />
<glyph unicode="&#42;" horiz-adv-x="463" d="M202 482l-105 -70l-32 53l113 56v8l-113 56l31 54l106 -70l6 4l-7 127h62l-8 -127l6 -4l106 70l31 -53l-113 -57v-8l113 -55l-31 -54l-106 70l-6 -4l8 -127h-62l7 127z" />
<glyph unicode="&#43;" horiz-adv-x="658" d="M75 319v68h220v220h68v-220h220v-68h-220v-220h-68l0 220z" />
<glyph unicode="&#44;" horiz-adv-x="282" d="M187 94l-42 -241h-50l0 241z" />
<glyph unicode="&#45;" horiz-adv-x="482" d="M387 303v-73h-292l0 73z" />
<glyph unicode="&#46;" horiz-adv-x="282" d="M187 94v-94h-92l0 94z" />
<glyph unicode="&#47;" horiz-adv-x="565" d="M452 777l66 -26l-404 -955l-67 27z" />
<glyph unicode="&#48;" horiz-adv-x="598" d="M57 350q0 175 61.5 267q61.5 92 179.5 92q119 0 181 -92q62 -92 62 -267q0 -176 -62 -267.5q-62 -91.5 -181 -91.5q-118 0 -179.5 91.5q-61.5 91.5 -61.5 267.5zt0 0zM452 350q0 151 -40.5 219q-40.5 68 -113.5 68q-73 0 -112.5 -68q-39.5 -68 -39.5 -219q0 -151 39.5 -219q39.5 -68 112.5 -68q73 0 113.5 68t40.5 219z" />
<glyph unicode="&#49;" horiz-adv-x="392" d="M47 524l-35 60l197 116h76v-700h-87l0 612z" />
<glyph unicode="&#50;" horiz-adv-x="544" d="M162 179q72 68 117 115q45 47 69.5 84q24.5 37 33.5 68.5q9 31.5 9 67.5q0 24 -7 45.5q-7 21.5 -23 38q-16 16.5 -40.5 26.5q-24.5 10 -60.5 10q-54 0 -96.5 -25q-42.5 -25 -69.5 -57l-52 52q15 19 38 38q23 19 52.5 34q29.5 15 65 24q35.5 9 76.5 9q63 0 103.5 -17q40.5 -17 64 -43.5q23.5 -26.5 32.5 -59.5q9 -33 9 -66q0 -47 -14 -88q-14 -41 -44.5 -84q-30.5 -43 -78.5 -91.5q-48 -48.5 -116 -110.5l-81 -74v-1h338v-74h-445l0 66z" />
<glyph unicode="&#51;" horiz-adv-x="549" d="M63 137q12 -12 28 -25q16 -13 37.5 -23.5q21.5 -10.5 47.5 -17q26 -6.5 58 -6.5q71 0 115 34.5q44 34.5 44 98.5q0 31 -11 55q-11 24 -30.5 39.5q-19.5 15.5 -46.5 23.5q-27 8 -58 8h-79v66h75q30 0 56.5 10q26.5 10 46.5 27.5q20 17.5 31.5 41.5q11.5 24 11.5 52q0 55 -37 84q-37 29 -100 29q-51 0 -92 -20q-41 -20 -73 -52l-47 51q22 25 49.5 43q27.5 18 57 30q29.5 12 60 17.5q30.5 5.5 59.5 5.5q55 0 95 -13q40 -13 66 -36.5q26 -23.5 38.5 -55.5q12.5 -32 12.5 -71q0 -31 -11 -59q-11 -28 -30 -50.5q-19 -22.5 -44 -38.5q-25 -16 -53 -22l0 -4q68 -8 105 -52q37 -44 37 -112q0 -42 -16 -79q-16 -37 -47 -64.5q-31 -27.5 -76.5 -44q-45.5 -16.5 -103.5 -16.5q-70 0 -127 26q-57 26 -90 65z" />
<glyph unicode="&#52;" horiz-adv-x="609" d="M42 196v59l322 445h88v-431h120v-73h-120v-196h-87v196zM367 587h-3l-231 -318v-2l234 0z" />
<glyph unicode="&#53;" horiz-adv-x="553" d="M74 135q29 -29 69.5 -49.5q40.5 -20.5 95.5 -20.5q82 0 125 44.5q43 44.5 43 125.5q0 40 -11.5 68q-11.5 28 -30 45q-18.5 17 -43 25q-24.5 8 -51.5 8q-48 0 -78.5 -15.5q-30.5 -15.5 -58.5 -44.5l-56 19l46 360h351v-74h-291l-31 -225h3q26 23 61 38.5q35 15.5 80 15.5q52 0 89.5 -16.5q37.5 -16.5 62 -46q24.5 -29.5 36 -69q11.5 -39.5 11.5 -84.5q0 -56 -19 -102q-19 -46 -52.5 -78.5q-33.5 -32.5 -79.5 -50q-46 -17.5 -99 -17.5q-61 0 -119.5 23.5q-58.5 23.5 -94.5 65.5z" />
<glyph unicode="&#54;" horiz-adv-x="565" d="M54 276q0 110 26 191.5q26 81.5 73.5 135q47.5 53.5 114 80q66.5 26.5 146.5 26.5q14 0 36 -2.5q22 -2.5 41 -6.5l-10 -70q-14 2 -33 3.5q-19 1.5 -32 1.5q-122 0 -195.5 -74q-73.5 -74 -83.5 -228l4 0q25 51 72 80q47 29 106 29q45 0 82 -15q37 -15 63.5 -43q26.5 -28 41 -68.5q14.5 -40.5 14.5 -91.5q0 -53 -18 -96q-18 -43 -48.5 -73.5q-30.5 -30.5 -72.5 -47q-42 -16.5 -90 -16.5q-114 0 -175.5 74.5q-61.5 74.5 -61.5 210.5zt0 0zM431 220q0 69 -34 108.5q-34 39.5 -100 39.5q-31 0 -56 -12.5q-25 -12.5 -44.5 -31q-19.5 -18.5 -32.5 -41.5q-13 -23 -20 -44q1 -95 40.5 -135.5q39.5 -40.5 104.5 -40.5q29 0 54.5 9q25.5 9 45 28q19.5 19 31 48.5t11.5 71.5z" />
<glyph unicode="&#55;" horiz-adv-x="515" d="M377 626h-340v74h426v-61l-283 -639h-102l299 624z" />
<glyph unicode="&#56;" horiz-adv-x="586" d="M54 178q0 62 39 106.5q39 44.5 113 73.5l0 2q-46 18 -73.5 39q-27.5 21 -41.5 43q-14 22 -18.5 44q-4.5 22 -4.5 42q0 40 17 73.5q17 33.5 47 57.5q30 24 71 37q41 13 89 13q57 0 99 -15q42 -15 70 -40q28 -25 41.5 -57.5q13.5 -32.5 13.5 -67.5q0 -20 -6 -42.5q-6 -22.5 -21.5 -44.5q-15.5 -22 -42.5 -42q-27 -20 -69 -36l0 -2q82 -30 118.5 -76.5q36.5 -46.5 36.5 -107.5q0 -33 -14 -66.5q-14 -33.5 -43.5 -60q-29.5 -26.5 -75 -43.5q-45.5 -17 -107.5 -17q-48 0 -91.5 12q-43.5 12 -76 35.5q-32.5 23.5 -51.5 58.5q-19 35 -19 81zt0 0zM443 183q0 31 -14 55q-14 24 -36.5 42q-22.5 18 -50 31q-27.5 13 -54.5 22q-20 -6 -45 -17.5q-25 -11.5 -47 -29.5q-22 -18 -37.5 -43q-15.5 -25 -15.5 -59q0 -33 13.5 -56q13.5 -23 34.5 -37.5q21 -14.5 47.5 -21q26.5 -6.5 53.5 -6.5q68 0 109.5 33.5q41.5 33.5 41.5 86.5zt0 0zM427 522q0 56 -36 85.5q-36 29.5 -99 29.5q-58 0 -96.5 -31q-38.5 -31 -38.5 -84q0 -27 11 -47q11 -20 30 -36q19 -16 45.5 -28q26.5 -12 56.5 -22q67 23 97 56.5t30 76.5z" />
<glyph unicode="&#57;" horiz-adv-x="565" d="M84 70q14 -2 33 -3.5q19 -1.5 32 -1.5q61 0 110 18q49 18 85 55.5q36 37.5 57 93.5q21 56 26 133l-4 0q-26 -50 -72 -78q-46 -28 -105 -28q-45 0 -82 15q-37 15 -63.5 43.5q-26.5 28.5 -41 68.5q-14.5 40 -14.5 91q0 53 18 96q18 43 49 73q31 30 73 46.5q42 16.5 90 16.5q118 0 177 -70q59 -70 59 -215q0 -110 -26 -191.5q-26 -81.5 -73.5 -135q-47.5 -53.5 -114 -80q-66.5 -26.5 -146.5 -26.5q-14 0 -36 2.5q-22 2.5 -41 6.5zM420 461q-2 92 -40.5 134q-38.5 42 -103.5 42q-29 0 -55 -9q-26 -9 -45.5 -29q-19.5 -20 -31 -51q-11.5 -31 -11.5 -76q0 -63 34.5 -101.5q34.5 -38.5 100.5 -38.5q31 0 56 12.5q25 12.5 44 31q19 18.5 32 41.5t20 44z" />
<glyph unicode="&#58;" horiz-adv-x="282" d="M187 94v-94h-92v94zM187 490v-94h-92l0 94z" />
<glyph unicode="&#59;" horiz-adv-x="282" d="M187 94l-42 -241h-50v241zM187 490v-94h-92l0 94z" />
<glyph unicode="&#60;" horiz-adv-x="640" d="M75 370l490 281v-77l-386 -220v-2l386 -220v-78l-490 282z" />
<glyph unicode="&#61;" horiz-adv-x="658" d="M583 286v-68h-508v68zM583 476v-68h-508l0 68z" />
<glyph unicode="&#62;" horiz-adv-x="640" d="M461 352v2l-386 220v77l490 -281v-34l-490 -282l0 78z" />
<glyph unicode="&#63;" horiz-adv-x="509" d="M173 224q0 15 2 30.5q2 15.5 9 31q7 15.5 20 32q13 16.5 35 34.5l32 26q27 22 46 40.5q19 18.5 31 36q12 17.5 18 36q6 18.5 6 41.5q0 18 -6.5 36q-6.5 18 -21.5 32.5q-15 14.5 -39.5 24q-24.5 9.5 -60.5 9.5q-35 0 -63 -11q-28 -11 -49 -26.5q-21 -15.5 -35.5 -32.5q-14.5 -17 -22.5 -28l-61 46q12 20 32.5 42.5q20.5 22.5 51 41q30.5 18.5 70.5 31q40 12.5 90 12.5q58 0 97.5 -14q39.5 -14 64 -36.5q24.5 -22.5 35 -51q10.5 -28.5 10.5 -56.5q0 -37 -9 -65.5q-9 -28.5 -25.5 -52.5q-16.5 -24 -40.5 -45.5q-24 -21.5 -53 -45.5l-30 -25q-29 -24 -36.5 -47.5q-7.5 -23.5 -7.5 -46.5v-32h-89zM265 90v-90h-94l0 90z" />
<glyph unicode="&#64;" horiz-adv-x="818" d="M50 247q0 75 26.5 142.5q26.5 67.5 74.5 118.5q48 51 114.5 81q66.5 30 146.5 30q72 0 136.5 -22q64.5 -22 113.5 -63q49 -41 77.5 -100q28.5 -59 28.5 -133q0 -67 -19.5 -114.5q-19.5 -47.5 -49 -78q-29.5 -30.5 -65 -44.5q-35.5 -14 -67.5 -14q-16 0 -31.5 3.5q-15.5 3.5 -28 11.5q-12.5 8 -20 22q-7.5 14 -7.5 35q0 5 0.5 13q0.5 8 2.5 15v0q-25 -40 -62 -69.5q-37 -29.5 -88 -29.5q-32 0 -54 12q-22 12 -36 31.5q-14 19.5 -20 45.5q-6 26 -6 55q0 38 11.5 84.5q11.5 46.5 36.5 87.5q25 41 64 69q39 28 93 28q31 0 56 -14q25 -14 39 -34l1 0l15 41h53l-40 -269q-2 -13 -3 -26q-1 -13 -1 -26q0 -17 11 -25q11 -8 25 -8q32 0 57 16q25 16 41.5 43q16.5 27 25 63q8.5 36 8.5 75q0 51 -20 99q-20 48 -58 85.5q-38 37.5 -93 60.5q-55 23 -126 23q-54 0 -108 -20.5q-54 -20.5 -97.5 -61q-43.5 -40.5 -71 -100q-27.5 -59.5 -27.5 -138.5q0 -77 24.5 -134.5q24.5 -57.5 66.5 -95.5q42 -38 97.5 -57q55.5 -19 117.5 -19q39 0 84 9q45 9 76 30l21 -49q-35 -20 -85 -31q-50 -11 -97 -11q-77 0 -143 23.5q-66 23.5 -115.5 69q-49.5 45.5 -77.5 112q-28 66.5 -28 152.5zt0 0zM505 356q-8 18 -27.5 35.5q-19.5 17.5 -55.5 17.5q-28 0 -52 -18q-24 -18 -42 -47.5q-18 -29.5 -28 -67q-10 -37.5 -10 -76.5q0 -17 3 -32.5q3 -15.5 10 -27.5q7 -12 18.5 -19.5q11.5 -7.5 28.5 -7.5q25 0 46.5 12q21.5 12 38.5 29q17 17 30 36q13 19 21 33z" />
<glyph unicode="&#65;" horiz-adv-x="715" d="M378 546q-5 14 -10 30.5q-5 16.5 -10 34.5l-5 0q-5 -17 -10.5 -34.5q-5.5 -17.5 -10.5 -29.5l-113 -284h272zM405 700l280 -700h-91l-78 190h-322l-76 -190h-88l281 700z" />
<glyph unicode="&#66;" horiz-adv-x="633" d="M351 700q37 0 74 -7q37 -7 67 -26.5q30 -19.5 48.5 -53.5q18.5 -34 18.5 -87q0 -56 -35.5 -99q-35.5 -43 -95.5 -55l0 -4q44 -7 73 -23.5q29 -16.5 46 -39.5q17 -23 24 -49.5q7 -26.5 7 -53.5q0 -61 -25 -100.5q-25 -39.5 -61.5 -62q-36.5 -22.5 -77.5 -31q-41 -8.5 -73 -8.5h-248v700zM323 69q26 0 55 5.5q29 5.5 53 20q24 14.5 40 41q16 26.5 16 68.5q0 59 -40 92.5q-40 33.5 -109 33.5h-158v-261zM324 395q21 0 46 6q25 6 47 20.5q22 14.5 36.5 38.5q14.5 24 14.5 61q0 59 -37 84.5q-37 25.5 -95 25.5h-156l0 -236z" />
<glyph unicode="&#67;" horiz-adv-x="629" d="M58 348q0 82 22.5 149q22.5 67 64 114q41.5 47 100.5 72.5q59 25.5 133 25.5q42 0 76 -7.5q34 -7.5 62 -20.5q28 -13 50 -30q22 -17 39 -36l-50 -57q-31 31 -72 53.5q-41 22.5 -105 22.5q-59 0 -102.5 -24.5q-43.5 -24.5 -72 -64.5q-28.5 -40 -42.5 -91.5q-14 -51.5 -14 -105.5q0 -63 14 -115q14 -52 42.5 -89.5q28.5 -37.5 72.5 -58q44 -20.5 104 -20.5q60 0 104.5 24.5q44.5 24.5 77.5 59.5l45 -55q-38 -45 -98.5 -74q-60.5 -29 -135.5 -29q-68 0 -126 20q-58 20 -100 62.5q-42 42.5 -65.5 110.5t-23.5 164z" />
<glyph unicode="&#68;" horiz-adv-x="697" d="M297 700q76 0 139 -17.5q63 -17.5 108 -58q45 -40.5 70 -107q25 -66.5 25 -164.5q0 -89 -29 -155q-29 -66 -77.5 -110q-48.5 -44 -111 -66q-62.5 -22 -129.5 -22h-199v700zM287 71q43 0 90 14.5q47 14.5 85 48q38 33.5 63 87.5q25 54 25 132q0 79 -19.5 132q-19.5 53 -54 85q-34.5 32 -82 45.5q-47.5 13.5 -104.5 13.5h-110l0 -558z" />
<glyph unicode="&#69;" horiz-adv-x="550" d="M514 700v-73h-334v-231h279v-73h-279v-250h334v-73h-421l0 700z" />
<glyph unicode="&#70;" horiz-adv-x="532" d="M507 700v-73h-327v-234h271v-73h-271v-320h-87l0 700z" />
<glyph unicode="&#71;" horiz-adv-x="715" d="M58 348q0 87 24.5 154.5q24.5 67.5 68 113.5q43.5 46 103 69.5q59.5 23.5 129.5 23.5q48 0 85 -8.5q37 -8.5 65.5 -22.5q28.5 -14 50 -31.5q21.5 -17.5 38.5 -36.5l-50 -57q-31 33 -76.5 57q-45.5 24 -111.5 24q-66 0 -111.5 -27q-45.5 -27 -73 -69q-27.5 -42 -40 -92.5q-12.5 -50.5 -12.5 -97.5q0 -64 15.5 -116q15.5 -52 46 -89q30.5 -37 76 -57.5q45.5 -20.5 105.5 -20.5q50 0 92.5 16.5q42.5 16.5 71.5 44.5l0 162h-171v73h256v-272q-21 -20 -48.5 -37.5q-27.5 -17.5 -60.5 -31q-33 -13.5 -69.5 -21.5q-36.5 -8 -74.5 -8q-67 0 -126.5 19q-59.5 19 -104.5 61.5q-45 42.5 -71 110.5t-26 166z" />
<glyph unicode="&#72;" horiz-adv-x="723" d="M180 700v-297h363v297h87v-700h-87v329h-363v-329h-87l0 700z" />
<glyph unicode="&#73;" horiz-adv-x="273" d="M180 700v-700h-87l0 700z" />
<glyph unicode="&#74;" horiz-adv-x="362" d="M45 65q62 5 102 44q40 39 40 115v476h87v-478q0 -60 -18 -103q-18 -43 -49 -71q-31 -28 -73 -42q-42 -14 -89 -15l0 74z" />
<glyph unicode="&#75;" horiz-adv-x="623" d="M180 700v-303h111l216 303h100l-244 -337l250 -363h-103l-219 323h-111v-323h-87l0 700z" />
<glyph unicode="&#76;" horiz-adv-x="521" d="M180 700v-625h311v-75h-398l0 700z" />
<glyph unicode="&#77;" horiz-adv-x="869" d="M246 700l159 -384q8 -20 14 -40q6 -20 12 -40l5 0q5 20 11.5 40.5q6.5 20.5 14.5 39.5l160 384h105l58 -700h-91l-37 473q-2 18 -2 48.5q0 30.5 -2 54.5l-5 0l-180 -434h-71l-180 434h-5q0 -9 -0.5 -22.5q-0.5 -13.5 -1.5 -28q-1 -14.5 -1.5 -28.5q-0.5 -14 -1.5 -25l-36 -472h-87l57 700z" />
<glyph unicode="&#78;" horiz-adv-x="734" d="M190 700l321 -493q11 -17 24.5 -43q13.5 -26 23.5 -44l4 0q0 11 -1 25.5q-1 14.5 -1.5 28.5q-0.5 14 -1 27q-0.5 13 -0.5 22v477h82v-700h-87l-334 513q-11 18 -23.5 40.5q-12.5 22.5 -21.5 40.5l-4 0q0 -10 1 -25q1 -15 1.5 -31q0.5 -16 1 -31q0.5 -15 0.5 -25v-482h-82l0 700z" />
<glyph unicode="&#79;" horiz-adv-x="753" d="M58 350q0 81 20.5 147q20.5 66 61 113.5q40.5 47.5 99.5 73q59 25.5 137 25.5q78 0 137.5 -25.5q59.5 -25.5 100 -73q40.5 -47.5 61 -113.5q20.5 -66 20.5 -147q0 -81 -20.5 -147q-20.5 -66 -61 -113.5q-40.5 -47.5 -100 -73q-59.5 -25.5 -137.5 -25.5q-77 0 -136.5 25.5q-59.5 25.5 -100 73q-40.5 47.5 -61 113.5q-20.5 66 -20.5 147zt0 0zM606 350q0 45 -10 95.5q-10 50.5 -35.5 93q-25.5 42.5 -70 70.5q-44.5 28 -114.5 28q-69 0 -113.5 -28q-44.5 -28 -70 -70.5q-25.5 -42.5 -35.5 -93q-10 -50.5 -10 -95.5q0 -45 10 -95.5q10 -50.5 35.5 -93q25.5 -42.5 70 -70.5q44.5 -28 113.5 -28q70 0 114.5 28q44.5 28 70 70.5q25.5 42.5 35.5 93t10 95.5z" />
<glyph unicode="&#80;" horiz-adv-x="601" d="M332 700q33 0 73 -7q40 -7 74.5 -28.5q34.5 -21.5 58 -62q23.5 -40.5 23.5 -106.5q0 -55 -20 -96q-20 -41 -54 -68.5q-34 -27.5 -77.5 -41q-43.5 -13.5 -90.5 -13.5h-139v-277h-87v700zM310 347q20 0 47.5 5.5q27.5 5.5 53 21.5q25.5 16 43.5 45q18 29 18 76q0 45 -16 72q-16 27 -40 41.5q-24 14.5 -50.5 18.5q-26.5 4 -47.5 4h-139l0 -284z" />
<glyph unicode="&#81;" horiz-adv-x="753" d="M440 -2q-15 -4 -31 -5.5q-16 -1.5 -33 -1.5q-77 0 -136.5 25.5q-59.5 25.5 -100 73q-40.5 47.5 -61 113.5q-20.5 66 -20.5 147q0 81 20.5 147q20.5 66 61 113.5q40.5 47.5 99.5 73q59 25.5 137 25.5q78 0 137.5 -25.5q59.5 -25.5 100 -73q40.5 -47.5 61 -113.5q20.5 -66 20.5 -147q0 -118 -43 -202.5q-43 -84.5 -128 -123.5l0 -2q42 -21 84 -42.5q42 -21.5 85 -42.5l-37 -56q-23 10 -47 21q-24 11 -50 25q-26 14 -55.5 31q-29.5 17 -63.5 40zt0 0zM606 350q0 45 -10 95.5q-10 50.5 -35.5 93q-25.5 42.5 -70 70.5q-44.5 28 -114.5 28q-69 0 -113.5 -28q-44.5 -28 -70 -70.5q-25.5 -42.5 -35.5 -93q-10 -50.5 -10 -95.5q0 -45 10 -95.5q10 -50.5 35.5 -93q25.5 -42.5 70 -70.5q44.5 -28 113.5 -28q70 0 114.5 28q44.5 28 70 70.5q25.5 42.5 35.5 93t10 95.5z" />
<glyph unicode="&#82;" horiz-adv-x="628" d="M336 700q30 0 68 -6.5q38 -6.5 71.5 -27.5q33.5 -21 56.5 -60.5q23 -39.5 23 -104.5q0 -69 -43 -122q-43 -53 -124 -72l217 -307h-103l-203 294h-119v-294h-87v700zM306 363q29 0 57.5 7.5q28.5 7.5 51.5 24q23 16.5 37 42.5q14 26 14 64q0 37 -12.5 62q-12.5 25 -33 40q-20.5 15 -46 21.5q-25.5 6.5 -51.5 6.5h-144l0 -268z" />
<glyph unicode="&#83;" horiz-adv-x="583" d="M99 149q32 -34 81 -59q49 -25 112 -25q68 0 107 27.5q39 27.5 39 78.5q0 25 -9.5 43.5q-9.5 18.5 -26.5 33q-17 14.5 -41 26.5q-24 12 -53 25l-80 36q-75 34 -117.5 80q-42.5 46 -42.5 118q0 82 61 129q61 47 167 47q39 0 72 -8q33 -8 59.5 -21q26.5 -13 47 -29.5q20.5 -16.5 35.5 -32.5l-50 -57q-30 29 -69 51q-39 22 -97 22q-71 0 -103 -28.5q-32 -28.5 -32 -70.5q0 -23 7 -40q7 -17 22.5 -31.5q15.5 -14.5 40 -28.5q24.5 -14 59.5 -30l61 -28q45 -21 78.5 -40.5q33.5 -19.5 56 -43q22.5 -23.5 34 -52q11.5 -28.5 11.5 -65.5q0 -47 -19.5 -81.5q-19.5 -34.5 -52.5 -57.5q-33 -23 -75 -34.5q-42 -11.5 -87 -11.5q-78 0 -140.5 27q-62.5 27 -101.5 70z" />
<glyph unicode="&#84;" horiz-adv-x="573" d="M20 627v73h533v-73h-223v-627h-87l0 627z" />
<glyph unicode="&#85;" horiz-adv-x="715" d="M88 700h87v-456q0 -38 10 -70.5q10 -32.5 32 -56.5q22 -24 57.5 -38q35.5 -14 85.5 -14q49 0 84 14.5q35 14.5 57 39q22 24.5 32 57q10 32.5 10 68.5v456h84v-459q0 -61 -19 -107.5q-19 -46.5 -54 -78q-35 -31.5 -85 -48q-50 -16.5 -111 -16.5q-62 0 -112 15.5q-50 15.5 -85 46.5q-35 31 -54 78q-19 47 -19 110z" />
<glyph unicode="&#86;" horiz-adv-x="652" d="M113 700l191 -528q6 -17 10.5 -37.5q4.5 -20.5 9.5 -40.5l5 0q6 21 11 40.5q5 19.5 12 37.5l190 528h90l-262 -700h-88l-262 700z" />
<glyph unicode="&#87;" horiz-adv-x="966" d="M124 700l129 -509q5 -18 8 -40q3 -22 6 -42l5 0q2 20 7 41q5 21 10 39l152 511h87l144 -511q5 -17 8.5 -38.5q3.5 -21.5 6.5 -41.5l5 0q3 19 7 42q4 23 9 40l137 509h89l-196 -700h-90l-146 498q-6 20 -10.5 45.5q-4.5 25.5 -7.5 42.5l-5 0q-2 -15 -7 -41q-5 -26 -11 -47l-152 -498h-90l-187 700z" />
<glyph unicode="&#88;" horiz-adv-x="600" d="M39 700h97l142 -246q7 -12 12.5 -22.5q5.5 -10.5 10.5 -21.5l4 0q5 10 10.5 20.5q5.5 10.5 13.5 24.5l141 245h93l-207 -343l223 -357h-97l-156 259q-5 9 -12.5 22.5q-7.5 13.5 -12.5 24.5l-4 0q-7 -11 -13 -22.5q-6 -11.5 -14 -24.5l-156 -259h-93l225 359z" />
<glyph unicode="&#89;" horiz-adv-x="597" d="M10 700h93l164 -320q7 -14 14 -31.5q7 -17.5 13 -34.5l5 0q5 16 12.5 33.5q7.5 17.5 15.5 32.5l168 320h92l-249 -458v-242h-87l0 242z" />
<glyph unicode="&#90;" horiz-adv-x="582" d="M400 574q9 13 19.5 26.5q10.5 13.5 18.5 23.5l0 3h-374v73h481v-57l-370 -518q-9 -11 -21 -25q-12 -14 -20 -24l0 -3h420v-73h-528l0 56z" />
<glyph unicode="&#91;" horiz-adv-x="380" d="M325 780v-66h-132v-858h132v-66h-215l0 990z" />
<glyph unicode="&#92;" horiz-adv-x="565" d="M113 777l405 -954l-66 -27l-405 955z" />
<glyph unicode="&#93;" horiz-adv-x="380" d="M187 -144v858h-132v66h215v-990h-215l0 66z" />
<glyph unicode="&#94;" horiz-adv-x="549" d="M289 700l195 -295h-77l-133 200l-132 -200h-77l195 295z" />
<glyph unicode="&#95;" horiz-adv-x="510" d="M510 -189v-61h-510l0 61z" />
<glyph unicode="&#96;" horiz-adv-x="568" d="M250 741l78 -138h-62l-124 138z" />
<glyph unicode="&#97;" horiz-adv-x="544" d="M47 136q0 45 18 76q18 31 48 49.5q30 18.5 68.5 26.5q38.5 8 78.5 8h121v29q0 31 -8.5 52q-8.5 21 -23.5 33q-15 12 -35.5 17q-20.5 5 -45.5 5q-45 0 -80.5 -14.5q-35.5 -14.5 -67.5 -37.5l-39 51q40 31 93.5 49.5q53.5 18.5 106.5 18.5q51 0 86 -13.5q35 -13.5 56.5 -37.5q21.5 -24 31 -56.5q9.5 -32.5 9.5 -70.5v-321h-82v79h-2q-14 -12 -33 -27.5q-19 -15.5 -42 -29q-23 -13.5 -50 -22.5q-27 -9 -57 -9q-66 0 -108.5 37q-42.5 37 -42.5 108zt0 0zM381 236h-110q-29 0 -54 -4q-25 -4 -44.5 -14.5q-19.5 -10.5 -30.5 -30q-11 -19.5 -11 -50.5q0 -33 18.5 -53.5q18.5 -20.5 65.5 -20.5q23 0 47 8q24 8 46 20.5q22 12.5 41 27.5q19 15 32 28z" />
<glyph unicode="&#98;" horiz-adv-x="576" d="M157 57l-5 -57h-72v740h83v-271q0 -14 -0.5 -28q-0.5 -14 -1.5 -31l2 0q12 12 30 27.5q18 15.5 41 29q23 13.5 51.5 23q28.5 9.5 61.5 9.5q47 0 81 -19q34 -19 55.5 -51q21.5 -32 32 -75.5q10.5 -43.5 10.5 -92.5q0 -49 -12 -97q-12 -48 -37.5 -86.5q-25.5 -38.5 -65.5 -62.5q-40 -24 -95 -24q-48 0 -88 21.5q-40 21.5 -69 44.5zM442 259q0 28 -6 58q-6 30 -20 54.5q-14 24.5 -37.5 40q-23.5 15.5 -57.5 15.5q-25 0 -49 -9.5q-24 -9.5 -45 -22.5q-21 -13 -37.5 -28q-16.5 -15 -27.5 -25l0 -219q10 -9 24 -19.5q14 -10.5 31.5 -20q17.5 -9.5 38.5 -16q21 -6.5 46 -6.5q66 0 103 50.5t37 147.5z" />
<glyph unicode="&#99;" horiz-adv-x="474" d="M47 242q0 58 16.5 105.5q16.5 47.5 47 81.5q30.5 34 73.5 52q43 18 95 18q36 0 63.5 -6.5q27.5 -6.5 48.5 -17q21 -10.5 35.5 -22.5q14.5 -12 24.5 -23l-42 -49q-9 7 -21 16q-12 9 -27 17q-15 8 -34 13q-19 5 -42 5q-39 0 -68 -16.5q-29 -16.5 -48 -43.5q-19 -27 -28.5 -61q-9.5 -34 -9.5 -69q0 -35 8.5 -68.5q8.5 -33.5 27 -59.5q18.5 -26 48.5 -41.5q30 -15.5 72 -15.5q44 0 74.5 17.5q30.5 17.5 53.5 39.5l39 -47q-26 -28 -70.5 -52q-44.5 -24 -106.5 -24q-46 0 -88 14q-42 14 -73.5 44.5q-31.5 30.5 -50 78t-18.5 114.5z" />
<glyph unicode="&#100;" horiz-adv-x="576" d="M50 230q0 48 12 96q12 48 37.5 86.5q25.5 38.5 66 62.5q40.5 24 97.5 24q46 0 86 -20q40 -20 64 -41l2 0q-1 14 -1.5 28.5q-0.5 14.5 -0.5 22.5v251h83v-740h-82v79h-2q-9 -9 -25.5 -24q-16.5 -15 -39 -29q-22.5 -14 -51 -24.5q-28.5 -10.5 -61.5 -10.5q-46 0 -80.5 17.5q-34.5 17.5 -58 49q-23.5 31.5 -35 75.5q-11.5 44 -11.5 97zt0 0zM414 370q-10 9 -24 19q-14 10 -32 19q-18 9 -39 15q-21 6 -46 6q-65 0 -102 -52.5q-37 -52.5 -37 -143.5q0 -28 5.5 -58q5.5 -30 19.5 -55q14 -25 37 -41q23 -16 59 -16q25 0 49 9.5q24 9.5 45 22.5q21 13 37.5 27.5q16.5 14.5 27.5 25.5z" />
<glyph unicode="&#101;" horiz-adv-x="517" d="M47 242q0 59 16 106.5q16 47.5 45.5 81q29.5 33.5 71 51.5q41.5 18 92.5 18q60 0 99 -21q39 -21 61.5 -53q22.5 -32 31.5 -71q9 -39 9 -76v-41h-342q0 -29 7 -61q7 -32 25 -58.5q18 -26.5 49 -43.5q31 -17 79 -17q43 0 74 14q31 14 63 43l38 -46q-33 -32 -78.5 -54.5q-45.5 -22.5 -104.5 -22.5q-47 0 -90 13.5q-43 13.5 -75.5 43.5q-32.5 30 -51.5 78q-19 48 -19 116zt0 0zM391 295q-2 66 -31.5 102.5q-29.5 36.5 -87.5 36.5q-24 0 -47 -6.5q-23 -6.5 -41.5 -22.5q-18.5 -16 -31.5 -43q-13 -27 -18 -67z" />
<glyph unicode="&#102;" horiz-adv-x="371" d="M32 424v66h97v45q0 51 15.5 89.5q15.5 38.5 42 64q26.5 25.5 62.5 38.5q36 13 78 13q22 0 42 -3l-3 -62q-8 1 -14 1q-6 0 -13 0q-26 0 -49.5 -9q-23.5 -9 -40.5 -26.5q-17 -17.5 -27 -43.5q-10 -26 -10 -60v-47h142v-66h-142v-424h-83l0 424z" />
<glyph unicode="&#103;" horiz-adv-x="576" d="M112 -139q28 -26 61 -41q33 -15 77 -15q26 0 55 8.5q29 8.5 53 30q24 21.5 39.5 58.5q15.5 37 15.5 94v25q0 14 0.5 28q0.5 14 1.5 31l-2 0q-12 -12 -29.5 -27.5q-17.5 -15.5 -40.5 -29q-23 -13.5 -51 -23q-28 -9.5 -61 -9.5q-47 0 -81 19q-34 19 -56.5 51q-22.5 32 -33 75.5q-10.5 43.5 -10.5 92.5q0 49 12 97.5q12 48.5 37.5 87q25.5 38.5 65.5 62q40 23.5 95 23.5q48 0 88 -21q40 -21 69 -45l2 0l5 57h72v-483q0 -76 -23 -127q-23 -51 -58 -82q-35 -31 -77.5 -44q-42.5 -13 -82.5 -13q-63 0 -105.5 19q-42.5 19 -74.5 48zM414 367q-11 9 -24.5 19.5q-13.5 10.5 -31 20q-17.5 9.5 -38.5 16q-21 6.5 -46 6.5q-63 0 -101.5 -50.5q-38.5 -50.5 -38.5 -147.5q0 -29 6 -58.5q6 -29.5 20 -54q14 -24.5 37 -40q23 -15.5 58 -15.5q25 0 49 9.5q24 9.5 45 22.5q21 13 37.5 27.5q16.5 14.5 27.5 25.5z" />
<glyph unicode="&#104;" horiz-adv-x="583" d="M163 740v-261q0 -23 -0.5 -38q-0.5 -15 -1.5 -31l2 0q18 14 40 30q22 16 47.5 29q25.5 13 53.5 21.5q28 8.5 58 8.5q37 0 63.5 -11.5q26.5 -11.5 43.5 -32q17 -20.5 25.5 -49q8.5 -28.5 8.5 -62.5v-344h-83v320q0 23 -4 42.5q-4 19.5 -13.5 34q-9.5 14.5 -26.5 22.5q-17 8 -43 8q-24 0 -50 -9.5q-26 -9.5 -49 -23q-23 -13.5 -42 -28q-19 -14.5 -29 -23.5l0 -343h-83l0 740z" />
<glyph unicode="&#105;" horiz-adv-x="249" d="M166 490v-490h-83v490zM166 700v-89h-83l0 89z" />
<glyph unicode="&#106;" horiz-adv-x="247" d="M-14 -197q32 4 51 20.5q19 16.5 28.5 43.5q9.5 27 12.5 63q3 36 3 79v481h83v-491q0 -74 -13.5 -121.5q-13.5 -47.5 -37 -76.5q-23.5 -29 -56 -42.5q-32.5 -13.5 -71.5 -17.5zM164 700v-89h-83l0 89z" />
<glyph unicode="&#107;" horiz-adv-x="521" d="M163 740v-443h81l161 193h97l-192 -224l194 -266h-96l-166 232h-79v-232h-83l0 740z" />
<glyph unicode="&#108;" horiz-adv-x="249" d="M166 740v-740h-83l0 740z" />
<glyph unicode="&#109;" horiz-adv-x="868" d="M162 490v-79h2q34 33 78.5 60.5q44.5 27.5 103.5 27.5q55 0 83 -23q28 -23 41 -65l2 0q38 35 81 61.5q43 26.5 100 26.5q73 0 104 -45.5q31 -45.5 31 -120.5v-333h-83v317q0 25 -3 45.5q-3 20.5 -11.5 34.5q-8.5 14 -24 22q-15.5 8 -40.5 8q-23 0 -44 -7.5q-21 -7.5 -40 -19.5q-19 -12 -35.5 -27q-16.5 -15 -31.5 -30l0 -343h-82v317q0 25 -3 45q-3 20 -11.5 34.5q-8.5 14.5 -24 22.5q-15.5 8 -40.5 8q-23 0 -44 -7.5q-21 -7.5 -40 -19.5q-19 -12 -36 -27q-17 -15 -31 -30l0 -343h-83l0 490z" />
<glyph unicode="&#110;" horiz-adv-x="583" d="M162 490v-79h2q18 14 39.5 29.5q21.5 15.5 47 28.5q25.5 13 53.5 21.5q28 8.5 58 8.5q37 0 63.5 -11.5q26.5 -11.5 43.5 -32q17 -20.5 25.5 -49q8.5 -28.5 8.5 -62.5v-344h-83v320q0 23 -4 42.5q-4 19.5 -13.5 34q-9.5 14.5 -26.5 22.5q-17 8 -43 8q-24 0 -50 -9.5q-26 -9.5 -49 -23q-23 -13.5 -42 -28q-19 -14.5 -29 -23.5l0 -343h-83l0 490z" />
<glyph unicode="&#111;" horiz-adv-x="568" d="M47 244q0 61 17 109q17 48 48 80q31 32 75 49q44 17 97 17q54 0 97.5 -17q43.5 -17 74.5 -49q31 -32 48 -80q17 -48 17 -109q0 -61 -17 -108q-17 -47 -48 -79.5q-31 -32.5 -74.5 -49q-43.5 -16.5 -97.5 -16.5q-53 0 -97 16.5q-44 16.5 -75 49q-31 32.5 -48 79.5q-17 47 -17 108zt0 0zM437 244q0 22 -5 54.5q-5 32.5 -21 62.5q-16 30 -46.5 51.5q-30.5 21.5 -80.5 21.5q-50 0 -80.5 -21.5q-30.5 -21.5 -46.5 -51.5q-16 -30 -21 -62.5q-5 -32.5 -5 -54.5q0 -22 5 -54q5 -32 21 -62q16 -30 46.5 -51q30.5 -21 80.5 -21q50 0 80.5 21q30.5 21 46.5 51q16 30 21 62t5 54z" />
<glyph unicode="&#112;" horiz-adv-x="576" d="M162 490v-79h2q9 9 26 24q17 15 40 29.5q23 14.5 52 24.5q29 10 62 10q46 0 80.5 -17.5q34.5 -17.5 57 -49q22.5 -31.5 33.5 -75.5q11 -44 11 -97q0 -48 -12 -96q-12 -48 -38 -86.5q-26 -38.5 -66 -62.5q-40 -24 -97 -24q-23 0 -44.5 5.5q-21.5 5.5 -41 14.5q-19.5 9 -36 20q-16.5 11 -28.5 21l-2 0q1 -14 1.5 -28.5q0.5 -14.5 0.5 -22.5v-251h-83v740zM442 257q0 28 -5.5 58q-5.5 30 -19.5 55q-14 25 -37 41q-23 16 -59 16q-25 0 -49 -9.5q-24 -9.5 -45 -22.5q-21 -13 -38 -28q-17 -15 -27 -25l0 -222q10 -9 24 -19q14 -10 32 -19q18 -9 39 -15q21 -6 46 -6q67 0 103 52.5t36 143.5z" />
<glyph unicode="&#113;" horiz-adv-x="576" d="M413 21q0 14 0.5 28q0.5 14 1.5 31l-2 0q-12 -12 -29.5 -27.5q-17.5 -15.5 -40.5 -29q-23 -13.5 -51 -23q-28 -9.5 -61 -9.5q-47 0 -81 19q-34 19 -56.5 51q-22.5 32 -33 75.5q-10.5 43.5 -10.5 92.5q0 49 12 97.5q12 48.5 37.5 87q25.5 38.5 65.5 62q40 23.5 95 23.5q48 0 88 -21q40 -21 69 -45l2 0l5 57h72v-740h-83zM414 367q-11 9 -24.5 19.5q-13.5 10.5 -31 20q-17.5 9.5 -38.5 16q-21 6.5 -46 6.5q-63 0 -101.5 -50.5q-38.5 -50.5 -38.5 -147.5q0 -29 6 -58.5q6 -29.5 20 -54q14 -24.5 37 -40q23 -15.5 58 -15.5q25 0 49 9.5q24 9.5 45 22.5q21 13 37.5 27.5q16.5 14.5 27.5 25.5z" />
<glyph unicode="&#114;" horiz-adv-x="401" d="M162 490v-94h2q19 19 40.5 37.5q21.5 18.5 45 33q23.5 14.5 50 23.5q26.5 9 55.5 9q8 0 14.5 0q6.5 0 12.5 -2l-5 -78q-7 2 -13.5 2q-6.5 0 -14.5 0q-51 0 -98.5 -27.5q-47.5 -27.5 -87.5 -65.5l0 -328h-83l0 490z" />
<glyph unicode="&#115;" horiz-adv-x="477" d="M88 117q23 -22 60 -41q37 -19 90 -19q48 0 76 17q28 17 28 47q0 31 -24.5 48.5q-24.5 17.5 -82.5 40.5l-46 18q-70 27 -96 61q-26 34 -26 81q0 27 10.5 50.5q10.5 23.5 32 41q21.5 17.5 54 27.5q32.5 10 76.5 10q33 0 60 -7q27 -7 48.5 -17.5q21.5 -10.5 37.5 -22.5q16 -12 25 -22l-43 -49q-20 18 -51 34.5q-31 16.5 -77 16.5q-46 0 -67.5 -16.5q-21.5 -16.5 -21.5 -43.5q0 -24 16 -41.5q16 -17.5 63 -36.5l45 -18q83 -33 117 -68q34 -35 34 -85q0 -29 -13.5 -53q-13.5 -24 -38 -41.5q-24.5 -17.5 -59.5 -27.5q-35 -10 -78 -10q-30 0 -58 6q-28 6 -52 16.5q-24 10.5 -43.5 24q-19.5 13.5 -32.5 28.5z" />
<glyph unicode="&#116;" horiz-adv-x="411" d="M125 424h-97v66h97v119l83 21v-140h148v-66h-148v-276q0 -54 19.5 -72.5q19.5 -18.5 49.5 -18.5q23 0 45 11q22 11 40 24l28 -49q-26 -22 -60 -37q-34 -15 -72 -15q-61 0 -97 32.5q-36 32.5 -36 111.5z" />
<glyph unicode="&#117;" horiz-adv-x="583" d="M80 490h83v-320q0 -23 4 -43q4 -20 13.5 -34q9.5 -14 26.5 -22q17 -8 43 -8q24 0 50 9.5q26 9.5 49 23q23 13.5 42 28q19 14.5 29 23.5l0 343h83v-490h-82v79h-2q-18 -14 -39.5 -29.5q-21.5 -15.5 -47 -28.5q-25.5 -13 -53.5 -21.5q-28 -8.5 -58 -8.5q-74 0 -107.5 43.5q-33.5 43.5 -33.5 111.5z" />
<glyph unicode="&#118;" horiz-adv-x="512" d="M108 490l128 -343q7 -19 11.5 -37.5q4.5 -18.5 8.5 -32.5l3 0q5 15 9.5 32.5q4.5 17.5 12.5 37.5l127 343h87l-197 -490h-84l-197 490z" />
<glyph unicode="&#119;" horiz-adv-x="766" d="M119 490l87 -336q4 -16 6.5 -35.5q2.5 -19.5 4.5 -33.5l5 0q2 14 6 32.5q4 18.5 9 36.5l104 336h88l100 -337q5 -18 8 -36q3 -18 5 -32l5 0q2 14 5.5 32.5q3.5 18.5 8.5 36.5l89 336h87l-145 -490h-88l-105 339q-5 14 -8.5 31q-3.5 17 -5.5 29l-4 0q-2 -12 -6 -30q-4 -18 -8 -29l-110 -340h-88l-140 490z" />
<glyph unicode="&#120;" horiz-adv-x="493" d="M32 490h96l97 -155q5 -8 11 -18.5q6 -10.5 10 -18.5l3 0q8 17 20 35l100 157h92l-160 -233l173 -257h-96l-113 171q-12 18 -20 35l-3 0q-5 -8 -9.5 -16.5q-4.5 -8.5 -11.5 -18.5l-110 -171h-92l171 255z" />
<glyph unicode="&#121;" horiz-adv-x="510" d="M42 -191q13 -3 34 -3q19 0 37.5 6q18.5 6 35.5 21q17 15 33 42q16 27 30 69l18 51l-215 495h93l135 -334q8 -20 12.5 -38q4.5 -18 9.5 -32l4 0q3 14 7 28q4 14 13 40l117 336h88l-209 -562q-20 -53 -42 -89q-22 -36 -47.5 -57.5q-25.5 -21.5 -54.5 -31q-29 -9.5 -62 -9.5q-9 0 -22.5 2.5q-13.5 2.5 -21.5 5.5z" />
<glyph unicode="&#122;" horiz-adv-x="472" d="M287 367q11 14 24 28.5q13 14.5 24 25.5l0 3h-277v66h377v-53l-254 -311q-14 -17 -26 -30q-12 -13 -26 -27l0 -3h310v-66h-408l0 54z" />
<glyph unicode="&#123;" horiz-adv-x="419" d="M168 150q0 16 -3.5 33.5q-3.5 17.5 -11.5 31.5q-8 14 -22.5 23.5q-14.5 9.5 -36.5 9.5h-24v74h24q22 0 36.5 9.5q14.5 9.5 22.5 23.5q8 14 11.5 31.5q3.5 17.5 3.5 33.5v181q0 9 1 26q1 17 6.5 37q5.5 20 17 40.5q11.5 20.5 32.5 37.5q21 17 52 27.5q31 10.5 77 10.5l0 -64q-34 -2 -54.5 -12.5q-20.5 -10.5 -31 -26q-10.5 -15.5 -13.5 -34.5q-3 -19 -3 -40v-173q0 -21 -3 -43q-3 -22 -12 -41.5q-9 -19.5 -25 -35.5q-16 -16 -42 -23l0 -4q26 -8 42 -23.5q16 -15.5 25 -35q9 -19.5 12 -41.5q3 -22 3 -43v-173q0 -21 3 -40q3 -19 13.5 -34.5q10.5 -15.5 31 -26q20.5 -10.5 54.5 -12.5l0 -64q-45 0 -76.5 10.5q-31.5 10.5 -52.5 27.5q-21 17 -32.5 37.5q-11.5 20.5 -17 40.5q-5.5 20 -6.5 37q-1 17 -1 26z" />
<glyph unicode="&#124;" horiz-adv-x="287" d="M182 779v-989h-77l0 989z" />
<glyph unicode="&#125;" horiz-adv-x="419" d="M65 -146q34 2 54.5 12.5q20.5 10.5 31 26q10.5 15.5 13.5 34.5q3 19 3 40v173q0 21 3 43q3 22 12 41.5q9 19.5 25 35q16 15.5 42 23.5l0 4q-26 7 -42 23q-16 16 -25 35.5q-9 19.5 -12 41.5q-3 22 -3 43v173q0 21 -3 40q-3 19 -13.5 34.5q-10.5 15.5 -31 26q-20.5 10.5 -54.5 12.5l0 64q45 0 76.5 -10.5q31.5 -10.5 52.5 -27.5q21 -17 32.5 -37.5q11.5 -20.5 17 -40.5q5.5 -20 6.5 -37q1 -17 1 -26v-181q0 -16 3.5 -33.5q3.5 -17.5 11.5 -31.5q8 -14 22.5 -23.5q14.5 -9.5 36.5 -9.5h24v-74h-24q-22 0 -36.5 -9.5q-14.5 -9.5 -22.5 -23.5q-8 -14 -11.5 -31.5q-3.5 -17.5 -3.5 -33.5v-181q0 -9 -1 -26q-1 -17 -6.5 -37q-5.5 -20 -17 -40.5q-11.5 -20.5 -32.5 -37.5q-21 -17 -52.5 -27.5q-31.5 -10.5 -76.5 -10.5l0 64z" />
<glyph unicode="&#126;" horiz-adv-x="645" d="M75 324q58 83 154 83q35 0 62.5 -10q27.5 -10 46.5 -17q24 -9 43 -14.5q19 -5.5 40 -5.5q27 0 55.5 12q28.5 12 45.5 35l48 -35q-29 -41 -67.5 -62.5q-38.5 -21.5 -86.5 -21.5q-35 0 -63 10q-28 10 -47 18q-24 9 -43.5 14.5q-19.5 5.5 -39.5 5.5q-28 0 -56 -12.5q-28 -12.5 -45 -35.5l-47 36z" />
<glyph unicode="&#160;" horiz-adv-x="300" />
<glyph unicode="&#161;" horiz-adv-x="294" d="M100 399v90h94v-90zM94 -211l17 509h72l17 -509z" />
<glyph unicode="&#162;" horiz-adv-x="522" d="M272 -6q-40 5 -75 21.5q-35 16.5 -61 47q-26 30.5 -41 75q-15 44.5 -15 104.5q0 106 52 173q52 67 140 81l0 98h61v-96q31 -2 55 -9q24 -7 42 -17q18 -10 31.5 -21q13.5 -11 22.5 -21l-42 -49q-17 14 -43 30.5q-26 16.5 -66 19.5l0 -374q38 3 66 20q28 17 49 37l39 -47q-24 -26 -62 -48q-38 -22 -92 -27l0 -96h-61zM272 425q-27 -9 -47.5 -28q-20.5 -19 -34 -43.5q-13.5 -24.5 -20 -53.5q-6.5 -29 -6.5 -58q0 -30 6 -58.5q6 -28.5 19 -52.5q13 -24 33.5 -41.5q20.5 -17.5 49.5 -26.5z" />
<glyph unicode="&#163;" horiz-adv-x="601" d="M146 72v247h-76v69h76v73q0 55 15 101q15 46 44.5 78.5q29.5 32.5 73 50.5q43.5 18 101.5 18q39 0 70.5 -8q31.5 -8 56 -21q24.5 -13 42 -29.5q17.5 -16.5 29.5 -34.5l-52 -53q-11 13 -24 26q-13 13 -29.5 23q-16.5 10 -38.5 16.5q-22 6.5 -52 6.5q-45 0 -74 -14.5q-29 -14.5 -46 -38.5q-17 -24 -23.5 -56q-6.5 -32 -6.5 -67v-71h204v-69h-204v-247h346v-72h-508l0 72z" />
<glyph unicode="&#164;" horiz-adv-x="646" d="M128 197q-7 9 -15.5 23q-8.5 14 -16 32q-7.5 18 -12.5 41q-5 23 -5 50q0 29 5 52q5 23 12.5 41q7.5 18 16 31.5q8.5 13.5 15.5 22.5l-83 83l48 49l83 -84q9 7 23 15.5q14 8.5 32.5 16q18.5 7.5 41 12.5q22.5 5 49.5 5q30 0 53.5 -5q23.5 -5 42 -12.5q18.5 -7.5 31.5 -16q13 -8.5 21 -15.5l84 84l47 -49l-83 -83q7 -9 15.5 -23q8.5 -14 16 -32q7.5 -18 12.5 -41q5 -23 5 -51q0 -27 -5 -50q-5 -23 -12.5 -41q-7.5 -18 -16 -32q-8.5 -14 -15.5 -23l83 -83l-47 -49l-83 84q-10 -7 -24 -16q-14 -9 -33 -16.5q-19 -7.5 -42 -12.5q-23 -5 -50 -5q-29 0 -52 5q-23 5 -41 12.5q-18 7.5 -31 16.5q-13 9 -22 16l-83 -84l-48 49zM501 343q0 37 -14.5 70.5q-14.5 33.5 -39 58.5q-24.5 25 -57 39.5q-32.5 14.5 -68.5 14.5q-36 0 -68 -14.5q-32 -14.5 -56 -39.5q-24 -25 -38 -58.5q-14 -33.5 -14 -70.5q0 -37 14 -70q14 -33 38 -58q24 -25 56 -39.5q32 -14.5 68 -14.5q36 0 68.5 14.5q32.5 14.5 57 39.5q24.5 25 39 58t14.5 70z" />
<glyph unicode="&#165;" horiz-adv-x="606" d="M117 112v57h139v56h-139v57h120l-202 418h90l148 -320q7 -14 14 -32q7 -18 12 -34l4 0q5 16 12 33.5q7 17.5 14 32.5l153 320h89l-210 -418h120v-57h-139v-56h139v-57h-139v-112h-86l0 112z" />
<glyph unicode="&#166;" horiz-adv-x="287" d="M182 207v-417h-77v417zM182 779v-417h-77l0 417z" />
<glyph unicode="&#167;" horiz-adv-x="561" d="M116 -123q11 -12 24.5 -23.5q13.5 -11.5 30 -20.5q16.5 -9 37.5 -14.5q21 -5.5 47 -5.5q19 0 39.5 4q20.5 4 37 14q16.5 10 27.5 27.5q11 17.5 11 44.5q0 20 -9 35.5q-9 15.5 -25 29q-16 13.5 -36.5 25.5q-20.5 12 -43.5 25l-87 49q-25 13 -46.5 29q-21.5 16 -37.5 36.5q-16 20.5 -25.5 46.5q-9.5 26 -9.5 59q0 58 34.5 105q34.5 47 91.5 82q-33 26 -51.5 55q-18.5 29 -18.5 73q0 42 18.5 71.5q18.5 29.5 47.5 48.5q29 19 63 27.5q34 8.5 66 8.5q69 0 115.5 -24.5q46.5 -24.5 76.5 -63.5l-48 -48q-23 26 -59.5 45q-36.5 19 -81.5 19q-46 0 -78.5 -22q-32.5 -22 -32.5 -63q0 -17 5 -31q5 -14 17.5 -27.5q12.5 -13.5 33.5 -28q21 -14.5 53 -30.5l62 -33q28 -15 54.5 -32q26.5 -17 47 -38q20.5 -21 33 -47q12.5 -26 12.5 -60q0 -32 -10.5 -60q-10.5 -28 -27 -53q-16.5 -25 -38 -47q-21.5 -22 -43.5 -41q20 -16 32.5 -30.5q12.5 -14.5 19.5 -29.5q7 -15 9.5 -30q2.5 -15 2.5 -31q0 -34 -13.5 -63.5q-13.5 -29.5 -39 -51.5q-25.5 -22 -62 -34.5q-36.5 -12.5 -82.5 -12.5q-69 0 -116 26q-47 26 -74 62zM426 219q0 18 -6.5 34q-6.5 16 -16.5 29.5q-10 13.5 -22 23.5q-12 10 -22 17q-9 6 -22.5 14q-13.5 8 -30 16.5q-16.5 8.5 -34.5 16.5q-18 8 -35 15q-20 -10 -38 -24.5q-18 -14.5 -32.5 -32.5q-14.5 -18 -23 -39.5q-8.5 -21.5 -8.5 -45.5q0 -22 6.5 -39.5q6.5 -17.5 17 -32q10.5 -14.5 24 -25.5q13.5 -11 26.5 -19q13 -8 29 -18q16 -10 33 -19q17 -9 33 -17.5q16 -8.5 30 -13.5q42 42 67 77.5t25 82.5z" />
<glyph unicode="&#168;" horiz-adv-x="563" d="M233 700v-84h-79v84zM409 700v-84h-79l0 84z" />
<glyph unicode="&#169;" horiz-adv-x="858" d="M263 349q0 91 48 145.5q48 54.5 131 54.5q28 0 49.5 -5.5q21.5 -5.5 37.5 -14q16 -8.5 28 -19.5q12 -11 21 -22l-45 -44q-14 15 -36 28.5q-22 13.5 -54 13.5q-30 0 -49.5 -12q-19.5 -12 -31 -31.5q-11.5 -19.5 -16.5 -44q-5 -24.5 -5 -49.5q0 -26 5.5 -50.5q5.5 -24.5 17 -43q11.5 -18.5 30.5 -29.5q19 -11 46 -11q32 0 58 13q26 13 44 33l36 -39q-22 -30 -59.5 -49.5q-37.5 -19.5 -80.5 -19.5q-37 0 -69 10.5q-32 10.5 -55.5 33.5q-23.5 23 -37 60.5q-13.5 37.5 -13.5 91.5zt0 0zM70 350q0 74 28 139.5q28 65.5 77 114q49 48.5 114.5 77q65.5 28.5 139.5 28.5q74 0 139.5 -28.5q65.5 -28.5 114 -77q48.5 -48.5 77 -114q28.5 -65.5 28.5 -139.5q0 -74 -28.5 -139.5q-28.5 -65.5 -77 -114.5q-48.5 -49 -114 -77q-65.5 -28 -139.5 -28q-74 0 -139.5 28q-65.5 28 -114.5 77q-49 49 -77 114.5q-28 65.5 -28 139.5zt0 0zM728 349q0 62 -23.5 116.5q-23.5 54.5 -64.5 95.5q-41 41 -95.5 64.5q-54.5 23.5 -116.5 23.5q-62 0 -116 -23.5q-54 -23.5 -94.5 -64.5q-40.5 -41 -64 -95.5q-23.5 -54.5 -23.5 -116.5q0 -62 23.5 -116q23.5 -54 64 -94.5q40.5 -40.5 94.5 -64q54 -23.5 116 -23.5q62 0 116.5 23.5q54.5 23.5 95.5 64q41 40.5 64.5 94.5t23.5 116z" />
<glyph unicode="&#170;" horiz-adv-x="415" d="M50 466q0 33 14 54q14 21 35 33q21 12 45.5 16.5q24.5 4.5 45.5 4.5h81v16q0 32 -20.5 48.5q-20.5 16.5 -51.5 16.5q-32 0 -52.5 -9.5q-20.5 -9.5 -42.5 -26.5l-32 42q24 23 61.5 35.5q37.5 12.5 72.5 12.5q38 0 63.5 -10q25.5 -10 41.5 -27q16 -17 22.5 -39.5q6.5 -22.5 6.5 -48.5v-211h-68v47h-2q-6 -6 -15.5 -15.5q-9.5 -9.5 -22 -17.5q-12.5 -8 -29 -14q-16.5 -6 -37.5 -6q-23 0 -44 6q-21 6 -37 18.5q-16 12.5 -25.5 31q-9.5 18.5 -9.5 43.5zt0 0zM272 528h-64q-17 0 -33 -2q-16 -2 -28 -8.5q-12 -6.5 -19.5 -18q-7.5 -11.5 -7.5 -30.5q0 -24 15.5 -36.5q15.5 -12.5 38.5 -12.5q29 0 54.5 17q25.5 17 43.5 42z" />
<glyph unicode="&#171;" horiz-adv-x="489" d="M215 474l61 -31l-117 -178l117 -178l-61 -31l-145 209zM372 455l62 -29l-107 -161l107 -161l-62 -29l-131 190z" />
<glyph unicode="&#172;" horiz-adv-x="755" d="M65 360v74h590v-238h-81l0 164z" />
<glyph unicode="&#173;" horiz-adv-x="482" d="M387 303v-73h-292l0 73z" />
<glyph unicode="&#174;" horiz-adv-x="858" d="M448 542q20 0 42.5 -5q22.5 -5 41.5 -17.5q19 -12.5 31.5 -34q12.5 -21.5 12.5 -53.5q0 -26 -7.5 -45.5q-7.5 -19.5 -19.5 -33.5q-12 -14 -27 -22.5q-15 -8.5 -30 -12.5l115 -159h-86l-105 149h-42v-149h-74v383zM70 350q0 74 28 139.5q28 65.5 77 114q49 48.5 114.5 77q65.5 28.5 139.5 28.5q74 0 139.5 -28.5q65.5 -28.5 114 -77q48.5 -48.5 77 -114q28.5 -65.5 28.5 -139.5q0 -74 -28.5 -139.5q-28.5 -65.5 -77 -114.5q-48.5 -49 -114 -77q-65.5 -28 -139.5 -28q-74 0 -139.5 28q-65.5 28 -114.5 77q-49 49 -77 114.5q-28 65.5 -28 139.5zt0 0zM728 349q0 62 -23.5 116.5q-23.5 54.5 -64.5 95.5q-41 41 -95.5 64.5q-54.5 23.5 -116.5 23.5q-62 0 -116 -23.5q-54 -23.5 -94.5 -64.5q-40.5 -41 -64 -95.5q-23.5 -54.5 -23.5 -116.5q0 -62 23.5 -116q23.5 -54 64 -94.5q40.5 -40.5 94.5 -64q54 -23.5 116 -23.5q62 0 116.5 23.5q54.5 23.5 95.5 64q41 40.5 64.5 94.5q23.5 54 23.5 116zt0 0zM424 363q10 0 23.5 2q13.5 2 25 8.5q11.5 6.5 19.5 19.5q8 13 8 34q0 22 -7.5 34q-7.5 12 -19 18q-11.5 6 -24 7.5q-12.5 1.5 -21.5 1.5h-56l0 -125z" />
<glyph unicode="&#175;" horiz-adv-x="568" d="M416 697v-64h-264l0 64z" />
<glyph unicode="&#176;" horiz-adv-x="379" d="M60 579q0 27 10 51q10 24 27.5 41.5q17.5 17.5 41.5 27.5q24 10 51 10q27 0 50.5 -10q23.5 -10 41 -27.5q17.5 -17.5 27.5 -41.5q10 -24 10 -51q0 -27 -10 -50.5q-10 -23.5 -27.5 -41q-17.5 -17.5 -41 -27.5q-23.5 -10 -50.5 -10q-27 0 -51 10q-24 10 -41.5 27.5q-17.5 17.5 -27.5 41q-10 23.5 -10 50.5zt0 0zM258 579q0 15 -6 27.5q-6 12.5 -16 21.5q-10 9 -22 14.5q-12 5.5 -25 5.5q-27 0 -47.5 -20.5q-20.5 -20.5 -20.5 -48.5q0 -28 20.5 -48q20.5 -20 47.5 -20q29 0 49 20t20 48z" />
<glyph unicode="&#177;" horiz-adv-x="658" d="M75 383v68h220v185h68v-185h220v-68h-220v-185h-68v185zM583 132v-68h-508l0 68z" />
<glyph unicode="&#178;" horiz-adv-x="400" d="M141 416q34 31 56.5 55q22.5 24 36.5 44q14 20 20 38q6 18 6 38q0 23 -16 40.5q-16 17.5 -48 17.5q-33 0 -57.5 -16q-24.5 -16 -41.5 -36l-41 36q21 32 58 54q37 22 85 22q38 0 64 -9.5q26 -9.5 41.5 -25q15.5 -15.5 22 -36.5q6.5 -21 6.5 -43q0 -29 -11 -54.5q-11 -25.5 -30 -50q-19 -24.5 -44.5 -49q-25.5 -24.5 -55.5 -51.5l-42 -38v-2h185v-59h-277l0 48z" />
<glyph unicode="&#179;" horiz-adv-x="400" d="M81 389q14 -15 37 -30q23 -15 66 -15q34 0 59 15q25 15 25 50q0 33 -20.5 50q-20.5 17 -51.5 17h-50v52h47q35 0 54.5 19q19.5 19 19.5 48q0 27 -18.5 40.5q-18.5 13.5 -50.5 13.5q-30 0 -55 -12.5q-25 -12.5 -46 -33.5l-40 39q16 19 35.5 32q19.5 13 39.5 21q20 8 38.5 11q18.5 3 32.5 3q72 0 103.5 -30q31.5 -30 31.5 -78q0 -29 -20.5 -57.5q-20.5 -28.5 -54.5 -38.5l0 -2q37 -7 56.5 -32q19.5 -25 19.5 -63q0 -21 -9.5 -43q-9.5 -22 -29 -40q-19.5 -18 -48.5 -29.5q-29 -11.5 -68 -11.5q-49 0 -84.5 20q-35.5 20 -54.5 45z" />
<glyph unicode="&#180;" horiz-adv-x="568" d="M435 741l-124 -138h-62l78 138z" />
<glyph unicode="&#181;" horiz-adv-x="583" d="M163 490v-322q0 -51 32.5 -78q32.5 -27 80.5 -27q25 0 48 9q23 9 42 22q19 13 33 28q14 15 21 27l0 341h83v-490h-82v70h-3q-28 -35 -65 -57q-37 -22 -83 -22q-38 0 -65.5 13.5q-27.5 13.5 -40.5 32.5l-3 0q1 -12 1.5 -27q0.5 -15 0.5 -27v-233h-83l0 740z" />
<glyph unicode="&#182;" horiz-adv-x="515" d="M214 397q-42 0 -74 13q-32 13 -53 34q-21 21 -31.5 48q-10.5 27 -10.5 56q0 27 8.5 54q8.5 27 28.5 48.5q20 21.5 53 35.5q33 14 82 14h64v-950h-67zM420 700v-950h-67l0 950z" />
<glyph unicode="&#183;" horiz-adv-x="233" d="M45 365q0 29 21 50q21 21 50 21q30 0 51 -21q21 -21 21 -50q0 -30 -21 -50.5q-21 -20.5 -51 -20.5q-29 0 -50 20.5t-21 50.5z" />
<glyph unicode="&#184;" horiz-adv-x="569" d="M213 -143q27 -15 57 -15q21 0 31 11q10 11 10 27q0 11 -5 18q-5 7 -12.5 10.5q-7.5 3.5 -16 5q-8.5 1.5 -15.5 1.5q-7 0 -17 0q-10 0 -20 -2l13 87h56l-8 -43q48 0 70.5 -21q22.5 -21 22.5 -55q0 -42 -31 -65q-31 -23 -76 -23q-24 0 -45.5 6q-21.5 6 -36.5 18z" />
<glyph unicode="&#185;" horiz-adv-x="400" d="M99 575l-29 49l124 76h60v-409h-71l0 333z" />
<glyph unicode="&#186;" horiz-adv-x="415" d="M46 538q0 84 45 127.5q45 43.5 116 43.5q71 0 116 -43.5q45 -43.5 45 -127.5q0 -84 -45 -127.5q-45 -43.5 -116 -43.5q-72 0 -116.5 43q-44.5 43 -44.5 128zt0 0zM298 538q0 12 -3 32q-3 20 -12.5 39q-9.5 19 -27.5 33q-18 14 -48 14q-31 0 -49 -14q-18 -14 -27.5 -33q-9.5 -19 -12 -39q-2.5 -20 -2.5 -32q0 -12 2.5 -31.5q2.5 -19.5 12 -38.5q9.5 -19 27.5 -33q18 -14 49 -14q30 0 48 14q18 14 27.5 33q9.5 19 12.5 38.5t3 31.5z" />
<glyph unicode="&#187;" horiz-adv-x="489" d="M162 265l-107 161l62 29l131 -190l-131 -190l-62 29zM330 265l-117 178l61 31l145 -209l-145 -209l-61 31z" />
<glyph unicode="&#188;" horiz-adv-x="870" d="M487 109v45l183 255h70v-244h70v-56h-70v-109h-70v109zM83 575l-28 49l124 76h59v-409h-71v333zM672 325h-2l-115 -160v-2h117zM569 742l56 -23l-348 -772l-56 23z" />
<glyph unicode="&#189;" horiz-adv-x="870" d="M630 124q34 32 56.5 56q22.5 24 36 44q13.5 20 19.5 38q6 18 6 38q0 23 -15.5 40.5q-15.5 17.5 -48.5 17.5q-32 0 -57 -16q-25 -16 -42 -36l-40 36q20 32 57.5 54q37.5 22 85.5 22q38 0 63.5 -9.5q25.5 -9.5 41.5 -25q16 -15.5 22.5 -36.5q6.5 -21 6.5 -44q0 -28 -11 -53.5q-11 -25.5 -30.5 -50.5q-19.5 -25 -45 -49.5q-25.5 -24.5 -55.5 -51.5l-42 -38v-1h186v-59h-277v47zM82 575l-29 49l124 76h60v-409h-71v333zM568 742l56 -23l-348 -772l-55 23z" />
<glyph unicode="&#190;" horiz-adv-x="870" d="M73 389q14 -15 37 -30q23 -15 66 -15q34 0 59 15q25 15 25 50q0 33 -20.5 50q-20.5 17 -51.5 17h-50v52h47q35 0 54.5 19q19.5 19 19.5 48q0 27 -18.5 40.5q-18.5 13.5 -50.5 13.5q-30 0 -55 -12.5q-25 -12.5 -46 -33.5l-40 39q16 19 35.5 32q19.5 13 39.5 21q20 8 38.5 11q18.5 3 32.5 3q72 0 103.5 -30q31.5 -30 31.5 -78q0 -29 -20.5 -57.5q-20.5 -28.5 -54.5 -38.5l0 -2q37 -7 56.5 -32q19.5 -25 19.5 -63q0 -21 -9.5 -43q-9.5 -22 -29 -40q-19.5 -18 -48.5 -29.5q-29 -11.5 -68 -11.5q-49 0 -84.5 20q-35.5 20 -54.5 45zM496 109v45l183 255h71v-244h70v-56h-70v-109h-70v109zM681 325h-1l-115 -160v-2h116zM590 742l56 -23l-348 -772l-56 23z" />
<glyph unicode="&#191;" horiz-adv-x="509" d="M336 266q0 -15 -2 -30.5q-2 -15.5 -9 -31q-7 -15.5 -20 -32q-13 -16.5 -35 -34.5l-32 -26q-27 -22 -46 -40.5q-19 -18.5 -31 -36q-12 -17.5 -18 -36q-6 -18.5 -6 -41.5q0 -18 6.5 -36q6.5 -18 21.5 -32.5q15 -14.5 39.5 -24q24.5 -9.5 60.5 -9.5q35 0 63 11q28 11 49 26.5q21 15.5 35.5 32.5q14.5 17 22.5 28l61 -46q-12 -20 -32.5 -42.5q-20.5 -22.5 -51 -41q-30.5 -18.5 -70.5 -31q-40 -12.5 -90 -12.5q-58 0 -97.5 14q-39.5 14 -64 36.5q-24.5 22.5 -35 51q-10.5 28.5 -10.5 56.5q0 37 9 65.5q9 28.5 25.5 52.5q16.5 24 40.5 45.5q24 21.5 53 45.5l30 25q29 24 36.5 47.5q7.5 23.5 7.5 46.5v32h89zM244 400v90h94l0 -90z" />
<glyph unicode="&#192;" horiz-adv-x="715" d="M378 546q-5 14 -10 30.5q-5 16.5 -10 34.5l-5 0q-5 -17 -10.5 -34.5q-5.5 -17.5 -10.5 -29.5l-113 -284h272zM405 700l280 -700h-91l-78 190h-322l-76 -190h-88l281 700zM321 926l84 -153h-63l-132 153z" />
<glyph unicode="&#193;" horiz-adv-x="715" d="M378 546q-5 14 -10 30.5q-5 16.5 -10 34.5l-5 0q-5 -17 -10.5 -34.5q-5.5 -17.5 -10.5 -29.5l-113 -284h272zM405 700l280 -700h-91l-78 190h-322l-76 -190h-88l281 700zM514 926l-132 -153h-63l84 153z" />
<glyph unicode="&#194;" horiz-adv-x="715" d="M378 546q-5 14 -10 30.5q-5 16.5 -10 34.5l-5 0q-5 -17 -10.5 -34.5q-5.5 -17.5 -10.5 -29.5l-113 -284h272zM405 700l280 -700h-91l-78 190h-322l-76 -190h-88l281 700zM398 918l121 -141h-77l-84 85l-85 -85h-77l122 141z" />
<glyph unicode="&#195;" horiz-adv-x="715" d="M378 546q-5 14 -10 30.5q-5 16.5 -10 34.5l-5 0q-5 -17 -10.5 -34.5q-5.5 -17.5 -10.5 -29.5l-113 -284h272zM405 700l280 -700h-91l-78 190h-322l-76 -190h-88l281 700zM352 809q-41 15 -61 15q-9 0 -20.5 -6.5q-11.5 -6.5 -16.5 -28.5l-66 0q0 19 6.5 37.5q6.5 18.5 18.5 32.5q12 14 29.5 23q17.5 9 40.5 9q21 0 43 -6q22 -6 44 -14q19 -6 34.5 -11q15.5 -5 27.5 -5q13 0 20.5 7q7.5 7 12.5 28l62 0q-2 -46 -27.5 -73.5q-25.5 -27.5 -60.5 -27.5q-21 0 -38.5 4.5t-48.5 15.5z" />
<glyph unicode="&#196;" horiz-adv-x="715" d="M378 546q-5 14 -10 30.5q-5 16.5 -10 34.5l-5 0q-5 -17 -10.5 -34.5q-5.5 -17.5 -10.5 -29.5l-113 -284h272zM405 700l280 -700h-91l-78 190h-322l-76 -190h-88l281 700zM301 889v-96h-84v96zM498 889v-96h-83l0 96z" />
<glyph unicode="&#197;" horiz-adv-x="715" d="M378 546q-5 14 -10 30.5q-5 16.5 -10 34.5l-5 0q-5 -17 -10.5 -34.5q-5.5 -17.5 -10.5 -29.5l-113 -284h272zM405 700l280 -700h-91l-78 190h-322l-76 -190h-88l281 700zM253 859q0 22 8 41q8 19 22 33q14 14 33 22.5q19 8.5 40 8.5q22 0 41.5 -8.5q19.5 -8.5 33.5 -22.5q14 -14 22 -33q8 -19 8 -41q0 -22 -8 -41q-8 -19 -22 -33q-14 -14 -33.5 -22q-19.5 -8 -41.5 -8q-21 0 -40 8q-19 8 -33 22q-14 14 -22 33q-8 19 -8 41zt0 0zM409 860q0 20 -15.5 35q-15.5 15 -37.5 15q-19 0 -33.5 -15q-14.5 -15 -14.5 -35q0 -21 14.5 -35.5q14.5 -14.5 33.5 -14.5q22 0 37.5 14.5t15.5 35.5z" />
<glyph unicode="&#198;" horiz-adv-x="954" d="M918 700v-73h-334v-231h279v-73h-279v-250h334v-73h-421v190h-268l-120 -190h-89l438 700zM497 611h-5l-220 -348l225 0z" />
<glyph unicode="&#199;" horiz-adv-x="629" d="M312 -159q29 -16 60 -16q24 0 36.5 11.5q12.5 11.5 12.5 28.5q0 25 -16.5 33q-16.5 8 -36.5 8q-7 0 -18 -1q-11 -1 -22 -3l12 90q-62 4 -113.5 26.5q-51.5 22.5 -89 66q-37.5 43.5 -58.5 108.5q-21 65 -21 155q0 82 22.5 149q22.5 67 64 114q41.5 47 100.5 72.5q59 25.5 133 25.5q42 0 76 -7.5q34 -7.5 62 -20.5q28 -13 50 -30q22 -17 39 -36l-50 -57q-31 31 -72 53.5q-41 22.5 -105 22.5q-59 0 -102.5 -24.5q-43.5 -24.5 -72 -64.5q-28.5 -40 -42.5 -91.5q-14 -51.5 -14 -105.5q0 -63 14 -115q14 -52 42.5 -89.5q28.5 -37.5 72.5 -58q44 -20.5 104 -20.5q60 0 104.5 24.5q44.5 24.5 77.5 59.5l45 -55q-35 -41 -87.5 -68.5q-52.5 -27.5 -118.5 -33.5l-7 -41q56 0 79 -24q23 -24 23 -60q0 -22 -9.5 -40q-9.5 -18 -25.5 -30.5q-16 -12.5 -37.5 -19q-21.5 -6.5 -45.5 -6.5q-26 0 -50 6.5q-24 6.5 -41 20.5z" />
<glyph unicode="&#200;" horiz-adv-x="550" d="M514 700v-73h-334v-231h279v-73h-279v-250h334v-73h-421v700zM257 926l84 -153h-63l-132 153z" />
<glyph unicode="&#201;" horiz-adv-x="550" d="M514 700v-73h-334v-231h279v-73h-279v-250h334v-73h-421v700zM443 926l-132 -153h-63l84 153z" />
<glyph unicode="&#202;" horiz-adv-x="550" d="M514 700v-73h-334v-231h279v-73h-279v-250h334v-73h-421v700zM340 918l121 -141h-77l-84 85l-85 -85h-77l122 141z" />
<glyph unicode="&#203;" horiz-adv-x="550" d="M514 700v-73h-334v-231h279v-73h-279v-250h334v-73h-421v700zM241 889v-96h-84v96zM438 889v-96h-83l0 96z" />
<glyph unicode="&#204;" horiz-adv-x="273" d="M180 700v-700h-87v700zM96 926l84 -153h-63l-132 153z" />
<glyph unicode="&#205;" horiz-adv-x="273" d="M180 700v-700h-87v700zM288 926l-132 -153h-63l84 153z" />
<glyph unicode="&#206;" horiz-adv-x="273" d="M180 700v-700h-87v700zM177 918l121 -141h-77l-84 85l-85 -85h-77l122 141z" />
<glyph unicode="&#207;" horiz-adv-x="273" d="M180 700v-700h-87v700zM80 889v-96h-84v96zM277 889v-96h-83l0 96z" />
<glyph unicode="&#208;" horiz-adv-x="731" d="M18 329v74h109v297h204q76 0 139 -17.5q63 -17.5 108 -58q45 -40.5 70 -107q25 -66.5 25 -164.5q0 -89 -29 -155q-29 -66 -77.5 -110q-48.5 -44 -111 -66q-62.5 -22 -129.5 -22h-199v329zM321 71q43 0 90 14.5q47 14.5 85 48q38 33.5 63 87.5q25 54 25 132q0 79 -19.5 132q-19.5 53 -54 85q-34.5 32 -82 45.5q-47.5 13.5 -104.5 13.5h-110v-226h183v-74h-183l0 -258z" />
<glyph unicode="&#209;" horiz-adv-x="734" d="M190 700l321 -493q11 -17 24.5 -43q13.5 -26 23.5 -44l4 0q0 11 -1 25.5q-1 14.5 -1.5 28.5q-0.5 14 -1 27q-0.5 13 -0.5 22v477h82v-700h-87l-334 513q-11 18 -23.5 40.5q-12.5 22.5 -21.5 40.5l-4 0q0 -10 1 -25q1 -15 1.5 -31q0.5 -16 1 -31q0.5 -15 0.5 -25v-482h-82v700zM369 809q-41 15 -61 15q-9 0 -20.5 -6.5q-11.5 -6.5 -16.5 -28.5l-66 0q0 19 6.5 37.5q6.5 18.5 18.5 32.5q12 14 29.5 23q17.5 9 40.5 9q21 0 43 -6q22 -6 44 -14q19 -6 34.5 -11q15.5 -5 27.5 -5q13 0 20.5 7q7.5 7 12.5 28l62 0q-2 -46 -27.5 -73.5q-25.5 -27.5 -60.5 -27.5q-21 0 -38.5 4.5t-48.5 15.5z" />
<glyph unicode="&#210;" horiz-adv-x="753" d="M58 350q0 81 20.5 147q20.5 66 61 113.5q40.5 47.5 99.5 73q59 25.5 137 25.5q78 0 137.5 -25.5q59.5 -25.5 100 -73q40.5 -47.5 61 -113.5q20.5 -66 20.5 -147q0 -81 -20.5 -147q-20.5 -66 -61 -113.5q-40.5 -47.5 -100 -73q-59.5 -25.5 -137.5 -25.5q-77 0 -136.5 25.5q-59.5 25.5 -100 73q-40.5 47.5 -61 113.5q-20.5 66 -20.5 147zt0 0zM606 350q0 45 -10 95.5q-10 50.5 -35.5 93q-25.5 42.5 -70 70.5q-44.5 28 -114.5 28q-69 0 -113.5 -28q-44.5 -28 -70 -70.5q-25.5 -42.5 -35.5 -93q-10 -50.5 -10 -95.5q0 -45 10 -95.5q10 -50.5 35.5 -93q25.5 -42.5 70 -70.5q44.5 -28 113.5 -28q70 0 114.5 28q44.5 28 70 70.5q25.5 42.5 35.5 93q10 50.5 10 95.5zt0 0zM340 926l84 -153h-63l-132 153z" />
<glyph unicode="&#211;" horiz-adv-x="753" d="M58 350q0 81 20.5 147q20.5 66 61 113.5q40.5 47.5 99.5 73q59 25.5 137 25.5q78 0 137.5 -25.5q59.5 -25.5 100 -73q40.5 -47.5 61 -113.5q20.5 -66 20.5 -147q0 -81 -20.5 -147q-20.5 -66 -61 -113.5q-40.5 -47.5 -100 -73q-59.5 -25.5 -137.5 -25.5q-77 0 -136.5 25.5q-59.5 25.5 -100 73q-40.5 47.5 -61 113.5q-20.5 66 -20.5 147zt0 0zM606 350q0 45 -10 95.5q-10 50.5 -35.5 93q-25.5 42.5 -70 70.5q-44.5 28 -114.5 28q-69 0 -113.5 -28q-44.5 -28 -70 -70.5q-25.5 -42.5 -35.5 -93q-10 -50.5 -10 -95.5q0 -45 10 -95.5q10 -50.5 35.5 -93q25.5 -42.5 70 -70.5q44.5 -28 113.5 -28q70 0 114.5 28q44.5 28 70 70.5q25.5 42.5 35.5 93q10 50.5 10 95.5zt0 0zM533 926l-132 -153h-63l84 153z" />
<glyph unicode="&#212;" horiz-adv-x="753" d="M58 350q0 81 20.5 147q20.5 66 61 113.5q40.5 47.5 99.5 73q59 25.5 137 25.5q78 0 137.5 -25.5q59.5 -25.5 100 -73q40.5 -47.5 61 -113.5q20.5 -66 20.5 -147q0 -81 -20.5 -147q-20.5 -66 -61 -113.5q-40.5 -47.5 -100 -73q-59.5 -25.5 -137.5 -25.5q-77 0 -136.5 25.5q-59.5 25.5 -100 73q-40.5 47.5 -61 113.5q-20.5 66 -20.5 147zt0 0zM606 350q0 45 -10 95.5q-10 50.5 -35.5 93q-25.5 42.5 -70 70.5q-44.5 28 -114.5 28q-69 0 -113.5 -28q-44.5 -28 -70 -70.5q-25.5 -42.5 -35.5 -93q-10 -50.5 -10 -95.5q0 -45 10 -95.5q10 -50.5 35.5 -93q25.5 -42.5 70 -70.5q44.5 -28 113.5 -28q70 0 114.5 28q44.5 28 70 70.5q25.5 42.5 35.5 93q10 50.5 10 95.5zt0 0zM417 918l121 -141h-77l-84 85l-85 -85h-77l122 141z" />
<glyph unicode="&#213;" horiz-adv-x="753" d="M58 350q0 81 20.5 147q20.5 66 61 113.5q40.5 47.5 99.5 73q59 25.5 137 25.5q78 0 137.5 -25.5q59.5 -25.5 100 -73q40.5 -47.5 61 -113.5q20.5 -66 20.5 -147q0 -81 -20.5 -147q-20.5 -66 -61 -113.5q-40.5 -47.5 -100 -73q-59.5 -25.5 -137.5 -25.5q-77 0 -136.5 25.5q-59.5 25.5 -100 73q-40.5 47.5 -61 113.5q-20.5 66 -20.5 147zt0 0zM606 350q0 45 -10 95.5q-10 50.5 -35.5 93q-25.5 42.5 -70 70.5q-44.5 28 -114.5 28q-69 0 -113.5 -28q-44.5 -28 -70 -70.5q-25.5 -42.5 -35.5 -93q-10 -50.5 -10 -95.5q0 -45 10 -95.5q10 -50.5 35.5 -93q25.5 -42.5 70 -70.5q44.5 -28 113.5 -28q70 0 114.5 28q44.5 28 70 70.5q25.5 42.5 35.5 93q10 50.5 10 95.5zt0 0zM371 809q-41 15 -61 15q-9 0 -20.5 -6.5q-11.5 -6.5 -16.5 -28.5l-66 0q0 19 6.5 37.5q6.5 18.5 18.5 32.5q12 14 29.5 23q17.5 9 40.5 9q21 0 43 -6q22 -6 44 -14q19 -6 34.5 -11q15.5 -5 27.5 -5q13 0 20.5 7q7.5 7 12.5 28l62 0q-2 -46 -27.5 -73.5q-25.5 -27.5 -60.5 -27.5q-21 0 -38.5 4.5t-48.5 15.5z" />
<glyph unicode="&#214;" horiz-adv-x="753" d="M58 350q0 81 20.5 147q20.5 66 61 113.5q40.5 47.5 99.5 73q59 25.5 137 25.5q78 0 137.5 -25.5q59.5 -25.5 100 -73q40.5 -47.5 61 -113.5q20.5 -66 20.5 -147q0 -81 -20.5 -147q-20.5 -66 -61 -113.5q-40.5 -47.5 -100 -73q-59.5 -25.5 -137.5 -25.5q-77 0 -136.5 25.5q-59.5 25.5 -100 73q-40.5 47.5 -61 113.5q-20.5 66 -20.5 147zt0 0zM606 350q0 45 -10 95.5q-10 50.5 -35.5 93q-25.5 42.5 -70 70.5q-44.5 28 -114.5 28q-69 0 -113.5 -28q-44.5 -28 -70 -70.5q-25.5 -42.5 -35.5 -93q-10 -50.5 -10 -95.5q0 -45 10 -95.5q10 -50.5 35.5 -93q25.5 -42.5 70 -70.5q44.5 -28 113.5 -28q70 0 114.5 28q44.5 28 70 70.5q25.5 42.5 35.5 93q10 50.5 10 95.5zt0 0zM320 889v-96h-84v96zM517 889v-96h-83l0 96z" />
<glyph unicode="&#215;" horiz-adv-x="607" d="M255 352l-165 165l48 48l165 -165l165 164l48 -48l-165 -164l166 -165l-48 -48l-166 165l-165 -165l-48 48z" />
<glyph unicode="&#216;" horiz-adv-x="753" d="M154 74q-48 48 -72 117.5q-24 69.5 -24 158.5q0 81 20.5 147q20.5 66 61 113.5q40.5 47.5 99.5 73q59 25.5 137 25.5q52 0 96 -11.5q44 -11.5 79 -33.5l58 86l51 -32l-62 -92q48 -48 72.5 -118q24.5 -70 24.5 -158q0 -81 -20.5 -147q-20.5 -66 -61 -113.5q-40.5 -47.5 -100 -73q-59.5 -25.5 -137.5 -25.5q-52 0 -96 11.5q-44 11.5 -79 33.5l-58 -86l-50 33zM606 350q0 50 -12 104.5q-12 54.5 -44 99.5l-305 -453q25 -18 57 -28q32 -10 74 -10q70 0 114.5 28q44.5 28 70 70.5q25.5 42.5 35.5 93q10 50.5 10 95.5zt0 0zM506 598q-25 18 -56.5 28.5q-31.5 10.5 -73.5 10.5q-69 0 -113.5 -28q-44.5 -28 -70 -70.5q-25.5 -42.5 -35.5 -93q-10 -50.5 -10 -95.5q0 -50 11.5 -105q11.5 -55 43.5 -100z" />
<glyph unicode="&#217;" horiz-adv-x="715" d="M88 700h87v-456q0 -38 10 -70.5q10 -32.5 32 -56.5q22 -24 57.5 -38q35.5 -14 85.5 -14q49 0 84 14.5q35 14.5 57 39q22 24.5 32 57q10 32.5 10 68.5v456h84v-459q0 -61 -19 -107.5q-19 -46.5 -54 -78q-35 -31.5 -85 -48q-50 -16.5 -111 -16.5q-62 0 -112 15.5q-50 15.5 -85 46.5q-35 31 -54 78q-19 47 -19 110zM321 926l84 -153h-63l-132 153z" />
<glyph unicode="&#218;" horiz-adv-x="715" d="M88 700h87v-456q0 -38 10 -70.5q10 -32.5 32 -56.5q22 -24 57.5 -38q35.5 -14 85.5 -14q49 0 84 14.5q35 14.5 57 39q22 24.5 32 57q10 32.5 10 68.5v456h84v-459q0 -61 -19 -107.5q-19 -46.5 -54 -78q-35 -31.5 -85 -48q-50 -16.5 -111 -16.5q-62 0 -112 15.5q-50 15.5 -85 46.5q-35 31 -54 78q-19 47 -19 110zM514 926l-132 -153h-63l84 153z" />
<glyph unicode="&#219;" horiz-adv-x="715" d="M88 700h87v-456q0 -38 10 -70.5q10 -32.5 32 -56.5q22 -24 57.5 -38q35.5 -14 85.5 -14q49 0 84 14.5q35 14.5 57 39q22 24.5 32 57q10 32.5 10 68.5v456h84v-459q0 -61 -19 -107.5q-19 -46.5 -54 -78q-35 -31.5 -85 -48q-50 -16.5 -111 -16.5q-62 0 -112 15.5q-50 15.5 -85 46.5q-35 31 -54 78q-19 47 -19 110zM398 918l121 -141h-77l-84 85l-85 -85h-77l122 141z" />
<glyph unicode="&#220;" horiz-adv-x="715" d="M88 700h87v-456q0 -38 10 -70.5q10 -32.5 32 -56.5q22 -24 57.5 -38q35.5 -14 85.5 -14q49 0 84 14.5q35 14.5 57 39q22 24.5 32 57q10 32.5 10 68.5v456h84v-459q0 -61 -19 -107.5q-19 -46.5 -54 -78q-35 -31.5 -85 -48q-50 -16.5 -111 -16.5q-62 0 -112 15.5q-50 15.5 -85 46.5q-35 31 -54 78q-19 47 -19 110zM301 889v-96h-84v96zM498 889v-96h-83l0 96z" />
<glyph unicode="&#221;" horiz-adv-x="597" d="M10 700h93l164 -320q7 -14 14 -31.5q7 -17.5 13 -34.5l5 0q5 16 12.5 33.5q7.5 17.5 15.5 32.5l168 320h92l-249 -458v-242h-87v242zM455 926l-132 -153h-63l84 153z" />
<glyph unicode="&#222;" horiz-adv-x="601" d="M180 700v-124h152q33 0 73 -7q40 -7 74.5 -28.5q34.5 -21.5 58 -62q23.5 -40.5 23.5 -106.5q0 -55 -20 -96q-20 -41 -54 -68.5q-34 -27.5 -77.5 -41q-43.5 -13.5 -90.5 -13.5h-139v-153h-87v700zM310 223q20 0 47.5 5.5q27.5 5.5 53 21.5q25.5 16 43.5 45q18 29 18 76q0 45 -16 72q-16 27 -40 41.5q-24 14.5 -50.5 18.5q-26.5 4 -47.5 4h-139l0 -284z" />
<glyph unicode="&#223;" horiz-adv-x="577" d="M250 64q24 -8 54 -8q21 0 45.5 6q24.5 6 46 23.5q21.5 17.5 36 48.5q14.5 31 14.5 81q0 41 -11.5 68.5q-11.5 27.5 -30.5 44q-19 16.5 -43.5 23q-24.5 6.5 -49.5 6.5h-59v66h56q17 0 35.5 7q18.5 7 33.5 23q15 16 25 41.5q10 25.5 10 62.5q0 23 -7.5 44q-7.5 21 -22.5 37.5q-15 16.5 -37 26.5q-22 10 -51 10q-39 0 -64.5 -13.5q-25.5 -13.5 -40.5 -34.5q-15 -21 -20.5 -47q-5.5 -26 -5.5 -51v-529h-83v529q0 29 8.5 65.5q8.5 36.5 32 69q23.5 32.5 64.5 54.5q41 22 107 22q39 0 76 -9q37 -9 65.5 -30.5q28.5 -21.5 45.5 -57q17 -35.5 17 -87.5q0 -62 -27.5 -102q-27.5 -40 -73.5 -55l0 -3q72 -8 103.5 -56.5q31.5 -48.5 31.5 -123.5q0 -62 -19.5 -105q-19.5 -43 -50 -69.5q-30.5 -26.5 -67.5 -38.5q-37 -12 -72 -12q-17 0 -40.5 2.5q-23.5 2.5 -41.5 11.5z" />
<glyph unicode="&#224;" horiz-adv-x="544" d="M47 136q0 45 18 76q18 31 48 49.5q30 18.5 68.5 26.5q38.5 8 78.5 8h121v29q0 31 -8.5 52q-8.5 21 -23.5 33q-15 12 -35.5 17q-20.5 5 -45.5 5q-45 0 -80.5 -14.5q-35.5 -14.5 -67.5 -37.5l-39 51q40 31 93.5 49.5q53.5 18.5 106.5 18.5q51 0 86 -13.5q35 -13.5 56.5 -37.5q21.5 -24 31 -56.5q9.5 -32.5 9.5 -70.5v-321h-82v79h-2q-14 -12 -33 -27.5q-19 -15.5 -42 -29q-23 -13.5 -50 -22.5q-27 -9 -57 -9q-66 0 -108.5 37q-42.5 37 -42.5 108zt0 0zM381 236h-110q-29 0 -54 -4q-25 -4 -44.5 -14.5q-19.5 -10.5 -30.5 -30q-11 -19.5 -11 -50.5q0 -33 18.5 -53.5q18.5 -20.5 65.5 -20.5q23 0 47 8q24 8 46 20.5q22 12.5 41 27.5q19 15 32 28zM243 741l78 -138h-62l-124 138z" />
<glyph unicode="&#225;" horiz-adv-x="544" d="M47 136q0 45 18 76q18 31 48 49.5q30 18.5 68.5 26.5q38.5 8 78.5 8h121v29q0 31 -8.5 52q-8.5 21 -23.5 33q-15 12 -35.5 17q-20.5 5 -45.5 5q-45 0 -80.5 -14.5q-35.5 -14.5 -67.5 -37.5l-39 51q40 31 93.5 49.5q53.5 18.5 106.5 18.5q51 0 86 -13.5q35 -13.5 56.5 -37.5q21.5 -24 31 -56.5q9.5 -32.5 9.5 -70.5v-321h-82v79h-2q-14 -12 -33 -27.5q-19 -15.5 -42 -29q-23 -13.5 -50 -22.5q-27 -9 -57 -9q-66 0 -108.5 37q-42.5 37 -42.5 108zt0 0zM381 236h-110q-29 0 -54 -4q-25 -4 -44.5 -14.5q-19.5 -10.5 -30.5 -30q-11 -19.5 -11 -50.5q0 -33 18.5 -53.5q18.5 -20.5 65.5 -20.5q23 0 47 8q24 8 46 20.5q22 12.5 41 27.5q19 15 32 28zM423 741l-124 -138h-62l78 138z" />
<glyph unicode="&#226;" horiz-adv-x="544" d="M47 136q0 45 18 76q18 31 48 49.5q30 18.5 68.5 26.5q38.5 8 78.5 8h121v29q0 31 -8.5 52q-8.5 21 -23.5 33q-15 12 -35.5 17q-20.5 5 -45.5 5q-45 0 -80.5 -14.5q-35.5 -14.5 -67.5 -37.5l-39 51q40 31 93.5 49.5q53.5 18.5 106.5 18.5q51 0 86 -13.5q35 -13.5 56.5 -37.5q21.5 -24 31 -56.5q9.5 -32.5 9.5 -70.5v-321h-82v79h-2q-14 -12 -33 -27.5q-19 -15.5 -42 -29q-23 -13.5 -50 -22.5q-27 -9 -57 -9q-66 0 -108.5 37q-42.5 37 -42.5 108zt0 0zM381 236h-110q-29 0 -54 -4q-25 -4 -44.5 -14.5q-19.5 -10.5 -30.5 -30q-11 -19.5 -11 -50.5q0 -33 18.5 -53.5q18.5 -20.5 65.5 -20.5q23 0 47 8q24 8 46 20.5q22 12.5 41 27.5q19 15 32 28zM326 740l109 -126h-74l-73 73l-73 -73h-74l109 126z" />
<glyph unicode="&#227;" horiz-adv-x="544" d="M47 136q0 45 18 76q18 31 48 49.5q30 18.5 68.5 26.5q38.5 8 78.5 8h121v29q0 31 -8.5 52q-8.5 21 -23.5 33q-15 12 -35.5 17q-20.5 5 -45.5 5q-45 0 -80.5 -14.5q-35.5 -14.5 -67.5 -37.5l-39 51q40 31 93.5 49.5q53.5 18.5 106.5 18.5q51 0 86 -13.5q35 -13.5 56.5 -37.5q21.5 -24 31 -56.5q9.5 -32.5 9.5 -70.5v-321h-82v79h-2q-14 -12 -33 -27.5q-19 -15.5 -42 -29q-23 -13.5 -50 -22.5q-27 -9 -57 -9q-66 0 -108.5 37q-42.5 37 -42.5 108zt0 0zM381 236h-110q-29 0 -54 -4q-25 -4 -44.5 -14.5q-19.5 -10.5 -30.5 -30q-11 -19.5 -11 -50.5q0 -33 18.5 -53.5q18.5 -20.5 65.5 -20.5q23 0 47 8q24 8 46 20.5q22 12.5 41 27.5q19 15 32 28zM274 625q-20 8 -32 13.5q-12 5.5 -25 5.5q-8 0 -18.5 -5.5q-10.5 -5.5 -14.5 -26.5l-58 0q0 39 23 66q23 27 64 27q20 0 38 -6q18 -6 39 -14q17 -6 31 -11.5q14 -5.5 23 -5.5q9 0 19 4.5q10 4.5 14 26.5l57 0q0 -48 -26.5 -70.5q-26.5 -22.5 -59.5 -22.5q-14 0 -28.5 4t-45.5 15z" />
<glyph unicode="&#228;" horiz-adv-x="544" d="M47 136q0 45 18 76q18 31 48 49.5q30 18.5 68.5 26.5q38.5 8 78.5 8h121v29q0 31 -8.5 52q-8.5 21 -23.5 33q-15 12 -35.5 17q-20.5 5 -45.5 5q-45 0 -80.5 -14.5q-35.5 -14.5 -67.5 -37.5l-39 51q40 31 93.5 49.5q53.5 18.5 106.5 18.5q51 0 86 -13.5q35 -13.5 56.5 -37.5q21.5 -24 31 -56.5q9.5 -32.5 9.5 -70.5v-321h-82v79h-2q-14 -12 -33 -27.5q-19 -15.5 -42 -29q-23 -13.5 -50 -22.5q-27 -9 -57 -9q-66 0 -108.5 37q-42.5 37 -42.5 108zt0 0zM381 236h-110q-29 0 -54 -4q-25 -4 -44.5 -14.5q-19.5 -10.5 -30.5 -30q-11 -19.5 -11 -50.5q0 -33 18.5 -53.5q18.5 -20.5 65.5 -20.5q23 0 47 8q24 8 46 20.5q22 12.5 41 27.5q19 15 32 28zM231 700v-84h-79v84zM407 700v-84h-79l0 84z" />
<glyph unicode="&#229;" horiz-adv-x="544" d="M47 136q0 45 18 76q18 31 48 49.5q30 18.5 68.5 26.5q38.5 8 78.5 8h121v29q0 31 -8.5 52q-8.5 21 -23.5 33q-15 12 -35.5 17q-20.5 5 -45.5 5q-45 0 -80.5 -14.5q-35.5 -14.5 -67.5 -37.5l-39 51q40 31 93.5 49.5q53.5 18.5 106.5 18.5q51 0 86 -13.5q35 -13.5 56.5 -37.5q21.5 -24 31 -56.5q9.5 -32.5 9.5 -70.5v-321h-82v79h-2q-14 -12 -33 -27.5q-19 -15.5 -42 -29q-23 -13.5 -50 -22.5q-27 -9 -57 -9q-66 0 -108.5 37q-42.5 37 -42.5 108zt0 0zM381 236h-110q-29 0 -54 -4q-25 -4 -44.5 -14.5q-19.5 -10.5 -30.5 -30q-11 -19.5 -11 -50.5q0 -33 18.5 -53.5q18.5 -20.5 65.5 -20.5q23 0 47 8q24 8 46 20.5q22 12.5 41 27.5q19 15 32 28zM181 694q0 21 7.5 39q7.5 18 20.5 31.5q13 13.5 31 21q18 7.5 39 7.5q42 0 70.5 -28.5q28.5 -28.5 28.5 -70.5q0 -21 -7.5 -39q-7.5 -18 -21 -31.5q-13.5 -13.5 -31.5 -21q-18 -7.5 -39 -7.5q-42 0 -70 28.5q-28 28.5 -28 70.5zt0 0zM327 695q0 19 -14 33.5q-14 14.5 -34 14.5q-22 0 -35 -14.5q-13 -14.5 -13 -33.5q0 -20 13 -34.5q13 -14.5 35 -14.5q20 0 34 14.5t14 34.5z" />
<glyph unicode="&#230;" horiz-adv-x="849" d="M47 136q0 45 18 76q18 31 48 49.5q30 18.5 68.5 26.5q38.5 8 78.5 8h121v29q0 31 -8.5 52q-8.5 21 -23.5 33q-15 12 -35.5 17q-20.5 5 -45.5 5q-45 0 -80.5 -14.5q-35.5 -14.5 -67.5 -37.5l-39 51q40 31 93.5 49.5q53.5 18.5 106.5 18.5q61 0 99 -21q38 -21 58 -56q30 36 72 56.5q42 20.5 94 20.5q60 0 99 -21q39 -21 61.5 -53q22.5 -32 31.5 -71q9 -39 9 -76v-41h-342q0 -29 7 -61q7 -32 25 -58.5q18 -26.5 49 -43.5q31 -17 79 -17q43 0 74 14q31 14 63 43l38 -46q-33 -32 -78.5 -54.5q-45.5 -22.5 -104.5 -22.5q-63 0 -116.5 24q-53.5 24 -85.5 80q-59 -58 -109.5 -81q-50.5 -23 -101.5 -23q-69 0 -112 37q-43 37 -43 108zt0 0zM381 236h-110q-29 0 -54 -4q-25 -4 -44.5 -14.5q-19.5 -10.5 -30.5 -30q-11 -19.5 -11 -50.5q0 -33 18.5 -53.5q18.5 -20.5 65.5 -20.5q23 0 47 8q24 8 46 20.5q22 12.5 41 27.5q19 15 32 28zM723 295q-2 66 -31.5 102.5q-29.5 36.5 -87.5 36.5q-24 0 -47 -6.5q-23 -6.5 -41.5 -22.5q-18.5 -16 -31.5 -43q-13 -27 -18 -67z" />
<glyph unicode="&#231;" horiz-adv-x="474" d="M221 -143q27 -15 57 -15q21 0 31 11q10 11 10 27q0 11 -5 18q-5 7 -12.5 10.5q-7.5 3.5 -16 5q-8.5 1.5 -15.5 1.5q-7 0 -17 0q-10 0 -20 -2l12 80q-41 4 -77 20.5q-36 16.5 -63 46.5q-27 30 -42.5 75q-15.5 45 -15.5 107q0 58 16.5 105.5q16.5 47.5 47 81.5q30.5 34 73.5 52q43 18 95 18q36 0 63.5 -6.5q27.5 -6.5 48.5 -17q21 -10.5 35.5 -22.5q14.5 -12 24.5 -23l-42 -49q-9 7 -21 16q-12 9 -27 17q-15 8 -34 13q-19 5 -42 5q-39 0 -68 -16.5q-29 -16.5 -48 -43.5q-19 -27 -28.5 -61q-9.5 -34 -9.5 -69q0 -35 8.5 -68.5q8.5 -33.5 27 -59.5q18.5 -26 48.5 -41.5q30 -15.5 72 -15.5q44 0 74.5 17.5q30.5 17.5 53.5 39.5l39 -47q-24 -26 -62 -48q-38 -22 -92 -27l-6 -35q48 0 70.5 -21q22.5 -21 22.5 -55q0 -42 -31 -65q-31 -23 -76 -23q-24 0 -45.5 6q-21.5 6 -36.5 18z" />
<glyph unicode="&#232;" horiz-adv-x="517" d="M47 242q0 59 16 106.5q16 47.5 45.5 81q29.5 33.5 71 51.5q41.5 18 92.5 18q60 0 99 -21q39 -21 61.5 -53q22.5 -32 31.5 -71q9 -39 9 -76v-41h-342q0 -29 7 -61q7 -32 25 -58.5q18 -26.5 49 -43.5q31 -17 79 -17q43 0 74 14q31 14 63 43l38 -46q-33 -32 -78.5 -54.5q-45.5 -22.5 -104.5 -22.5q-47 0 -90 13.5q-43 13.5 -75.5 43.5q-32.5 30 -51.5 78q-19 48 -19 116zt0 0zM391 295q-2 66 -31.5 102.5q-29.5 36.5 -87.5 36.5q-24 0 -47 -6.5q-23 -6.5 -41.5 -22.5q-18.5 -16 -31.5 -43q-13 -27 -18 -67zM250 741l78 -138h-62l-124 138z" />
<glyph unicode="&#233;" horiz-adv-x="517" d="M47 242q0 59 16 106.5q16 47.5 45.5 81q29.5 33.5 71 51.5q41.5 18 92.5 18q60 0 99 -21q39 -21 61.5 -53q22.5 -32 31.5 -71q9 -39 9 -76v-41h-342q0 -29 7 -61q7 -32 25 -58.5q18 -26.5 49 -43.5q31 -17 79 -17q43 0 74 14q31 14 63 43l38 -46q-33 -32 -78.5 -54.5q-45.5 -22.5 -104.5 -22.5q-47 0 -90 13.5q-43 13.5 -75.5 43.5q-32.5 30 -51.5 78q-19 48 -19 116zt0 0zM391 295q-2 66 -31.5 102.5q-29.5 36.5 -87.5 36.5q-24 0 -47 -6.5q-23 -6.5 -41.5 -22.5q-18.5 -16 -31.5 -43q-13 -27 -18 -67zM409 741l-124 -138h-62l78 138z" />
<glyph unicode="&#234;" horiz-adv-x="517" d="M47 242q0 59 16 106.5q16 47.5 45.5 81q29.5 33.5 71 51.5q41.5 18 92.5 18q60 0 99 -21q39 -21 61.5 -53q22.5 -32 31.5 -71q9 -39 9 -76v-41h-342q0 -29 7 -61q7 -32 25 -58.5q18 -26.5 49 -43.5q31 -17 79 -17q43 0 74 14q31 14 63 43l38 -46q-33 -32 -78.5 -54.5q-45.5 -22.5 -104.5 -22.5q-47 0 -90 13.5q-43 13.5 -75.5 43.5q-32.5 30 -51.5 78q-19 48 -19 116zt0 0zM391 295q-2 66 -31.5 102.5q-29.5 36.5 -87.5 36.5q-24 0 -47 -6.5q-23 -6.5 -41.5 -22.5q-18.5 -16 -31.5 -43q-13 -27 -18 -67zM312 740l109 -126h-74l-73 73l-73 -73h-74l109 126z" />
<glyph unicode="&#235;" horiz-adv-x="517" d="M47 242q0 59 16 106.5q16 47.5 45.5 81q29.5 33.5 71 51.5q41.5 18 92.5 18q60 0 99 -21q39 -21 61.5 -53q22.5 -32 31.5 -71q9 -39 9 -76v-41h-342q0 -29 7 -61q7 -32 25 -58.5q18 -26.5 49 -43.5q31 -17 79 -17q43 0 74 14q31 14 63 43l38 -46q-33 -32 -78.5 -54.5q-45.5 -22.5 -104.5 -22.5q-47 0 -90 13.5q-43 13.5 -75.5 43.5q-32.5 30 -51.5 78q-19 48 -19 116zt0 0zM391 295q-2 66 -31.5 102.5q-29.5 36.5 -87.5 36.5q-24 0 -47 -6.5q-23 -6.5 -41.5 -22.5q-18.5 -16 -31.5 -43q-13 -27 -18 -67zM226 700v-84h-79v84zM402 700v-84h-79l0 84z" />
<glyph unicode="&#236;" horiz-adv-x="249" d="M166 490v-490h-83v490zM88 741l78 -138h-62l-124 138z" />
<glyph unicode="&#237;" horiz-adv-x="249" d="M166 490v-490h-83v490zM269 741l-124 -138h-62l78 138z" />
<glyph unicode="&#238;" horiz-adv-x="249" d="M166 490v-490h-83v490zM162 740l109 -126h-74l-73 73l-73 -73h-74l109 126z" />
<glyph unicode="&#239;" horiz-adv-x="249" d="M166 490v-490h-83v490zM76 700v-84h-79v84zM252 700v-84h-79l0 84z" />
<glyph unicode="&#240;" horiz-adv-x="575" d="M47 231q0 58 15.5 104.5q15.5 46.5 45 79.5q29.5 33 71 51q41.5 18 94.5 18q46 0 90 -20.5q44 -20.5 70 -64.5l5 0q-4 35 -14.5 68q-10.5 33 -27 61q-16.5 28 -37.5 50.5q-21 22.5 -45 37.5l-96 -80l-37 43l79 65q-29 14 -67 22q-38 8 -76 10l11 66q48 -3 99 -14.5q51 -11.5 94 -32.5l104 83l36 -43l-90 -71q38 -27 67.5 -62q29.5 -35 49.5 -80q20 -45 30 -101q10 -56 10 -126q0 -62 -15 -117.5q-15 -55.5 -45.5 -97q-30.5 -41.5 -78 -65.5q-47.5 -24 -112.5 -24q-41 0 -82 13q-41 13 -74 42q-33 29 -53.5 74.5q-20.5 45.5 -20.5 110.5zt0 0zM438 242q0 39 -13 71.5q-13 32.5 -34.5 55.5q-21.5 23 -50.5 35.5q-29 12.5 -61 12.5q-40 0 -68 -15.5q-28 -15.5 -45.5 -41.5q-17.5 -26 -25.5 -59.5q-8 -33.5 -8 -68.5q0 -27 8 -58q8 -31 25.5 -57.5q17.5 -26.5 45.5 -43.5q28 -17 69 -17q45 0 75 18.5q30 18.5 48.5 46.5q18.5 28 26.5 60.5t8 60.5z" />
<glyph unicode="&#241;" horiz-adv-x="583" d="M162 490v-79h2q18 14 39.5 29.5q21.5 15.5 47 28.5q25.5 13 53.5 21.5q28 8.5 58 8.5q37 0 63.5 -11.5q26.5 -11.5 43.5 -32q17 -20.5 25.5 -49q8.5 -28.5 8.5 -62.5v-344h-83v320q0 23 -4 42.5q-4 19.5 -13.5 34q-9.5 14.5 -26.5 22.5q-17 8 -43 8q-24 0 -50 -9.5q-26 -9.5 -49 -23q-23 -13.5 -42 -28q-19 -14.5 -29 -23.5l0 -343h-83v490zM295 625q-20 8 -32 13.5q-12 5.5 -25 5.5q-8 0 -18.5 -5.5q-10.5 -5.5 -14.5 -26.5l-58 0q0 39 23 66q23 27 64 27q20 0 38 -6q18 -6 39 -14q17 -6 31 -11.5q14 -5.5 23 -5.5q9 0 19 4.5q10 4.5 14 26.5l57 0q0 -48 -26.5 -70.5q-26.5 -22.5 -59.5 -22.5q-14 0 -28.5 4t-45.5 15z" />
<glyph unicode="&#242;" horiz-adv-x="568" d="M47 244q0 61 17 109q17 48 48 80q31 32 75 49q44 17 97 17q54 0 97.5 -17q43.5 -17 74.5 -49q31 -32 48 -80q17 -48 17 -109q0 -61 -17 -108q-17 -47 -48 -79.5q-31 -32.5 -74.5 -49q-43.5 -16.5 -97.5 -16.5q-53 0 -97 16.5q-44 16.5 -75 49q-31 32.5 -48 79.5q-17 47 -17 108zt0 0zM437 244q0 22 -5 54.5q-5 32.5 -21 62.5q-16 30 -46.5 51.5q-30.5 21.5 -80.5 21.5q-50 0 -80.5 -21.5q-30.5 -21.5 -46.5 -51.5q-16 -30 -21 -62.5q-5 -32.5 -5 -54.5q0 -22 5 -54q5 -32 21 -62q16 -30 46.5 -51q30.5 -21 80.5 -21q50 0 80.5 21q30.5 21 46.5 51q16 30 21 62q5 32 5 54zt0 0zM250 741l78 -138h-62l-124 138z" />
<glyph unicode="&#243;" horiz-adv-x="568" d="M47 244q0 61 17 109q17 48 48 80q31 32 75 49q44 17 97 17q54 0 97.5 -17q43.5 -17 74.5 -49q31 -32 48 -80q17 -48 17 -109q0 -61 -17 -108q-17 -47 -48 -79.5q-31 -32.5 -74.5 -49q-43.5 -16.5 -97.5 -16.5q-53 0 -97 16.5q-44 16.5 -75 49q-31 32.5 -48 79.5q-17 47 -17 108zt0 0zM437 244q0 22 -5 54.5q-5 32.5 -21 62.5q-16 30 -46.5 51.5q-30.5 21.5 -80.5 21.5q-50 0 -80.5 -21.5q-30.5 -21.5 -46.5 -51.5q-16 -30 -21 -62.5q-5 -32.5 -5 -54.5q0 -22 5 -54q5 -32 21 -62q16 -30 46.5 -51q30.5 -21 80.5 -21q50 0 80.5 21q30.5 21 46.5 51q16 30 21 62q5 32 5 54zt0 0zM435 741l-124 -138h-62l78 138z" />
<glyph unicode="&#244;" horiz-adv-x="568" d="M47 244q0 61 17 109q17 48 48 80q31 32 75 49q44 17 97 17q54 0 97.5 -17q43.5 -17 74.5 -49q31 -32 48 -80q17 -48 17 -109q0 -61 -17 -108q-17 -47 -48 -79.5q-31 -32.5 -74.5 -49q-43.5 -16.5 -97.5 -16.5q-53 0 -97 16.5q-44 16.5 -75 49q-31 32.5 -48 79.5q-17 47 -17 108zt0 0zM437 244q0 22 -5 54.5q-5 32.5 -21 62.5q-16 30 -46.5 51.5q-30.5 21.5 -80.5 21.5q-50 0 -80.5 -21.5q-30.5 -21.5 -46.5 -51.5q-16 -30 -21 -62.5q-5 -32.5 -5 -54.5q0 -22 5 -54q5 -32 21 -62q16 -30 46.5 -51q30.5 -21 80.5 -21q50 0 80.5 21q30.5 21 46.5 51q16 30 21 62q5 32 5 54zt0 0zM322 740l109 -126h-74l-73 73l-73 -73h-74l109 126z" />
<glyph unicode="&#245;" horiz-adv-x="568" d="M47 244q0 61 17 109q17 48 48 80q31 32 75 49q44 17 97 17q54 0 97.5 -17q43.5 -17 74.5 -49q31 -32 48 -80q17 -48 17 -109q0 -61 -17 -108q-17 -47 -48 -79.5q-31 -32.5 -74.5 -49q-43.5 -16.5 -97.5 -16.5q-53 0 -97 16.5q-44 16.5 -75 49q-31 32.5 -48 79.5q-17 47 -17 108zt0 0zM437 244q0 22 -5 54.5q-5 32.5 -21 62.5q-16 30 -46.5 51.5q-30.5 21.5 -80.5 21.5q-50 0 -80.5 -21.5q-30.5 -21.5 -46.5 -51.5q-16 -30 -21 -62.5q-5 -32.5 -5 -54.5q0 -22 5 -54q5 -32 21 -62q16 -30 46.5 -51q30.5 -21 80.5 -21q50 0 80.5 21q30.5 21 46.5 51q16 30 21 62q5 32 5 54zt0 0zM278 625q-20 8 -32 13.5q-12 5.5 -25 5.5q-8 0 -18.5 -5.5q-10.5 -5.5 -14.5 -26.5l-58 0q0 39 23 66q23 27 64 27q20 0 38 -6q18 -6 39 -14q17 -6 31 -11.5q14 -5.5 23 -5.5q9 0 19 4.5q10 4.5 14 26.5l57 0q0 -48 -26.5 -70.5q-26.5 -22.5 -59.5 -22.5q-14 0 -28.5 4t-45.5 15z" />
<glyph unicode="&#246;" horiz-adv-x="568" d="M47 244q0 61 17 109q17 48 48 80q31 32 75 49q44 17 97 17q54 0 97.5 -17q43.5 -17 74.5 -49q31 -32 48 -80q17 -48 17 -109q0 -61 -17 -108q-17 -47 -48 -79.5q-31 -32.5 -74.5 -49q-43.5 -16.5 -97.5 -16.5q-53 0 -97 16.5q-44 16.5 -75 49q-31 32.5 -48 79.5q-17 47 -17 108zt0 0zM437 244q0 22 -5 54.5q-5 32.5 -21 62.5q-16 30 -46.5 51.5q-30.5 21.5 -80.5 21.5q-50 0 -80.5 -21.5q-30.5 -21.5 -46.5 -51.5q-16 -30 -21 -62.5q-5 -32.5 -5 -54.5q0 -22 5 -54q5 -32 21 -62q16 -30 46.5 -51q30.5 -21 80.5 -21q50 0 80.5 21q30.5 21 46.5 51q16 30 21 62q5 32 5 54zt0 0zM233 700v-84h-79v84zM409 700v-84h-79l0 84z" />
<glyph unicode="&#247;" horiz-adv-x="658" d="M267 182q0 26 18 44q18 18 44 18q25 0 43.5 -18q18.5 -18 18.5 -44q0 -26 -18.5 -44.5q-18.5 -18.5 -43.5 -18.5q-26 0 -44 18.5q-18 18.5 -18 44.5zt0 0zM267 525q0 26 18 44q18 18 44 18q25 0 43.5 -18q18.5 -18 18.5 -44q0 -26 -18.5 -44.5q-18.5 -18.5 -43.5 -18.5q-26 0 -44 18.5q-18 18.5 -18 44.5zt0 0zM583 387v-68h-508l0 68z" />
<glyph unicode="&#248;" horiz-adv-x="568" d="M124 44q-37 32 -57 82q-20 50 -20 118q0 61 17 109q17 48 48 80q31 32 75 49q44 17 97 17q63 0 113 -24l45 72l47 -28l-46 -74q37 -32 57.5 -82.5q20.5 -50.5 20.5 -118.5q0 -61 -17 -108q-17 -47 -48 -79.5q-31 -32.5 -74.5 -49q-43.5 -16.5 -97.5 -16.5q-32 0 -60.5 6.5q-28.5 6.5 -53.5 17.5l-45 -72l-46 30zM437 244q0 26 -7 64q-7 38 -30 70l-192 -304q15 -8 34 -13q19 -5 42 -5q50 0 80.5 21q30.5 21 46.5 51q16 30 21 62q5 32 5 54zt0 0zM359 416q-15 8 -33.5 13q-18.5 5 -41.5 5q-50 0 -80.5 -21.5q-30.5 -21.5 -46.5 -51.5q-16 -30 -21 -62.5q-5 -32.5 -5 -54.5q0 -26 6.5 -63q6.5 -37 29.5 -69z" />
<glyph unicode="&#249;" horiz-adv-x="583" d="M80 490h83v-320q0 -23 4 -43q4 -20 13.5 -34q9.5 -14 26.5 -22q17 -8 43 -8q24 0 50 9.5q26 9.5 49 23q23 13.5 42 28q19 14.5 29 23.5l0 343h83v-490h-82v79h-2q-18 -14 -39.5 -29.5q-21.5 -15.5 -47 -28.5q-25.5 -13 -53.5 -21.5q-28 -8.5 -58 -8.5q-74 0 -107.5 43.5q-33.5 43.5 -33.5 111.5zM257 741l78 -138h-62l-124 138z" />
<glyph unicode="&#250;" horiz-adv-x="583" d="M80 490h83v-320q0 -23 4 -43q4 -20 13.5 -34q9.5 -14 26.5 -22q17 -8 43 -8q24 0 50 9.5q26 9.5 49 23q23 13.5 42 28q19 14.5 29 23.5l0 343h83v-490h-82v79h-2q-18 -14 -39.5 -29.5q-21.5 -15.5 -47 -28.5q-25.5 -13 -53.5 -21.5q-28 -8.5 -58 -8.5q-74 0 -107.5 43.5q-33.5 43.5 -33.5 111.5zM442 741l-124 -138h-62l78 138z" />
<glyph unicode="&#251;" horiz-adv-x="583" d="M80 490h83v-320q0 -23 4 -43q4 -20 13.5 -34q9.5 -14 26.5 -22q17 -8 43 -8q24 0 50 9.5q26 9.5 49 23q23 13.5 42 28q19 14.5 29 23.5l0 343h83v-490h-82v79h-2q-18 -14 -39.5 -29.5q-21.5 -15.5 -47 -28.5q-25.5 -13 -53.5 -21.5q-28 -8.5 -58 -8.5q-74 0 -107.5 43.5q-33.5 43.5 -33.5 111.5zM329 740l109 -126h-74l-73 73l-73 -73h-74l109 126z" />
<glyph unicode="&#252;" horiz-adv-x="583" d="M80 490h83v-320q0 -23 4 -43q4 -20 13.5 -34q9.5 -14 26.5 -22q17 -8 43 -8q24 0 50 9.5q26 9.5 49 23q23 13.5 42 28q19 14.5 29 23.5l0 343h83v-490h-82v79h-2q-18 -14 -39.5 -29.5q-21.5 -15.5 -47 -28.5q-25.5 -13 -53.5 -21.5q-28 -8.5 -58 -8.5q-74 0 -107.5 43.5q-33.5 43.5 -33.5 111.5zM240 700v-84h-79v84zM416 700v-84h-79l0 84z" />
<glyph unicode="&#253;" horiz-adv-x="510" d="M42 -191q13 -3 34 -3q19 0 37.5 6q18.5 6 35.5 21q17 15 33 42q16 27 30 69l18 51l-215 495h93l135 -334q8 -20 12.5 -38q4.5 -18 9.5 -32l4 0q3 14 7 28q4 14 13 40l117 336h88l-209 -562q-20 -53 -42 -89q-22 -36 -47.5 -57.5q-25.5 -21.5 -54.5 -31q-29 -9.5 -62 -9.5q-9 0 -22.5 2.5q-13.5 2.5 -21.5 5.5zM406 741l-124 -138h-62l78 138z" />
<glyph unicode="&#254;" horiz-adv-x="576" d="M163 740v-328h2q9 9 25.5 23.5q16.5 14.5 39.5 29q23 14.5 52 24.5q29 10 62 10q46 0 80.5 -17.5q34.5 -17.5 57 -49q22.5 -31.5 33.5 -75.5q11 -44 11 -97q0 -48 -12 -96q-12 -48 -38 -86.5q-26 -38.5 -66 -62.5q-40 -24 -97 -24q-23 0 -44.5 5.5q-21.5 5.5 -41 14.5q-19.5 9 -36 20q-16.5 11 -28.5 21l-2 0q1 -14 1.5 -28.5q0.5 -14.5 0.5 -22.5v-251h-83v990zM442 257q0 28 -5.5 58q-5.5 30 -19.5 55q-14 25 -37 41q-23 16 -59 16q-25 0 -49 -9.5q-24 -9.5 -45 -22.5q-21 -13 -38 -28q-17 -15 -27 -25l0 -222q10 -9 24 -19q14 -10 32 -19q18 -9 39 -15q21 -6 46 -6q67 0 103 52.5t36 143.5z" />
<glyph unicode="&#255;" horiz-adv-x="510" d="M42 -191q13 -3 34 -3q19 0 37.5 6q18.5 6 35.5 21q17 15 33 42q16 27 30 69l18 51l-215 495h93l135 -334q8 -20 12.5 -38q4.5 -18 9.5 -32l4 0q3 14 7 28q4 14 13 40l117 336h88l-209 -562q-20 -53 -42 -89q-22 -36 -47.5 -57.5q-25.5 -21.5 -54.5 -31q-29 -9.5 -62 -9.5q-9 0 -22.5 2.5q-13.5 2.5 -21.5 5.5zM204 700v-84h-79v84zM380 700v-84h-79l0 84z" />
<glyph unicode="&#256;" horiz-adv-x="715" d="M378 546q-5 14 -10 30.5q-5 16.5 -10 34.5l-5 0q-5 -17 -10.5 -34.5q-5.5 -17.5 -10.5 -29.5l-113 -284h272zM405 700l280 -700h-91l-78 190h-322l-76 -190h-88l281 700zM510 870v-66h-305l0 66z" />
<glyph unicode="&#257;" horiz-adv-x="544" d="M47 136q0 45 18 76q18 31 48 49.5q30 18.5 68.5 26.5q38.5 8 78.5 8h121v29q0 31 -8.5 52q-8.5 21 -23.5 33q-15 12 -35.5 17q-20.5 5 -45.5 5q-45 0 -80.5 -14.5q-35.5 -14.5 -67.5 -37.5l-39 51q40 31 93.5 49.5q53.5 18.5 106.5 18.5q51 0 86 -13.5q35 -13.5 56.5 -37.5q21.5 -24 31 -56.5q9.5 -32.5 9.5 -70.5v-321h-82v79h-2q-14 -12 -33 -27.5q-19 -15.5 -42 -29q-23 -13.5 -50 -22.5q-27 -9 -57 -9q-66 0 -108.5 37q-42.5 37 -42.5 108zt0 0zM381 236h-110q-29 0 -54 -4q-25 -4 -44.5 -14.5q-19.5 -10.5 -30.5 -30q-11 -19.5 -11 -50.5q0 -33 18.5 -53.5q18.5 -20.5 65.5 -20.5q23 0 47 8q24 8 46 20.5q22 12.5 41 27.5q19 15 32 28zM414 697v-64h-264l0 64z" />
<glyph unicode="&#258;" horiz-adv-x="715" d="M378 546q-5 14 -10 30.5q-5 16.5 -10 34.5l-5 0q-5 -17 -10.5 -34.5q-5.5 -17.5 -10.5 -29.5l-113 -284h272zM405 700l280 -700h-91l-78 190h-322l-76 -190h-88l281 700zM260 912q12 -31 33 -55q21 -24 65 -24q44 0 64.5 24q20.5 24 32.5 55l69 -4q-7 -41 -26 -67.5q-19 -26.5 -43 -42q-24 -15.5 -50 -21.5q-26 -6 -47 -6q-21 0 -47 6q-26 6 -50.5 21.5q-24.5 15.5 -43.5 42q-19 26.5 -26 67.5z" />
<glyph unicode="&#259;" horiz-adv-x="544" d="M47 136q0 45 18 76q18 31 48 49.5q30 18.5 68.5 26.5q38.5 8 78.5 8h121v29q0 31 -8.5 52q-8.5 21 -23.5 33q-15 12 -35.5 17q-20.5 5 -45.5 5q-45 0 -80.5 -14.5q-35.5 -14.5 -67.5 -37.5l-39 51q40 31 93.5 49.5q53.5 18.5 106.5 18.5q51 0 86 -13.5q35 -13.5 56.5 -37.5q21.5 -24 31 -56.5q9.5 -32.5 9.5 -70.5v-321h-82v79h-2q-14 -12 -33 -27.5q-19 -15.5 -42 -29q-23 -13.5 -50 -22.5q-27 -9 -57 -9q-66 0 -108.5 37q-42.5 37 -42.5 108zt0 0zM381 236h-110q-29 0 -54 -4q-25 -4 -44.5 -14.5q-19.5 -10.5 -30.5 -30q-11 -19.5 -11 -50.5q0 -33 18.5 -53.5q18.5 -20.5 65.5 -20.5q23 0 47 8q24 8 46 20.5q22 12.5 41 27.5q19 15 32 28zM198 723q10 -26 27 -42q17 -16 52 -16q35 0 51.5 16q16.5 16 27.5 42l65 -3q-5 -34 -21 -56.5q-16 -22.5 -37 -36q-21 -13.5 -44.5 -19q-23.5 -5.5 -41.5 -5.5q-19 0 -42 5.5q-23 5.5 -44 19q-21 13.5 -37.5 36q-16.5 22.5 -20.5 56.5z" />
<glyph unicode="&#260;" horiz-adv-x="715" d="M497 -120q0 40 25.5 77q25.5 37 63.5 62l-70 171h-322l-76 -190h-88l281 700h94l280 -700h-60q-24 -20 -40.5 -47q-16.5 -27 -16.5 -55q0 -20 13 -35q13 -15 39 -15q9 0 21 3q12 3 26 11l23 -47q-20 -17 -44 -22.5q-24 -5.5 -41 -5.5q-59 0 -83.5 28q-24.5 28 -24.5 65zt0 0zM378 546q-5 14 -10 30.5q-5 16.5 -10 34.5l-5 0q-5 -17 -10.5 -34.5q-5.5 -17.5 -10.5 -29.5l-113 -284l272 0z" />
<glyph unicode="&#261;" horiz-adv-x="544" d="M294 -115q0 37 25 70.5q25 33.5 63 56.5l0 67h-2q-14 -12 -33 -27.5q-19 -15.5 -42 -29q-23 -13.5 -50 -22.5q-27 -9 -57 -9q-66 0 -108.5 37q-42.5 37 -42.5 108q0 45 18 76q18 31 48 49.5q30 18.5 68.5 26.5q38.5 8 78.5 8h121v29q0 31 -8.5 52q-8.5 21 -23.5 33q-15 12 -35.5 17q-20.5 5 -45.5 5q-45 0 -80.5 -14.5q-35.5 -14.5 -67.5 -37.5l-39 51q40 31 93.5 49.5q53.5 18.5 106.5 18.5q51 0 86 -13.5q35 -13.5 56.5 -37.5q21.5 -24 31 -56.5q9.5 -32.5 9.5 -70.5v-321h-42q-26 -20 -44.5 -45.5q-18.5 -25.5 -18.5 -54.5q0 -20 13 -31.5q13 -11.5 33 -11.5q13 0 25 3q12 3 25 11l22 -43q-20 -17 -41.5 -22q-21.5 -5 -38.5 -5q-55 0 -79 24.5q-24 24.5 -24 59.5zt0 0zM381 236h-110q-29 0 -54 -4q-25 -4 -44.5 -14.5q-19.5 -10.5 -30.5 -30q-11 -19.5 -11 -50.5q0 -33 18.5 -53.5q18.5 -20.5 65.5 -20.5q23 0 47 8q24 8 46 20.5q22 12.5 41 27.5q19 15 32 28z" />
<glyph unicode="&#262;" horiz-adv-x="629" d="M58 348q0 82 22.5 149q22.5 67 64 114q41.5 47 100.5 72.5q59 25.5 133 25.5q42 0 76 -7.5q34 -7.5 62 -20.5q28 -13 50 -30q22 -17 39 -36l-50 -57q-31 31 -72 53.5q-41 22.5 -105 22.5q-59 0 -102.5 -24.5q-43.5 -24.5 -72 -64.5q-28.5 -40 -42.5 -91.5q-14 -51.5 -14 -105.5q0 -63 14 -115q14 -52 42.5 -89.5q28.5 -37.5 72.5 -58q44 -20.5 104 -20.5q60 0 104.5 24.5q44.5 24.5 77.5 59.5l45 -55q-38 -45 -98.5 -74q-60.5 -29 -135.5 -29q-68 0 -126 20q-58 20 -100 62.5q-42 42.5 -65.5 110.5q-23.5 68 -23.5 164zt0 0zM500 926l-132 -153h-63l84 153z" />
<glyph unicode="&#263;" horiz-adv-x="474" d="M47 242q0 58 16.5 105.5q16.5 47.5 47 81.5q30.5 34 73.5 52q43 18 95 18q36 0 63.5 -6.5q27.5 -6.5 48.5 -17q21 -10.5 35.5 -22.5q14.5 -12 24.5 -23l-42 -49q-9 7 -21 16q-12 9 -27 17q-15 8 -34 13q-19 5 -42 5q-39 0 -68 -16.5q-29 -16.5 -48 -43.5q-19 -27 -28.5 -61q-9.5 -34 -9.5 -69q0 -35 8.5 -68.5q8.5 -33.5 27 -59.5q18.5 -26 48.5 -41.5q30 -15.5 72 -15.5q44 0 74.5 17.5q30.5 17.5 53.5 39.5l39 -47q-26 -28 -70.5 -52q-44.5 -24 -106.5 -24q-46 0 -88 14q-42 14 -73.5 44.5q-31.5 30.5 -50 78q-18.5 47.5 -18.5 114.5zt0 0zM411 741l-124 -138h-62l78 138z" />
<glyph unicode="&#264;" horiz-adv-x="629" d="M58 348q0 82 22.5 149q22.5 67 64 114q41.5 47 100.5 72.5q59 25.5 133 25.5q42 0 76 -7.5q34 -7.5 62 -20.5q28 -13 50 -30q22 -17 39 -36l-50 -57q-31 31 -72 53.5q-41 22.5 -105 22.5q-59 0 -102.5 -24.5q-43.5 -24.5 -72 -64.5q-28.5 -40 -42.5 -91.5q-14 -51.5 -14 -105.5q0 -63 14 -115q14 -52 42.5 -89.5q28.5 -37.5 72.5 -58q44 -20.5 104 -20.5q60 0 104.5 24.5q44.5 24.5 77.5 59.5l45 -55q-38 -45 -98.5 -74q-60.5 -29 -135.5 -29q-68 0 -126 20q-58 20 -100 62.5q-42 42.5 -65.5 110.5q-23.5 68 -23.5 164zt0 0zM417 918l121 -141h-77l-84 85l-85 -85h-77l122 141z" />
<glyph unicode="&#265;" horiz-adv-x="474" d="M47 242q0 58 16.5 105.5q16.5 47.5 47 81.5q30.5 34 73.5 52q43 18 95 18q36 0 63.5 -6.5q27.5 -6.5 48.5 -17q21 -10.5 35.5 -22.5q14.5 -12 24.5 -23l-42 -49q-9 7 -21 16q-12 9 -27 17q-15 8 -34 13q-19 5 -42 5q-39 0 -68 -16.5q-29 -16.5 -48 -43.5q-19 -27 -28.5 -61q-9.5 -34 -9.5 -69q0 -35 8.5 -68.5q8.5 -33.5 27 -59.5q18.5 -26 48.5 -41.5q30 -15.5 72 -15.5q44 0 74.5 17.5q30.5 17.5 53.5 39.5l39 -47q-26 -28 -70.5 -52q-44.5 -24 -106.5 -24q-46 0 -88 14q-42 14 -73.5 44.5q-31.5 30.5 -50 78q-18.5 47.5 -18.5 114.5zt0 0zM319 740l109 -126h-74l-73 73l-73 -73h-74l109 126z" />
<glyph unicode="&#266;" horiz-adv-x="629" d="M58 348q0 82 22.5 149q22.5 67 64 114q41.5 47 100.5 72.5q59 25.5 133 25.5q42 0 76 -7.5q34 -7.5 62 -20.5q28 -13 50 -30q22 -17 39 -36l-50 -57q-31 31 -72 53.5q-41 22.5 -105 22.5q-59 0 -102.5 -24.5q-43.5 -24.5 -72 -64.5q-28.5 -40 -42.5 -91.5q-14 -51.5 -14 -105.5q0 -63 14 -115q14 -52 42.5 -89.5q28.5 -37.5 72.5 -58q44 -20.5 104 -20.5q60 0 104.5 24.5q44.5 24.5 77.5 59.5l45 -55q-38 -45 -98.5 -74q-60.5 -29 -135.5 -29q-68 0 -126 20q-58 20 -100 62.5q-42 42.5 -65.5 110.5q-23.5 68 -23.5 164zt0 0zM419 895v-102h-95l0 102z" />
<glyph unicode="&#267;" horiz-adv-x="474" d="M47 242q0 58 16.5 105.5q16.5 47.5 47 81.5q30.5 34 73.5 52q43 18 95 18q36 0 63.5 -6.5q27.5 -6.5 48.5 -17q21 -10.5 35.5 -22.5q14.5 -12 24.5 -23l-42 -49q-9 7 -21 16q-12 9 -27 17q-15 8 -34 13q-19 5 -42 5q-39 0 -68 -16.5q-29 -16.5 -48 -43.5q-19 -27 -28.5 -61q-9.5 -34 -9.5 -69q0 -35 8.5 -68.5q8.5 -33.5 27 -59.5q18.5 -26 48.5 -41.5q30 -15.5 72 -15.5q44 0 74.5 17.5q30.5 17.5 53.5 39.5l39 -47q-26 -28 -70.5 -52q-44.5 -24 -106.5 -24q-46 0 -88 14q-42 14 -73.5 44.5q-31.5 30.5 -50 78q-18.5 47.5 -18.5 114.5zt0 0zM326 700v-89h-84l0 89z" />
<glyph unicode="&#268;" horiz-adv-x="629" d="M58 348q0 82 22.5 149q22.5 67 64 114q41.5 47 100.5 72.5q59 25.5 133 25.5q42 0 76 -7.5q34 -7.5 62 -20.5q28 -13 50 -30q22 -17 39 -36l-50 -57q-31 31 -72 53.5q-41 22.5 -105 22.5q-59 0 -102.5 -24.5q-43.5 -24.5 -72 -64.5q-28.5 -40 -42.5 -91.5q-14 -51.5 -14 -105.5q0 -63 14 -115q14 -52 42.5 -89.5q28.5 -37.5 72.5 -58q44 -20.5 104 -20.5q60 0 104.5 24.5q44.5 24.5 77.5 59.5l45 -55q-38 -45 -98.5 -74q-60.5 -29 -135.5 -29q-68 0 -126 20q-58 20 -100 62.5q-42 42.5 -65.5 110.5q-23.5 68 -23.5 164zt0 0zM291 918l85 -85l84 85h77l-121 -141h-80l-122 141z" />
<glyph unicode="&#269;" horiz-adv-x="474" d="M47 242q0 58 16.5 105.5q16.5 47.5 47 81.5q30.5 34 73.5 52q43 18 95 18q36 0 63.5 -6.5q27.5 -6.5 48.5 -17q21 -10.5 35.5 -22.5q14.5 -12 24.5 -23l-42 -49q-9 7 -21 16q-12 9 -27 17q-15 8 -34 13q-19 5 -42 5q-39 0 -68 -16.5q-29 -16.5 -48 -43.5q-19 -27 -28.5 -61q-9.5 -34 -9.5 -69q0 -35 8.5 -68.5q8.5 -33.5 27 -59.5q18.5 -26 48.5 -41.5q30 -15.5 72 -15.5q44 0 74.5 17.5q30.5 17.5 53.5 39.5l39 -47q-26 -28 -70.5 -52q-44.5 -24 -106.5 -24q-46 0 -88 14q-42 14 -73.5 44.5q-31.5 30.5 -50 78q-18.5 47.5 -18.5 114.5zt0 0zM202 740l73 -73l73 73h74l-109 -126h-76l-109 126z" />
<glyph unicode="&#270;" horiz-adv-x="697" d="M297 700q76 0 139 -17.5q63 -17.5 108 -58q45 -40.5 70 -107q25 -66.5 25 -164.5q0 -89 -29 -155q-29 -66 -77.5 -110q-48.5 -44 -111 -66q-62.5 -22 -129.5 -22h-199v700zM287 71q43 0 90 14.5q47 14.5 85 48q38 33.5 63 87.5q25 54 25 132q0 79 -19.5 132q-19.5 53 -54 85q-34.5 32 -82 45.5q-47.5 13.5 -104.5 13.5h-110v-558zM234 918l85 -85l84 85h77l-121 -141h-80l-122 141z" />
<glyph unicode="&#271;" horiz-adv-x="639" d="M50 230q0 48 12 96q12 48 37.5 86.5q25.5 38.5 66 62.5q40.5 24 97.5 24q46 0 86 -20q40 -20 64 -41l2 0q-1 14 -1.5 28.5q-0.5 14.5 -0.5 22.5v251h83v-740h-82v79h-2q-9 -9 -25.5 -24q-16.5 -15 -39 -29q-22.5 -14 -51 -24.5q-28.5 -10.5 -61.5 -10.5q-46 0 -80.5 17.5q-34.5 17.5 -58 49q-23.5 31.5 -35 75.5q-11.5 44 -11.5 97zt0 0zM414 370q-10 9 -24 19q-14 10 -32 19q-18 9 -39 15q-21 6 -46 6q-65 0 -102 -52.5q-37 -52.5 -37 -143.5q0 -28 5.5 -58q5.5 -30 19.5 -55q14 -25 37 -41q23 -16 59 -16q25 0 49 9.5q24 9.5 45 22.5q21 13 37.5 27.5q16.5 14.5 27.5 25.5zM659 700l-43 -202h-45l0 202z" />
<glyph unicode="&#272;" horiz-adv-x="731" d="M18 329v74h109v297h204q76 0 139 -17.5q63 -17.5 108 -58q45 -40.5 70 -107q25 -66.5 25 -164.5q0 -89 -29 -155q-29 -66 -77.5 -110q-48.5 -44 -111 -66q-62.5 -22 -129.5 -22h-199v329zM321 71q43 0 90 14.5q47 14.5 85 48q38 33.5 63 87.5q25 54 25 132q0 79 -19.5 132q-19.5 53 -54 85q-34.5 32 -82 45.5q-47.5 13.5 -104.5 13.5h-110v-226h183v-74h-183l0 -258z" />
<glyph unicode="&#273;" horiz-adv-x="596" d="M50 224q0 48 12 95q12 47 37.5 84.5q25.5 37.5 66 60.5q40.5 23 97.5 23q46 0 86 -20q40 -20 64 -41l2 0q-1 14 -1.5 28.5q-0.5 14.5 -0.5 22.5v84h-208v59h208v120h83v-120h114v-59h-114v-561h-82v79h-2q-9 -9 -25.5 -24q-16.5 -15 -39 -29q-22.5 -14 -51 -24.5q-28.5 -10.5 -61.5 -10.5q-92 0 -138.5 63q-46.5 63 -46.5 170zt0 0zM414 358q-10 9 -24 19q-14 10 -32 19q-18 9 -39 15q-21 6 -46 6q-65 0 -102 -49.5q-37 -49.5 -37 -140.5q0 -28 5.5 -57q5.5 -29 19.5 -53q14 -24 37 -39q23 -15 59 -15q25 0 49 9.5q24 9.5 45 22.5q21 13 37.5 27.5q16.5 14.5 27.5 25.5z" />
<glyph unicode="&#274;" horiz-adv-x="550" d="M514 700v-73h-334v-231h279v-73h-279v-250h334v-73h-421v700zM447 870v-66h-305l0 66z" />
<glyph unicode="&#275;" horiz-adv-x="517" d="M47 242q0 59 16 106.5q16 47.5 45.5 81q29.5 33.5 71 51.5q41.5 18 92.5 18q60 0 99 -21q39 -21 61.5 -53q22.5 -32 31.5 -71q9 -39 9 -76v-41h-342q0 -29 7 -61q7 -32 25 -58.5q18 -26.5 49 -43.5q31 -17 79 -17q43 0 74 14q31 14 63 43l38 -46q-33 -32 -78.5 -54.5q-45.5 -22.5 -104.5 -22.5q-47 0 -90 13.5q-43 13.5 -75.5 43.5q-32.5 30 -51.5 78q-19 48 -19 116zt0 0zM391 295q-2 66 -31.5 102.5q-29.5 36.5 -87.5 36.5q-24 0 -47 -6.5q-23 -6.5 -41.5 -22.5q-18.5 -16 -31.5 -43q-13 -27 -18 -67zM406 697v-64h-264l0 64z" />
<glyph unicode="&#278;" horiz-adv-x="550" d="M514 700v-73h-334v-231h279v-73h-279v-250h334v-73h-421v700zM352 895v-102h-95l0 102z" />
<glyph unicode="&#279;" horiz-adv-x="517" d="M47 242q0 59 16 106.5q16 47.5 45.5 81q29.5 33.5 71 51.5q41.5 18 92.5 18q60 0 99 -21q39 -21 61.5 -53q22.5 -32 31.5 -71q9 -39 9 -76v-41h-342q0 -29 7 -61q7 -32 25 -58.5q18 -26.5 49 -43.5q31 -17 79 -17q43 0 74 14q31 14 63 43l38 -46q-33 -32 -78.5 -54.5q-45.5 -22.5 -104.5 -22.5q-47 0 -90 13.5q-43 13.5 -75.5 43.5q-32.5 30 -51.5 78q-19 48 -19 116zt0 0zM391 295q-2 66 -31.5 102.5q-29.5 36.5 -87.5 36.5q-24 0 -47 -6.5q-23 -6.5 -41.5 -22.5q-18.5 -16 -31.5 -43q-13 -27 -18 -67zM317 700v-89h-84l0 89z" />
<glyph unicode="&#280;" horiz-adv-x="550" d="M321 -120q0 33 17.5 64.5q17.5 31.5 45.5 55.5l-291 0v700h421v-73h-334v-231h279v-73h-279v-250h334v-73h-65q-24 -20 -40.5 -47q-16.5 -27 -16.5 -55q0 -20 13 -35q13 -15 39 -15q9 0 21 3q12 3 26 11l23 -47q-20 -17 -44 -22.5q-24 -5.5 -41 -5.5q-59 0 -83.5 28t-24.5 65z" />
<glyph unicode="&#281;" horiz-adv-x="517" d="M237 -115q0 29 16 56.5q16 27.5 42 50.5q-5 -1 -12 -1q-47 0 -90 13.5q-43 13.5 -75.5 43.5q-32.5 30 -51.5 78q-19 48 -19 116q0 59 16 106.5q16 47.5 45.5 81q29.5 33.5 71 51.5q41.5 18 92.5 18q60 0 99 -21q39 -21 61.5 -53q22.5 -32 31.5 -71q9 -39 9 -76v-41h-342q0 -29 7 -61q7 -32 25 -58.5q18 -26.5 49 -43.5q31 -17 79 -17q43 0 74 14q31 14 63 43l38 -46q-18 -17 -39 -31.5q-21 -14.5 -46 -25.5q-30 -20 -54.5 -49q-24.5 -29 -24.5 -62q0 -20 13 -31.5q13 -11.5 33 -11.5q13 0 25 3q12 3 25 11l22 -43q-20 -17 -41.5 -22q-21.5 -5 -38.5 -5q-55 0 -79 24.5q-24 24.5 -24 59.5zt0 0zM391 295q-2 66 -31.5 102.5q-29.5 36.5 -87.5 36.5q-24 0 -47 -6.5q-23 -6.5 -41.5 -22.5q-18.5 -16 -31.5 -43q-13 -27 -18 -67z" />
<glyph unicode="&#282;" horiz-adv-x="550" d="M514 700v-73h-334v-231h279v-73h-279v-250h334v-73h-421v700zM218 918l85 -85l84 85h77l-121 -141h-80l-122 141z" />
<glyph unicode="&#283;" horiz-adv-x="517" d="M47 242q0 59 16 106.5q16 47.5 45.5 81q29.5 33.5 71 51.5q41.5 18 92.5 18q60 0 99 -21q39 -21 61.5 -53q22.5 -32 31.5 -71q9 -39 9 -76v-41h-342q0 -29 7 -61q7 -32 25 -58.5q18 -26.5 49 -43.5q31 -17 79 -17q43 0 74 14q31 14 63 43l38 -46q-33 -32 -78.5 -54.5q-45.5 -22.5 -104.5 -22.5q-47 0 -90 13.5q-43 13.5 -75.5 43.5q-32.5 30 -51.5 78q-19 48 -19 116zt0 0zM391 295q-2 66 -31.5 102.5q-29.5 36.5 -87.5 36.5q-24 0 -47 -6.5q-23 -6.5 -41.5 -22.5q-18.5 -16 -31.5 -43q-13 -27 -18 -67zM194 740l73 -73l73 73h74l-109 -126h-76l-109 126z" />
<glyph unicode="&#284;" horiz-adv-x="715" d="M58 348q0 87 24.5 154.5q24.5 67.5 68 113.5q43.5 46 103 69.5q59.5 23.5 129.5 23.5q48 0 85 -8.5q37 -8.5 65.5 -22.5q28.5 -14 50 -31.5q21.5 -17.5 38.5 -36.5l-50 -57q-31 33 -76.5 57q-45.5 24 -111.5 24q-66 0 -111.5 -27q-45.5 -27 -73 -69q-27.5 -42 -40 -92.5q-12.5 -50.5 -12.5 -97.5q0 -64 15.5 -116q15.5 -52 46 -89q30.5 -37 76 -57.5q45.5 -20.5 105.5 -20.5q50 0 92.5 16.5q42.5 16.5 71.5 44.5l0 162h-171v73h256v-272q-21 -20 -48.5 -37.5q-27.5 -17.5 -60.5 -31q-33 -13.5 -69.5 -21.5q-36.5 -8 -74.5 -8q-67 0 -126.5 19q-59.5 19 -104.5 61.5q-45 42.5 -71 110.5q-26 68 -26 166zt0 0zM424 918l121 -141h-77l-84 85l-85 -85h-77l122 141z" />
<glyph unicode="&#285;" horiz-adv-x="576" d="M112 -139q28 -26 61 -41q33 -15 77 -15q26 0 55 8.5q29 8.5 53 30q24 21.5 39.5 58.5q15.5 37 15.5 94v25q0 14 0.5 28q0.5 14 1.5 31l-2 0q-12 -12 -29.5 -27.5q-17.5 -15.5 -40.5 -29q-23 -13.5 -51 -23q-28 -9.5 -61 -9.5q-47 0 -81 19q-34 19 -56.5 51q-22.5 32 -33 75.5q-10.5 43.5 -10.5 92.5q0 49 12 97.5q12 48.5 37.5 87q25.5 38.5 65.5 62q40 23.5 95 23.5q48 0 88 -21q40 -21 69 -45l2 0l5 57h72v-483q0 -76 -23 -127q-23 -51 -58 -82q-35 -31 -77.5 -44q-42.5 -13 -82.5 -13q-63 0 -105.5 19q-42.5 19 -74.5 48zM414 367q-11 9 -24.5 19.5q-13.5 10.5 -31 20q-17.5 9.5 -38.5 16q-21 6.5 -46 6.5q-63 0 -101.5 -50.5q-38.5 -50.5 -38.5 -147.5q0 -29 6 -58.5q6 -29.5 20 -54q14 -24.5 37 -40q23 -15.5 58 -15.5q25 0 49 9.5q24 9.5 45 22.5q21 13 37.5 27.5q16.5 14.5 27.5 25.5zM325 740l109 -126h-74l-73 73l-73 -73h-74l109 126z" />
<glyph unicode="&#286;" horiz-adv-x="715" d="M58 348q0 87 24.5 154.5q24.5 67.5 68 113.5q43.5 46 103 69.5q59.5 23.5 129.5 23.5q48 0 85 -8.5q37 -8.5 65.5 -22.5q28.5 -14 50 -31.5q21.5 -17.5 38.5 -36.5l-50 -57q-31 33 -76.5 57q-45.5 24 -111.5 24q-66 0 -111.5 -27q-45.5 -27 -73 -69q-27.5 -42 -40 -92.5q-12.5 -50.5 -12.5 -97.5q0 -64 15.5 -116q15.5 -52 46 -89q30.5 -37 76 -57.5q45.5 -20.5 105.5 -20.5q50 0 92.5 16.5q42.5 16.5 71.5 44.5l0 162h-171v73h256v-272q-21 -20 -48.5 -37.5q-27.5 -17.5 -60.5 -31q-33 -13.5 -69.5 -21.5q-36.5 -8 -74.5 -8q-67 0 -126.5 19q-59.5 19 -104.5 61.5q-45 42.5 -71 110.5q-26 68 -26 166zt0 0zM284 912q12 -31 33 -55q21 -24 65 -24q44 0 64.5 24q20.5 24 32.5 55l69 -4q-7 -41 -26 -67.5q-19 -26.5 -43 -42q-24 -15.5 -50 -21.5q-26 -6 -47 -6q-21 0 -47 6q-26 6 -50.5 21.5q-24.5 15.5 -43.5 42q-19 26.5 -26 67.5z" />
<glyph unicode="&#287;" horiz-adv-x="576" d="M112 -139q28 -26 61 -41q33 -15 77 -15q26 0 55 8.5q29 8.5 53 30q24 21.5 39.5 58.5q15.5 37 15.5 94v25q0 14 0.5 28q0.5 14 1.5 31l-2 0q-12 -12 -29.5 -27.5q-17.5 -15.5 -40.5 -29q-23 -13.5 -51 -23q-28 -9.5 -61 -9.5q-47 0 -81 19q-34 19 -56.5 51q-22.5 32 -33 75.5q-10.5 43.5 -10.5 92.5q0 49 12 97.5q12 48.5 37.5 87q25.5 38.5 65.5 62q40 23.5 95 23.5q48 0 88 -21q40 -21 69 -45l2 0l5 57h72v-483q0 -76 -23 -127q-23 -51 -58 -82q-35 -31 -77.5 -44q-42.5 -13 -82.5 -13q-63 0 -105.5 19q-42.5 19 -74.5 48zM414 367q-11 9 -24.5 19.5q-13.5 10.5 -31 20q-17.5 9.5 -38.5 16q-21 6.5 -46 6.5q-63 0 -101.5 -50.5q-38.5 -50.5 -38.5 -147.5q0 -29 6 -58.5q6 -29.5 20 -54q14 -24.5 37 -40q23 -15.5 58 -15.5q25 0 49 9.5q24 9.5 45 22.5q21 13 37.5 27.5q16.5 14.5 27.5 25.5zM192 723q10 -26 27 -42q17 -16 52 -16q35 0 51.5 16q16.5 16 27.5 42l65 -3q-5 -34 -21 -56.5q-16 -22.5 -37 -36q-21 -13.5 -44.5 -19q-23.5 -5.5 -41.5 -5.5q-19 0 -42 5.5q-23 5.5 -44 19q-21 13.5 -37.5 36q-16.5 22.5 -20.5 56.5z" />
<glyph unicode="&#288;" horiz-adv-x="715" d="M58 348q0 87 24.5 154.5q24.5 67.5 68 113.5q43.5 46 103 69.5q59.5 23.5 129.5 23.5q48 0 85 -8.5q37 -8.5 65.5 -22.5q28.5 -14 50 -31.5q21.5 -17.5 38.5 -36.5l-50 -57q-31 33 -76.5 57q-45.5 24 -111.5 24q-66 0 -111.5 -27q-45.5 -27 -73 -69q-27.5 -42 -40 -92.5q-12.5 -50.5 -12.5 -97.5q0 -64 15.5 -116q15.5 -52 46 -89q30.5 -37 76 -57.5q45.5 -20.5 105.5 -20.5q50 0 92.5 16.5q42.5 16.5 71.5 44.5l0 162h-171v73h256v-272q-21 -20 -48.5 -37.5q-27.5 -17.5 -60.5 -31q-33 -13.5 -69.5 -21.5q-36.5 -8 -74.5 -8q-67 0 -126.5 19q-59.5 19 -104.5 61.5q-45 42.5 -71 110.5q-26 68 -26 166zt0 0zM429 895v-102h-95l0 102z" />
<glyph unicode="&#289;" horiz-adv-x="576" d="M112 -139q28 -26 61 -41q33 -15 77 -15q26 0 55 8.5q29 8.5 53 30q24 21.5 39.5 58.5q15.5 37 15.5 94v25q0 14 0.5 28q0.5 14 1.5 31l-2 0q-12 -12 -29.5 -27.5q-17.5 -15.5 -40.5 -29q-23 -13.5 -51 -23q-28 -9.5 -61 -9.5q-47 0 -81 19q-34 19 -56.5 51q-22.5 32 -33 75.5q-10.5 43.5 -10.5 92.5q0 49 12 97.5q12 48.5 37.5 87q25.5 38.5 65.5 62q40 23.5 95 23.5q48 0 88 -21q40 -21 69 -45l2 0l5 57h72v-483q0 -76 -23 -127q-23 -51 -58 -82q-35 -31 -77.5 -44q-42.5 -13 -82.5 -13q-63 0 -105.5 19q-42.5 19 -74.5 48zM414 367q-11 9 -24.5 19.5q-13.5 10.5 -31 20q-17.5 9.5 -38.5 16q-21 6.5 -46 6.5q-63 0 -101.5 -50.5q-38.5 -50.5 -38.5 -147.5q0 -29 6 -58.5q6 -29.5 20 -54q14 -24.5 37 -40q23 -15.5 58 -15.5q25 0 49 9.5q24 9.5 45 22.5q21 13 37.5 27.5q16.5 14.5 27.5 25.5zM305 700v-89h-84l0 89z" />
<glyph unicode="&#290;" horiz-adv-x="715" d="M58 348q0 87 24.5 154.5q24.5 67.5 68 113.5q43.5 46 103 69.5q59.5 23.5 129.5 23.5q48 0 85 -8.5q37 -8.5 65.5 -22.5q28.5 -14 50 -31.5q21.5 -17.5 38.5 -36.5l-50 -57q-31 33 -76.5 57q-45.5 24 -111.5 24q-66 0 -111.5 -27q-45.5 -27 -73 -69q-27.5 -42 -40 -92.5q-12.5 -50.5 -12.5 -97.5q0 -64 15.5 -116q15.5 -52 46 -89q30.5 -37 76 -57.5q45.5 -20.5 105.5 -20.5q50 0 92.5 16.5q42.5 16.5 71.5 44.5l0 162h-171v73h256v-272q-21 -20 -48.5 -37.5q-27.5 -17.5 -60.5 -31q-33 -13.5 -69.5 -21.5q-36.5 -8 -74.5 -8q-67 0 -126.5 19q-59.5 19 -104.5 61.5q-45 42.5 -71 110.5q-26 68 -26 166zt0 0zM430 -65l-43 -226h-48l0 226z" />
<glyph unicode="&#291;" horiz-adv-x="576" d="M112 -139q28 -26 61 -41q33 -15 77 -15q26 0 55 8.5q29 8.5 53 30q24 21.5 39.5 58.5q15.5 37 15.5 94v25q0 14 0.5 28q0.5 14 1.5 31l-2 0q-12 -12 -29.5 -27.5q-17.5 -15.5 -40.5 -29q-23 -13.5 -51 -23q-28 -9.5 -61 -9.5q-47 0 -81 19q-34 19 -56.5 51q-22.5 32 -33 75.5q-10.5 43.5 -10.5 92.5q0 49 12 97.5q12 48.5 37.5 87q25.5 38.5 65.5 62q40 23.5 95 23.5q48 0 88 -21q40 -21 69 -45l2 0l5 57h72v-483q0 -76 -23 -127q-23 -51 -58 -82q-35 -31 -77.5 -44q-42.5 -13 -82.5 -13q-63 0 -105.5 19q-42.5 19 -74.5 48zM414 367q-11 9 -24.5 19.5q-13.5 10.5 -31 20q-17.5 9.5 -38.5 16q-21 6.5 -46 6.5q-63 0 -101.5 -50.5q-38.5 -50.5 -38.5 -147.5q0 -29 6 -58.5q6 -29.5 20 -54q14 -24.5 37 -40q23 -15.5 58 -15.5q25 0 49 9.5q24 9.5 45 22.5q21 13 37.5 27.5q16.5 14.5 27.5 25.5zM242 580l43 202h45l0 -202z" />
<glyph unicode="&#292;" horiz-adv-x="723" d="M180 700v-297h363v297h87v-700h-87v329h-363v-329h-87v700zM406 918l121 -141h-77l-84 85l-85 -85h-77l122 141z" />
<glyph unicode="&#293;" horiz-adv-x="583" d="M163 740v-261q0 -23 -0.5 -38q-0.5 -15 -1.5 -31l2 0q18 14 40 30q22 16 47.5 29q25.5 13 53.5 21.5q28 8.5 58 8.5q37 0 63.5 -11.5q26.5 -11.5 43.5 -32q17 -20.5 25.5 -49q8.5 -28.5 8.5 -62.5v-344h-83v320q0 23 -4 42.5q-4 19.5 -13.5 34q-9.5 14.5 -26.5 22.5q-17 8 -43 8q-24 0 -50 -9.5q-26 -9.5 -49 -23q-23 -13.5 -42 -28q-19 -14.5 -29 -23.5l0 -343h-83v740zM161 970l109 -126h-74l-73 73l-73 -73h-74l109 126z" />
<glyph unicode="&#294;" horiz-adv-x="747" d="M20 498v66h85v136h87v-136h363v136h87v-136h85v-66h-85v-498h-87v312h-363v-312h-87v498zM555 498h-363v-112l363 0z" />
<glyph unicode="&#295;" horiz-adv-x="603" d="M-14 568v59h114v113h83v-113h208v-59h-208v-89q0 -23 -0.5 -38q-0.5 -15 -1.5 -31l2 0q18 14 40 30q22 16 47.5 29q25.5 13 53.5 21.5q28 8.5 58 8.5q37 0 63.5 -11.5q26.5 -11.5 43.5 -32q17 -20.5 25.5 -49q8.5 -28.5 8.5 -62.5v-344h-83v320q0 23 -4 42.5q-4 19.5 -13.5 34q-9.5 14.5 -26.5 22.5q-17 8 -43 8q-24 0 -50 -9.5q-26 -9.5 -49 -23q-23 -13.5 -42 -28q-19 -14.5 -29 -23.5l0 -343h-83l0 568z" />
<glyph unicode="&#298;" horiz-adv-x="273" d="M180 700v-700h-87v700zM289 870v-66h-305l0 66z" />
<glyph unicode="&#299;" horiz-adv-x="249" d="M166 490v-490h-83v490zM256 697v-64h-264l0 64z" />
<glyph unicode="&#302;" horiz-adv-x="273" d="M27 -120q0 34 18.5 66q18.5 32 47.5 56l0 698h87v-700h-25q-24 -20 -40.5 -47q-16.5 -27 -16.5 -55q0 -20 13 -35q13 -15 39 -15q9 0 21 3q12 3 26 11l23 -47q-20 -17 -44 -22.5q-24 -5.5 -41 -5.5q-59 0 -83.5 28t-24.5 65z" />
<glyph unicode="&#303;" horiz-adv-x="249" d="M5 -115q0 35 21.5 66q21.5 31 56.5 54l0 485h83v-490h-33q-26 -20 -44.5 -45.5q-18.5 -25.5 -18.5 -54.5q0 -20 13 -31.5q13 -11.5 33 -11.5q13 0 25 3q12 3 25 11l22 -43q-20 -17 -41.5 -22q-21.5 -5 -38.5 -5q-55 0 -79 24.5q-24 24.5 -24 59.5zt0 0zM166 700v-89h-84l0 89z" />
<glyph unicode="&#304;" horiz-adv-x="273" d="M180 700v-700h-87v700zM184 895v-102h-95l0 102z" />
<glyph unicode="&#305;" horiz-adv-x="249" d="M166 490v-490h-83l0 490z" />
<glyph unicode="&#308;" horiz-adv-x="362" d="M45 65q62 5 102 44q40 39 40 115v476h87v-478q0 -60 -18 -103q-18 -43 -49 -71q-31 -28 -73 -42q-42 -14 -89 -15l0 74zM269 918l121 -141h-77l-84 85l-85 -85h-77l122 141z" />
<glyph unicode="&#309;" horiz-adv-x="247" d="M-14 -197q32 4 51 20.5q19 16.5 28.5 43.5q9.5 27 12.5 63q3 36 3 79v481h83v-491q0 -74 -13.5 -121.5q-13.5 -47.5 -37 -76.5q-23.5 -29 -56 -42.5q-32.5 -13.5 -71.5 -17.5l0 62zM161 740l109 -126h-74l-73 73l-73 -73h-74l109 126z" />
<glyph unicode="&#310;" horiz-adv-x="623" d="M180 700v-303h111l216 303h100l-244 -337l250 -363h-103l-219 323h-111v-323h-87v700zM357 -65l-43 -226h-48l0 226z" />
<glyph unicode="&#311;" horiz-adv-x="521" d="M163 740v-443h81l161 193h97l-192 -224l194 -266h-96l-166 232h-79v-232h-83v740zM304 -65l-43 -202h-45l0 202z" />
<glyph unicode="&#313;" horiz-adv-x="521" d="M180 700v-625h311v-75h-398v700zM288 926l-132 -153h-63l84 153z" />
<glyph unicode="&#314;" horiz-adv-x="249" d="M166 740v-740h-83v740zM269 986l-124 -138h-62l78 138z" />
<glyph unicode="&#315;" horiz-adv-x="521" d="M180 700v-625h311v-75h-398v700zM346 -65l-43 -226h-48l0 226z" />
<glyph unicode="&#316;" horiz-adv-x="249" d="M166 740v-740h-83v740zM168 -65l-43 -202h-45l0 202z" />
<glyph unicode="&#317;" horiz-adv-x="521" d="M180 700v-625h311v-75h-398v700zM453 700l-43 -201h-46l0 201z" />
<glyph unicode="&#318;" horiz-adv-x="299" d="M166 740v-740h-83v740zM319 700l-43 -202h-45l0 202z" />
<glyph unicode="&#319;" horiz-adv-x="521" d="M180 700v-625h311v-75h-398v700zM333 365q0 29 21 50q21 21 50 21q30 0 51 -21q21 -21 21 -50q0 -30 -21 -50.5q-21 -20.5 -51 -20.5q-29 0 -50 20.5t-21 50.5z" />
<glyph unicode="&#320;" horiz-adv-x="422" d="M166 740v-740h-83v740zM264 365q0 29 21 50q21 21 50 21q30 0 51 -21q21 -21 21 -50q0 -30 -21 -50.5q-21 -20.5 -51 -20.5q-29 0 -50 20.5t-21 50.5z" />
<glyph unicode="&#321;" horiz-adv-x="591" d="M50 192l-35 50l148 99v359h87v-301l170 114l34 -51l-204 -137v-250h311v-75h-398l0 267z" />
<glyph unicode="&#322;" horiz-adv-x="355" d="M32 253l-32 48l135 86v353h83v-300l107 68l33 -47l-140 -90v-371h-83l0 318z" />
<glyph unicode="&#323;" horiz-adv-x="734" d="M190 700l321 -493q11 -17 24.5 -43q13.5 -26 23.5 -44l4 0q0 11 -1 25.5q-1 14.5 -1.5 28.5q-0.5 14 -1 27q-0.5 13 -0.5 22v477h82v-700h-87l-334 513q-11 18 -23.5 40.5q-12.5 22.5 -21.5 40.5l-4 0q0 -10 1 -25q1 -15 1.5 -31q0.5 -16 1 -31q0.5 -15 0.5 -25v-482h-82v700zM523 926l-132 -153h-63l84 153z" />
<glyph unicode="&#324;" horiz-adv-x="583" d="M162 490v-79h2q18 14 39.5 29.5q21.5 15.5 47 28.5q25.5 13 53.5 21.5q28 8.5 58 8.5q37 0 63.5 -11.5q26.5 -11.5 43.5 -32q17 -20.5 25.5 -49q8.5 -28.5 8.5 -62.5v-344h-83v320q0 23 -4 42.5q-4 19.5 -13.5 34q-9.5 14.5 -26.5 22.5q-17 8 -43 8q-24 0 -50 -9.5q-26 -9.5 -49 -23q-23 -13.5 -42 -28q-19 -14.5 -29 -23.5l0 -343h-83v490zM432 741l-124 -138h-62l78 138z" />
<glyph unicode="&#325;" horiz-adv-x="734" d="M190 700l321 -493q11 -17 24.5 -43q13.5 -26 23.5 -44l4 0q0 11 -1 25.5q-1 14.5 -1.5 28.5q-0.5 14 -1 27q-0.5 13 -0.5 22v477h82v-700h-87l-334 513q-11 18 -23.5 40.5q-12.5 22.5 -21.5 40.5l-4 0q0 -10 1 -25q1 -15 1.5 -31q0.5 -16 1 -31q0.5 -15 0.5 -25v-482h-82v700zM412 -65l-43 -226h-48l0 226z" />
<glyph unicode="&#326;" horiz-adv-x="583" d="M162 490v-79h2q18 14 39.5 29.5q21.5 15.5 47 28.5q25.5 13 53.5 21.5q28 8.5 58 8.5q37 0 63.5 -11.5q26.5 -11.5 43.5 -32q17 -20.5 25.5 -49q8.5 -28.5 8.5 -62.5v-344h-83v320q0 23 -4 42.5q-4 19.5 -13.5 34q-9.5 14.5 -26.5 22.5q-17 8 -43 8q-24 0 -50 -9.5q-26 -9.5 -49 -23q-23 -13.5 -42 -28q-19 -14.5 -29 -23.5l0 -343h-83v490zM335 -65l-43 -202h-45l0 202z" />
</font>
</defs>
</svg>
