<?xml version="1.0" standalone="no"?>
<!DOCTYPE svg PUBLIC "-//W3C//DTD SVG 1.1//EN" "http://www.w3.org/Graphics/SVG/1.1/DTD/svg11.dtd" >
<svg xmlns="http://www.w3.org/2000/svg">
<metadata>
Generated by SVGconv.
Copyright   : Copyright  1993 ParaGraph Intl,  1998 ParaType Inc., ParaType Ltd. All rights reserved.
Designer    : Vladimir Yefimov, Isabella Chaeva
Foundry     : ParaType Ltd
Foundry URL : http://www.paratype.com
</metadata>
<defs>
<font id="LazurskiWeb-Regular" horiz-adv-x="536" >
<font-face units-per-em="1000" ascent="995" descent="342" />
<missing-glyph horiz-adv-x="500" />
<glyph unicode="&#13;" horiz-adv-x="233" />
<glyph unicode="&#32;" horiz-adv-x="233" />
<glyph unicode="&#33;" horiz-adv-x="320" d="M149 201v40q0 35 -0.5 66q-0.5 31 -3 62.5q-2.5 31.5 -6 64.5q-3.5 33 -9.5 71q-8 54 -16.5 93.5q-8.5 39.5 -8.5 69.5q0 24 14 46q14 22 42 22q26 0 40 -20.5q14 -20.5 14 -46.5q0 -18 -2 -35q-2 -17 -6 -36q-4 -19 -8.5 -42q-4.5 -23 -8.5 -53q-6 -38 -9.5 -70.5q-3.5 -32.5 -5.5 -63.5q-2 -31 -3 -62q-1 -31 -1 -66v-40zM113 52q0 58 47 58q47 0 47 -58q0 -58 -47 -58q-47 0 -47 58z" />
<glyph unicode="&#34;" horiz-adv-x="411" d="M165 679l-28 -218h-39l-28 218zM341 679l-28 -218h-39l-28 218z" />
<glyph unicode="&#35;" horiz-adv-x="660" d="M358 0l30 174h-177l-30 -174h-48l30 174h-120l13 72h120l34 193h-120l13 72h120l30 168h48l-30 -168h177l30 168h48l-30 -168h120l-13 -72h-120l-34 -193h120l-13 -72h-120l-30 -174zM435 439h-177l-34 -193l177 0z" />
<glyph unicode="&#36;" horiz-adv-x="532" d="M253 -118v104q-17 0 -38.5 1q-21.5 1 -44 6.5q-22.5 5.5 -43 15.5q-20.5 10 -34.5 28q-13 17 -16.5 34.5q-3.5 17.5 -4.5 37.5q-1 13 -1 24.5q0 11.5 -1 34.5l31 0q2 -25 10 -52.5q8 -27.5 27 -49.5q8 -9 21.5 -18q13.5 -9 29 -16q15.5 -7 32.5 -10q17 -3 32 -1l0 305q-26 17 -50.5 36q-24.5 19 -50.5 45q-27 26 -47 58q-20 32 -20 77q0 34 13.5 60.5q13.5 26.5 36.5 44.5q23 18 53.5 28q30.5 10 64.5 12l0 89h35v-90q16 1 44 -4.5q28 -5.5 54 -5.5q11 0 23.5 1q12.5 1 20.5 2l0 -108l1 -50h-28q-3 23 -11 47.5q-8 24.5 -21.5 44.5q-13.5 20 -34 33q-20.5 13 -48.5 13l0 -256q9 -7 22.5 -17.5q13.5 -10.5 28.5 -22.5q15 -12 29.5 -24.5q14.5 -12.5 26.5 -24.5q23 -23 44 -57q21 -34 21 -82q0 -35 -14 -65.5q-14 -30.5 -37.5 -54.5q-23.5 -24 -54.5 -40.5q-31 -16.5 -66 -23.5l0 -109zM253 659q-36 -3 -64.5 -27.5q-28.5 -24.5 -28.5 -63.5q0 -44 28 -79.5q28 -35.5 65 -59.5zM288 25q21 4 38.5 16q17.5 12 29.5 29q12 17 19 37.5q7 20.5 7 42.5q0 27 -7.5 48q-7.5 21 -20.5 38.5q-13 17.5 -30 32.5q-17 15 -36 30z" />
<glyph unicode="&#37;" horiz-adv-x="720" d="M181 6q69 126 130 255.5q61 129.5 124 263.5q13 26 24 47q11 21 26 45l-6 3q-12 -15 -28 -29q-16 -14 -35 -25q-19 -11 -39 -17.5q-20 -6.5 -39 -6.5q-17 0 -38 6q0 -33 -9 -62q-9 -29 -26 -50q-17 -21 -41.5 -33q-24.5 -12 -57.5 -12q-23 0 -46.5 7q-23.5 7 -43 25q-19.5 18 -31.5 49q-12 31 -12 78q0 35 10 62q10 27 27.5 45q17.5 18 40.5 27q23 9 50 9q32 0 56 -11q24 -11 40.5 -28q16.5 -17 26.5 -39.5q10 -22.5 13 -44.5q11 -5 22 -7q11 -2 21 -2q16 0 37.5 7q21.5 7 45.5 23.5q24 16.5 48.5 43.5q24.5 27 46.5 66q8 -6 16.5 -11q8.5 -5 17.5 -9q-48 -83 -91 -173q-43 -90 -87 -184q-39 -84 -79 -168q-40 -84 -83 -167q-7 5 -14.5 9q-7.5 4 -16.5 8zt0 0zM243 625q-32 29 -77 29q-25 0 -45.5 -9q-20.5 -9 -35.5 -24q-15 -15 -23 -36q-8 -21 -8 -45q0 -22 9 -42q9 -20 24 -35q15 -15 34.5 -24q19.5 -9 40.5 -9q25 0 47.5 8.5q22.5 8.5 38.5 25q16 16.5 24 40.5q8 24 5 54q-19 12 -27.5 32.5q-8.5 20.5 -6.5 34.5zt0 0zM431 145q0 66 34.5 105.5q34.5 39.5 95.5 39.5q37 0 63 -15.5q26 -15.5 43 -39q17 -23.5 24.5 -50.5q7.5 -27 6.5 -50q0 -26 -8.5 -52.5q-8.5 -26.5 -25.5 -48q-17 -21.5 -42 -35q-25 -13.5 -59 -13.5q-60 0 -96 41.5q-36 41.5 -36 117.5zt0 0zM453 140q0 -21 7 -41.5q7 -20.5 21 -37q14 -16.5 34 -26.5q20 -10 46 -10q23 0 44 7.5q21 7.5 36.5 22q15.5 14.5 25 36q9.5 21.5 9.5 50.5q0 49 -32 79.5q-32 30.5 -80 30.5q-48 0 -79.5 -31.5t-31.5 -79.5z" />
<glyph unicode="&#38;" horiz-adv-x="756" d="M736 0q-9 -3 -26 -7q-17 -4 -41 -4q-13 0 -34.5 1.5q-21.5 1.5 -48 13q-26.5 11.5 -56.5 36q-30 24.5 -60 69.5q-119 -120 -234 -120q-44 0 -81 15q-37 15 -64 39.5q-27 24.5 -42 57.5q-15 33 -15 69q0 41 19 76.5q19 35.5 48.5 65.5q29.5 30 66 54q36.5 24 71.5 44q-15 8 -31 20.5q-16 12.5 -29.5 28.5q-13.5 16 -22 34q-8.5 18 -8.5 38q0 31 16 60.5q16 29.5 41.5 52q25.5 22.5 57.5 36q32 13.5 64 13.5q24 0 45 -7.5q21 -7.5 37.5 -21.5q16.5 -14 26 -34q9.5 -20 9.5 -45q0 -47 -34.5 -83.5q-34.5 -36.5 -93.5 -69.5q60 -45 105.5 -104.5q45.5 -59.5 81.5 -130.5q13 15 26 34.5q13 19.5 23.5 40.5q10.5 21 17.5 41.5q7 20.5 7 37.5q0 31 -20.5 41.5q-20.5 10.5 -44.5 11.5l0 23q18 -1 30.5 -2.5q12.5 -1.5 24.5 -2.5q12 -1 25 -2q13 -1 31 -1q28 0 55.5 3q27.5 3 56.5 5l0 -23q-30 0 -50 -9.5q-20 -9.5 -34 -23.5q-12 -12 -27 -35.5q-15 -23.5 -32.5 -52q-17.5 -28.5 -36.5 -59q-19 -30.5 -39 -55.5q12 -23 26.5 -49.5q14.5 -26.5 33.5 -50q19 -23.5 43.5 -39q24.5 -15.5 55.5 -15.5q14 0 30 4q16 4 30 9zM301 446q15 9 29 22q14 13 25.5 29q11.5 16 18.5 33.5q7 17.5 7 37.5q0 38 -21.5 65.5q-21.5 27.5 -59.5 27.5q-18 0 -34 -7q-16 -7 -28 -19q-12 -12 -19 -28.5q-7 -16.5 -7 -35.5q0 -33 23 -67.5q23 -34.5 66 -57.5zt0 0zM260 394q-26 -16 -52.5 -37q-26.5 -21 -48.5 -46.5q-22 -25.5 -36 -55.5q-14 -30 -14 -65q0 -33 11 -60.5q11 -27.5 31.5 -47.5q20.5 -20 48.5 -31q28 -11 61 -11q61 0 109.5 27.5q48.5 27.5 86.5 67.5q-23 39 -43 72.5q-20 33.5 -42 64q-22 30.5 -49 60.5t-63 62z" />
<glyph unicode="&#39;" horiz-adv-x="235" d="M137 461h-39l-28 218l95 0z" />
<glyph unicode="&#40;" horiz-adv-x="400" d="M380 711q-51 -39 -94.5 -87q-43.5 -48 -75 -104q-31.5 -56 -49 -120q-17.5 -64 -17.5 -135q0 -72 18.5 -135q18.5 -63 50.5 -118.5q32 -55.5 75 -103.5q43 -48 92 -89l-13 -22q-89 52 -146 112.5q-57 60.5 -89.5 122q-32.5 61.5 -44.5 121.5q-12 60 -12 112q0 73 19.5 142q19.5 69 57 130q37.5 61 91.5 111q54 50 124 85z" />
<glyph unicode="&#41;" horiz-adv-x="400" d="M33 733q70 -35 124 -85q54 -50 91.5 -111q37.5 -61 57 -130q19.5 -69 19.5 -142q0 -52 -12 -112q-12 -60 -44.5 -121.5q-32.5 -61.5 -89.5 -122q-57 -60.5 -146 -112.5l-13 22q49 41 92 89q43 48 75 103.5q32 55.5 50.5 118.5q18.5 63 18.5 135q0 71 -18 135q-18 64 -49.5 120q-31.5 56 -74.5 104q-43 48 -94 87z" />
<glyph unicode="&#42;" horiz-adv-x="465" d="M432 384q-3 -4 -12 -2q-9 2 -19.5 6q-10.5 4 -20 9q-9.5 5 -13.5 7l-42 23q-8 5 -14.5 8q-6.5 3 -12.5 6q-20 12 -25 18.5q-5 6.5 -13 11.5l-9 4l-6 -4l-1 -9q0 -9 3.5 -17q3.5 -8 3.5 -31q0 -7 0 -14q0 -7 -1 -16l-2 -48q0 -4 -0.5 -15q-0.5 -11 -2 -22q-1.5 -11 -4.5 -20q-3 -9 -8 -9q-5 0 -8 9q-3 9 -4.5 20q-1.5 11 -2 22q-0.5 11 -0.5 15l-2 48q-1 9 -1 16q0 7 0 14q0 23 3.5 31q3.5 8 3.5 17v8l-7 4l-9 -3q-8 -5 -13 -11.5q-5 -6.5 -25 -18.5q-6 -3 -12.5 -6q-6.5 -3 -14.5 -8l-42 -23q-4 -2 -13.5 -7q-9.5 -5 -20 -9q-10.5 -4 -19.5 -6q-9 -2 -12 2q-2 4 4 11q6 7 15 14q9 7 18.5 13q9.5 6 12.5 8l40 26q15 10 26 16q20 12 28.5 12.5q8.5 0.5 16.5 5.5l7 5v9l-7 6q-8 5 -16.5 5.5q-8.5 0.5 -28.5 12.5q-11 5 -26 16l-40 26q-3 2 -12.5 8q-9.5 6 -18.5 13q-9 7 -15 14q-6 7 -4 11q3 4 12 2q9 -2 19.5 -6q10.5 -4 20 -9q9.5 -5 13.5 -7l42 -23q8 -5 14.5 -8q6.5 -3 12.5 -6q20 -12 25 -18.5q5 -6.5 13 -11.5l9 -4l6 3l1 10q0 9 -3.5 17q-3.5 8 -3.5 31q0 7 0 14q0 7 1 16l2 48q0 4 0.5 15q0.5 11 2 22q1.5 11 4.5 20q3 9 8 9q5 0 8 -9q3 -9 4.5 -20q1.5 -11 2 -22q0.5 -11 0.5 -15l2 -48q1 -9 1 -16q0 -7 0 -14q0 -23 -3.5 -31q-3.5 -8 -3.5 -17l1 -10l6 -3l9 4q8 5 13 11.5q5 6.5 25 18.5q6 3 12.5 6q6.5 3 14.5 8l42 23q4 2 13.5 7q9.5 5 20 9q10.5 4 19.5 6q9 2 12 -2q2 -4 -4 -11q-6 -7 -15 -14q-9 -7 -18.5 -13q-9.5 -6 -12.5 -8l-40 -26q-15 -11 -26 -16q-20 -12 -28.5 -12.5q-8.5 -0.5 -16.5 -5.5l-7 -6v-9q1 -1 3 -2q2 -1 2.5 -2q0.5 -1 1.5 -1q8 -5 16.5 -5.5q8.5 -0.5 28.5 -12.5q11 -6 26 -16l40 -26q3 -2 12.5 -8q9.5 -6 18.5 -13q9 -7 15 -14t4 -11z" />
<glyph unicode="&#43;" horiz-adv-x="600" d="M276 300v226h48v-226h226v-48h-226v-226h-48v226h-226l0 48z" />
<glyph unicode="&#44;" horiz-adv-x="200" d="M21 -130q27 16 50 43q23 27 23 62q0 17 -6 24.5q-6 7.5 -20 12.5q-13 5 -24 15.5q-11 10.5 -11 27.5q0 20 13 37q13 17 36 17q30 0 49 -22q19 -22 19 -56q0 -109 -110 -184z" />
<glyph unicode="&#45;" horiz-adv-x="432" d="M81 266q16 -2 34.5 -3.5q18.5 -1.5 37.5 -2q19 -0.5 36 -1q17 -0.5 31 -0.5q15 0 34 0.5q19 0.5 39 1q20 0.5 40 2q20 1.5 37 3.5q-12 -29 -18 -62q-25 2 -63 3q-38 1 -82 1q-44 0 -80 -1q-36 -1 -65 -3q6 14 11 29.5t8 32.5z" />
<glyph unicode="&#46;" horiz-adv-x="200" d="M53 49q0 58 47 58q47 0 47 -58q0 -58 -47 -58q-47 0 -47 58z" />
<glyph unicode="&#47;" horiz-adv-x="540" d="M500 719l-430 -893h-40l430 893z" />
<glyph unicode="&#48;" horiz-adv-x="532" d="M26 339q0 85 13.5 144q13.5 59 42.5 106q32 51 82 81q50 30 105 30q38 0 76 -16.5q38 -16.5 67 -45.5q27 -26 45 -60q18 -34 28.5 -72q10.5 -38 15 -77.5q4.5 -39.5 4.5 -77.5q0 -51 -10 -101.5q-10 -50.5 -24 -89.5q-10 -29 -26 -61q-16 -32 -39 -58.5q-23 -26.5 -55 -44q-32 -17.5 -74 -17.5q-15 0 -34 2q-19 2 -39 9q-20 7 -40 19.5q-20 12.5 -38 32.5q-55 63 -77.5 133.5q-22.5 70.5 -22.5 163.5zt0 0zM99 392q0 -57 6 -109q6 -52 17.5 -96.5q11.5 -44.5 28.5 -79.5q17 -35 40 -58q23 -24 48.5 -34q25.5 -10 45.5 -10q33 0 56.5 17q23.5 17 39 42.5q15.5 25.5 24.5 55q9 29.5 13 53.5q8 47 10 91q2 44 2 72q0 20 -2.5 59q-2.5 39 -11 83q-8.5 44 -24.5 87q-16 43 -44 72q-16 16 -40 26.5q-24 10.5 -50 10.5q-41 0 -68 -17.5q-27 -17.5 -44 -45.5q-15 -24 -24 -56q-9 -32 -14 -63.5q-5 -31.5 -7 -59t-2 -40.5z" />
<glyph unicode="&#49;" horiz-adv-x="532" d="M396 -1q-15 0 -27 1q-12 1 -25 2.5q-13 1.5 -29.5 3q-16.5 1.5 -40.5 1.5q-17 0 -34.5 -1.5q-17.5 -1.5 -34.5 -3q-17 -1.5 -31.5 -2.5q-14.5 -1 -24.5 -1h-20v28h13q4 0 13.5 0q9.5 0 21 1.5q11.5 1.5 23 6q11.5 4.5 19.5 13.5q8 9 13 26q5 17 7.5 36q2.5 19 3.5 36q1 17 1 25v301q0 8 -0.5 33q-0.5 25 -2.5 45q-2 32 -9 40.5q-7 8.5 -19 8.5q-11 0 -26.5 -5.5q-15.5 -5.5 -32.5 -13.5q-17 -8 -34 -17.5q-17 -9.5 -30 -17.5l0 38q63 25 121 58.5q58 33.5 114 76.5l5 0q-2 -16 -4 -35.5q-2 -19.5 -4 -40.5q-2 -21 -3 -42q-1 -21 -1 -39l1 -395q0 -14 1 -31.5q1 -17.5 4 -35q3 -17.5 8.5 -32.5q5.5 -15 14.5 -23q14 -12 33.5 -14.5q19.5 -2.5 32.5 -2.5h11l0 -28z" />
<glyph unicode="&#50;" horiz-adv-x="532" d="M508 161q-13 -39 -24.5 -79.5q-11.5 -40.5 -18.5 -82.5q-16 -5 -33.5 -9q-17.5 -4 -37.5 -4q-17 0 -37 3.5q-20 3.5 -47.5 8q-27.5 4.5 -64 8.5q-36.5 4 -85.5 4q-34 0 -64.5 -4q-30.5 -4 -64.5 -16l0 26q21 16 47 43.5q26 27.5 53 60.5q27 33 53.5 69q26.5 36 49.5 69q20 30 40.5 64.5q20.5 34.5 37 71q16.5 36.5 26.5 74q10 37.5 10 73.5q0 25 -6 47q-6 22 -18 39q-12 17 -31 27q-19 10 -45 10q-30 0 -55 -11q-25 -11 -45.5 -29q-20.5 -18 -36.5 -42q-16 -24 -27 -50q-5 13 -14 28q-9 15 -20 28q45 46 101.5 79q56.5 33 127.5 33q29 0 57 -7.5q28 -7.5 50 -24q22 -16.5 35.5 -41.5q13.5 -25 13.5 -61q0 -44 -19 -91.5q-19 -47.5 -45.5 -92.5q-26.5 -45 -55 -83q-28.5 -38 -46.5 -63q-10 -13 -28.5 -38q-18.5 -25 -38.5 -50.5q-20 -25.5 -39 -47q-19 -21.5 -29 -27.5l3 -4q20 9 43.5 11.5q23.5 2.5 49.5 2.5q19 0 40.5 -2q21.5 -2 43.5 -4.5q22 -2.5 43 -4.5q21 -2 39 -2q10 0 22.5 3q12.5 3 20.5 10q12 11 20 34.5q8 23.5 12 43.5z" />
<glyph unicode="&#51;" horiz-adv-x="532" d="M129 367q33 12 70.5 32q37.5 20 70 47.5q32.5 27.5 53.5 62q21 34.5 21 75.5q0 37 -19.5 60q-19.5 23 -60.5 23q-34 0 -60.5 -16.5q-26.5 -16.5 -45.5 -38.5q-19 -22 -31 -43.5q-12 -21.5 -16 -31.5q-5 17 -15 34.5q-10 17.5 -16 25.5q22 21 45 39.5q23 18.5 49 32.5q26 14 56.5 22.5q30.5 8.5 66.5 8.5q54 0 85 -27q31 -27 31 -75q0 -27 -12.5 -54q-12.5 -27 -32.5 -50q-20 -23 -44 -42q-24 -19 -46 -29l3 -6q9 2 19 3q10 1 21 1q27 0 53 -10q26 -10 46 -30.5q20 -20.5 32 -51.5q12 -31 12 -73q0 -48 -19.5 -96q-19.5 -48 -56 -87q-36.5 -39 -88.5 -63q-52 -24 -116 -24q-29 0 -57 5.5q-28 5.5 -55 18.5q9 14 17 35.5q8 21.5 12 37.5q20 -26 49.5 -45.5q29.5 -19.5 63.5 -19.5q34 0 65.5 15q31.5 15 56.5 42q25 27 40 64.5q15 37.5 15 82.5q0 32 -8.5 60.5q-8.5 28.5 -25 49.5q-16.5 21 -41 33.5q-24.5 12.5 -56.5 12.5q-15 0 -33.5 -4.5q-18.5 -4.5 -36.5 -11.5q-18 -7 -34 -16.5q-16 -9.5 -27 -18.5z" />
<glyph unicode="&#52;" horiz-adv-x="532" d="M413 277q8 0 21 1.5q13 1.5 26.5 3.5q13.5 2 25.5 4.5q12 2.5 18 4.5q-5 -17 -11 -33.5q-6 -16.5 -10 -35.5l-86 0v-77q0 -20 0.5 -37.5q0.5 -17.5 3.5 -30.5q4 -16 10 -25.5q6 -9.5 14.5 -15q8.5 -5.5 21 -7q12.5 -1.5 30.5 -1.5h16v-28h-11q-3 0 -21 1q-18 1 -39 2.5q-21 1.5 -39.5 2.5q-18.5 1 -23.5 1q-26 0 -58 -3.5q-32 -3.5 -62 -3.5h-18v28h20q29 0 50.5 13.5q21.5 13.5 26.5 39.5q3 15 3.5 29q0.5 14 0.5 30v80q-31 2 -62 2q-31 0 -62 0q-25 0 -47 -0.5q-22 -0.5 -44 -1.5q-22 -1 -45.5 -2.5q-23.5 -1.5 -51.5 -3.5l6 30q81 120 168.5 237.5q87.5 117.5 192.5 230.5l31 -15q-7 -58 -9 -88.5q-2 -30.5 -2 -50.5v-281zM322 434q0 54 3.5 99q3.5 45 9.5 89l-5 0q-30 -35 -63.5 -78.5q-33.5 -43.5 -66.5 -90q-33 -46.5 -64.5 -93.5q-31.5 -47 -57.5 -89q10 0 24 0.5q14 0.5 28 1q14 0.5 27 0.5q13 0 22 0q8 0 31.5 -0.5q23.5 -0.5 48.5 -0.5q29 -1 63 -1z" />
<glyph unicode="&#53;" horiz-adv-x="532" d="M468 767q-22 -64 -28 -137q-30 -5 -59 -6.5q-29 -1.5 -65 -1.5q-33 0 -62 2q-29 2 -57 6q-5 -20 -13 -45q-8 -25 -8 -42q0 -18 15 -25q15 -7 29 -11q11 -3 29 -7.5q18 -4.5 39 -12.5q21 -8 43.5 -20.5q22.5 -12.5 42.5 -30.5q8 -8 20.5 -22q12.5 -14 24 -36q11.5 -22 19.5 -51.5q8 -29.5 8 -66.5q0 -54 -20 -103.5q-20 -49.5 -55.5 -87.5q-35.5 -38 -85 -60.5q-49.5 -22.5 -108.5 -22.5q-35 0 -66 6.5q-31 6.5 -62 20.5q11 14 18 34q7 20 12 39q20 -28 51 -47.5q31 -19.5 69 -19.5q32 0 63.5 15.5q31.5 15.5 56.5 42.5q25 27 40.5 63.5q15.5 36.5 15.5 78.5q0 56 -21.5 98.5q-21.5 42.5 -58 72q-36.5 29.5 -84.5 46.5q-48 17 -100 23q23 56 41 121q18 65 29 126q33 -8 68.5 -11.5q35.5 -3.5 77.5 -3.5q21 0 39.5 2q18.5 2 33 10q14.5 8 25 23q10.5 15 15.5 41z" />
<glyph unicode="&#54;" horiz-adv-x="532" d="M464 703q-66 -30 -122.5 -74.5q-56.5 -44.5 -99.5 -98.5q-51 -64 -81.5 -137q-30.5 -73 -30.5 -155q0 -43 9.5 -83q9.5 -40 28.5 -70.5q19 -30.5 47 -49q28 -18.5 65 -18.5q60 0 92.5 45.5q32.5 45.5 32.5 117.5q0 31 -6.5 64q-6.5 33 -22 60.5q-15.5 27.5 -40.5 45q-25 17.5 -62 17.5q-26 0 -44 -7q-18 -7 -29 -15l0 26q35 20 61.5 24q26.5 4 46.5 4q39 0 70 -14q31 -14 53 -39.5q22 -25.5 33.5 -61.5q11.5 -36 11.5 -79q0 -44 -16 -83.5q-16 -39.5 -44 -69.5q-28 -30 -66.5 -48q-38.5 -18 -83.5 -18q-34 0 -71 14.5q-37 14.5 -68.5 44q-31.5 29.5 -52 74.5q-20.5 45 -20.5 107q0 95 40.5 183q40.5 88 109.5 157q25 26 57.5 51q32.5 25 67.5 47q35 22 69.5 38.5q34.5 16.5 64.5 25.5z" />
<glyph unicode="&#55;" horiz-adv-x="532" d="M55 519q10 42 17.5 85q7.5 43 9.5 90q50 -7 97.5 -9.5q47.5 -2.5 104.5 -2.5q52 0 103.5 0.5q51.5 0.5 108.5 11.5l11 -10q-8 -11 -19 -26q-11 -15 -21 -32q-11 -18 -26.5 -53q-15.5 -35 -33.5 -80.5q-18 -45.5 -38.5 -98.5q-20.5 -53 -41.5 -108q-18 -47 -35.5 -92q-17.5 -45 -33.5 -85.5q-16 -40.5 -30 -74.5q-14 -34 -24 -57h-51q3 28 15.5 52q12.5 24 31.5 63.5q19 39.5 42 91.5q23 52 49 114q15 37 31 74q16 37 30.5 71.5q14.5 34.5 27 63.5q12.5 29 21.5 50q11 26 18.5 41q7.5 15 21.5 32l-2 3q-22 -11 -38 -16.5q-16 -5.5 -30.5 -8q-14.5 -2.5 -28.5 -3q-14 -0.5 -32 -0.5q-40 0 -77 2q-37 2 -59 2q-26 0 -41.5 -5.5q-15.5 -5.5 -25 -17q-9.5 -11.5 -15 -28.5q-5.5 -17 -10.5 -39z" />
<glyph unicode="&#56;" horiz-adv-x="532" d="M318 382q21 -10 48 -25.5q27 -15.5 51 -39q24 -23.5 40.5 -56.5q16.5 -33 16.5 -78q0 -45 -19.5 -81.5q-19.5 -36.5 -51 -62q-31.5 -25.5 -71.5 -39.5q-40 -14 -80 -14q-36 0 -71 12q-35 12 -62.5 34.5q-27.5 22.5 -44.5 53q-17 30.5 -17 68.5q0 39 14 70q14 31 37 55.5q23 24.5 54 45q31 20.5 66 38.5q-23 9 -48 25.5q-25 16.5 -47 39q-22 22.5 -36 51.5q-14 29 -14 65q0 29 12.5 57q12.5 28 38.5 52q50 47 136 47q43 0 73.5 -9q30.5 -9 56.5 -30q29 -23 41 -52.5q12 -29.5 11 -58.5q-1 -32 -12 -56.5q-11 -24.5 -29 -44.5q-18 -20 -42 -36q-24 -16 -51 -31zt0 0zM295 393q21 12 39.5 27.5q18.5 15.5 32.5 34q14 18.5 22 41.5q8 23 8 50q0 20 -6 42q-6 22 -20.5 41q-14.5 19 -38.5 31q-24 12 -60 12q-54 0 -87.5 -30q-33.5 -30 -33.5 -77q0 -20 6.5 -41q6.5 -21 23 -43q16.5 -22 44.5 -44q28 -22 70 -44zt0 0zM253 349q-27 -12 -52 -29q-25 -17 -44.5 -39.5q-19.5 -22.5 -31.5 -50.5q-12 -28 -12 -62q0 -70 41 -111q21 -21 49 -32q28 -11 57 -11q25 0 50 9.5q25 9.5 45 28q20 18.5 32 45q12 26.5 12 59.5q0 34 -13.5 63q-13.5 29 -34.5 53q-21 24 -47 43t-51 34z" />
<glyph unicode="&#57;" horiz-adv-x="532" d="M331 308q-20 -10 -43.5 -16.5q-23.5 -6.5 -46.5 -6.5q-27 0 -61 10q-34 10 -67 42q-32 31 -44.5 67.5q-12.5 36.5 -12.5 76.5q0 51 18.5 92.5q18.5 41.5 49.5 70.5q28 26 64 41q36 15 78 15q50 0 89.5 -21q39.5 -21 66.5 -55.5q27 -34.5 41 -79.5q14 -45 14 -94q0 -44 -11 -88q-11 -44 -30 -85.5q-19 -41.5 -45.5 -79q-26.5 -37.5 -57.5 -68.5q-53 -54 -118.5 -94.5q-65.5 -40.5 -131.5 -64.5l0 29q61 26 114.5 67.5q53.5 41.5 98.5 95.5q17 20 35.5 47.5q18.5 27.5 34 63q15.5 35.5 25.5 80q10 44.5 10 98.5q0 55 -12.5 96.5q-12.5 41.5 -33 69.5q-20.5 28 -47 42q-26.5 14 -54.5 14q-27 0 -52 -12.5q-25 -12.5 -41 -36.5q-16 -24 -23.5 -56q-7.5 -32 -7.5 -61q0 -32 7.5 -67q7.5 -35 25.5 -64q17 -29 43.5 -44.5q26.5 -15.5 58.5 -15.5q12 0 29.5 4q17.5 4 36.5 17z" />
<glyph unicode="&#58;" horiz-adv-x="200" d="M53 52q0 58 47 58q47 0 47 -58q0 -58 -47 -58q-47 0 -47 58zt0 0zM53 380q0 58 47 58q47 0 47 -58q0 -58 -47 -58q-47 0 -47 58z" />
<glyph unicode="&#59;" horiz-adv-x="200" d="M65 380q0 58 47 58q47 0 47 -58q0 -58 -47 -58q-47 0 -47 58zt0 0zM41 -130q27 16 50 43q23 27 23 62q0 17 -6 24.5q-6 7.5 -20 12.5q-13 5 -24 15.5q-11 10.5 -11 27.5q0 20 13 37q13 17 36 17q30 0 49 -22q19 -22 19 -56q0 -109 -110 -184z" />
<glyph unicode="&#60;" horiz-adv-x="600" d="M566 96l-17 -43l-523 227v40l523 230l17 -43l-473 -207z" />
<glyph unicode="&#61;" horiz-adv-x="600" d="M550 380v-48h-500v48zM550 230v-48h-500l0 48z" />
<glyph unicode="&#62;" horiz-adv-x="600" d="M34 507l17 43l523 -227v-40l-523 -230l-17 43l473 207z" />
<glyph unicode="&#63;" horiz-adv-x="440" d="M65 672q23 42 62.5 66q39.5 24 89.5 24q37 0 68 -16.5q31 -16.5 53.5 -42q22.5 -25.5 35 -58q12.5 -32.5 12.5 -63.5q0 -35 -20 -79q-20 -44 -73 -82l-11 -8q-26 -19 -51 -35q-25 -16 -45 -33.5q-20 -17.5 -32.5 -37.5q-12.5 -20 -12.5 -47q0 -25 14.5 -41q14.5 -16 45.5 -16q26 0 47 17l4 -5l-34 -54q-24 0 -43 11q-19 11 -31.5 29q-12.5 18 -19.5 41q-7 23 -7 47q0 29 8 51.5q8 22.5 21.5 41q13.5 18.5 30.5 33.5q17 15 35 28l36 27q13 10 32 25q19 15 36.5 34q17.5 19 29.5 41q12 22 12 46q0 19 -7.5 36.5q-7.5 17.5 -21 30.5q-13.5 13 -32.5 20.5q-19 7.5 -43 7.5q-20 0 -38.5 -5q-18.5 -5 -35.5 -18q-17 -13 -32 -35q-15 -22 -27 -55zM170 52q0 58 47 58q47 0 47 -58q0 -58 -47 -58q-47 0 -47 58z" />
<glyph unicode="&#64;" horiz-adv-x="766" d="M619 -57q-54 -42 -108.5 -59.5q-54.5 -17.5 -120.5 -17.5q-85 0 -144.5 26q-59.5 26 -97.5 61q-49 45 -78.5 107.5q-29.5 62.5 -29.5 132.5q0 66 26 138.5q26 72.5 85 133.5q59 60 127 84q68 24 142 24q73 0 131.5 -22q58.5 -22 98.5 -64q37 -38 56.5 -93q19.5 -55 19.5 -118q0 -61 -20 -107.5q-20 -46.5 -53 -75.5q-29 -26 -57 -33q-28 -7 -54 -7q-50 0 -75.5 26.5q-25.5 26.5 -25.5 63.5q0 13 3 22v0q-35 -49 -74.5 -80.5q-39.5 -31.5 -88.5 -31.5q-21 0 -36 9.5q-15 9.5 -24.5 25q-9.5 15.5 -14 35.5q-4.5 20 -4.5 42q0 46 21.5 96.5q21.5 50.5 59.5 88.5q30 29 62.5 45.5q32.5 16.5 63.5 25q31 8.5 58.5 10.5q27.5 2 45.5 2h51l-29 -108q-10 -36 -16 -59q-6 -23 -14 -50q-5 -19 -9.5 -40.5q-4.5 -21.5 -4.5 -44.5q0 -25 13.5 -40.5q13.5 -15.5 43.5 -15.5q22 0 43 8q21 8 39 28q26 29 39 74.5q13 45.5 13 89.5q0 58 -19 110q-19 52 -54 87q-34 35 -78 53q-44 18 -113 18q-44 0 -80 -8.5q-36 -8.5 -65 -22.5q-29 -14 -52 -31q-23 -17 -41 -35q-44 -45 -70 -111q-26 -66 -26 -134q0 -58 23 -117q23 -59 68 -104q39 -38 94.5 -61q55.5 -23 130.5 -23q10 0 31.5 1.5q21.5 1.5 49.5 9q28 7.5 59.5 23q31.5 15.5 61.5 42.5zM452 393q-8 0 -21.5 -1q-13.5 -1 -30 -5.5q-16.5 -4.5 -34.5 -14q-18 -9.5 -35 -25.5q-15 -15 -26.5 -35q-11.5 -20 -19 -43q-7.5 -23 -11.5 -47.5q-4 -24.5 -4 -48.5q0 -10 2 -22.5q2 -12.5 6.5 -23.5q4.5 -11 13 -18.5q8.5 -7.5 22.5 -7.5q19 0 36.5 8.5q17.5 8.5 31.5 22.5q18 16 32 39q14 23 25 48.5q11 25.5 19 52.5q8 27 14 52l16 69z" />
<glyph unicode="&#65;" horiz-adv-x="662" d="M347 704q33 -115 61.5 -198.5q28.5 -83.5 42.5 -122.5q42 -122 66.5 -186.5q24.5 -64.5 34.5 -87.5q5 -12 12 -26q7 -14 16.5 -26.5q9.5 -12.5 22 -20.5q12.5 -8 28.5 -8h25v-28h-37q-2 0 -12 1q-10 1 -22.5 2.5q-12.5 1.5 -25.5 2.5q-13 1 -21 1q-23 0 -44.5 -3.5q-21.5 -3.5 -47.5 -3.5h-25v28h22q19 0 26.5 13q7.5 13 7.5 29q0 12 -3 26.5q-3 14.5 -7 29.5q-4 15 -8.5 27.5q-4.5 12.5 -6.5 19.5q-10 32 -22 61q-29 -3 -59 -4.5q-30 -1.5 -64 -1.5q-44 0 -102 6l-28 -82q-7 -20 -12.5 -42q-5.5 -22 -6.5 -45q0 -17 9 -27q9 -10 30 -10h29v-28h-31q-20 0 -34.5 3.5q-14.5 3.5 -43.5 3.5q-17 0 -27 -1q-10 -1 -18 -2.5q-8 -1.5 -14.5 -2.5q-6.5 -1 -15.5 -1h-36v28h22q18 0 33.5 15.5q15.5 15.5 28 37.5q12.5 22 22.5 46.5q10 24.5 17 41.5q6 14 24 59q18 45 43 114q25 69 54.5 158.5q29.5 89.5 58.5 192.5zM309 571q-7 -32 -18.5 -69.5q-11.5 -37.5 -24 -76.5q-12.5 -39 -26 -78.5q-13.5 -39.5 -24.5 -75.5q26 -2 51.5 -3q25.5 -1 50.5 -1q25 0 49 1q24 1 48 3q-22 70 -50.5 145.5q-28.5 75.5 -48.5 154.5z" />
<glyph unicode="&#66;" horiz-adv-x="554" d="M118 501q0 7 -0.5 22q-0.5 15 -1 32.5q-0.5 17.5 -2 32.5q-1.5 15 -2.5 22q-4 16 -14 28.5q-10 12.5 -33 12.5h-23v28q5 1 10.5 1q5.5 0 10.5 0q20 0 40.5 -4q20.5 -4 44.5 -4q32 0 63 6q31 6 67 6q38 0 71 -8.5q33 -8.5 59 -30.5q23 -19 36.5 -45.5q13.5 -26.5 13.5 -62.5q0 -33 -12 -59.5q-12 -26.5 -33.5 -47q-21.5 -20.5 -50.5 -34q-29 -13.5 -63 -19.5l0 -9h11q41 0 80.5 -11.5q39.5 -11.5 70.5 -36.5q28 -23 44.5 -56.5q16.5 -33.5 16.5 -77.5q0 -32 -10 -64.5q-10 -32.5 -36 -62.5q-56 -65 -175 -65q-36 0 -68 6.5q-32 6.5 -72 6.5q-18 0 -41 -3.5q-23 -3.5 -40 -3.5h-38v28h17q23 0 35 19.5q12 19.5 17 45.5q2 13 3.5 30.5q1.5 17.5 2 34q0.5 16.5 1 29q0.5 12.5 0.5 16.5zM193 381q7 -1 14 -1q7 0 14 0q30 0 58.5 8q28.5 8 51.5 25.5q23 17.5 37 43.5q14 26 14 62q0 29 -9.5 53.5q-9.5 24.5 -26.5 42.5q-22 23 -49.5 30.5q-27.5 7.5 -58.5 7.5q-8 0 -15.5 -0.5q-7.5 -0.5 -12.5 -1.5q-6 -1 -11 -1q-1 -14 -2 -35.5q-1 -21.5 -2 -46.5q-1 -25 -1.5 -52q-0.5 -27 -0.5 -51zM193 188q0 -6 0 -19q0 -13 0.5 -28.5q0.5 -15.5 1 -31.5q0.5 -16 1.5 -29q2 -18 11.5 -29.5q9.5 -11.5 23 -18q13.5 -6.5 30.5 -9q17 -2.5 34 -2.5q66 0 106.5 39.5q40.5 39.5 40.5 111.5q0 44 -14.5 78q-14.5 34 -41 57q-26.5 23 -63 34.5q-36.5 11.5 -80.5 11.5q-22 0 -50 -3z" />
<glyph unicode="&#67;" horiz-adv-x="707" d="M620 502q0 35 -13.5 67q-13.5 32 -43.5 55q-15 11 -33 17.5q-18 6.5 -35 10q-17 3.5 -32 4.5q-15 1 -25 1q-51 0 -103 -15q-52 -15 -97 -53q-47 -39 -73.5 -98q-26.5 -59 -26.5 -146q0 -67 23.5 -126q23.5 -59 64.5 -102.5q41 -43.5 96 -69q55 -25.5 119 -25.5q42 0 80 12.5q38 12.5 72 41.5q24 20 37.5 40q13.5 20 19.5 31l33 0q-8 -19 -17 -43q-9 -24 -25 -44q-15 -19 -40 -33q-25 -14 -54.5 -23q-29.5 -9 -60.5 -13.5q-31 -4.5 -58 -4.5q-80 0 -149.5 26q-69.5 26 -120.5 73.5q-51 47.5 -80.5 113.5q-29.5 66 -29.5 146q0 73 27.5 137q27.5 64 77 110.5q49.5 46.5 119.5 73.5q70 27 154 27q31 0 57 -3q26 -3 49 -7q23 -4 44 -7q21 -3 42 -3q8 0 17.5 1q9.5 1 21.5 5q-2 -14 -3 -35q-1 -21 -2.5 -43q-1.5 -22 -2 -43.5q-0.5 -21.5 -0.5 -36.5q0 -5 0.5 -9.5q0.5 -4.5 0.5 -9.5z" />
<glyph unicode="&#68;" horiz-adv-x="781" d="M122 528q0 3 0 16.5q0 13.5 -1 30.5q-1 17 -3.5 33q-2.5 16 -6.5 24q-5 11 -17 15q-12 4 -26 4h-26v28h25q26 0 45.5 -3.5q19.5 -3.5 46.5 -3.5q27 0 50 2q23 2 47.5 4q24.5 2 54.5 4q30 2 72 2q85 0 150 -19.5q65 -19.5 118 -75.5q26 -28 42 -58q16 -30 25 -60q9 -30 12 -58.5q3 -28.5 3 -52.5q0 -38 -7 -77q-7 -39 -21.5 -75.5q-14.5 -36.5 -36.5 -69q-22 -32.5 -51 -58.5q-33 -30 -70 -47q-37 -17 -73.5 -25.5q-36.5 -8.5 -71.5 -11q-35 -2.5 -64 -2.5q-18 0 -43.5 2q-25.5 2 -50.5 4q-25 2 -46 4q-21 2 -30 2q-26 0 -44.5 -3q-18.5 -3 -38.5 -3h-37v28h8q14 0 26 7.5q12 7.5 20 18.5q7 11 10.5 26q3.5 15 4.5 31q2 18 3.5 44q1.5 26 1.5 45zM201 645q-1 -27 -2 -43q-1 -16 -1.5 -26.5q-0.5 -10.5 -0.5 -17.5q0 -7 0 -14v-298q0 -11 0 -27.5q0 -16.5 0.5 -34q0.5 -17.5 1 -32q0.5 -14.5 0.5 -21.5q1 -20 6 -43q5 -23 19 -38q9 -9 21.5 -14q12.5 -5 26 -7.5q13.5 -2.5 25.5 -3q12 -0.5 20 -0.5q43 0 79 4.5q36 4.5 66 14.5q30 10 55.5 27q25.5 17 48.5 41q45 48 61 107.5q16 59.5 16 119.5q0 42 -7.5 77.5q-7.5 35.5 -19.5 64.5q-12 29 -27.5 51.5q-15.5 22.5 -30.5 37.5q-45 47 -104.5 65q-59.5 18 -132.5 18q-36 0 -69.5 -3t-50.5 -5z" />
<glyph unicode="&#69;" horiz-adv-x="525" d="M118 474q0 13 -0.5 28.5q-0.5 15.5 -1 29.5q-0.5 14 -1 26q-0.5 12 -0.5 19q-1 14 -3.5 27q-2.5 13 -8 23.5q-5.5 10.5 -15.5 17q-10 6.5 -25 6.5h-21v28q29 -3 54.5 -4q25.5 -1 49 -2q23.5 -1 47.5 -1q24 0 50 0q54 0 106.5 1q52.5 1 108.5 6q-5 -38 -14.5 -80.5q-9.5 -42.5 -21.5 -84.5l-34 0q8 27 8 55q0 33 -17.5 47.5q-17.5 14.5 -62.5 14.5h-117q-3 -35 -4.5 -70.5q-1.5 -35.5 -1.5 -78.5v-109l62 -3l64 1q11 0 26 2.5q15 2.5 26 15.5q7 8 12 26.5q5 18.5 6 34.5l27 0q-5 -29 -8 -52.5q-3 -23.5 -4.5 -47.5q-1.5 -24 -2 -49.5q-0.5 -25.5 0.5 -56.5l-28 0q2 14 1.5 31.5q-0.5 17.5 -4.5 28.5q-5 17 -17 25q-12 8 -35 8h-63l-63 -4v-162q0 -35 2.5 -56.5q2.5 -21.5 6.5 -33.5q4 -12 7.5 -17.5q3.5 -5.5 6.5 -8.5q16 -17 41.5 -21q25.5 -4 46.5 -4q42 0 70.5 7q28.5 7 48.5 27q11 10 19 24q8 14 13 26.5q5 12.5 8 22q3 9.5 4 12.5l33 0q-5 -23 -10 -41.5q-5 -18.5 -11 -37.5q-5 -17 -12.5 -34q-7.5 -17 -18.5 -27q-13 -11 -29 -13q-16 -2 -29 -2q-38 0 -67.5 2q-29.5 2 -58.5 4q-15 1 -31 2q-16 1 -32 2q-16 1 -29.5 2q-13.5 1 -22.5 1q-19 0 -42 -3.5q-23 -3.5 -41 -3.5h-24v28h22q7 0 18 3q11 3 22 23q11 22 12.5 49q1.5 27 1.5 68z" />
<glyph unicode="&#70;" horiz-adv-x="483" d="M118 504q0 9 -0.5 21.5q-0.5 12.5 -1 25.5q-0.5 13 -1.5 25.5q-1 12.5 -2 20.5q-3 23 -15 38.5q-12 15.5 -36 15.5h-20v28q30 -3 55 -4q25 -1 48.5 -2q23.5 -1 47 -1q23.5 0 50.5 0q31 0 57 0q26 0 50.5 1q24.5 1 50.5 2q26 1 57 4q-5 -40 -15 -81q-10 -41 -21 -84l-34 0q5 15 6.5 29.5q1.5 14.5 1.5 28.5q0 10 -2.5 21q-2.5 11 -11.5 20q-13 13 -30.5 15.5q-17.5 2.5 -35.5 2.5h-117q-2 -16 -2.5 -31q-0.5 -15 -1.5 -31q-1 -22 -1.5 -43.5q-0.5 -21.5 -0.5 -43.5v-109l62 -3h64q36 0 50.5 18.5q14.5 18.5 19.5 61.5l27 0q-8 -49 -12 -100q-4 -51 -2 -106l-28 0q1 7 1 13q0 6 0 13q0 33 -12 50q-12 17 -44 17h-63l-63 -4v-162q0 -21 0 -47q0 -26 5 -46q1 -7 4.5 -16q3.5 -9 9 -16.5q5.5 -7.5 13 -12.5q7.5 -5 17.5 -5h27v-28h-24q-24 0 -46.5 3.5q-22.5 3.5 -42.5 3.5q-14 0 -24 -1q-10 -1 -20 -2.5q-10 -1.5 -20.5 -2.5q-10.5 -1 -24.5 -1h-25v28h24q19 0 32 16q6 8 9.5 17q3.5 9 5.5 19q4 17 4.5 39.5q0.5 22.5 0.5 51.5z" />
<glyph unicode="&#71;" horiz-adv-x="758" d="M728 318h-17q-13 0 -21 -4.5q-8 -4.5 -13 -9.5q-10 -12 -13.5 -35.5q-3.5 -23.5 -3.5 -43.5v-198q-21 -8 -50 -15.5q-29 -7.5 -61 -13q-32 -5.5 -63.5 -9q-31.5 -3.5 -57.5 -3.5q-77 0 -145.5 25.5q-68.5 25.5 -121 72.5q-52.5 47 -83 113.5q-30.5 66.5 -30.5 148.5q0 81 28 145.5q28 64.5 77.5 109q49.5 44.5 118.5 68.5q69 24 150 24q61 0 107 -10.5q46 -10.5 71 -10.5q12 0 25.5 3q13.5 3 23.5 6q-2 -20 -3.5 -37q-1.5 -17 -3 -36q-1.5 -19 -2 -42q-0.5 -23 -1.5 -54l-30 0q1 37 -10 62.5q-11 25.5 -26 40.5q-23 23 -62 34q-39 11 -81 11q-67 0 -121 -21.5q-54 -21.5 -92 -62q-38 -40.5 -58.5 -97.5q-20.5 -57 -20.5 -129q0 -72 24.5 -131.5q24.5 -59.5 67.5 -102.5q43 -43 101 -66.5q58 -23.5 125 -23.5q43 0 73.5 6.5q30.5 6.5 55.5 20.5l0 175q0 18 -2 41.5q-2 23.5 -20 39.5q-8 6 -17.5 7.5q-9.5 1.5 -17.5 1.5h-25v28h39q8 0 14 -1q6 -1 12.5 -2.5q6.5 -1.5 16 -2.5q9.5 -1 23.5 -1h21q17 0 31.5 3.5q14.5 3.5 26.5 3.5l41 0z" />
<glyph unicode="&#72;" horiz-adv-x="808" d="M44 679h33q10 0 18 -1q8 -1 16.5 -2.5q8.5 -1.5 19 -2.5q10.5 -1 25.5 -1q23 0 40 3.5q17 3.5 39 3.5h33v-28h-18q-21 0 -34 -12.5q-13 -12.5 -17 -34.5q-2 -9 -3 -23q-1 -14 -2 -29q-1 -15 -1.5 -28.5q-0.5 -13.5 -0.5 -20.5v-126q35 -5 90 -10.5q55 -5.5 122 -5.5q67 0 122 5.5q55 5.5 90 10.5l0 126q0 7 -0.5 21.5q-0.5 14.5 -1.5 30q-1 15.5 -2.5 30.5q-1.5 15 -3.5 23q-4 18 -15.5 30.5q-11.5 12.5 -31.5 12.5h-21v28h33q20 0 37.5 -3.5q17.5 -3.5 45.5 -3.5q23 0 42 3.5q19 3.5 33 3.5h33v-28h-21q-23 0 -35 -16q-12 -16 -14 -40q0 -5 -0.5 -18q-0.5 -13 -1 -28q-0.5 -15 -1 -28q-0.5 -13 -0.5 -18v-321q0 -6 0.5 -20.5q0.5 -14.5 2 -31q1.5 -16.5 2.5 -32q1 -15.5 3 -22.5q4 -16 15 -32q11 -16 31 -16h21v-28h-37q-11 0 -32.5 3.5q-21.5 3.5 -43.5 3.5q-22 0 -43 -3.5q-21 -3.5 -32 -3.5h-36v28h21q15 0 28.5 11.5q13.5 11.5 18.5 38.5q1 6 2 20q1 14 2 29.5q1 15.5 1.5 30.5q0.5 15 0.5 24v154q-21 -2 -47.5 -3.5q-26.5 -1.5 -55 -2.5q-28.5 -1 -57 -2q-28.5 -1 -52.5 -1q-24 0 -52.5 1q-28.5 1 -57 2q-28.5 1 -55 2.5q-26.5 1.5 -47.5 3.5l0 -154q0 -12 0.5 -28q0.5 -16 1.5 -31q1 -15 2 -27.5q1 -12.5 2 -18.5q3 -17 14.5 -33q11.5 -16 32.5 -16h21v-28h-36q-18 0 -33.5 3.5q-15.5 3.5 -41.5 3.5q-26 0 -41 -3.5q-15 -3.5 -35 -3.5h-37v28h21q20 0 31.5 15.5q11.5 15.5 14.5 32.5q2 12 3.5 27.5q1.5 15.5 2.5 31.5q1 16 1.5 28.5q0.5 12.5 0.5 18.5v321q0 7 0 20.5q0 13.5 -0.5 28.5q-0.5 15 -1.5 28.5q-1 13.5 -2 20.5q-2 18 -13.5 34q-11.5 16 -34.5 16l-21 0z" />
<glyph unicode="&#73;" horiz-adv-x="314" d="M46 28h21q17 0 28.5 16q11.5 16 16.5 34q2 9 5 34q3 25 3 85v306q0 9 -0.5 22q-0.5 13 -1 26.5q-0.5 13.5 -1.5 26q-1 12.5 -2 20.5q-3 21 -14 37q-11 16 -34 16h-21v28h33q16 0 26 -1q10 -1 18 -2.5q8 -1.5 15 -2.5q7 -1 18 -1q9 0 16.5 1q7.5 1 15.5 2.5q8 1.5 19.5 2.5q11.5 1 28.5 1h32v-28h-21q-18 0 -29 -11.5q-11 -11.5 -15 -28.5q-2 -6 -3.5 -20.5q-1.5 -14.5 -2.5 -31q-1 -16.5 -1.5 -32.5q-0.5 -16 -0.5 -25v-312q0 -5 0.5 -19q0.5 -14 1.5 -32q1 -18 2.5 -36q1.5 -18 3.5 -30q3 -16 13.5 -30.5q10.5 -14.5 30.5 -14.5h21v-28h-32q-18 0 -37.5 3.5q-19.5 3.5 -42.5 3.5q-26 0 -41.5 -3.5q-15.5 -3.5 -35.5 -3.5l-33 0z" />
<glyph unicode="&#74;" horiz-adv-x="329" d="M47 679h38q16 0 27.5 -1q11.5 -1 20.5 -2.5q9 -1.5 18.5 -2.5q9.5 -1 22.5 -1q19 0 35.5 3.5q16.5 3.5 44.5 3.5h27v-28h-18q-22 0 -34 -15q-12 -15 -14 -41q0 -5 -1 -17.5q-1 -12.5 -1.5 -26.5q-0.5 -14 -1 -27.5q-0.5 -13.5 -0.5 -20.5v-422q0 -35 -3 -67.5q-3 -32.5 -20 -74.5q-8 -20 -25 -51.5q-17 -31.5 -40.5 -61q-23.5 -29.5 -52.5 -51q-29 -21.5 -60 -21.5q-32 0 -50 20.5q-18 20.5 -18 52.5q0 9 2.5 22q2.5 13 6 26.5q3.5 13.5 6.5 25q3 11.5 5 17.5l22 0q-2 -16 -1 -33.5q1 -17.5 7.5 -32.5q6.5 -15 19 -25q12.5 -10 33.5 -10q45 0 65.5 43q20.5 43 22.5 121q1 34 3 62q2 28 2 48v400q0 38 -0.5 64.5q-0.5 26.5 -2.5 44.5q-3 26 -16 38.5q-13 12.5 -40 12.5l-30 0z" />
<glyph unicode="&#75;" horiz-adv-x="666" d="M42 28h21q20 0 32 16.5q12 16.5 14 33.5q1 8 3.5 35.5q2.5 27.5 2.5 53.5v329q0 9 -0.5 23.5q-0.5 14.5 -1 30q-0.5 15.5 -2 30q-1.5 14.5 -2.5 23.5q-8 48 -50 48h-17v28h33q19 0 37 -3.5q18 -3.5 41 -3.5q23 0 40.5 3.5q17.5 3.5 39.5 3.5h33v-28h-21q-20 0 -32 -12.5q-12 -12.5 -16 -35.5q-2 -10 -3 -24q-1 -14 -2 -29q-1 -15 -1.5 -28.5q-0.5 -13.5 -0.5 -22.5v-327q0 -5 0.5 -18q0.5 -13 1.5 -27.5q1 -14.5 2.5 -28q1.5 -13.5 2.5 -19.5q4 -20 15 -35.5q11 -15.5 34 -15.5h20v-28h-36q-9 0 -15.5 1q-6.5 1 -14 2.5q-7.5 1.5 -18 2.5q-10.5 1 -26.5 1q-16 0 -26.5 -1q-10.5 -1 -18.5 -2.5q-8 -1.5 -15 -2.5q-7 -1 -17 -1h-37zM456 679q17 0 32 -3.5q15 -3.5 41 -3.5q28 0 44 3.5q16 3.5 36 3.5h25v-28h-16q-14 0 -27 -4q-13 -4 -24 -9q-10 -5 -20 -12.5q-10 -7.5 -23.5 -19.5q-13.5 -12 -31 -28.5q-17.5 -16.5 -41.5 -38.5l-176 -164q8 -4 32 -14.5q24 -10.5 60 -44.5q25 -23 50 -53q25 -30 56 -72q23 -32 48 -68.5q25 -36.5 51 -62.5q13 -13 33 -23q20 -10 40 -10q8 0 16 3l0 -22q-9 -5 -24.5 -9.5q-15.5 -4.5 -29.5 -4.5q-15 0 -31 3.5q-16 3.5 -33 11.5q-39 20 -71 56q-32 36 -64 77q-21 26 -41 50.5q-20 24.5 -51 59.5q-11 12 -35.5 38q-24.5 26 -67.5 68q23 22 40.5 39q17.5 17 32 31q14.5 14 26 26q11.5 12 23.5 23q35 34 62.5 60.5q27.5 26.5 53.5 57.5q5 5 10.5 14.5q5.5 9.5 5.5 18.5q0 10 -6.5 16.5q-6.5 6.5 -18.5 6.5h-19l0 28z" />
<glyph unicode="&#76;" horiz-adv-x="521" d="M81 679q19 0 37.5 -3.5q18.5 -3.5 40.5 -3.5q24 0 41 3.5q17 3.5 39 3.5h32v-28h-20q-18 0 -32 -11q-14 -11 -16 -37q-1 -7 -2 -20.5q-1 -13.5 -2 -28.5q-1 -15 -1.5 -28.5q-0.5 -13.5 -0.5 -20.5v-314q0 -10 0.5 -23q0.5 -13 1 -27q0.5 -14 2 -28q1.5 -14 4.5 -24q7 -32 28.5 -46.5q21.5 -14.5 72.5 -14.5q13 0 28.5 0.5q15.5 0.5 31.5 4.5q16 4 31.5 12q15.5 8 29.5 22q18 19 31 41.5q13 22.5 21 48.5l32 0q-2 -6 -7.5 -26.5q-5.5 -20.5 -14 -44q-8.5 -23.5 -19 -45.5q-10.5 -22 -20.5 -31q-11 -11 -29.5 -13.5q-18.5 -2.5 -40.5 -2.5q-17 0 -29.5 0.5q-12.5 0.5 -23 1q-10.5 0.5 -21.5 1.5q-11 1 -25 2q-21 2 -37 3.5q-16 1.5 -29 2.5q-13 1 -25 1.5q-12 0.5 -25 0.5q-22 0 -41 -3.5q-19 -3.5 -46 -3.5h-36v28q12 -1 26.5 4q14.5 5 28.5 19q10 11 15 30q5 19 7 42q1 7 1.5 18q0.5 11 1 22.5q0.5 11.5 0.5 21q0 9.5 0 12.5v307q0 6 0 20.5q0 14.5 -1 30q-1 15.5 -2 30q-1 14.5 -2 22.5q-4 19 -15.5 31.5q-11.5 12.5 -32.5 12.5h-21l0 28z" />
<glyph unicode="&#77;" horiz-adv-x="868" d="M197 693q7 -18 18 -44.5q11 -26.5 23.5 -56.5q12.5 -30 26.5 -61.5q14 -31.5 27 -59.5l92 -193q18 -37 34 -75.5q16 -38.5 29 -81.5l5 0q9 32 20.5 56.5q11.5 24.5 21.5 44.5l128 265q15 31 26.5 56q11.5 25 21 48q9.5 23 18.5 45q9 22 19 46l39 11q5 -100 12.5 -199.5q7.5 -99.5 12.5 -204.5q2 -25 3 -56q1 -31 3 -63q2 -35 8 -67.5q6 -32.5 17 -48.5q8 -11 17.5 -18.5q9.5 -7.5 22.5 -7.5h20v-28h-37q-17 0 -31.5 3.5q-14.5 3.5 -41.5 3.5q-28 0 -46.5 -3.5q-18.5 -3.5 -31.5 -3.5h-36v28h16q29 0 40 21q11 21 11 59q0 22 -0.5 51q-0.5 29 -2.5 59l-6 121q-2 33 -4 69q-2 36 -2 59q0 17 0.5 33.5q0.5 16.5 2.5 36.5l-9 0q-16 -42 -34 -86q-18 -44 -44 -98l-53 -108q-19 -39 -34.5 -69.5q-15.5 -30.5 -28 -56q-12.5 -25.5 -23 -48q-10.5 -22.5 -20.5 -44.5l-23 0q-16 32 -25.5 51q-9.5 19 -17 34.5q-7.5 15.5 -16.5 34q-9 18.5 -24 48.5l-82 165q-9 19 -30 65.5q-21 46.5 -45 111.5l-8 0q0 -17 -0.5 -29.5q-0.5 -12.5 -1 -25q-0.5 -12.5 -1 -28.5q-0.5 -16 -1.5 -39l-11 -212q-2 -29 -2 -55.5q0 -26.5 0 -46.5q0 -32 12.5 -52.5q12.5 -20.5 39.5 -20.5h19v-28h-37q-18 0 -35 3.5q-17 3.5 -40 3.5q-16 0 -26 -1q-10 -1 -18 -2.5q-8 -1.5 -15.5 -2.5q-7.5 -1 -18.5 -1h-34v28h21q23 0 38 15.5q15 15.5 23 35.5q7 19 12.5 43.5q5.5 24.5 9 47q3.5 22.5 5.5 38q2 15.5 2 17.5q1 11 4 39q3 28 6 66.5q3 38.5 6.5 84.5q3.5 46 7 92.5q3.5 46.5 6.5 90.5q3 44 5 79z" />
<glyph unicode="&#78;" horiz-adv-x="777" d="M42 28q15 0 24 6.5q9 6.5 15 15.5q6 9 8.5 18q2.5 9 4.5 14q4 11 6.5 31.5q2.5 20.5 4 44q1.5 23.5 2.5 47q1 23.5 1 39.5v247q0 30 0 53q0 23 -0.5 44.5q-0.5 21.5 -2 43q-1.5 21.5 -3.5 47.5l38 15q36 -49 82.5 -107q46.5 -58 93 -113.5q46.5 -55.5 87 -103.5q40.5 -48 66.5 -77q22 -26 40.5 -47q18.5 -21 36 -40.5q17.5 -19.5 34.5 -40q17 -20.5 36 -44.5l7 0q-3 21 -4.5 43.5q-1.5 22.5 -1.5 42.5v248q0 5 0 20q0 15 -1 34.5q-1 19.5 -2.5 40.5q-1.5 21 -4.5 38q-2 10 -4.5 21.5q-2.5 11.5 -8 20.5q-5.5 9 -14.5 15q-9 6 -23 6h-20v28h14q22 0 48.5 -3.5q26.5 -3.5 41.5 -3.5q17 0 41 3.5q24 3.5 49 3.5h14v-28h-21q-15 0 -24 -6q-9 -6 -14.5 -15.5q-5.5 -9.5 -8 -20.5q-2.5 -11 -4.5 -21q-2 -12 -3.5 -29.5q-1.5 -17.5 -2.5 -36q-1 -18.5 -1.5 -36.5q-0.5 -18 -0.5 -31v-266q0 -52 1.5 -98q1.5 -46 3.5 -91l-38 -14q-29 31 -67 73.5q-38 42.5 -78.5 88q-40.5 45.5 -79.5 90q-39 44.5 -69 79.5q-54 63 -87.5 104q-33.5 41 -52.5 67.5q-19 26.5 -27.5 41q-8.5 14.5 -13.5 25.5l-7 0q3 -17 4.5 -36.5q1.5 -19.5 1.5 -35.5v-239q0 -8 0 -26q0 -18 1.5 -41q1.5 -23 4.5 -48q3 -25 8 -47q6 -22 17 -38q11 -16 40 -16h9v-28h-14q-22 0 -48 3.5q-26 3.5 -42 3.5q-17 0 -41 -3.5q-24 -3.5 -49 -3.5h-14l0 28z" />
<glyph unicode="&#79;" horiz-adv-x="773" d="M48 350q0 71 24 133.5q24 62.5 69.5 109q45.5 46.5 112 73.5q66.5 27 152.5 27q70 0 129 -29.5q59 -29.5 101 -78q42 -48.5 65.5 -111q23.5 -62.5 23.5 -127.5q0 -73 -22.5 -138.5q-22.5 -65.5 -64.5 -115q-42 -49.5 -101.5 -78.5q-59.5 -29 -133.5 -29q-90 0 -156.5 32q-66.5 32 -111 84q-44.5 52 -66 117q-21.5 65 -21.5 131zt0 0zM138 362q0 -58 16.5 -119q16.5 -61 50.5 -111q34 -50 84.5 -82q50.5 -32 119.5 -32q58 0 101 23q43 23 70.5 63q27.5 40 41 93.5q13.5 53.5 13.5 113.5q0 67 -18 130q-18 63 -51.5 112q-33.5 49 -82.5 78.5q-49 29.5 -111 29.5q-7 0 -23.5 -1q-16.5 -1 -38 -7q-21.5 -6 -46 -18q-24.5 -12 -46.5 -34q-17 -16 -31.5 -36q-14.5 -20 -25 -48q-10.5 -28 -17 -66t-6.5 -89z" />
<glyph unicode="&#80;" horiz-adv-x="524" d="M230 0q-18 0 -32.5 3.5q-14.5 3.5 -42.5 3.5q-17 0 -27 -1q-10 -1 -17.5 -2.5q-7.5 -1.5 -14.5 -2.5q-7 -1 -17 -1h-37v28h21q20 0 31.5 17q11.5 17 14.5 36q1 8 2.5 23.5q1.5 15.5 2.5 32.5q1 17 1.5 32q0.5 15 0.5 22v303q0 5 0 26.5q0 21.5 -2 43.5q-2 22 -3.5 38.5q-1.5 16.5 -8.5 27q-7 10.5 -21 16q-14 5.5 -39 5.5l0 28q32 -3 52 -5q20 -2 37 -2q13 0 33 1q20 1 41 2.5q21 1.5 42 2.5q21 1 36 1q48 0 86.5 -14q38.5 -14 65 -40q26.5 -26 41 -62q14.5 -36 14.5 -79q0 -42 -17 -78q-17 -36 -45.5 -62q-28.5 -26 -64.5 -40.5q-36 -14.5 -74 -14.5q-23 0 -46 5l0 25q15 -3 31 -3q29 0 54 12.5q25 12.5 44 34q19 21.5 29.5 51.5q10.5 30 10.5 66q0 36 -12 67q-12 31 -34.5 54.5q-22.5 23.5 -54.5 36.5q-32 13 -73 13q-12 0 -23.5 -1.5q-11.5 -1.5 -23.5 -3.5l0 -445q0 -15 0.5 -32.5q0.5 -17.5 1.5 -35q1 -17.5 2 -32q1 -14.5 3 -23.5q3 -17 14.5 -33.5q11.5 -16.5 32.5 -16.5h32l0 -28z" />
<glyph unicode="&#81;" horiz-adv-x="773" d="M742 -110q0 -30 -12.5 -51q-12.5 -21 -32.5 -34q-20 -13 -44.5 -19q-24.5 -6 -49.5 -6q-39 0 -82 11.5q-43 11.5 -91 40.5l-29 18q-19 12 -39 28.5q-20 16.5 -39.5 31.5q-19.5 15 -37.5 26q-18 11 -33 11q-25 0 -37.5 -14.5q-12.5 -14.5 -20.5 -34.5q-5 12 -13.5 22.5q-8.5 10.5 -19.5 19.5q13 8 22.5 13.5q9.5 5.5 19.5 9.5q10 4 21.5 5.5q11.5 1.5 27.5 1.5q35 0 69.5 -10q34.5 -10 64 -23.5q29.5 -13.5 51.5 -27q22 -13.5 33 -20.5l44 -29q29 -19 58.5 -38q29.5 -19 51.5 -19q6 0 15.5 2.5q9.5 2.5 18 10q8.5 7.5 15 21q6.5 13.5 6.5 34.5q0 41 -10 69zM48 350q0 75 26 138q26 63 72.5 108.5q46.5 45.5 110.5 71q64 25.5 139 25.5q81 0 142.5 -32q61.5 -32 103 -82q41.5 -50 62.5 -111q21 -61 21 -119q0 -75 -22.5 -141q-22.5 -66 -64 -115.5q-41.5 -49.5 -101 -78q-59.5 -28.5 -133.5 -28.5q-89 0 -156 31.5q-67 31.5 -111.5 83q-44.5 51.5 -66.5 116.5q-22 65 -22 133zt0 0zM138 369q0 -62 16 -124.5q16 -62.5 49.5 -113q33.5 -50.5 84.5 -82q51 -31.5 121 -31.5q58 0 101 24q43 24 70.5 63.5q27.5 39.5 41 91q13.5 51.5 13.5 106.5q0 67 -17 131q-17 64 -50.5 114.5q-33.5 50.5 -82.5 81.5q-49 31 -113 31q-35 0 -76 -13q-41 -13 -76 -46q-35 -33 -58.5 -89.5t-23.5 -143.5z" />
<glyph unicode="&#82;" horiz-adv-x="654" d="M68 679q7 0 20 -0.5q13 -0.5 26 -1q13 -0.5 23.5 -1q10.5 -0.5 13.5 -0.5q42 0 83.5 4q41.5 4 64.5 4q46 0 83.5 -13.5q37.5 -13.5 64.5 -38q27 -24.5 42 -58.5q15 -34 15 -74q0 -45 -15.5 -81q-15.5 -36 -43 -62.5q-27.5 -26.5 -65 -43.5q-37.5 -17 -81.5 -24l0 -5q44 -3 81 -25q29 -17 55 -45q26 -28 45 -54q7 -9 17 -24q10 -15 21.5 -32.5q11.5 -17.5 23 -34q11.5 -16.5 22.5 -28.5q17 -19 39 -31q22 -12 49 -10l0 -17q-6 -1 -10.5 -1q-4.5 0 -10.5 0q-4 0 -15 0.5q-11 0.5 -26 3q-15 2.5 -32 7.5q-17 5 -32 13q-12 7 -26 18.5q-14 11.5 -26.5 24.5q-12.5 13 -23.5 25.5q-11 12.5 -18 21.5l-32 41q-21 27 -43 57q-22 30 -48 52q-19 16 -40.5 26q-21.5 10 -48.5 10h-27v-94q0 -9 0.5 -24.5q0.5 -15.5 1 -30.5q0.5 -15 1.5 -28q1 -13 1 -18q2 -28 14 -43.5q12 -15.5 38 -15.5h19v-28h-37q-18 0 -33.5 3.5q-15.5 3.5 -38.5 3.5q-23 0 -41 -3.5q-18 -3.5 -38 -3.5h-38v28h19q25 0 38 22q13 22 16 59q3 39 3 79v305q0 7 -0.5 22.5q-0.5 15.5 -1.5 33q-1 17.5 -2.5 33.5q-1.5 16 -2.5 24q-1 6 -3.5 13.5q-2.5 7.5 -8.5 14.5q-6 7 -15 12q-9 5 -23 5h-19v28zM193 308h38q54 0 91.5 15q37.5 15 60.5 39.5q23 24.5 33 56.5q10 32 10 65q0 36 -11 67q-11 31 -33 54q-22 23 -53.5 36.5q-31.5 13.5 -71.5 13.5q-28 0 -64 -6z" />
<glyph unicode="&#83;" horiz-adv-x="474" d="M401 649q0 -15 0.5 -34.5q0.5 -19.5 0.5 -38q0 -18.5 0.5 -34q0.5 -15.5 0.5 -21.5l-28 0q-11 64 -38 97q-14 16 -33.5 27.5q-19.5 11.5 -63.5 11.5q-54 0 -79.5 -28q-25.5 -28 -25.5 -67q0 -14 6.5 -35q6.5 -21 23.5 -44q17 -21 43.5 -41q26.5 -20 55.5 -42l44 -34q22 -17 44 -37q22 -20 40 -43.5q18 -23.5 29 -51q11 -27.5 11 -59.5q0 -44 -20 -78.5q-20 -34.5 -51.5 -59.5q-31.5 -25 -70.5 -38q-39 -13 -78 -13q-19 0 -41 2.5q-22 2.5 -43 8.5q-21 6 -38.5 16.5q-17.5 10.5 -27.5 26.5q-14 23 -17 51.5q-3 28.5 -3 58.5v18h30q5 -46 20 -74.5q15 -28.5 35.5 -45q20.5 -16.5 45 -22.5q24.5 -6 50.5 -6q25 0 48.5 8.5q23.5 8.5 41.5 25q18 16.5 29.5 40q11.5 23.5 11.5 54.5q0 30 -9.5 53.5q-9.5 23.5 -25.5 43q-16 19.5 -36.5 36q-20.5 16.5 -41.5 33.5q-12 9 -23.5 17.5q-11.5 8.5 -23.5 16.5q-22 16 -46 35.5q-24 19.5 -44.5 43.5q-20.5 24 -33.5 52.5q-13 28.5 -13 61.5q0 16 6 40q6 24 25 47q19 23 55 39.5q36 16.5 95 16.5q26 0 44.5 -1.5q18.5 -1.5 32 -3q13.5 -1.5 24 -2.5q10.5 -1 19.5 -1q23 0 43 3z" />
<glyph unicode="&#84;" horiz-adv-x="590" d="M0 522q6 41 15.5 84q9.5 43 15.5 88q61 -8 124.5 -11.5q63.5 -3.5 136.5 -3.5q12 0 45 0.5q33 0.5 75.5 2q42.5 1.5 88.5 4.5q46 3 85 8q-1 -12 -3 -32q-2 -20 -4.5 -43.5q-2.5 -23.5 -6 -49q-3.5 -25.5 -7.5 -47.5l-31 0q4 30 3 53q-1 23 -11.5 39q-10.5 16 -33 24.5q-22.5 8.5 -59.5 8.5h-103v-471q0 -22 2 -51.5q2 -29.5 7 -45.5q6 -22 18.5 -37q12.5 -15 32.5 -15h21v-28h-31q-20 0 -41 3.5q-21 3.5 -41 3.5q-15 0 -26 -1q-11 -1 -19.5 -2.5q-8.5 -1.5 -16.5 -2.5q-8 -1 -18 -1h-37v28h21q14 0 28 11q14 11 19 39q1 6 2 18.5q1 12.5 2 27q1 14.5 1.5 28.5q0.5 14 0.5 22v474h-60q-35 0 -60.5 -3q-25.5 -3 -44.5 -14q-38 -23 -61 -108z" />
<glyph unicode="&#85;" horiz-adv-x="816" d="M532 679h33q20 0 39 -3.5q19 -3.5 42 -3.5q18 0 36.5 3.5q18.5 3.5 38.5 3.5h33v-28h-21q-25 0 -36.5 -15.5q-11.5 -15.5 -13.5 -43.5q0 -6 -0.5 -17.5q-0.5 -11.5 -1 -24.5q-0.5 -13 -1 -26q-0.5 -13 -0.5 -23v-296q0 -44 1.5 -71.5q1.5 -27.5 4.5 -44.5q3 -17 6.5 -26q3.5 -9 6.5 -14q13 -21 35 -21h40v-28h-17q-23 0 -38 1.5q-15 1.5 -37 1.5q-19 0 -36 -0.5q-17 -0.5 -35 -2.5q1 7 2 23.5q1 16.5 1 35q0 18.5 -0.5 37q-0.5 18.5 -0.5 29.5l-4 1q-89 -140 -260 -140q-23 0 -46.5 2q-23.5 2 -47 8q-23.5 6 -46 18.5q-22.5 12.5 -43.5 33.5q-24 24 -35.5 47.5q-11.5 23.5 -16 51.5q-4.5 28 -4 62.5q0.5 34.5 0.5 79.5v243q0 7 0 17.5q0 10.5 0 21.5q0 11 -1 22q-1 11 -3 19q-4 18 -16 28.5q-12 10.5 -32 10.5h-21v28h33q20 0 40 -3.5q20 -3.5 43 -3.5q22 0 38 3.5q16 3.5 36 3.5h33v-28h-21q-22 0 -34.5 -15.5q-12.5 -15.5 -15.5 -38.5q-2 -9 -3 -30.5q-1 -21.5 -1 -66.5v-277q0 -102 48 -152q48 -50 134 -50q38 0 77.5 13q39.5 13 73 37q33.5 24 56.5 58.5q23 34.5 28 77.5q3 26 2.5 51q-0.5 25 -0.5 51v190q0 9 -0.5 23q-0.5 14 -1 29q-0.5 15 -1.5 28.5q-1 13.5 -2 21.5q-1 7 -3.5 16q-2.5 9 -8 16.5q-5.5 7.5 -14 12.5q-8.5 5 -21.5 5l-21 0z" />
<glyph unicode="&#86;" horiz-adv-x="702" d="M2 679h26q15 0 30.5 -3.5q15.5 -3.5 44.5 -3.5q21 0 47.5 3.5q26.5 3.5 40.5 3.5h36v-28h-16q-32 0 -32 -34q0 -15 4 -34q4 -19 20 -61l124 -323q14 -36 20 -59q6 -23 11 -49l6 0q12 48 23.5 83.5q11.5 35.5 23.5 69.5l82 228q12 33 19 55.5q7 22.5 11 37.5q4 15 5 24q1 9 1 15q0 14 -7.5 30.5q-7.5 16.5 -28.5 16.5h-19v28h21q9 0 15.5 -1q6.5 -1 14.5 -2q8 -1 19 -2q11 -1 29 -2q21 -1 34 0q13 1 23 2.5q10 1.5 18 3q8 1.5 20 1.5h32v-28h-17q-30 0 -48.5 -15q-18.5 -15 -33.5 -38q-11 -17 -21.5 -39q-10.5 -22 -20 -46q-9.5 -24 -18.5 -47q-9 -23 -16 -42l-76 -190q-9 -22 -20.5 -54q-11.5 -32 -23.5 -66q-12 -34 -23 -66.5q-11 -32.5 -18 -54.5l-39 -8q-9 30 -17 54.5q-8 24.5 -16 47q-8 22.5 -17 46q-9 23.5 -20 52.5l-79 202q-2 4 -12.5 31q-10.5 27 -25 61q-14.5 34 -29.5 67q-15 33 -24 48q-5 9 -12 19q-7 10 -15 18.5q-8 8.5 -18 14q-10 5.5 -22 5.5l-16 0z" />
<glyph unicode="&#87;" horiz-adv-x="981" d="M6 679q5 0 18.5 -1q13.5 -1 30 -2q16.5 -1 32 -2q15.5 -1 23.5 -1q3 0 16.5 0.5q13.5 0.5 29.5 1.5q16 1 30.5 2q14.5 1 19.5 2l0 -28q-17 2 -33 -6q-16 -8 -16 -30q0 -10 4 -24.5q4 -14.5 10 -31q6 -16.5 12.5 -33.5q6.5 -17 12.5 -31l89 -224q19 -48 29 -78.5q10 -30.5 15.5 -49.5q5.5 -19 8 -30q2.5 -11 5.5 -21l6 0q23 77 52 152q29 75 53 154q-17 47 -34.5 88q-17.5 41 -31.5 73q-7 14 -14 30q-7 16 -17 29.5q-10 13.5 -23 22.5q-13 9 -32 10l0 28q28 -3 57 -3.5q29 -0.5 59 3.5q19 -49 38.5 -99.5q19.5 -50.5 33.5 -107.5l5 0q14 52 32.5 102.5q18.5 50.5 36.5 104.5q46 -6 102 0l0 -28q-17 -2 -30 -6.5q-13 -4.5 -24 -15.5q-6 -6 -13 -17.5q-7 -11.5 -14.5 -25.5q-7.5 -14 -14.5 -28q-7 -14 -12 -25l-43 -98q13 -35 33 -82.5q20 -47.5 39 -96q19 -48.5 35 -93q16 -44.5 22 -71.5l6 0q21 56 33.5 89.5q12.5 33.5 21.5 57q9 23.5 16.5 44q7.5 20.5 19.5 50.5q31 83 49 134.5q18 51.5 26 81q8 29.5 10 41.5q2 12 2 17q0 20 -16.5 32.5q-16.5 12.5 -36.5 12.5q-4 0 -8 0q-4 0 -7 -1l0 28q42 -2 73 -4q31 -2 45 -2q18 0 47 3q29 3 50 3l0 -28q-14 -1 -29 -6q-15 -5 -28 -17q-8 -7 -19.5 -29q-11.5 -22 -23 -46.5q-11.5 -24.5 -20.5 -46q-9 -21.5 -12 -28.5l-113 -274q-21 -51 -41.5 -103q-20.5 -52 -37.5 -110l-32 -6q-16 47 -36.5 98q-20.5 51 -41 101q-20.5 50 -37 96q-16.5 46 -24.5 84l-4 0q-7 -19 -19.5 -57.5q-12.5 -38.5 -30.5 -88.5q-18 -50 -40 -108.5q-22 -58.5 -48 -117.5l-27 -7q-11 37 -34.5 102.5q-23.5 65.5 -55.5 147.5l-100 254q-7 17 -15.5 38q-8.5 21 -18 41.5q-9.5 20.5 -19 38q-9.5 17.5 -18.5 27.5q-8 8 -18.5 13q-10.5 5 -25.5 4z" />
<glyph unicode="&#88;" horiz-adv-x="587" d="M30 679h28q18 0 35.5 -3.5q17.5 -3.5 37.5 -3.5q21 0 39 3.5q18 3.5 50 3.5h29v-28h-20q-10 0 -16 -8.5q-6 -8.5 -6 -18.5q0 -12 4.5 -26q4.5 -14 11.5 -29.5q7 -15.5 15.5 -31q8.5 -15.5 15.5 -28.5l55 -104l59 112q3 6 9.5 19q6.5 13 13 28.5q6.5 15.5 11.5 30.5q5 15 5 26q0 18 -13.5 24q-13.5 6 -27.5 6h-16v28h17q24 0 39.5 -3.5q15.5 -3.5 41.5 -3.5h18q22 0 36 3.5q14 3.5 38 3.5h26v-28h-16q-20 0 -38 -10.5q-18 -10.5 -32 -23.5q-18 -17 -32 -38.5q-14 -21.5 -29 -46.5l-90 -153q39 -75 69.5 -134.5q30.5 -59.5 46.5 -88.5q7 -13 15 -28q8 -15 17 -30q9 -15 18.5 -28q9.5 -13 19.5 -23q8 -8 18.5 -13.5q10.5 -5.5 22.5 -5.5h21v-28h-34q-19 0 -38 3.5q-19 3.5 -42 3.5q-19 0 -37 -3.5q-18 -3.5 -41 -3.5h-35v28h24q13 0 21.5 6.5q8.5 6.5 8.5 21.5q0 10 -5 25q-5 15 -12.5 31.5q-7.5 16.5 -16 32.5q-8.5 16 -15.5 29l-70 139l-59 -113q-14 -26 -24.5 -44.5q-10.5 -18.5 -17.5 -33q-7 -14.5 -11 -27.5q-4 -13 -4 -28q0 -21 12 -30q12 -9 32 -9h23v-28h-34q-19 0 -38 3.5q-19 3.5 -42 3.5q-17 0 -27 -1q-10 -1 -17 -2.5q-7 -1.5 -13 -2.5q-6 -1 -15 -1h-40v28h26q14 0 27 7.5q13 7.5 21 15.5q7 7 17 20.5q10 13.5 20.5 30q10.5 16.5 21 34.5q10.5 18 19.5 34l101 177l-95 178q-16 29 -31.5 55.5q-15.5 26.5 -32.5 43.5q-13 13 -26.5 20q-13.5 7 -33.5 7l-14 0z" />
<glyph unicode="&#89;" horiz-adv-x="668" d="M8 679h20q17 0 37.5 -3.5q20.5 -3.5 43.5 -3.5q24 0 49 3.5q25 3.5 45 3.5h33v-28h-22q-13 0 -21 -8q-8 -8 -8 -24q0 -14 7.5 -30q7.5 -16 19.5 -35.5q12 -19.5 26.5 -41.5q14.5 -22 28.5 -47q23 -41 43 -76.5q20 -35.5 29 -71.5l8 0q4 11 8.5 23.5q4.5 12.5 13.5 30.5q9 18 23.5 43q14.5 25 37.5 63q21 35 35 59.5q14 24.5 22.5 41q8.5 16.5 11.5 25.5q3 9 3 13q0 14 -11 24.5q-11 10.5 -26 10.5h-17v28h23q20 0 41 -3.5q21 -3.5 46 -3.5q12 0 20 1q8 1 14.5 2.5q6.5 1.5 15 2.5q8.5 1 22.5 1h30v-28h-24q-17 0 -31.5 -8.5q-14.5 -8.5 -27.5 -19.5q-25 -23 -113 -160q-35 -54 -54 -93q-19 -39 -27 -64q-4 -14 -7.5 -37q-3.5 -23 -3.5 -61v-102q0 -33 13.5 -55.5q13.5 -22.5 41.5 -22.5h36v-28l-54 1q-5 0 -27.5 2.5q-22.5 2.5 -46.5 2.5q-29 0 -42.5 -2q-13.5 -2 -33.5 -3l-44 -1v28h27q27 0 41 21q14 21 14 50v109q0 13 -3 39q-3 26 -14 60q-12 36 -35 77q-23 41 -62 102q-21 32 -35.5 54.5q-14.5 22.5 -25 38q-10.5 15.5 -19 25.5q-8.5 10 -15.5 18q-8 8 -23 18.5q-15 10.5 -35 10.5l-22 0z" />
<glyph unicode="&#90;" horiz-adv-x="674" d="M615 647q-68 -76 -129 -159q-61 -83 -130 -175q-50 -68 -102.5 -134.5q-52.5 -66.5 -113.5 -130.5q8 1 21.5 1.5q13.5 0.5 27.5 0.5q32 0 69.5 -1.5q37.5 -1.5 74 -3.5q36.5 -2 67.5 -3.5q31 -1.5 51 -1.5q33 0 60.5 5.5q27.5 5.5 50 20q22.5 14.5 41 39q18.5 24.5 32.5 62.5l33 0q-3 -15 -9 -39.5q-6 -24.5 -15 -49q-9 -24.5 -21 -45.5q-12 -21 -28 -30q-10 -5 -27.5 -7q-17.5 -2 -54.5 -2q-81 0 -168 7q-87 7 -179 7q-35 0 -69 -1.5q-34 -1.5 -69 -6.5l0 30q68 77 131 156.5q63 79.5 131 170.5q53 71 109 145q56 74 116 134q-38 -1 -70 -1.5q-32 -0.5 -65 -1.5q-33 -1 -70 -2q-37 -1 -85 -2q-23 -1 -47.5 -3q-24.5 -2 -47 -11.5q-22.5 -9.5 -41 -29.5q-18.5 -20 -27.5 -56l-34 0q11 37 21 79q10 42 15 71q69 -8 145 -10q76 -2 151 -2q45 0 79 1q34 1 63 2.5q29 1.5 56 4q27 2.5 57 4.5z" />
<glyph unicode="&#91;" horiz-adv-x="300" d="M280 -174h-170v893h170v-34h-110v-825l110 0z" />
<glyph unicode="&#92;" horiz-adv-x="540" d="M510 -174h-40l-430 893l40 0z" />
<glyph unicode="&#93;" horiz-adv-x="300" d="M130 -140v825h-110v34h170v-893h-170l0 34z" />
<glyph unicode="&#94;" horiz-adv-x="440" d="M119 514h-64l165 165l165 -165h-64l-101 101z" />
<glyph unicode="&#95;" horiz-adv-x="500" d="M0 -148h500v-48l-500 0z" />
<glyph unicode="&#96;" horiz-adv-x="333" d="M249 503q-6 31 -21.5 55.5q-15.5 24.5 -38 43.5q-22.5 19 -50 32q-27.5 13 -56.5 21q33 24 58 49q45 -38 77.5 -85q32.5 -47 57.5 -101z" />
<glyph unicode="&#97;" horiz-adv-x="454" d="M290 189q-17 -1 -41 -3.5q-24 -2.5 -41 -5.5q-14 -3 -32.5 -8.5q-18.5 -5.5 -34.5 -16q-16 -10.5 -27 -27.5q-11 -17 -11 -43q0 -29 21.5 -47q21.5 -18 50.5 -18q31 0 55 17.5q24 17.5 37 43.5q12 24 17.5 52q5.5 28 5.5 56zt0 0zM448 56q-8 -7 -19.5 -16q-11.5 -9 -25.5 -19q-17 -12 -33 -21.5q-16 -9.5 -30 -9.5q-13 0 -22.5 7.5q-9.5 7.5 -16 19q-6.5 11.5 -11 25q-4.5 13.5 -7.5 24.5q-23 -38 -65.5 -57q-42.5 -19 -91.5 -19q-39 0 -69.5 22q-30.5 22 -30.5 65q0 26 13.5 45q13.5 19 33.5 33q20 14 44.5 23.5q24.5 9.5 47.5 15.5q24 7 60 12.5q36 5.5 66 8.5l0 36q0 12 -0.5 28.5q-0.5 16.5 -2.5 33.5q-2 17 -6 33q-4 16 -10 27q-11 17 -26.5 26q-15.5 9 -41.5 9q-12 0 -26 -2.5q-14 -2.5 -25 -9q-11 -6.5 -18.5 -17q-7.5 -10.5 -7.5 -26.5q0 -15 9 -27l-83 -50q-4 8 -6.5 16.5q-2.5 8.5 -2.5 18.5q0 26 16.5 47q16.5 21 43.5 36q15 8 33.5 16q18.5 8 39 14q20.5 6 40.5 10q20 4 37 4q20 0 39.5 -4.5q19.5 -4.5 35 -17.5q15.5 -13 25 -36.5q9.5 -23.5 9.5 -60.5q0 -46 -3.5 -92q-3.5 -46 -5.5 -96q-1 -11 -1 -21q0 -10 0 -21q0 -6 0.5 -15.5q0.5 -9.5 3 -18q2.5 -8.5 8 -14.5q5.5 -6 15.5 -6q6 0 15.5 6q9.5 6 19 14.5q9.5 8.5 18.5 18q9 9.5 15 16.5z" />
<glyph unicode="&#98;" horiz-adv-x="522" d="M-8 737q24 1 63 6q39 5 104 20q-2 -78 -6.5 -164.5q-4.5 -86.5 -4.5 -180.5v-59q4 3 22.5 15.5q18.5 12.5 43.5 27q25 14.5 53.5 25.5q28.5 11 54.5 11q31 0 59.5 -14q28.5 -14 51 -39.5q22.5 -25.5 36 -61q13.5 -35.5 13.5 -77.5q0 -45 -12.5 -87q-12.5 -42 -51.5 -84q-35 -36 -85.5 -60.5q-50.5 -24.5 -100.5 -24.5q-42 0 -83.5 19.5q-41.5 19.5 -73.5 50.5q6 75 8.5 143.5q2.5 68.5 2.5 141.5v139q0 37 -0.5 71.5q-0.5 34.5 -2 62.5q-1.5 28 -5 47.5q-3.5 19.5 -9.5 27.5q-15 18 -50 18h-27zM148 199q0 -49 3.5 -78.5q3.5 -29.5 14.5 -47.5q14 -23 43 -38q29 -15 60 -15q24 0 48 11.5q24 11.5 45 32.5q23 23 36 62q13 39 13 85q0 34 -10.5 67q-10.5 33 -29.5 58q-19 25 -45 40.5q-26 15.5 -57 15.5q-26 0 -61 -20q-35 -20 -60 -55z" />
<glyph unicode="&#99;" horiz-adv-x="439" d="M429 74q-17 -8 -40.5 -20.5q-23.5 -12.5 -43.5 -24.5q-26 -17 -48.5 -28q-22.5 -11 -59.5 -11q-47 0 -84 19q-37 19 -63.5 49.5q-26.5 30.5 -40.5 68.5q-14 38 -14 77q0 42 15.5 84q15.5 42 45.5 75q30 33 74.5 54q44.5 21 101.5 21q39 0 70 -14q31 -14 49 -46q-36 -20 -73 -54q-4 16 -12 31q-8 15 -19.5 27q-11.5 12 -26.5 19q-15 7 -34 7q-19 0 -40.5 -8q-21.5 -8 -40 -26q-18.5 -18 -30.5 -47.5q-12 -29.5 -12 -72.5q0 -38 11 -75q11 -37 33.5 -66.5q22.5 -29.5 56.5 -48q34 -18.5 81 -18.5q26 0 47 6q21 6 38.5 15.5q17.5 9.5 32 21.5q14.5 12 26.5 23z" />
<glyph unicode="&#100;" horiz-adv-x="547" d="M379 621q0 20 -2.5 41q-2.5 21 -14.5 35q-10 12 -24 14q-14 2 -31 2h-35v26q45 1 89.5 9.5q44.5 8.5 92.5 19.5q-8 -82 -10.5 -165q-2.5 -83 -2.5 -173v-271q0 -11 1 -33q1 -22 3 -40q2 -12 10 -23.5q8 -11.5 20 -11.5q7 0 16 6.5q9 6.5 18.5 15.5q9.5 9 18 19q8.5 10 13.5 18l0 -42q-12 -11 -25.5 -22.5q-13.5 -11.5 -24.5 -22.5q-9 -8 -24 -21q-15 -13 -32 -13q-13 0 -22.5 9q-9.5 9 -16.5 21q-7 12 -11 24.5q-4 12.5 -6 20.5q-29 -32 -67 -53q-38 -21 -84 -21q-42 0 -77.5 17q-35.5 17 -61 45.5q-25.5 28.5 -40 66.5q-14.5 38 -14.5 81q0 52 18.5 96q18.5 44 51 75.5q32.5 31.5 76.5 49q44 17.5 95 17.5q24 0 52 -6q28 -6 51 -16zM379 350q-8 33 -38.5 48.5q-30.5 15.5 -67.5 15.5q-35 0 -65.5 -12.5q-30.5 -12.5 -54 -35q-23.5 -22.5 -37 -54q-13.5 -31.5 -13.5 -69.5q0 -41 11.5 -77.5q11.5 -36.5 32.5 -64q21 -27.5 51.5 -43.5q30.5 -16 68.5 -16q29 0 58 14q29 14 54 37z" />
<glyph unicode="&#101;" horiz-adv-x="467" d="M437 77q-24 -12 -38 -20q-14 -8 -35 -19q-23 -12 -39 -21q-16 -9 -30.5 -15q-14.5 -6 -29 -9q-14.5 -3 -33.5 -3q-43 0 -79 18q-36 18 -62.5 48.5q-26.5 30.5 -41 70.5q-14.5 40 -14.5 84q0 48 17 89.5q17 41.5 47.5 72q30.5 30.5 72 48q41.5 17.5 89.5 17.5q77 0 121.5 -44q44.5 -44 54.5 -127q-36 -3 -76.5 -4.5q-40.5 -1.5 -75.5 -1.5q-36 0 -81 1.5q-45 1.5 -93 6.5q-3 -44 8.5 -84q11.5 -40 34.5 -70.5q23 -30.5 57 -48.5q34 -18 76 -18q41 0 81 18q40 18 69 47zM112 293q38 -1 64.5 -1.5q26.5 -0.5 44.5 -0.5q18 0 29.5 0q11.5 0 20.5 0q18 0 40.5 0.5q22.5 0.5 38.5 1.5q-2 23 -10 45q-8 22 -22 39.5q-14 17.5 -34 28q-20 10.5 -46 10.5q-54 0 -86 -35.5t-40 -87.5z" />
<glyph unicode="&#102;" horiz-adv-x="325" d="M36 419q18 -4 36 -6.5q18 -2.5 37 -3.5q-3 37 -5.5 63q-2.5 26 -3.5 43.5q-1 17.5 -1.5 28.5q-0.5 11 -0.5 20q0 18 1.5 29.5q1.5 11.5 6.5 21.5q5 10 14 19q9 9 23 21l50 42q15 12 32.5 23.5q17.5 11.5 36 20q18.5 8.5 36 13.5q17.5 5 31.5 5q51 0 81 -47q-41 -39 -69 -84l-9 3v16q0 66 -55 66q-32 0 -55.5 -22.5q-23.5 -22.5 -37.5 -61.5q-11 -32 -13.5 -59.5q-2.5 -27.5 -2.5 -59.5q0 -24 0.5 -51q0.5 -27 2.5 -50q54 1 92.5 6.5q38.5 5.5 66.5 11.5l-21 -40q-23 -3 -56 -5q-33 -2 -82 -3q1 -69 2.5 -140q1.5 -71 5.5 -144q1 -22 3.5 -34.5q2.5 -12.5 11.5 -20.5q6 -5 15.5 -8.5q9.5 -3.5 19 -5q9.5 -1.5 17.5 -1.5q8 0 13 1l0 -26h-33q-9 0 -15.5 1q-6.5 1 -15.5 1.5q-9 0.5 -21.5 1.5q-12.5 1 -33.5 1q-20 0 -31.5 -1q-11.5 -1 -19.5 -1.5q-8 -0.5 -14.5 -1.5q-6.5 -1 -16.5 -1h-32v26q14 -2 33 1.5q19 3.5 30 13.5q5 5 9 14q4 9 6.5 25q2.5 16 4 40q1.5 24 1.5 60v124q0 18 -0.5 36.5q-0.5 18.5 -1.5 38.5q-23 0 -44.5 1.5q-21.5 1.5 -41.5 3.5z" />
<glyph unicode="&#103;" horiz-adv-x="466" d="M452 363q-10 8 -19.5 13.5q-9.5 5.5 -21.5 5.5q-17 0 -28 -8.5q-11 -8.5 -22 -22.5q5 -17 5 -34q0 -29 -9 -50q-9 -21 -25 -38q-16 -17 -37 -31.5q-21 -14.5 -45 -30.5l-48 -32q-17 -11 -27 -22q-10 -11 -10 -23q0 -4 2 -9.5q2 -5.5 10 -12.5q8 -7 22 -9.5q14 -2.5 46 -4.5l46 -2q9 0 26 -1q17 -1 36.5 -4q19.5 -3 38.5 -10.5q19 -7.5 31 -21.5q24 -26 24 -61q0 -44 -22.5 -79.5q-22.5 -35.5 -57.5 -64.5q-45 -37 -92 -48.5q-47 -11.5 -94 -11.5q-25 0 -52.5 5q-27.5 5 -51 17q-23.5 12 -38.5 32q-15 20 -15 50q0 25 9.5 46q9.5 21 25.5 38q16 17 36 31q20 14 40 26l19 -11q-33 -25 -42.5 -50q-9.5 -25 -9.5 -44q0 -27 12 -47.5q12 -20.5 31.5 -34q19.5 -13.5 44 -20q24.5 -6.5 49.5 -6.5q26 0 55.5 9q29.5 9 51.5 29q16 14 27.5 34.5q11.5 20.5 11.5 51.5q0 14 -4.5 29q-4.5 15 -14.5 26q-12 13 -29 19.5q-17 6.5 -35 10q-18 3.5 -35 4q-17 0.5 -29 1.5l-28 2q-37 2 -58.5 8q-21.5 6 -35.5 17q-25 19 -27 54q28 24 60 46.5q32 22.5 64 42.5l-1 6q-18 -3 -42 -3q-57 0 -91 30q-34 30 -34 86q0 35 16.5 63.5q16.5 28.5 43 48.5q26.5 20 59.5 30.5q33 10.5 66 10.5q35 0 68.5 -14.5q33.5 -14.5 52.5 -50.5q5 9 12 19.5q7 10.5 16 20q9 9.5 19.5 16q10.5 6.5 23.5 5.5q4 0 12 -1.5q8 -1.5 18 -7.5zM122 318q0 -58 26.5 -96q26.5 -38 70.5 -38q8 0 21 3.5q13 3.5 25 14q12 10.5 21 30q9 19.5 9 52.5q0 21 -4 44.5q-4 23.5 -14 44q-10 20.5 -28 33.5q-18 13 -45 13q-34 0 -58 -26.5t-24 -74.5z" />
<glyph unicode="&#104;" horiz-adv-x="560" d="M4 740q61 3 104.5 12q43.5 9 71.5 17q-5 -39 -8.5 -92.5q-3.5 -53.5 -5 -106.5q-1.5 -53 -2 -98.5q-0.5 -45.5 -0.5 -67.5v-63q6 4 28 19.5q22 15.5 52 32.5q30 17 63.5 31q33.5 14 62.5 14q25 0 40.5 -9q15.5 -9 23.5 -17q14 -14 20.5 -34q6.5 -20 9 -40.5q2.5 -20.5 2.5 -40.5q0 -20 0 -34v-126q0 -16 1 -31.5q1 -15.5 4 -29.5q3 -16 14 -33q11 -17 31 -17h26v-26h-36q-16 0 -32 2.5q-16 2.5 -36 2.5q-25 0 -39.5 -2.5q-14.5 -2.5 -36.5 -2.5h-38v26h26q24 0 35.5 19q11.5 19 13.5 42q2 15 3.5 42.5q1.5 27.5 1.5 45.5v52q0 11 -0.5 27q-0.5 16 -2 33q-1.5 17 -5.5 33.5q-4 16.5 -11 29.5q-10 18 -26 28q-16 10 -40 10q-21 0 -42 -8q-21 -8 -41 -19q-20 -11 -38.5 -24.5q-18.5 -13.5 -33.5 -23.5l0 -48q0 -20 0.5 -43.5q0.5 -23.5 1.5 -46.5q1 -23 2 -44.5q1 -21.5 3 -36.5q3 -28 12.5 -47.5q9.5 -19.5 42.5 -19.5h24v-27h-29q-9 0 -16.5 1q-7.5 1 -17 1.5q-9.5 0.5 -22 1.5q-12.5 1 -31.5 1q-20 0 -31 -1q-11 -1 -19 -1.5q-8 -0.5 -15.5 -1.5q-7.5 -1 -19.5 -1h-33v27h30q26 0 36.5 18.5q10.5 18.5 13.5 47.5q1 14 2.5 32.5q1.5 18.5 2 46.5q0.5 28 1 68q0.5 40 0.5 97v135q0 11 0 29q0 18 -0.5 37.5q-0.5 19.5 -1 37.5q-0.5 18 -0.5 28q-1 24 -1.5 39q-0.5 15 -2 25q-1.5 10 -3.5 16q-2 6 -6 11q-11 14 -26.5 16.5q-15.5 2.5 -31.5 2.5l-25 0z" />
<glyph unicode="&#105;" horiz-adv-x="280" d="M14 402q43 1 88 9.5q45 8.5 88 26.5q-2 -21 -3.5 -42q-1.5 -21 -3.5 -47q-3 -53 -3 -112v-47q0 -13 0.5 -30q0.5 -17 1 -33.5q0.5 -16.5 1.5 -29.5q1 -13 2 -18q2 -11 6 -22.5q4 -11.5 12 -18.5q2 -2 9.5 -7q7.5 -5 20.5 -5h25v-26h-43q-8 0 -13.5 1q-5.5 1 -12 1.5q-6.5 0.5 -16 1.5q-9.5 1 -24.5 1q-15 0 -23.5 -1q-8.5 -1 -14.5 -1.5q-6 -0.5 -11.5 -1.5q-5.5 -1 -13.5 -1h-44v26h24q8 0 15.5 2.5q7.5 2.5 13.5 8.5q5 5 9 13q4 8 7 23q2 11 3.5 27q1.5 16 2 33q0.5 17 1 32.5q0.5 15.5 0.5 24.5v43q0 32 -1.5 53.5q-1.5 21.5 -4 35q-2.5 13.5 -5.5 21q-3 7.5 -5 10.5q-12 18 -27 20.5q-15 2.5 -29 2.5h-32zM103 606q0 22 14 37.5q14 15.5 34 15.5q20 0 34 -15.5q14 -15.5 14 -37.5q0 -22 -14 -37.5q-14 -15.5 -34 -15.5q-20 0 -34 15.5t-14 37.5z" />
<glyph unicode="&#106;" horiz-adv-x="244" d="M2 410q45 -1 88.5 7.5q43.5 8.5 88.5 20.5q-5 -46 -8 -106.5q-3 -60.5 -3 -123.5v-210q0 -38 -12 -74q-5 -15 -13.5 -33q-8.5 -18 -19 -36q-10.5 -18 -23 -35q-12.5 -17 -24.5 -30q-17 -18 -36.5 -29q-19.5 -11 -42.5 -11q-20 0 -35 6.5q-15 6.5 -18 8.5q17 19 26 36q9 17 14 28q13 -14 26.5 -18q13.5 -4 24.5 -4q38 0 57 32q9 15 11.5 40q2.5 25 2.5 58v319q0 10 0 25.5q0 15.5 -1 31q-1 15.5 -3.5 29.5q-2.5 14 -7.5 20q-11 14 -27 16.5q-16 2.5 -27 2.5h-38zM88 606q0 22 14 37.5q14 15.5 34 15.5q20 0 34 -15.5q14 -15.5 14 -37.5q0 -22 -14 -37.5q-14 -15.5 -34 -15.5q-20 0 -34 15.5t-14 37.5z" />
<glyph unicode="&#107;" horiz-adv-x="520" d="M4 740q28 1 73 7q45 6 108 23q-7 -54 -10 -110.5q-3 -56.5 -3 -125.5v-360q0 -38 1 -60q1 -22 3 -34q1 -6 4 -15q3 -9 9 -17.5q6 -8.5 15.5 -15q9.5 -6.5 24.5 -6.5h25v-26h-33q-9 0 -15.5 1q-6.5 1 -15 1.5q-8.5 0.5 -21.5 1.5q-13 1 -35 1q-21 0 -33 -1q-12 -1 -20.5 -1.5q-8.5 -0.5 -15.5 -1.5q-7 -1 -17 -1h-24v26h30q22 0 35 15.5q13 15.5 16 38.5q1 7 2 20q1 13 1.5 27.5q0.5 14.5 1 27.5q0.5 13 0.5 19v399q0 35 -1.5 57.5q-1.5 22.5 -3.5 36q-2 13.5 -5 20q-3 6.5 -6 10.5q-11 13 -23.5 15q-12.5 2 -26.5 2h-40zM516 16q-11 -7 -32 -16.5q-21 -9.5 -41 -9.5q-14 0 -27.5 4.5q-13.5 4.5 -24.5 11.5q-9 6 -20 16.5q-11 10.5 -20.5 22q-9.5 11.5 -18 22q-8.5 10.5 -12.5 16.5l-33 45q-37 51 -89 92q20 18 35.5 32q15.5 14 28 26.5q12.5 12.5 24 24q11.5 11.5 23.5 23.5q29 29 35.5 40q6.5 11 6.5 16q0 8 -9 15.5q-9 7.5 -23 4.5l0 26h18q10 0 20.5 -2.5q10.5 -2.5 36.5 -2.5q24 0 37.5 2.5q13.5 2.5 32.5 2.5h26v-26h-15q-16 0 -30 -4.5q-14 -4.5 -29 -14q-15 -9.5 -32.5 -24.5q-17.5 -15 -39.5 -37q-26 -26 -46.5 -44.5q-20.5 -18.5 -46.5 -40.5q39 -13 65 -37.5q26 -24.5 48 -55.5l25 -36q1 -2 5 -8q4 -6 10 -14.5q6 -8.5 13 -17q7 -8.5 13 -15.5q11 -11 24.5 -19q13.5 -8 26.5 -8q19 0 35 16z" />
<glyph unicode="&#108;" horiz-adv-x="276" d="M224 0q-9 0 -17 1q-8 1 -17 1.5q-9 0.5 -22 1.5q-13 1 -33 1q-18 0 -29.5 -1q-11.5 -1 -19.5 -1.5q-8 -0.5 -15.5 -1.5q-7.5 -1 -19.5 -1h-33v26h30q29 0 39.5 17.5q10.5 17.5 14.5 48.5q1 4 3.5 41q2.5 37 2.5 113v335q0 28 -0.5 46q-0.5 18 -2 30q-1.5 12 -3.5 18.5q-2 6.5 -5 11.5q-8 13 -19.5 20q-11.5 7 -36.5 7h-41v26q46 2 92 9q46 7 95 21q-9 -74 -13 -150.5q-4 -76.5 -4 -165.5v-161q0 -50 0.5 -83.5q0.5 -33.5 1 -56q0.5 -22.5 1.5 -36q1 -13.5 2 -23.5q1 -12 4 -24.5q3 -12.5 9 -22q6 -9.5 17 -15.5q11 -6 28 -6h23l0 -26z" />
<glyph unicode="&#109;" horiz-adv-x="804" d="M207 0q-14 0 -33.5 2.5q-19.5 2.5 -38.5 2.5q-21 0 -35.5 -2.5q-14.5 -2.5 -24.5 -2.5h-42v26h20q14 0 25 8.5q11 8.5 17 21.5q5 11 9 39q4 28 4 90v58q0 32 -1.5 53.5q-1.5 21.5 -4 35q-2.5 13.5 -5.5 21q-3 7.5 -5 10.5q-12 18 -27 20.5q-15 2.5 -29 2.5h-22v26q42 0 82 7q40 7 83 19q-2 -11 -6.5 -36q-4.5 -25 -6.5 -60q19 14 42.5 30.5q23.5 16.5 48.5 31q25 14.5 50.5 24.5q25.5 10 48.5 10q39 0 59.5 -26.5q20.5 -26.5 26.5 -69.5q17 13 39.5 29.5q22.5 16.5 47 31.5q24.5 15 51 25q26.5 10 51.5 10q17 0 28 -5q11 -5 22 -16q19 -19 24 -41q5 -22 5 -46q0 -12 -0.5 -21.5q-0.5 -9.5 -0.5 -22q0 -12.5 -0.5 -29.5q-0.5 -17 -0.5 -44v-87q0 -28 2 -49.5q2 -21.5 17 -36.5q14 -14 31 -14h24v-26h-38q-3 0 -13 1q-10 1 -21.5 2q-11.5 1 -21 1.5q-9.5 0.5 -12.5 0.5q-14 0 -22 -1q-8 -1 -14.5 -1.5q-6.5 -0.5 -13 -1.5q-6.5 -1 -17.5 -1h-34v26h16q14 0 24 9q20 17 25.5 54q5.5 37 5.5 96v34q0 57 -3.5 90q-3.5 33 -15.5 53q-9 14 -20 20q-11 6 -27 6q-18 0 -37.5 -7.5q-19.5 -7.5 -37.5 -18.5q-18 -11 -34 -23.5q-16 -12.5 -28 -21.5q-2 -26 -2.5 -43q-0.5 -17 -1 -28.5q-0.5 -11.5 -0.5 -18q0 -6.5 0 -10.5v-48q0 -6 0 -18q0 -12 0.5 -25.5q0.5 -13.5 1 -25.5q0.5 -12 0.5 -19q2 -22 13.5 -38.5q11.5 -16.5 35.5 -16.5h18v-26h-36q-15 0 -28 2.5q-13 2.5 -37 2.5q-13 0 -21.5 -1q-8.5 -1 -15 -1.5q-6.5 -0.5 -13 -1.5q-6.5 -1 -15.5 -1h-37v26h17q23 0 35 19q12 19 15 41q4 29 4.5 52.5q0.5 23.5 0.5 46.5v26q0 37 -1 62q-1 25 -3.5 41.5q-2.5 16.5 -5.5 26.5q-3 10 -6 17q-7 14 -18.5 22q-11.5 8 -29.5 8q-16 0 -34 -6.5q-18 -6.5 -37 -17q-19 -10.5 -37.5 -23q-18.5 -12.5 -34.5 -24.5l0 -148q0 -12 0.5 -28.5q0.5 -16.5 1 -32.5q0.5 -16 2 -29.5q1.5 -13.5 3.5 -19.5q7 -21 19 -27q12 -6 24 -6h18l0 -26z" />
<glyph unicode="&#110;" horiz-adv-x="582" d="M38 26h20q23 0 34.5 12.5q11.5 12.5 16.5 32.5q4 17 4.5 34q0.5 17 0.5 31v84q0 40 -1.5 65.5q-1.5 25.5 -3.5 41.5q-2 16 -5 24q-3 8 -6 12q-12 17 -29.5 19.5q-17.5 2.5 -32.5 2.5h-22v26q45 2 86 8.5q41 6.5 85 18.5q-4 -18 -8.5 -42.5q-4.5 -24.5 -6.5 -47.5q17 9 42.5 24q25.5 15 54.5 30q29 15 58.5 25.5q29.5 10.5 54.5 10.5q26 0 49 -12q23 -12 36 -35q11 -20 15 -49q4 -29 4 -63v-141q0 -37 3 -60.5q3 -23.5 17 -37.5q14 -14 31 -14h25v-26h-37q-12 0 -31 2.5q-19 2.5 -33 2.5q-14 0 -23 -1q-9 -1 -17 -1.5q-8 -0.5 -16.5 -1.5q-8.5 -1 -21.5 -1h-39v26h27q22 0 32.5 14.5q10.5 14.5 13.5 34.5q2 12 3.5 25.5q1.5 13.5 2 25.5q0.5 12 1 20.5q0.5 8.5 0.5 10.5v70q0 13 -1 30.5q-1 17.5 -4 35.5q-3 18 -9 35.5q-6 17.5 -16 30.5q-13 16 -28 22q-15 6 -34 6q-41 0 -79 -19q-38 -19 -73 -43q-2 -32 -2 -44.5q0 -12.5 0 -17.5v-114q0 -29 3.5 -59q3.5 -30 21.5 -50q11 -14 32 -14h23v-26h-37q-11 0 -18 1q-7 1 -14 1.5q-7 0.5 -15 1.5q-8 1 -21 1q-13 0 -22 -1q-9 -1 -17 -1.5q-8 -0.5 -16 -1.5q-8 -1 -19 -1l-39 0z" />
<glyph unicode="&#111;" horiz-adv-x="530" d="M35 209q0 48 17.5 90q17.5 42 49 72.5q31.5 30.5 75.5 48.5q44 18 96 18q46 0 86.5 -15.5q40.5 -15.5 70.5 -43q30 -27.5 47.5 -66.5q17.5 -39 17.5 -87q0 -45 -16.5 -87.5q-16.5 -42.5 -47 -75.5q-30.5 -33 -74 -53q-43.5 -20 -98.5 -20q-49 0 -90 16q-41 16 -71 45q-30 29 -46.5 69q-16.5 40 -16.5 89zt0 0zM112 239q0 -36 9.5 -75q9.5 -39 30 -71q20.5 -32 51.5 -52.5q31 -20.5 74 -20.5q33 0 59 12.5q26 12.5 44.5 34.5q18.5 22 28 52q9.5 30 9.5 65q0 33 -9.5 72q-9.5 39 -30 73q-20.5 34 -51 56.5q-30.5 22.5 -72.5 22.5q-31 0 -57 -12q-26 -12 -45 -34.5q-19 -22.5 -30 -53.5t-11 -69z" />
<glyph unicode="&#112;" horiz-adv-x="544" d="M4 415q14 1 37.5 2.5q23.5 1.5 50 5q26.5 3.5 51.5 9.5q25 6 42 15q-11 -47 -15 -93q19 13 39 28q20 15 41.5 27.5q21.5 12.5 45.5 20.5q24 8 51 8q37 0 67 -15q30 -15 51.5 -41q21.5 -26 33 -61q11.5 -35 11.5 -74q0 -59 -23.5 -106q-23.5 -47 -62.5 -81q-39 -34 -90 -52q-51 -18 -107 -18q-4 0 -13 0q-9 0 -34 2l0 -77q0 -42 3 -73.5q3 -31.5 21 -51.5q14 -14 34 -14h41v-26h-65q-9 0 -15.5 1q-6.5 1 -13 1.5q-6.5 0.5 -15 1.5q-8.5 1 -22.5 1q-22 0 -34 -2.5q-12 -2.5 -29 -2.5h-44v26h25q9 0 15.5 3.5q6.5 3.5 10.5 6.5q17 16 21.5 53.5q4.5 37.5 4.5 75.5v320q0 4 0 23q0 19 -1.5 42q-1.5 23 -6.5 44q-5 21 -14 29q-12 11 -24 13.5q-12 2.5 -29 2.5h-39zM180 27q35 -13 75 -13q43 0 76 18.5q33 18.5 55.5 47.5q22.5 29 34.5 64.5q12 35.5 12 69.5q0 31 -7.5 62q-7.5 31 -23.5 56q-16 25 -41 41q-25 16 -61 16q-35 0 -63 -14q-28 -14 -57 -43z" />
<glyph unicode="&#113;" horiz-adv-x="510" d="M267 -224h28q17 0 27.5 8.5q10.5 8.5 18.5 24.5q7 15 10 41q3 26 4 52q1 26 0.5 46.5q-0.5 20.5 -0.5 23.5v89q-15 -12 -31.5 -24.5q-16.5 -12.5 -35 -23q-18.5 -10.5 -39 -17q-20.5 -6.5 -41.5 -6.5q-36 0 -67.5 15q-31.5 15 -55 41.5q-23.5 26.5 -37.5 62.5q-14 36 -14 79q0 60 22.5 106.5q22.5 46.5 61 78.5q38.5 32 88.5 48.5q50 16.5 106 16.5q60 0 116 -27q-2 -7 -4 -39.5q-2 -32.5 -3.5 -73q-1.5 -40.5 -2.5 -79.5q-1 -39 -1 -58v-206q0 -14 0.5 -33q0.5 -19 1 -38.5q0.5 -19.5 2 -36q1.5 -16.5 3.5 -24.5q5 -20 16.5 -33.5q11.5 -13.5 39.5 -13.5h20v-26h-28q-9 0 -16.5 1q-7.5 1 -16.5 1.5q-9 0.5 -21.5 1.5q-12.5 1 -31.5 1q-19 0 -30.5 -1q-11.5 -1 -20 -1.5q-8.5 -0.5 -16.5 -1.5q-8 -1 -20 -1h-32zM355 385q-20 15 -42 22q-22 7 -45 7q-35 0 -66.5 -14.5q-31.5 -14.5 -55.5 -39.5q-24 -25 -38 -59.5q-14 -34.5 -14 -74.5q0 -35 11 -68.5q11 -33.5 31.5 -59q20.5 -25.5 50 -41q29.5 -15.5 67.5 -15.5q30 0 55.5 13q25.5 13 45.5 36z" />
<glyph unicode="&#114;" horiz-adv-x="388" d="M14 411q43 0 85.5 7q42.5 7 84.5 20q-4 -32 -5 -55q-1 -23 -1 -34q13 10 30.5 25q17.5 15 37 29.5q19.5 14.5 38.5 24.5q19 10 35 10q21 0 37.5 -14.5q16.5 -14.5 25.5 -34.5q-23 -26 -35.5 -47q-12.5 -21 -19.5 -38l-6 0v18q0 21 -11.5 38.5q-11.5 17.5 -36.5 17.5q-20 0 -44.5 -15q-24.5 -15 -44.5 -32q0 -7 -1 -29.5q-1 -22.5 -1 -38.5v-105q0 -8 0 -19q0 -11 1 -23q1 -12 2 -24q1 -12 3 -20q3 -14 13.5 -30q10.5 -16 33.5 -16h25v-26h-43q-8 0 -13.5 1q-5.5 1 -12 1.5q-6.5 0.5 -16 1.5q-9.5 1 -24.5 1q-29 0 -41 -3q-12 -3 -22 -2l-44 0v26h24q21 0 31.5 14.5q10.5 14.5 14.5 33.5q5 20 5.5 45.5q0.5 25.5 0.5 48.5v111q0 27 -1 48q-1 21 -11 36q-10 14 -22 18q-12 4 -26 4l-46 0z" />
<glyph unicode="&#115;" horiz-adv-x="356" d="M271 315q-5 40 -26.5 69.5q-21.5 29.5 -63.5 29.5q-29 0 -50 -19q-21 -19 -21 -52q0 -32 18.5 -52q18.5 -20 50.5 -35l27 -13q16 -8 38 -20q22 -12 39 -26q18 -14 29.5 -34.5q11.5 -20.5 11.5 -48.5q0 -31 -15 -55q-15 -24 -41 -41q-24 -16 -54 -22q-30 -6 -65 -6q-54 0 -84 16q-30 16 -47 36q17 14 30.5 29q13.5 15 25.5 30q7 -16 16.5 -31.5q9.5 -15.5 22.5 -28q13 -12.5 29.5 -20q16.5 -7.5 36.5 -7.5q30 0 53.5 20.5q23.5 20.5 23.5 55.5q0 29 -17 52q-11 16 -25 25q-14 9 -31 18l-37 20q-14 8 -34.5 18q-20.5 10 -37.5 28q-11 12 -17 27.5q-6 15.5 -6 38.5q0 34 16 57q16 23 44 38q26 14 58.5 20q32.5 6 55.5 6q34 0 58.5 -13.5q24.5 -13.5 44.5 -39.5q-15 -14 -27.5 -32.5q-12.5 -18.5 -23.5 -37.5z" />
<glyph unicode="&#116;" horiz-adv-x="334" d="M20 427q31 0 52 12.5q21 12.5 35 33.5q14 21 21 49.5q7 28.5 9 60.5l31 0q-6 -38 -9 -77q-3 -39 -7 -79q14 -1 31.5 -2q17.5 -1 28.5 -1q11 0 26.5 1q15.5 1 32 2.5q16.5 1.5 32 3.5q15.5 2 27.5 4l-20 -45q-15 -2 -37 -3q-22 -1 -48 -1q-19 0 -38.5 0.5q-19.5 0.5 -39.5 2.5q0 -4 -1 -13.5q-1 -9.5 -1.5 -21.5q-0.5 -12 -1 -25q-0.5 -13 -0.5 -22v-155q0 -16 4 -33.5q4 -17.5 12.5 -32.5q8.5 -15 22.5 -24.5q14 -9.5 35 -9.5q13 0 38 9.5q25 9.5 51 39.5l0 -34q-17 -11 -33 -22.5q-16 -11.5 -33 -24.5q-14 -11 -29 -20.5q-15 -9.5 -35 -9.5q-27 0 -46 14q-19 14 -31 37q-14 28 -16 51q-2 23 -2 54v184q0 20 -2 33.5q-2 13.5 -11 21.5q-8 7 -16 9.5q-8 2.5 -22 2.5h-34l0 30z" />
<glyph unicode="&#117;" horiz-adv-x="560" d="M14 412q42 1 83 7q41 6 86 19q-6 -32 -11 -69.5q-5 -37.5 -9 -74q-4 -36.5 -6.5 -69q-2.5 -32.5 -2.5 -55.5q0 -24 4.5 -47.5q4.5 -23.5 15.5 -42q11 -18.5 29 -29.5q18 -11 46 -11q18 0 36.5 6q18.5 6 35.5 16q17 10 32 21q15 11 27 22q1 19 2.5 46q1.5 27 3 55.5q1.5 28.5 2.5 55q1 26.5 1 46.5q0 38 -10 58q-10 20 -48 20h-27v26h39q36 0 70 4.5q34 4.5 66 21.5q-14 -69 -21.5 -141q-7.5 -72 -7.5 -150q0 -28 2.5 -52q2.5 -24 13.5 -42q11 -17 23.5 -22q12.5 -5 27.5 -5h23v-26h-25q-20 0 -39 2.5q-19 2.5 -41 2.5q-14 0 -27 -1.5q-13 -1.5 -27 -3.5q6 44 9 85q-50 -45 -99 -70q-49 -25 -89 -25q-50 0 -82 29q-22 20 -28.5 44q-6.5 24 -6.5 57q0 25 2 52.5q2 27.5 4.5 54.5q2.5 27 4.5 52q2 25 2 43q0 29 -10.5 46.5q-10.5 17.5 -49.5 17.5l-24 0z" />
<glyph unicode="&#118;" horiz-adv-x="480" d="M4 428h29q18 0 36.5 -2.5q18.5 -2.5 38.5 -2.5q23 0 40.5 2.5q17.5 2.5 39.5 2.5h19v-26h-21q-14 0 -23 -6.5q-9 -6.5 -9 -23.5q0 -18 6.5 -36.5q6.5 -18.5 20.5 -54.5l26 -67q14 -35 26 -70.5q12 -35.5 20 -73.5l4 0q8 29 16.5 54q8.5 25 16.5 49l36 110q14 43 17 62q3 19 3 23q0 15 -8.5 24.5q-8.5 9.5 -26.5 9.5h-14v26h18q8 0 14.5 -1q6.5 -1 13.5 -1.5q7 -0.5 17 -1.5q10 -1 25 -1q13 0 22.5 1q9.5 1 17.5 1.5q8 0.5 15.5 1.5q7.5 1 17.5 1h18v-26h-14q-12 0 -23 -2q-11 -2 -22 -11q-14 -12 -23.5 -35q-9.5 -23 -26.5 -66l-66 -171q-8 -20 -13.5 -33.5q-5.5 -13.5 -10.5 -26q-5 -12.5 -10 -25.5q-5 -13 -12 -32l-37 -11q-4 16 -10.5 38q-6.5 22 -14 44q-7.5 22 -15 42.5q-7.5 20.5 -13.5 35.5l-44 110q-10 25 -17.5 42.5q-7.5 17.5 -13 29.5q-5.5 12 -10 20q-4.5 8 -8.5 15q-10 15 -23.5 25.5q-13.5 10.5 -36.5 10.5l-8 0z" />
<glyph unicode="&#119;" horiz-adv-x="700" d="M240 90q4 19 8 35.5q4 16.5 9 33q5 16.5 11.5 34q6.5 17.5 14.5 39.5q20 57 36 102q16 45 31 94l20 0q10 -35 23 -73q13 -38 26 -69l27 -66q14 -34 24.5 -67q10.5 -33 18.5 -63l4 0q3 13 5.5 24q2.5 11 6 23q3.5 12 8 25.5q4.5 13.5 10.5 31.5l34 97q6 17 12.5 35q6.5 18 6.5 38q0 8 -2 15.5q-2 7.5 -8 12.5q-8 7 -17.5 8.5q-9.5 1.5 -17.5 1.5h-17v26h31q16 0 31 -2q15 -2 30 -2q16 0 31.5 2q15.5 2 31.5 2h27v-26h-12q-13 0 -22.5 -5.5q-9.5 -5.5 -15.5 -11.5q-8 -7 -16.5 -24q-8.5 -17 -17 -35q-8.5 -18 -14.5 -33q-6 -15 -7 -19l-45 -117q-8 -20 -15 -37q-7 -17 -13.5 -35q-6.5 -18 -14 -39.5q-7.5 -21.5 -16.5 -49.5l-23 -7q-8 24 -20.5 60q-12.5 36 -28.5 78l-34 90q-6 17 -10.5 29q-4.5 12 -8.5 22q-4 10 -7 20.5q-3 10.5 -7 24.5l-4 0q-4 -14 -7.5 -26q-3.5 -12 -7 -23.5q-3.5 -11.5 -8 -24.5q-4.5 -13 -10.5 -29l-29 -81q-6 -17 -12.5 -35.5q-6.5 -18.5 -12 -36.5q-5.5 -18 -10.5 -33q-5 -15 -8 -25l-31 -10q-3 11 -8.5 27q-5.5 16 -11.5 34.5q-6 18.5 -13 38.5q-7 20 -14 39l-55 152q-5 12 -10.5 27.5q-5.5 15.5 -11.5 30q-6 14.5 -13 26.5q-7 12 -14 19q-8 8 -18.5 13.5q-10.5 5.5 -24.5 5.5h-10v26h32q19 0 32.5 -2q13.5 -2 33.5 -2q6 0 17 0.5q11 0.5 22.5 1.5q11.5 1 22.5 1.5q11 0.5 18 0.5h35v-26h-23q-17 0 -32.5 -5q-15.5 -5 -15.5 -27q0 -15 6 -35q6 -20 17 -50l30 -81q6 -18 11 -31.5q5 -13.5 9.5 -26.5q4.5 -13 8.5 -26.5q4 -13.5 8 -29.5z" />
<glyph unicode="&#120;" horiz-adv-x="476" d="M29 428h32q18 0 31 -2.5q13 -2.5 39 -2.5q17 0 36 2.5q19 2.5 36 2.5h21v-26h-15q-8 0 -14 -5q-6 -5 -6 -14q0 -8 4.5 -18q4.5 -10 10.5 -19.5q6 -9.5 12 -18q6 -8.5 9 -14.5l37 -58l42 58q10 14 21 30q11 16 11 36q0 23 -24 23h-13v26h13q16 0 32 -2.5q16 -2.5 36 -2.5q15 0 30 2.5q15 2.5 32 2.5h22v-26h-19q-15 0 -28 -4q-13 -4 -28 -17q-12 -11 -24 -25.5q-12 -14.5 -29 -37.5l-60 -82l55 -85q22 -33 36 -57q14 -24 27.5 -39q13.5 -15 29 -22q15.5 -7 40.5 -7l0 -26h-22q-17 0 -34.5 2.5q-17.5 2.5 -34.5 2.5q-18 0 -36.5 -2.5q-18.5 -2.5 -36.5 -2.5h-24v26h11q26 0 26 24q0 14 -11 35.5q-11 21.5 -34 54.5l-39 57l-47 -60q-24 -31 -33.5 -49.5q-9.5 -18.5 -9.5 -31.5q0 -30 33 -30h19v-26h-29q-8 0 -13.5 1q-5.5 1 -11.5 1.5q-6 0.5 -14.5 1.5q-8.5 1 -22.5 1q-12 0 -20.5 -1q-8.5 -1 -14.5 -1.5q-6 -0.5 -12 -1.5q-6 -1 -13 -1h-28v26h10q14 0 32 9.5q18 9.5 42 35.5q26 27 43.5 51.5q17.5 24.5 34.5 46.5l40 49l-30 44q-3 5 -14.5 21q-11.5 16 -25 35q-13.5 19 -26.5 35q-13 16 -19 21q-12 10 -25.5 19q-13.5 9 -31.5 9l-13 0z" />
<glyph unicode="&#121;" horiz-adv-x="464" d="M4 428q10 1 17.5 0q7.5 -1 18 -2q10.5 -1 26 -2q15.5 -1 39.5 -1q18 0 30 1q12 1 22 2q10 1 19.5 1.5q9.5 0.5 23.5 0.5l0 -26q-17 1 -33 -7.5q-16 -8.5 -16 -29.5q0 -17 2.5 -28q2.5 -11 7.5 -25l64 -198q9 -27 15.5 -55.5q6.5 -28.5 9.5 -58.5l4 0q4 23 9.5 46q5.5 23 12.5 47l46 186q11 42 14 59.5q3 17.5 3 27.5q0 17 -10.5 27q-10.5 10 -28.5 10q-7 0 -11 -1l0 26q7 0 20 -1q13 -1 27 -1.5q14 -0.5 26.5 -1.5q12.5 -1 19.5 -1q23 0 40.5 2.5q17.5 2.5 37.5 2.5l0 -26q-11 0 -24 -3.5q-13 -3.5 -21 -9.5q-10 -8 -19.5 -28.5q-9.5 -20.5 -25.5 -68.5q-19 -57 -34 -105.5q-15 -48.5 -28 -95.5l-48 -178q-8 -27 -15.5 -54.5q-7.5 -27.5 -21.5 -53.5q-11 -18 -22.5 -29q-11.5 -11 -22.5 -16.5q-11 -5.5 -21 -7.5q-10 -2 -16 -2q-20 0 -40.5 10q-20.5 10 -35.5 26q16 26 24 45.5q8 19.5 13 33.5q8 -18 23.5 -34q15.5 -16 38.5 -16q29 0 45.5 20q16.5 20 16.5 52q0 20 -3 40q-3 20 -11 39l-120 343q-11 32 -18.5 48q-7.5 16 -15.5 24q-8 9 -20 15q-12 6 -23 6l-11 0z" />
<glyph unicode="&#122;" horiz-adv-x="428" d="M35 286q8 54 11 86q3 32 5 56q34 -8 70.5 -9.5q36.5 -1.5 87.5 -1.5q47 0 94 3q47 3 99 8l0 -7q-37 -48 -71.5 -97q-34.5 -49 -72.5 -106q-30 -45 -61 -90.5q-31 -45.5 -66 -95.5l1 -4q38 7 66 7q13 0 23 -0.5q10 -0.5 19 -1q9 -0.5 18.5 -1q9.5 -0.5 20.5 -0.5q24 0 42.5 6q18.5 6 34.5 20q12 11 21.5 28q9.5 17 14.5 34l32 0q-2 -10 -6.5 -24.5q-4.5 -14.5 -10 -30q-5.5 -15.5 -12.5 -29q-7 -13.5 -14 -22.5q-9 -10 -21.5 -15q-12.5 -5 -24.5 -7.5q-12 -2.5 -21.5 -2.5q-9.5 0 -12.5 0q-5 0 -19.5 0.5q-14.5 0.5 -54.5 5.5q-18 1 -34 3q-14 2 -27.5 3q-13.5 1 -21.5 1q-25 0 -49.5 -4q-24.5 -4 -50.5 -9l-10 21q21 27 36.5 48.5q15.5 21.5 30 41.5q14.5 20 30 42q15.5 22 35.5 51q15 22 32 47.5q17 25.5 32.5 51q15.5 25.5 29.5 49q14 23.5 25 41.5l-76 0q-33 0 -63.5 -3.5q-30.5 -3.5 -47.5 -17.5q-13 -11 -22 -32q-9 -21 -11 -43z" />
<glyph unicode="&#123;" horiz-adv-x="356" d="M300 742q-37 -8 -57.5 -36q-20.5 -28 -20.5 -71q0 -26 3.5 -53.5q3.5 -27.5 3.5 -62.5q0 -28 -5.5 -64.5q-5.5 -36.5 -23.5 -66.5q-16 -26 -41 -45.5q-25 -19.5 -52 -34.5q16 -8 37 -22q21 -14 35 -30q15 -16 24.5 -35.5q9.5 -19.5 15.5 -39q6 -19.5 8 -38.5q2 -19 2 -34q0 -36 -3.5 -70q-3.5 -34 -3.5 -48q0 -20 3.5 -38.5q3.5 -18.5 12.5 -34.5q9 -16 24 -27.5q15 -11.5 38 -16.5l-5 -34q-70 9 -109.5 53.5q-39.5 44.5 -39.5 121.5q0 7 0.5 21q0.5 14 1 31.5q0.5 17.5 1 36.5q0.5 19 0.5 36q0 24 -3.5 49q-3.5 25 -19.5 52q-13 23 -29 33q-16 10 -41 14l0 40q21 2 39 13q18 11 30 31q17 27 20.5 56q3.5 29 3.5 75q0 18 -1.5 39.5q-1.5 21.5 -1.5 56.5q0 30 7 59.5q7 29.5 24.5 53.5q17.5 24 46 41q28.5 17 71.5 23z" />
<glyph unicode="&#124;" horiz-adv-x="160" d="M56 857h48v-1053l-48 0z" />
<glyph unicode="&#125;" horiz-adv-x="356" d="M61 776q43 -6 71.5 -23q28.5 -17 46 -41q17.5 -24 24.5 -53.5q7 -29.5 7 -59.5q0 -35 -1.5 -56.5q-1.5 -21.5 -1.5 -39.5q0 -46 3.5 -75q3.5 -29 20.5 -56q12 -20 30 -31q18 -11 39 -13l0 -40q-25 -4 -41 -14q-16 -10 -29 -33q-16 -27 -19.5 -52q-3.5 -25 -3.5 -49q0 -17 0.5 -36q0.5 -19 1 -36.5q0.5 -17.5 1 -31.5q0.5 -14 0.5 -21q0 -77 -39.5 -121.5q-39.5 -44.5 -109.5 -53.5l-5 34q23 5 38 16.5q15 11.5 24 27.5q9 16 12.5 34.5q3.5 18.5 3.5 38.5q0 14 -3.5 48q-3.5 34 -3.5 70q0 15 2 34q2 19 8 38.5q6 19.5 15.5 39q9.5 19.5 24.5 35.5q14 16 35 30q21 14 37 22q-27 15 -52 34.5q-25 19.5 -41 45.5q-18 30 -23.5 66.5q-5.5 36.5 -5.5 64.5q0 35 3.5 62.5q3.5 27.5 3.5 53.5q0 43 -20.5 71q-20.5 28 -57.5 36z" />
<glyph unicode="&#126;" horiz-adv-x="448" d="M392 337q-12 -41 -42.5 -68.5q-30.5 -27.5 -74.5 -27.5q-17 0 -35 4.5q-18 4.5 -35.5 9.5q-17.5 5 -33.5 9.5q-16 4.5 -29 4.5q-20 0 -34 -8.5q-14 -8.5 -26 -23.5l-26 0q9 18 20 35q11 17 24.5 30.5q13.5 13.5 31 21.5q17.5 8 40.5 8q10 0 29 -5q19 -5 39.5 -10.5q20.5 -5.5 39.5 -10.5q19 -5 31 -5q19 0 33 8.5q14 8.5 22 27.5z" />
<glyph unicode="&#160;" horiz-adv-x="233" />
<glyph unicode="&#161;" horiz-adv-x="320" d="M171 271v-40q0 -35 1 -66q1 -31 3 -62q2 -31 5.5 -63.5q3.5 -32.5 9.5 -70.5q4 -30 8.5 -53q4.5 -23 8.5 -42q4 -19 6 -36q2 -17 2 -35q0 -26 -14 -46.5q-14 -20.5 -40 -20.5q-28 0 -42 22q-14 22 -14 46q0 30 8.5 69.5q8.5 39.5 16.5 93.5q6 38 9.5 71q3.5 33 6 64.5q2.5 31.5 3 62.5q0.5 31 0.5 66v40zM113 420q0 58 47 58q47 0 47 -58q0 -58 -47 -58q-47 0 -47 58z" />
<glyph unicode="&#162;" horiz-adv-x="532" d="M472 74q-21 -11 -42 -22q-21 -11 -41 -24q-23 -14 -43.5 -25.5q-20.5 -11.5 -49.5 -13.5l0 -97h-39v98q-39 5 -71.5 24q-32.5 19 -56.5 48q-24 29 -37 65.5q-13 36.5 -13 76.5q0 44 14 82q14 38 38.5 68q24.5 30 57 50q32.5 20 68.5 28l0 105h39v-100q35 3 59.5 -3q24.5 -6 40.5 -16q16 -10 25 -21.5q9 -11.5 14 -18.5q-36 -20 -73 -54q-8 25 -23.5 48.5q-15.5 23.5 -42.5 31.5l0 -355q5 -2 15 -3q10 -1 23 -1q9 0 22.5 1.5q13.5 1.5 31.5 8q18 6.5 39 20q21 13.5 45 37.5zM257 407q-59 -11 -84.5 -53.5q-25.5 -42.5 -25.5 -101.5q0 -63 26.5 -114q26.5 -51 83.5 -78z" />
<glyph unicode="&#163;" horiz-adv-x="532" d="M234 310q0 -69 -24 -132.5q-24 -63.5 -66 -105.5l3 -1q11 5 26.5 7.5q15.5 2.5 38.5 2.5q36 0 58.5 -6q22.5 -6 39.5 -11q17 -5 36 -12q19 -7 42 -7q21 0 40.5 15.5q19.5 15.5 39.5 34.5l0 -40q-22 -20 -38 -33q-16 -13 -29.5 -21q-13.5 -8 -26 -11.5q-12.5 -3.5 -27.5 -3.5q-24 0 -47 9q-23 9 -47 21q-24 11 -49.5 22.5q-25.5 11.5 -54.5 11.5q-6 0 -12.5 -1q-6.5 -1 -12.5 -3q-15 -14 -32 -29.5q-17 -15.5 -36 -31.5l-17 20q22 20 46 43q24 23 40 47q19 29 30.5 84q11.5 55 11.5 120v15q-23 0 -44.5 1q-21.5 1 -41.5 3l13 35q18 -4 36 -6.5q18 -2.5 36 -3.5q-1 19 -2.5 42q-1.5 23 -3 45q-1.5 22 -3 41q-1.5 19 -1.5 32q0 16 2 27q2 11 7 20.5q5 9.5 13.5 18.5q8.5 9 22.5 21q37 31 60 48.5q23 17.5 41 27.5q37 20 64 23.5q27 3.5 33 3.5q23 0 41 -13q18 -13 34 -34q-19 -19 -35.5 -39.5q-16.5 -20.5 -32.5 -43.5l-9 2v32q0 24 -17 37q-17 13 -40 13q-20 0 -35.5 -9q-15.5 -9 -27.5 -23.5q-12 -14.5 -20.5 -33q-8.5 -18.5 -12.5 -37.5q-10 -43 -10 -118v-83q62 2 100 7.5q38 5.5 59 10.5l-20 -39q-15 -3 -28.5 -4.5q-13.5 -1.5 -28.5 -2q-15 -0.5 -34.5 -1q-19.5 -0.5 -47.5 -0.5z" />
<glyph unicode="&#164;" horiz-adv-x="532" d="M12 562l32 32l80 -80q22 17 44 27q22 10 41 15q19 5 33.5 6.5q14.5 1.5 23.5 1.5q28 0 66 -10q38 -10 76 -40l80 80l32 -32l-80 -80q32 -41 41 -78.5q9 -37.5 9 -63.5q0 -28 -10 -65.5q-10 -37.5 -40 -76.5l80 -80l-32 -32l-80 80q-38 -29 -75.5 -39.5q-37.5 -10.5 -66.5 -10.5q-29 0 -66.5 10.5q-37.5 10.5 -75.5 39.5l-80 -80l-32 32l80 80q-28 35 -39 72.5q-11 37.5 -11 69.5q0 34 12 71q12 37 38 71zM92 340q0 -37 13.5 -69.5q13.5 -32.5 37.5 -57q24 -24.5 55.5 -38.5q31.5 -14 67.5 -14q36 0 67.5 14q31.5 14 55.5 38.5q24 24.5 37.5 57q13.5 32.5 13.5 69.5q0 37 -13.5 69.5q-13.5 32.5 -37.5 57q-24 24.5 -55.5 38.5q-31.5 14 -67.5 14q-36 0 -67.5 -14q-31.5 -14 -55.5 -38.5q-24 -24.5 -37.5 -57t-13.5 -69.5z" />
<glyph unicode="&#165;" horiz-adv-x="532" d="M-20 679h27q17 0 31.5 -3.5q14.5 -3.5 41.5 -3.5q16 0 28 1q12 1 22 2.5q10 1.5 19.5 2.5q9.5 1 21.5 1h37v-28h-22q-17 0 -29 -8q-12 -8 -12 -26q0 -10 7.5 -24q7.5 -14 23.5 -50q7 -15 13 -28q6 -13 12.5 -25.5q6.5 -12.5 13 -26q6.5 -13.5 14.5 -30.5q15 -32 24.5 -59q9.5 -27 17.5 -57l8 0q3 12 6.5 23q3.5 11 9 23.5q5.5 12.5 12.5 27.5q7 15 17 36l65 132q14 28 19 38q5 10 5 17q0 17 -13 27q-13 10 -30 10h-30v28h23q20 0 41 -3.5q21 -3.5 44 -3.5q20 0 37 3.5q17 3.5 37 3.5h30v-28h-22q-17 0 -30.5 -10q-13.5 -10 -25.5 -24q-12 -14 -21.5 -30.5q-9.5 -16.5 -17.5 -29.5q-16 -26 -31 -53q-15 -27 -30 -57q-8 -17 -19 -39q-11 -22 -20.5 -45q-9.5 -23 -17 -45.5q-7.5 -22.5 -9.5 -38.5q40 2 79 5.5q39 3.5 80 11.5l-10 -43q-70 -4 -152 -6l-1 -39v-25q86 1 168 17l-10 -43q-37 -2 -74.5 -3.5q-37.5 -1.5 -83.5 -2.5l0 -42q0 -35 13.5 -58q13.5 -23 38.5 -23h39v-28l-54 1q-5 0 -13.5 1q-8.5 1 -19 1.5q-10.5 0.5 -21 1.5q-10.5 1 -18.5 1q-20 0 -40 -2.5q-20 -2.5 -37 -2.5l-45 -1v28h29q20 0 36.5 17q16.5 17 16.5 61v47q-26 1 -44.5 2q-18.5 1 -35.5 2q-17 1 -36 2.5q-19 1.5 -46 2.5l0 38q28 -4 48 -6.5q20 -2.5 37.5 -4q17.5 -1.5 35.5 -3q18 -1.5 41 -2.5l0 24l-2 40q-33 2 -54 3.5q-21 1.5 -37.5 2.5q-16.5 1 -33 2q-16.5 1 -40.5 2l0 38q39 -7 78.5 -9.5q39.5 -2.5 81.5 -6.5q-7 29 -15.5 52q-8.5 23 -22.5 52q-9 18 -17 34q-8 16 -18 34.5q-10 18.5 -23 42q-13 23.5 -31 56.5q-9 16 -23.5 40.5q-14.5 24.5 -26.5 37.5q-8 8 -18.5 15q-10.5 7 -24.5 7l-22 0z" />
<glyph unicode="&#166;" horiz-adv-x="160" d="M56 164h48v-360h-48zM56 857h48v-360l-48 0z" />
<glyph unicode="&#167;" horiz-adv-x="442" d="M112 -114q5 -40 29.5 -65.5q24.5 -25.5 63.5 -25.5q10 0 22.5 3q12.5 3 22.5 11q10 8 17 21.5q7 13.5 7 34.5q0 34 -16.5 70.5q-16.5 36.5 -40.5 72q-24 35.5 -50 69q-26 33.5 -45 61.5q-22 33 -39.5 63q-17.5 30 -30 60.5q-12.5 30.5 -19 64q-6.5 33.5 -6.5 72.5q0 48 11 97q11 49 39 94q29 47 72 77.5q43 30.5 100 30.5q36 0 67 -15q31 -15 48 -53q-11 -4 -30.5 -13.5q-19.5 -9.5 -42.5 -31.5q-2 15 -8 30.5q-6 15.5 -16 28q-10 12.5 -23.5 21q-13.5 8.5 -31.5 8.5q-13 0 -25 -6q-12 -6 -21 -15.5q-9 -9.5 -14 -22q-5 -12.5 -5 -25.5q0 -32 24 -70q24 -38 59 -81q31 -39 64 -80q33 -41 59.5 -85.5q26.5 -44.5 43.5 -94q17 -49.5 17 -105.5q0 -37 -7 -74q-7 -37 -21.5 -72q-14.5 -35 -36 -67q-21.5 -32 -50.5 -57q-23 -20 -55 -37.5q-32 -17.5 -77 -17.5q-40 0 -73 17q-33 17 -59 55q14 7 31 17.5q17 10.5 46 34.5zt0 0zM108 601q-23 -32 -33.5 -72.5q-10.5 -40.5 -10.5 -82.5q0 -36 8.5 -70q8.5 -34 23.5 -65.5q15 -31.5 35 -62q20 -30.5 42 -60.5q22 -30 46 -61.5q24 -31.5 43.5 -65.5q19.5 -34 32 -71q12.5 -37 12.5 -79q0 -14 -1.5 -30q-1.5 -16 -4.5 -31l7 -2q18 27 29 54q11 27 16.5 51.5q5.5 24.5 7.5 45q2 20.5 2 35.5q0 45 -8 81.5q-8 36.5 -25 72.5q-17 36 -45 75q-28 39 -67 90q-20 25 -43 55.5q-23 30.5 -39 65.5q-11 25 -15 46q-4 21 -4 47l0 31z" />
<glyph unicode="&#168;" horiz-adv-x="446" d="M78 556q0 22 12 35.5q12 13.5 32 13.5q20 0 32 -13.5q12 -13.5 12 -35.5q0 -22 -12 -35.5q-12 -13.5 -32 -13.5q-20 0 -32 13.5q-12 13.5 -12 35.5zt0 0zM280 556q0 22 12 35.5q12 13.5 32 13.5q20 0 32 -13.5q12 -13.5 12 -35.5q0 -22 -12 -35.5q-12 -13.5 -32 -13.5q-20 0 -32 13.5t-12 35.5z" />
<glyph unicode="&#169;" horiz-adv-x="800" d="M42 341q0 74 28 139q28 65 76.5 113.5q48.5 48.5 114 76.5q65.5 28 139.5 28q74 0 139.5 -28q65.5 -28 114 -76.5q48.5 -48.5 76.5 -113.5q28 -65 28 -139q0 -74 -28 -139.5q-28 -65.5 -76.5 -114.5q-48.5 -49 -114 -77q-65.5 -28 -139.5 -28q-74 0 -139.5 28q-65.5 28 -114 77q-48.5 49 -76.5 114.5q-28 65.5 -28 139.5zt0 0zM78 340q0 -67 25.5 -125.5q25.5 -58.5 70 -102q44.5 -43.5 103.5 -69q59 -25.5 125 -25.5q66 0 124.5 25.5q58.5 25.5 102 69q43.5 43.5 68.5 102q25 58.5 25 125.5q0 67 -25 125.5q-25 58.5 -68.5 102q-43.5 43.5 -102 69q-58.5 25.5 -124.5 25.5q-66 0 -125 -25.5q-59 -25.5 -103.5 -69q-44.5 -43.5 -70 -102q-25.5 -58.5 -25.5 -125.5zt0 0zM528 439q-2 51 -33 71.5q-31 20.5 -76 20.5q-35 0 -67 -11.5q-32 -11.5 -56.5 -33.5q-24.5 -22 -39.5 -55.5q-15 -33.5 -15 -76.5q0 -79 42 -131q26 -32 61 -50q35 -18 78 -18q15 0 31 3q16 3 32.5 11.5q16.5 8.5 32 22.5q15.5 14 27.5 37l20 -1q-6 -14 -11 -25q-5 -10 -10.5 -20q-5.5 -10 -11.5 -15q-3 -2 -11 -8q-8 -6 -22.5 -12q-14.5 -6 -35 -10.5q-20.5 -4.5 -47.5 -4.5q-53 0 -95.5 18.5q-42.5 18.5 -72.5 48.5q-26 26 -42.5 62q-16.5 36 -16.5 82q0 44 16 82q16 38 45 66.5q29 28.5 69 44.5q40 16 88 16q14 0 31 -1.5q17 -1.5 33.5 -4q16.5 -2.5 32 -4q15.5 -1.5 27.5 -1.5q6 0 10 0q4 0 9 2q-1 -9 -2 -17.5q-1 -8.5 -1.5 -20q-0.5 -11.5 -1 -27.5q-0.5 -16 -0.5 -40z" />
<glyph unicode="&#170;" horiz-adv-x="344" d="M343 435q-11 -8 -21 -16q-10 -8 -21 -16q-10 -7 -19.5 -12.5q-9.5 -5.5 -20.5 -5.5q-20 0 -27.5 15q-7.5 15 -14.5 37q-22 -22 -52 -37q-30 -15 -66 -15q-40 0 -57.5 20q-17.5 20 -17.5 45q0 18 8 31.5q8 13.5 21.5 23.5q13.5 10 31 17.5q17.5 7.5 36.5 13.5q24 7 50.5 11.5q26.5 4.5 51.5 6.5l0 22q0 12 -0.5 26q-0.5 14 -2.5 28.5q-2 14.5 -6 27q-4 12.5 -12 21.5q-11 13 -19 16q-8 3 -23 3q-13 0 -25.5 -2q-12.5 -2 -23.5 -13q-5 -5 -8 -11.5q-3 -6.5 -3 -14.5q0 -12 7 -20l-63 -37q-6 13 -6 24q0 25 16 42q16 17 41 28q4 2 14.5 6.5q10.5 4.5 24.5 9q14 4.5 29.5 8q15.5 3.5 29.5 3.5q17 0 35 -5q18 -5 31 -19q11 -11 15.5 -28.5q4.5 -17.5 4.5 -35.5q0 -8 -0.5 -16q-0.5 -8 -1.5 -18.5q-1 -10.5 -2.5 -25q-1.5 -14.5 -2.5 -35.5q-1 -20 -1.5 -32q-0.5 -12 -1 -21q-0.5 -9 -0.5 -17.5q0 -8.5 0 -19.5q0 -12 5.5 -21q5.5 -9 14.5 -9q5 0 13 5.5q8 5.5 16 13q8 7.5 14.5 14q6.5 6.5 8.5 9.5zM222 534q-17 -1 -37.5 -3.5q-20.5 -2.5 -34.5 -5.5q-28 -5 -47 -22.5q-19 -17.5 -19 -45.5q0 -21 15.5 -35.5q15.5 -14.5 37.5 -14.5q14 0 28.5 6q14.5 6 27.5 19q18 18 23 45.5t6 56.5z" />
<glyph unicode="&#171;" horiz-adv-x="464" d="M306 57l-16 -15l-257 213l257 224l16 -15l-155 -209zM430 82l-12 -11l-186 184l186 185l12 -13l-96 -172z" />
<glyph unicode="&#172;" horiz-adv-x="600" d="M516 340v-173h-48v125h-392l0 48z" />
<glyph unicode="&#173;" horiz-adv-x="432" d="M81 266q16 -2 34.5 -3.5q18.5 -1.5 37.5 -2q19 -0.5 36 -1q17 -0.5 31 -0.5q15 0 34 0.5q19 0.5 39 1q20 0.5 40 2q20 1.5 37 3.5q-12 -29 -18 -62q-25 2 -63 3q-38 1 -82 1q-44 0 -80 -1q-36 -1 -65 -3q6 14 11 29.5t8 32.5z" />
<glyph unicode="&#174;" horiz-adv-x="800" d="M394 553q54 0 85 -30q31 -30 31 -83q0 -53 -33 -84.5q-33 -31.5 -92 -42.5l0 -3q12 -1 25 -4q13 -3 24 -9q30 -17 49.5 -41q19.5 -24 41.5 -51q6 -7 13.5 -16q7.5 -9 16 -17q8.5 -8 17 -13.5q8.5 -5.5 16.5 -5.5h13v-19h-12q-11 0 -23 2q-12 2 -23 5q-16 4 -27 11.5q-11 7.5 -21 17.5q-10 10 -19 21.5q-9 11.5 -20 24.5q-20 23 -31.5 36.5q-11.5 13.5 -22.5 25.5q-9 9 -16 15q-7 6 -15.5 9q-8.5 3 -20.5 4.5q-12 1.5 -31 3.5l0 -66q0 -8 0.5 -21.5q0.5 -13.5 0.5 -22.5q0 -20 6.5 -33.5q6.5 -13.5 27.5 -13.5h12v-19h-24q-5 0 -16.5 3q-11.5 3 -25.5 3q-23 0 -30.5 -3q-7.5 -3 -18.5 -3h-24v19h13q26 0 30 31q2 14 3 33.5q1 19.5 1 30.5v190q0 48 -4 65.5q-4 17.5 -8 22.5q-9 11 -22 11h-13v16zM319 325q5 -1 9.5 -1q4.5 0 9.5 0q19 0 41 4q22 4 40 15q23 15 33 36.5q10 21.5 10 55.5q0 54 -31.5 78.5q-31.5 24.5 -78.5 24.5q-18 0 -33 -4zM42 341q0 74 28 139q28 65 76.5 113.5q48.5 48.5 114 76.5q65.5 28 139.5 28q74 0 139.5 -28q65.5 -28 114 -76.5q48.5 -48.5 76.5 -113.5q28 -65 28 -139q0 -74 -28 -139.5q-28 -65.5 -76.5 -114.5q-48.5 -49 -114 -77q-65.5 -28 -139.5 -28q-74 0 -139.5 28q-65.5 28 -114 77q-48.5 49 -76.5 114.5q-28 65.5 -28 139.5zt0 0zM78 340q0 -67 25.5 -125.5q25.5 -58.5 70 -102q44.5 -43.5 103.5 -69q59 -25.5 125 -25.5q66 0 124.5 25.5q58.5 25.5 102 69q43.5 43.5 68.5 102q25 58.5 25 125.5q0 67 -25 125.5q-25 58.5 -68.5 102q-43.5 43.5 -102 69q-58.5 25.5 -124.5 25.5q-66 0 -125 -25.5q-59 -25.5 -103.5 -69q-44.5 -43.5 -70 -102t-25.5 -125.5z" />
<glyph unicode="&#175;" horiz-adv-x="501" d="M411 503q-28 3 -49 5q-21 2 -39 2.5q-18 0.5 -35 1q-17 0.5 -36 0.5q-34 0 -59 -0.5q-25 -0.5 -45.5 -1.5q-20.5 -1 -38.5 -2.5q-18 -1.5 -39 -4.5q6 14 11 26.5q5 12.5 8 24.5q43 -5 85 -7.5q42 -2.5 90 -2.5q7 0 28 0.5q21 0.5 46.5 1.5q25.5 1 51 3q25.5 2 41.5 5q-13 -24 -20 -51z" />
<glyph unicode="&#176;" horiz-adv-x="267" d="M28 594q0 45 30.5 75.5q30.5 30.5 75.5 30.5q45 0 75.5 -30.5q30.5 -30.5 30.5 -75.5q0 -45 -30.5 -75.5q-30.5 -30.5 -75.5 -30.5q-45 0 -75.5 30.5q-30.5 30.5 -30.5 75.5zt0 0zM66 594q0 -29 19.5 -48.5q19.5 -19.5 48.5 -19.5q29 0 48.5 19.5q19.5 19.5 19.5 48.5q0 29 -19.5 48.5q-19.5 19.5 -48.5 19.5q-29 0 -48.5 -19.5t-19.5 -48.5z" />
<glyph unicode="&#177;" horiz-adv-x="600" d="M276 345v180l48 1v-181h226v-48h-226v-160h-48v160h-226v48zM550 88v-48h-500l0 48z" />
<glyph unicode="&#178;" horiz-adv-x="300" d="M274 438q-7 -23 -12.5 -47q-5.5 -24 -10.5 -51q-18 -3 -26 -4q-8 -1 -11 -1q-7 0 -20 1.5q-13 1.5 -29 4q-16 2.5 -34 4q-18 1.5 -35 1.5q-39 0 -76 -9l0 20q21 21 35 36.5q14 15.5 22 25.5q10 12 22.5 28.5q12.5 16.5 25 36.5q12.5 20 24 41q11.5 21 19.5 42q6 15 10.5 34q4.5 19 4.5 39q0 21 -10 39.5q-10 18.5 -36 18.5q-16 0 -29 -7.5q-13 -7.5 -23.5 -18.5q-10.5 -11 -19 -25.5q-8.5 -14.5 -15.5 -27.5q-8 23 -19 42q21 29 52.5 45q31.5 16 71.5 16q40 0 66 -17.5q26 -17.5 26 -58.5q0 -35 -22 -73q-20 -38 -50.5 -75q-30.5 -37 -56.5 -67l-35 -40l1 -1q2 1 15 4.5q13 3.5 29 3.5q13 0 38.5 -3.5q25.5 -3.5 41.5 -3.5q8 0 16 1.5q8 1.5 16 11.5q6 8 12 34z" />
<glyph unicode="&#179;" horiz-adv-x="300" d="M74 542q15 4 33.5 14.5q18.5 10.5 34.5 25q16 14.5 27 33q11 18.5 11 39.5q0 44 -38 44q-16 0 -29.5 -8.5q-13.5 -8.5 -23.5 -20q-10 -11.5 -16 -23.5q-6 -12 -8 -18q-3 11 -7 21q-4 10 -9 19q25 23 50 38.5q25 15.5 62 15.5q27 0 51 -13.5q24 -13.5 24 -44.5q0 -20 -10 -36q-10 -16 -23 -28q-13 -12 -27 -20.5q-14 -8.5 -23 -13.5l2 -4q5 2 11.5 2.5q6.5 0.5 11.5 0.5q13 0 27.5 -4.5q14.5 -4.5 26.5 -14.5q12 -10 20 -26.5q8 -16.5 8 -40.5q0 -31 -13 -57q-13 -26 -34.5 -45.5q-21.5 -19.5 -48.5 -30.5q-27 -11 -54 -11q-11 0 -28.5 2q-17.5 2 -37.5 10q10 21 15 48q10 -15 25 -25.5q15 -10.5 35 -10.5q13 0 27.5 6q14.5 6 26.5 19q12 13 19.5 33q7.5 20 7.5 48q0 30 -14.5 54q-14.5 24 -44.5 24q-9 0 -26.5 -6.5q-17.5 -6.5 -40.5 -24.5z" />
<glyph unicode="&#180;" horiz-adv-x="324" d="M83 519q59 31 85.5 78q26.5 47 37.5 119q28 -15 61 -26q-11 -21 -27 -46q-16 -25 -36.5 -50q-20.5 -25 -45.5 -48.5q-25 -23.5 -52 -42.5z" />
<glyph unicode="&#181;" horiz-adv-x="546" d="M370 61q-40 -29 -80 -50.5q-40 -21.5 -76 -21.5q-53 0 -86 53l-5 0q1 -34 5 -61q4 -27 9 -49q6 -29 14.5 -56.5q8.5 -27.5 8.5 -59.5q0 -26 -13 -46q-13 -20 -42 -20q-28 0 -41.5 19q-13.5 19 -13.5 47q0 32 9.5 64.5q9.5 32.5 17.5 69.5q6 25 9 46.5q3 21.5 5 45.5q2 24 2.5 55q0.5 31 0.5 75q0 62 -2 124q-2 62 -7 129q24 1 46 4.5q22 3.5 42 8.5l6 -3q-8 -54 -12.5 -114q-4.5 -60 -4.5 -137q0 -30 3.5 -58q3.5 -28 17.5 -49q11 -15 29 -26q18 -11 41 -11q31 0 59 17q28 17 52 37q2 23 2.5 38.5q0.5 15.5 1.5 32.5q2 64 3 128q1 64 -4 132q24 1 46 4.5q22 3.5 42 8.5l6 -3q-6 -36 -11 -75q-5 -39 -8.5 -78q-3.5 -39 -6 -76q-2.5 -37 -2.5 -69q0 -14 0.5 -30q0.5 -16 3.5 -31q3 -14 8.5 -25.5q5.5 -11.5 21.5 -11.5q7 0 16.5 5.5q9.5 5.5 20 13q10.5 7.5 20 16.5q9.5 9 16.5 16l0 -34q-17 -13 -27 -20q-10 -7 -25 -18q-13 -9 -28.5 -19q-15.5 -10 -29.5 -10q-28 0 -41.5 22t-18.5 50z" />
<glyph unicode="&#182;" horiz-adv-x="800" d="M770 700q-17 -26 -24 -50q-45 11 -87 14q-42 3 -82 1q-1 -43 -1.5 -81.5q-0.5 -38.5 -1 -76.5q-0.5 -38 -0.5 -77q0 -39 0 -84q0 -48 0 -91.5q0 -43.5 0.5 -86q0.5 -42.5 1 -85.5q0.5 -43 1.5 -91q43 5 87 19.5q44 14.5 86 38.5l0 -50q-72 -25 -151 -39.5q-79 -14.5 -160 -14.5q-94 0 -166.5 28.5q-72.5 28.5 -122 80.5q-49.5 52 -75 124q-25.5 72 -25.5 158q0 178 99 270.5q99 92.5 277 92.5zM454 665q-11 0 -30.5 -1q-19.5 -1 -29.5 -2q-8 -14 -13 -29q-5 -15 -7.5 -34.5q-2.5 -19.5 -3.5 -46q-1 -26.5 -1 -65.5v-315q0 -44 2 -73.5q2 -29.5 6.5 -50.5q4.5 -21 11.5 -35.5q7 -14.5 16 -27.5q32 -5 61.5 -4.5q29.5 0.5 56.5 3.5q2 128 2.5 223q0.5 95 0.5 139q0 88 -0.5 166q-0.5 78 -2.5 153z" />
<glyph unicode="&#183;" horiz-adv-x="220" d="M63 347q0 58 47 58q47 0 47 -58q0 -58 -47 -58q-47 0 -47 58z" />
<glyph unicode="&#184;" horiz-adv-x="312" d="M121 -98q15 23 23 48q19 0 39 -5q20 -5 36 -15.5q16 -10.5 26 -26.5q10 -16 10 -38q0 -18 -7.5 -32.5q-7.5 -14.5 -19.5 -27.5q-20 -22 -44 -31q-24 -9 -53 -9q-6 0 -21.5 1q-15.5 1 -26.5 3q8 12 14 24q6 12 11 24q2 -1 9 -4q7 -3 16 -6.5q9 -3.5 19 -6q10 -2.5 19 -2.5q23 0 37.5 14.5q14.5 14.5 14.5 36.5q0 19 -10.5 29.5q-10.5 10.5 -26 16q-15.5 5.5 -33 6.5t-32.5 1z" />
<glyph unicode="&#185;" horiz-adv-x="300" d="M124 587q0 7 -0.5 21q-0.5 14 -3.5 25q-4 16 -18 16q-4 0 -11.5 -3q-7.5 -3 -16 -7q-8.5 -4 -17.5 -9.5q-9 -5.5 -15 -9.5l0 30q32 13 63 30q31 17 62 42l22 0q-2 -18 -3.5 -37q-1.5 -19 -1.5 -37v-219q0 -13 1 -31.5q1 -18.5 11 -28.5q9 -9 32 -9h6v-20h-12q-17 0 -34.5 2.5q-17.5 2.5 -37.5 2.5q-13 0 -22.5 -1q-9.5 -1 -18 -1.5q-8.5 -0.5 -17 -1.5q-8.5 -1 -18.5 -1h-12v20h6q7 0 20 1.5q13 1.5 23 11.5q9 9 11 25q2 16 2 33z" />
<glyph unicode="&#186;" horiz-adv-x="387" d="M21 551q0 40 16 74q16 34 45 57q47 39 114 39q68 0 112 -37q26 -22 41 -53q15 -31 15 -69q0 -37 -14 -70.5q-14 -33.5 -40 -59.5q-23 -23 -52.5 -35q-29.5 -12 -68.5 -12q-75 0 -120 44q-23 22 -35.5 53q-12.5 31 -12.5 69zt0 0zM78 569q0 -28 8.5 -58.5q8.5 -30.5 29.5 -56.5q19 -23 38.5 -35q19.5 -12 47.5 -12q23 0 41 8.5q18 8.5 32 23.5q15 17 23.5 41.5q8.5 24.5 8.5 50.5q0 29 -10 62.5q-10 33.5 -30 60.5q-14 18 -36 31q-22 13 -49 13q-24 0 -41.5 -9q-17.5 -9 -30.5 -23q-17 -19 -24.5 -45t-7.5 -52z" />
<glyph unicode="&#187;" horiz-adv-x="464" d="M34 427l12 13l186 -185l-186 -184l-12 11l96 173zM158 464l16 15l257 -224l-257 -213l-16 15l155 198z" />
<glyph unicode="&#188;" horiz-adv-x="700" d="M124 587q0 7 -0.5 21q-0.5 14 -3.5 25q-4 16 -18 16q-4 0 -11.5 -3q-7.5 -3 -16 -7q-8.5 -4 -17.5 -9.5q-9 -5.5 -15 -9.5l0 30q32 13 63 30q31 17 62 42l22 0q-2 -18 -3.5 -37q-1.5 -19 -1.5 -37v-219q0 -13 1 -31.5q1 -18.5 11 -28.5q9 -9 32 -9h6v-20h-12q-17 0 -34.5 2.5q-17.5 2.5 -37.5 2.5q-13 0 -22.5 -1q-9.5 -1 -18 -1.5q-8.5 -0.5 -17 -1.5q-8.5 -1 -18.5 -1h-12v20h6q7 0 20 1.5q13 1.5 23 11.5q9 9 11 25q2 16 2 33zM602 160q14 0 28 1.5q14 1.5 28 6.5q-5 -12 -7 -24.5q-2 -12.5 -4 -26.5l-45 0v-35q0 -42 9 -52q5 -6 13.5 -8q8.5 -2 16.5 -2h7v-20h-9q-26 0 -46 2q-20 2 -29 2q-11 0 -29.5 -2q-18.5 -2 -34.5 -2h-13v20h11q7 0 18 3q11 3 17 9q7 8 9 22q2 14 2 25v37q-54 2 -95 0.5q-41 -1.5 -67 -3.5l0 20q20 30 43 63q23 33 49 66q25 32 51 63q26 31 52 57l30 -8q-2 -18 -3.5 -36.5q-1.5 -18.5 -1.5 -36.5zM544 229q0 22 0.5 44q0.5 22 5.5 46l-2 0q-32 -35 -61.5 -77q-29.5 -42 -53.5 -82q57 1 111 0zM600 703l-461 -713h-39l465 713z" />
<glyph unicode="&#189;" horiz-adv-x="700" d="M124 587q0 7 -0.5 21q-0.5 14 -3.5 25q-4 16 -18 16q-4 0 -11.5 -3q-7.5 -3 -16 -7q-8.5 -4 -17.5 -9.5q-9 -5.5 -15 -9.5l0 30q32 13 63 30q31 17 62 42l22 0q-2 -18 -3.5 -37q-1.5 -19 -1.5 -37v-219q0 -13 1 -31.5q1 -18.5 11 -28.5q9 -9 32 -9h6v-20h-12q-17 0 -34.5 2.5q-17.5 2.5 -37.5 2.5q-13 0 -22.5 -1q-9.5 -1 -18 -1.5q-8.5 -0.5 -17 -1.5q-8.5 -1 -18.5 -1h-12v20h6q7 0 20 1.5q13 1.5 23 11.5q9 9 11 25q2 16 2 33zM662 98q-7 -23 -12.5 -47q-5.5 -24 -10.5 -51q-18 -3 -26 -4q-8 -1 -11 -1q-7 0 -20 1.5q-13 1.5 -29 4q-16 2.5 -34 4q-18 1.5 -35 1.5q-39 0 -76 -9l0 20q21 21 35 36.5q14 15.5 22 25.5q10 12 22.5 28.5q12.5 16.5 25 36.5q12.5 20 24 41q11.5 21 19.5 42q6 15 10.5 34q4.5 19 4.5 39q0 21 -10 39.5q-10 18.5 -36 18.5q-16 0 -29 -7.5q-13 -7.5 -23.5 -18.5q-10.5 -11 -19 -25.5q-8.5 -14.5 -15.5 -27.5q-8 23 -19 42q21 29 52.5 45q31.5 16 71.5 16q40 0 66 -17.5q26 -17.5 26 -58.5q0 -35 -22 -73q-20 -38 -50.5 -75q-30.5 -37 -56.5 -67l-35 -40l1 -1q2 1 15 4.5q13 3.5 29 3.5q13 0 38.5 -3.5q25.5 -3.5 41.5 -3.5q8 0 16 1.5q8 1.5 16 11.5q6 8 12 34zM600 703l-461 -713h-39l465 713z" />
<glyph unicode="&#190;" horiz-adv-x="700" d="M72 542q15 4 33.5 14.5q18.5 10.5 34.5 25q16 14.5 27 33q11 18.5 11 39.5q0 44 -38 44q-16 0 -29.5 -8.5q-13.5 -8.5 -23.5 -20q-10 -11.5 -16 -23.5q-6 -12 -8 -18q-3 11 -7 21q-4 10 -9 19q25 23 50 38.5q25 15.5 62 15.5q27 0 51 -13.5q24 -13.5 24 -44.5q0 -20 -10 -36q-10 -16 -23 -28q-13 -12 -27 -20.5q-14 -8.5 -23 -13.5l2 -4q5 2 11.5 2.5q6.5 0.5 11.5 0.5q13 0 27.5 -4.5q14.5 -4.5 26.5 -14.5q12 -10 20 -26.5q8 -16.5 8 -40.5q0 -31 -13 -57q-13 -26 -34.5 -45.5q-21.5 -19.5 -48.5 -30.5q-27 -11 -54 -11q-11 0 -28.5 2q-17.5 2 -37.5 10q10 21 15 48q10 -15 25 -25.5q15 -10.5 35 -10.5q13 0 27.5 6q14.5 6 26.5 19q12 13 19.5 33q7.5 20 7.5 48q0 30 -14.5 54q-14.5 24 -44.5 24q-9 0 -26.5 -6.5q-17.5 -6.5 -40.5 -24.5zM602 160q14 0 28 1.5q14 1.5 28 6.5q-5 -12 -7 -24.5q-2 -12.5 -4 -26.5l-45 0v-35q0 -42 9 -52q5 -6 13.5 -8q8.5 -2 16.5 -2h7v-20h-9q-26 0 -46 2q-20 2 -29 2q-11 0 -29.5 -2q-18.5 -2 -34.5 -2h-13v20h11q7 0 18 3q11 3 17 9q7 8 9 22q2 14 2 25v37q-54 2 -95 0.5q-41 -1.5 -67 -3.5l0 20q20 30 43 63q23 33 49 66q25 32 51 63q26 31 52 57l30 -8q-2 -18 -3.5 -36.5q-1.5 -18.5 -1.5 -36.5zM544 229q0 22 0.5 44q0.5 22 5.5 46l-2 0q-32 -35 -61.5 -77q-29.5 -42 -53.5 -82q57 1 111 0zM600 703l-461 -713h-39l465 713z" />
<glyph unicode="&#191;" horiz-adv-x="440" d="M386 -200q-23 -42 -62.5 -66q-39.5 -24 -89.5 -24q-37 0 -68 16.5q-31 16.5 -53.5 42q-22.5 25.5 -35 57.5q-12.5 32 -12.5 64q0 35 20 79q20 44 73 82l11 8q26 19 51 35q25 16 45 33.5q20 17.5 32.5 37.5q12.5 20 12.5 47q0 25 -14.5 41q-14.5 16 -45.5 16q-26 0 -47 -17l-4 5l34 54q24 0 43 -11q19 -11 31.5 -29q12.5 -18 19.5 -41q7 -23 7 -47q0 -29 -8 -51.5q-8 -22.5 -21.5 -41q-13.5 -18.5 -30.5 -33.5q-17 -15 -35 -28l-36 -27q-14 -10 -32.5 -25q-18.5 -15 -36 -34q-17.5 -19 -29.5 -41q-12 -22 -12 -46q0 -19 7 -36.5q7 -17.5 20.5 -30.5q13.5 -13 33 -20.5q19.5 -7.5 43.5 -7.5q20 0 38.5 5q18.5 5 35.5 18q17 13 32 35q15 22 27 55zM281 420q0 -58 -47 -58q-47 0 -47 58q0 58 47 58q47 0 47 -58z" />
<glyph unicode="&#192;" horiz-adv-x="662" d="M347 704q33 -115 61.5 -198.5q28.5 -83.5 42.5 -122.5q42 -122 66.5 -186.5q24.5 -64.5 34.5 -87.5q5 -12 12 -26q7 -14 16.5 -26.5q9.5 -12.5 22 -20.5q12.5 -8 28.5 -8h25v-28h-37q-2 0 -12 1q-10 1 -22.5 2.5q-12.5 1.5 -25.5 2.5q-13 1 -21 1q-23 0 -44.5 -3.5q-21.5 -3.5 -47.5 -3.5h-25v28h22q19 0 26.5 13q7.5 13 7.5 29q0 12 -3 26.5q-3 14.5 -7 29.5q-4 15 -8.5 27.5q-4.5 12.5 -6.5 19.5q-10 32 -22 61q-29 -3 -59 -4.5q-30 -1.5 -64 -1.5q-44 0 -102 6l-28 -82q-7 -20 -12.5 -42q-5.5 -22 -6.5 -45q0 -17 9 -27q9 -10 30 -10h29v-28h-31q-20 0 -34.5 3.5q-14.5 3.5 -43.5 3.5q-17 0 -27 -1q-10 -1 -18 -2.5q-8 -1.5 -14.5 -2.5q-6.5 -1 -15.5 -1h-36v28h22q18 0 33.5 15.5q15.5 15.5 28 37.5q12.5 22 22.5 46.5q10 24.5 17 41.5q6 14 24 59q18 45 43 114q25 69 54.5 158.5q29.5 89.5 58.5 192.5zM309 571q-7 -32 -18.5 -69.5q-11.5 -37.5 -24 -76.5q-12.5 -39 -26 -78.5q-13.5 -39.5 -24.5 -75.5q26 -2 51.5 -3q25.5 -1 50.5 -1q25 0 49 1q24 1 48 3q-22 70 -50.5 145.5q-28.5 75.5 -48.5 154.5zM355 731q-16 62 -53 99q-19 19 -39 33q-20 14 -38.5 23q-18.5 9 -34 14q-15.5 5 -24.5 7q16 11 31 22q15 11 30 25q43 -35 83.5 -86.5q40.5 -51.5 72.5 -118.5z" />
<glyph unicode="&#193;" horiz-adv-x="662" d="M347 704q33 -115 61.5 -198.5q28.5 -83.5 42.5 -122.5q42 -122 66.5 -186.5q24.5 -64.5 34.5 -87.5q5 -12 12 -26q7 -14 16.5 -26.5q9.5 -12.5 22 -20.5q12.5 -8 28.5 -8h25v-28h-37q-2 0 -12 1q-10 1 -22.5 2.5q-12.5 1.5 -25.5 2.5q-13 1 -21 1q-23 0 -44.5 -3.5q-21.5 -3.5 -47.5 -3.5h-25v28h22q19 0 26.5 13q7.5 13 7.5 29q0 12 -3 26.5q-3 14.5 -7 29.5q-4 15 -8.5 27.5q-4.5 12.5 -6.5 19.5q-10 32 -22 61q-29 -3 -59 -4.5q-30 -1.5 -64 -1.5q-44 0 -102 6l-28 -82q-7 -20 -12.5 -42q-5.5 -22 -6.5 -45q0 -17 9 -27q9 -10 30 -10h29v-28h-31q-20 0 -34.5 3.5q-14.5 3.5 -43.5 3.5q-17 0 -27 -1q-10 -1 -18 -2.5q-8 -1.5 -14.5 -2.5q-6.5 -1 -15.5 -1h-36v28h22q18 0 33.5 15.5q15.5 15.5 28 37.5q12.5 22 22.5 46.5q10 24.5 17 41.5q6 14 24 59q18 45 43 114q25 69 54.5 158.5q29.5 89.5 58.5 192.5zM309 571q-7 -32 -18.5 -69.5q-11.5 -37.5 -24 -76.5q-12.5 -39 -26 -78.5q-13.5 -39.5 -24.5 -75.5q26 -2 51.5 -3q25.5 -1 50.5 -1q25 0 49 1q24 1 48 3q-22 70 -50.5 145.5q-28.5 75.5 -48.5 154.5zM246 747q39 20 62.5 49.5q23.5 29.5 36.5 60q13 30.5 17.5 57q4.5 26.5 5.5 41.5q39 -17 76 -23q-16 -30 -38.5 -61q-22.5 -31 -47 -58q-24.5 -27 -47.5 -48.5q-23 -21.5 -41 -33.5z" />
<glyph unicode="&#194;" horiz-adv-x="662" d="M347 704q33 -115 61.5 -198.5q28.5 -83.5 42.5 -122.5q42 -122 66.5 -186.5q24.5 -64.5 34.5 -87.5q5 -12 12 -26q7 -14 16.5 -26.5q9.5 -12.5 22 -20.5q12.5 -8 28.5 -8h25v-28h-37q-2 0 -12 1q-10 1 -22.5 2.5q-12.5 1.5 -25.5 2.5q-13 1 -21 1q-23 0 -44.5 -3.5q-21.5 -3.5 -47.5 -3.5h-25v28h22q19 0 26.5 13q7.5 13 7.5 29q0 12 -3 26.5q-3 14.5 -7 29.5q-4 15 -8.5 27.5q-4.5 12.5 -6.5 19.5q-10 32 -22 61q-29 -3 -59 -4.5q-30 -1.5 -64 -1.5q-44 0 -102 6l-28 -82q-7 -20 -12.5 -42q-5.5 -22 -6.5 -45q0 -17 9 -27q9 -10 30 -10h29v-28h-31q-20 0 -34.5 3.5q-14.5 3.5 -43.5 3.5q-17 0 -27 -1q-10 -1 -18 -2.5q-8 -1.5 -14.5 -2.5q-6.5 -1 -15.5 -1h-36v28h22q18 0 33.5 15.5q15.5 15.5 28 37.5q12.5 22 22.5 46.5q10 24.5 17 41.5q6 14 24 59q18 45 43 114q25 69 54.5 158.5q29.5 89.5 58.5 192.5zM309 571q-7 -32 -18.5 -69.5q-11.5 -37.5 -24 -76.5q-12.5 -39 -26 -78.5q-13.5 -39.5 -24.5 -75.5q26 -2 51.5 -3q25.5 -1 50.5 -1q25 0 49 1q24 1 48 3q-22 70 -50.5 145.5q-28.5 75.5 -48.5 154.5zM315 821q-8 -10 -21 -22.5q-13 -12.5 -28.5 -25q-15.5 -12.5 -32 -24q-16.5 -11.5 -30.5 -18.5l-62 0v13q50 16 101 47q51 31 85 86l11 0q30 -46 78.5 -82.5q48.5 -36.5 106.5 -50.5l0 -13h-101q-7 4 -20.5 13.5q-13.5 9.5 -29.5 22q-16 12.5 -31.5 27t-25.5 27.5z" />
<glyph unicode="&#195;" horiz-adv-x="662" d="M347 704q33 -115 61.5 -198.5q28.5 -83.5 42.5 -122.5q42 -122 66.5 -186.5q24.5 -64.5 34.5 -87.5q5 -12 12 -26q7 -14 16.5 -26.5q9.5 -12.5 22 -20.5q12.5 -8 28.5 -8h25v-28h-37q-2 0 -12 1q-10 1 -22.5 2.5q-12.5 1.5 -25.5 2.5q-13 1 -21 1q-23 0 -44.5 -3.5q-21.5 -3.5 -47.5 -3.5h-25v28h22q19 0 26.5 13q7.5 13 7.5 29q0 12 -3 26.5q-3 14.5 -7 29.5q-4 15 -8.5 27.5q-4.5 12.5 -6.5 19.5q-10 32 -22 61q-29 -3 -59 -4.5q-30 -1.5 -64 -1.5q-44 0 -102 6l-28 -82q-7 -20 -12.5 -42q-5.5 -22 -6.5 -45q0 -17 9 -27q9 -10 30 -10h29v-28h-31q-20 0 -34.5 3.5q-14.5 3.5 -43.5 3.5q-17 0 -27 -1q-10 -1 -18 -2.5q-8 -1.5 -14.5 -2.5q-6.5 -1 -15.5 -1h-36v28h22q18 0 33.5 15.5q15.5 15.5 28 37.5q12.5 22 22.5 46.5q10 24.5 17 41.5q6 14 24 59q18 45 43 114q25 69 54.5 158.5q29.5 89.5 58.5 192.5zM309 571q-7 -32 -18.5 -69.5q-11.5 -37.5 -24 -76.5q-12.5 -39 -26 -78.5q-13.5 -39.5 -24.5 -75.5q26 -2 51.5 -3q25.5 -1 50.5 -1q25 0 49 1q24 1 48 3q-22 70 -50.5 145.5q-28.5 75.5 -48.5 154.5zM208 762q-14 -5 -27 -10q-13 -5 -26 -13q-2 7 -2 13q0 6 0 11q0 19 8.5 33q8.5 14 22 22q13.5 8 30 12q16.5 4 32.5 4q30 0 55.5 -9q25.5 -9 52.5 -21q9 -4 21 -9.5q12 -5.5 24 -10q12 -4.5 23 -8q11 -3.5 17 -3.5q10 0 17.5 5.5q7.5 5.5 7.5 19.5q0 5 -2 12q-2 7 -7 14q14 5 27 11q13 6 27 15q1 -5 1 -10.5q0 -5.5 0 -10.5q0 -21 -8.5 -36q-8.5 -15 -23.5 -25.5q-15 -10.5 -34.5 -15.5q-19.5 -5 -40.5 -5q-35 0 -64 10.5q-29 10.5 -58 28.5q-14 8 -28.5 17.5q-14.5 9.5 -31.5 9.5q-9 0 -16.5 -6q-7.5 -6 -7.5 -17q0 -8 4 -16t7 -12z" />
<glyph unicode="&#196;" horiz-adv-x="662" d="M347 704q33 -115 61.5 -198.5q28.5 -83.5 42.5 -122.5q42 -122 66.5 -186.5q24.5 -64.5 34.5 -87.5q5 -12 12 -26q7 -14 16.5 -26.5q9.5 -12.5 22 -20.5q12.5 -8 28.5 -8h25v-28h-37q-2 0 -12 1q-10 1 -22.5 2.5q-12.5 1.5 -25.5 2.5q-13 1 -21 1q-23 0 -44.5 -3.5q-21.5 -3.5 -47.5 -3.5h-25v28h22q19 0 26.5 13q7.5 13 7.5 29q0 12 -3 26.5q-3 14.5 -7 29.5q-4 15 -8.5 27.5q-4.5 12.5 -6.5 19.5q-10 32 -22 61q-29 -3 -59 -4.5q-30 -1.5 -64 -1.5q-44 0 -102 6l-28 -82q-7 -20 -12.5 -42q-5.5 -22 -6.5 -45q0 -17 9 -27q9 -10 30 -10h29v-28h-31q-20 0 -34.5 3.5q-14.5 3.5 -43.5 3.5q-17 0 -27 -1q-10 -1 -18 -2.5q-8 -1.5 -14.5 -2.5q-6.5 -1 -15.5 -1h-36v28h22q18 0 33.5 15.5q15.5 15.5 28 37.5q12.5 22 22.5 46.5q10 24.5 17 41.5q6 14 24 59q18 45 43 114q25 69 54.5 158.5q29.5 89.5 58.5 192.5zM309 571q-7 -32 -18.5 -69.5q-11.5 -37.5 -24 -76.5q-12.5 -39 -26 -78.5q-13.5 -39.5 -24.5 -75.5q26 -2 51.5 -3q25.5 -1 50.5 -1q25 0 49 1q24 1 48 3q-22 70 -50.5 145.5q-28.5 75.5 -48.5 154.5zM177 773q0 18 15.5 30.5q15.5 12.5 38.5 12.5q23 0 38.5 -12.5q15.5 -12.5 15.5 -30.5q0 -18 -15.5 -30q-15.5 -12 -38.5 -12q-23 0 -38.5 12q-15.5 12 -15.5 30zt0 0zM379 773q0 18 15.5 30.5q15.5 12.5 38.5 12.5q23 0 38.5 -12.5q15.5 -12.5 15.5 -30.5q0 -18 -15.5 -30q-15.5 -12 -38.5 -12q-23 0 -38.5 12t-15.5 30z" />
<glyph unicode="&#197;" horiz-adv-x="662" d="M347 704q33 -115 61.5 -198.5q28.5 -83.5 42.5 -122.5q42 -122 66.5 -186.5q24.5 -64.5 34.5 -87.5q5 -12 12 -26q7 -14 16.5 -26.5q9.5 -12.5 22 -20.5q12.5 -8 28.5 -8h25v-28h-37q-2 0 -12 1q-10 1 -22.5 2.5q-12.5 1.5 -25.5 2.5q-13 1 -21 1q-23 0 -44.5 -3.5q-21.5 -3.5 -47.5 -3.5h-25v28h22q19 0 26.5 13q7.5 13 7.5 29q0 12 -3 26.5q-3 14.5 -7 29.5q-4 15 -8.5 27.5q-4.5 12.5 -6.5 19.5q-10 32 -22 61q-29 -3 -59 -4.5q-30 -1.5 -64 -1.5q-44 0 -102 6l-28 -82q-7 -20 -12.5 -42q-5.5 -22 -6.5 -45q0 -17 9 -27q9 -10 30 -10h29v-28h-31q-20 0 -34.5 3.5q-14.5 3.5 -43.5 3.5q-17 0 -27 -1q-10 -1 -18 -2.5q-8 -1.5 -14.5 -2.5q-6.5 -1 -15.5 -1h-36v28h22q18 0 33.5 15.5q15.5 15.5 28 37.5q12.5 22 22.5 46.5q10 24.5 17 41.5q6 14 24 59q18 45 43 114q25 69 54.5 158.5q29.5 89.5 58.5 192.5zM309 571q-7 -32 -18.5 -69.5q-11.5 -37.5 -24 -76.5q-12.5 -39 -26 -78.5q-13.5 -39.5 -24.5 -75.5q26 -2 51.5 -3q25.5 -1 50.5 -1q25 0 49 1q24 1 48 3q-22 70 -50.5 145.5q-28.5 75.5 -48.5 154.5zM221 828q0 23 9.5 42q9.5 19 25.5 32.5q16 13.5 37.5 21q21.5 7.5 45.5 7.5q44 0 73.5 -27.5q29.5 -27.5 29.5 -70.5q0 -20 -8.5 -38.5q-8.5 -18.5 -23.5 -32.5q-15 -14 -35 -22.5q-20 -8.5 -44 -8.5q-22 0 -42 6.5q-20 6.5 -35 19q-15 12.5 -24 30.5q-9 18 -9 41zt0 0zM259 836q0 -35 21 -60.5q21 -25.5 56 -25.5q32 0 49.5 21.5q17.5 21.5 17.5 51.5q0 16 -5.5 31.5q-5.5 15.5 -15 28q-9.5 12.5 -23.5 20q-14 7.5 -32 7.5q-31 0 -49.5 -21.5t-18.5 -52.5z" />
</font>
</defs>
</svg>
