<?xml version="1.0" encoding="UTF-8" standalone="no"?>
<!DOCTYPE svg PUBLIC "-//W3C//DTD SVG 1.1//EN" "http://www.w3.org/Graphics/SVG/1.1/DTD/svg11.dtd" >
<svg xmlns="http://www.w3.org/2000/svg">
<metadata>
Generated by SVGconv.
Copyright   : Copyright 1990-2003 Bitstream Inc. Partial Copyright ParaType Inc. 2017. All rights reserved
Designer    : Natalia Vasilyeva
Foundry     : ParaType Ltd
Foundry URL : http://www.paratype.com
</metadata>
<defs>
<font id="IowanOldStyleBTWeb-Roman" horiz-adv-x="580" >
<font-face units-per-em="1000" ascent="1005" descent="354" >
<font-face-src>
<font-face-name/>
</font-face-src>
</font-face>
<missing-glyph horiz-adv-x="500" />
<glyph unicode="&#13;" horiz-adv-x="278" />
<glyph unicode="&#32;" horiz-adv-x="278" />
<glyph unicode="&#33;" horiz-adv-x="337" d="M212 697q-6 -69 -11 -131.5q-5 -62.5 -9.5 -123.5q-4.5 -61 -8.5 -122.5q-4 -61.5 -8 -128.5l-40 0q-4 234 -24 506zM186 91q13 -10 19.5 -19.5q6.5 -9.5 6.5 -21.5q0 -13 -5.5 -21q-5.5 -8 -17.5 -17l-37 -28l-34 26q-27 21 -27 42q0 13 7 21q7 8 18 17l36 28z" />
<glyph unicode="&#34;" horiz-adv-x="311" d="M71 422l-22 189q-2 18 -3.5 33.5q-1.5 15.5 -1.5 20.5q0 29 10.5 39q10.5 10 30.5 10q42 0 42 -49q0 -5 -1.5 -20.5q-1.5 -15.5 -3.5 -33.5l-22 -189zM214 422l-22 189q-2 18 -3.5 33.5q-1.5 15.5 -1.5 20.5q0 29 10.5 39q10.5 10 30.5 10q42 0 42 -49q0 -5 -1.5 -20.5q-1.5 -15.5 -3.5 -33.5l-22 -189z" />
<glyph unicode="&#35;" horiz-adv-x="556" d="M358 408q-19 1 -35.5 1q-16.5 0 -35.5 0h-50l-40 -124q11 0 22 -0.5q11 -0.5 22 -0.5q15 0 32 0q17 0 48 2zM327 692q-8 -25 -16.5 -50.5q-8.5 -25.5 -16.5 -52.5q-8 -27 -18 -60q-10 -33 -22 -71q11 0 21.5 -0.5q10.5 -0.5 28.5 -0.5q15 0 32 0.5q17 0.5 37 0.5q17 54 35 111q18 57 36 123l56 0l-74 -234h19q7 -1 11.5 -1q4.5 0 8.5 0q33 0 63 3l-17 -57q-23 2 -48 3q-25 1 -53 2l-40 -123h24q8 -1 13.5 -1q5.5 0 8.5 0q12 0 25.5 0q13.5 0 33.5 2l-17 -55q-31 2 -49 3q-18 1 -35 1h-19l-70 -235h-56q17 57 35.5 115.5q18.5 58.5 38.5 119.5l-58 0h-63l-26 -83q-17 -54 -28 -91.5q-11 -37.5 -18 -60.5l-57 0l76 234q-11 0 -22 0.5q-11 0.5 -21 0.5q-7 0 -18 -0.5q-11 -0.5 -26 -1.5l-8 0l17 55q30 -3 59 -3q6 0 18 0.5q12 0.5 18 0.5l40 122h-61q-10 -1 -19.5 -1q-9.5 0 -18.5 -1l17 56q36 -3 74 -3h25l68 233z" />
<glyph unicode="&#36;" horiz-adv-x="556" d="M299 747l-1 -114q71 -2 107 -21.5q36 -19.5 36 -48.5q0 -17 -11 -30q-11 -13 -28 -13q-12 0 -21 10q-9 10 -20 23q-11 13 -26 23.5q-15 10.5 -38 12.5l-3 -197q84 -29 123.5 -66q39.5 -37 39.5 -100q0 -64 -43.5 -110.5q-43.5 -46.5 -119.5 -57.5l0 -114h-51l2 112q-77 2 -116.5 24q-39.5 22 -39.5 56q0 20 12.5 33.5q12.5 13.5 27.5 13.5q15 0 25.5 -13q10.5 -13 21.5 -29q11 -16 27.5 -29q16.5 -13 43.5 -13l2 219q-81 26 -120 64q-39 38 -39 95q0 58 42 100.5q42 42.5 117 52.5l-1 117zM250 589q-41 -6 -63 -29.5q-22 -23.5 -22 -58.5q0 -32 21 -54.5q21 -22.5 64 -39.5zM293 101q42 8 66 37.5q24 29.5 24 70.5q0 33 -22.5 56q-22.5 23 -67.5 40z" />
<glyph unicode="&#37;" horiz-adv-x="880" d="M667 692q-121 -204 -225.5 -381.5q-104.5 -177.5 -194.5 -333.5l-37 19l397 683q-46 -28 -86 -43.5q-40 -15.5 -82 -15.5q-27 0 -52 6.5q-25 6.5 -51 17.5q37 -52 37 -138q0 -47 -12 -85q-12 -38 -34 -65q-22 -27 -52 -41.5q-30 -14.5 -67 -14.5q-71 0 -113 53.5q-42 53.5 -42 146.5q0 47 12.5 85q12.5 38 34 65q21.5 27 50.5 41.5q29 14.5 62 14.5q17 0 34.5 -2.5q17.5 -2.5 37.5 -10.5q45 -14 83 -23.5q38 -9.5 74 -9.5q41 0 87.5 13q46.5 13 99.5 40zM209 669q-78 0 -78 -149q0 -90 22 -136q22 -46 64 -46q78 0 78 146q0 91 -22 138q-22 47 -64 47zt0 0zM506 185q0 47 12 85.5q12 38.5 34 65.5q22 27 52.5 41.5q30.5 14.5 67.5 14.5q35 0 63.5 -14q28.5 -14 49 -39.5q20.5 -25.5 31.5 -61q11 -35.5 11 -77.5q0 -102 -45 -158q-45 -56 -120 -56q-71 0 -113.5 53q-42.5 53 -42.5 146zt0 0zM662 354q-78 0 -78 -148q0 -90 22 -136.5q22 -46.5 64 -46.5q78 0 78 147q0 91 -22 137.5t-64 46.5z" />
<glyph unicode="&#38;" horiz-adv-x="831" d="M476 88q-54 -53 -108 -78.5q-54 -25.5 -107 -25.5q-41 0 -77 15q-36 15 -62 41q-26 26 -41 61.5q-15 35.5 -15 76.5q0 72 44.5 124q44.5 52 132.5 79q-81 84 -81 160q0 33 13.5 62q13.5 29 36 51q22.5 22 52.5 35q30 13 62 13q34 0 62 -10.5q28 -10.5 48 -29q20 -18.5 31.5 -44q11.5 -25.5 11.5 -54.5q0 -50 -33.5 -93q-33.5 -43 -102.5 -85l167 -202q31 35 53 69.5q22 34.5 35 64q13 29.5 19 51.5q6 22 6 33q0 24 -14 31.5q-14 7.5 -49 7.5l0 36q36 -4 63 -5.5q27 -1.5 45 -1.5q19 0 45.5 2q26.5 2 61.5 5l0 -37h-11q-19 0 -30.5 -3q-11.5 -3 -19.5 -9.5q-8 -6.5 -14 -17.5q-6 -11 -13 -27q-32 -69 -68 -126.5q-36 -57.5 -82 -103.5l20 -24q32 -39 60.5 -59q28.5 -20 59.5 -20q22 0 47.5 12q25.5 12 52.5 38l20 -21q-75 -101 -161 -101q-23 0 -42 7q-19 7 -37.5 21q-18.5 14 -38 34.5q-19.5 20.5 -42.5 47.5zt0 0zM266 351q-118 -40 -118 -143q0 -32 12.5 -60.5q12.5 -28.5 33.5 -49.5q21 -21 49 -33.5q28 -12.5 60 -12.5q36 0 72 17q36 17 76 50zM321 412q39 26 60.5 64.5q21.5 38.5 21.5 80.5q0 45 -24 73q-24 28 -62 28q-36 0 -58 -25q-22 -25 -22 -63q0 -33 20.5 -74.5t63.5 -83.5z" />
<glyph unicode="&#39;" horiz-adv-x="167" d="M71 422l-22 189q-2 18 -3.5 33.5q-1.5 15.5 -1.5 20.5q0 29 10.5 39q10.5 10 30.5 10q42 0 42 -49q0 -5 -1.5 -20.5q-1.5 -15.5 -3.5 -33.5l-22 -189z" />
<glyph unicode="&#40;" horiz-adv-x="419" d="M397 741q-91 -100 -137 -214q-46 -114 -46 -239q0 -124 46 -234q46 -110 141 -213l-26 -30q-124 95 -183.5 214.5q-59.5 119.5 -59.5 270.5q0 141 61 260.5q61 119.5 179 210.5z" />
<glyph unicode="&#41;" horiz-adv-x="419" d="M48 767q118 -91 178.5 -211q60.5 -120 60.5 -260q0 -151 -59.5 -270.5q-59.5 -119.5 -182.5 -214.5l-26 30q95 103 141 212q46 109 46 229q0 256 -183 459l25 26z" />
<glyph unicode="&#42;" horiz-adv-x="454" d="M266 691q-12 -35 -18 -64.5q-6 -29.5 -6 -46.5q0 -8 5 -8q8 0 29.5 18.5q21.5 18.5 61.5 60.5l39 -22v-44q-60 -17 -86.5 -27q-26.5 -10 -26.5 -18q0 -8 29.5 -19q29.5 -11 82.5 -25l0 -44l-38 -21q-40 41 -61.5 59.5q-21.5 18.5 -27.5 18.5q-7 0 -7 -8q0 -32 24 -111l-39 -22l-38 22q11 40 17 69q6 29 6 41v2q0 7 -7 7q-6 0 -27.5 -18.5q-21.5 -18.5 -61.5 -59.5l-38 21v44q54 14 83.5 25q29.5 11 29.5 19q0 15 -113 45l0 44l38 22q42 -43 62 -61q20 -18 28 -18q6 0 6 9q0 12 -6 42q-6 30 -17 68l38 22z" />
<glyph unicode="&#43;" horiz-adv-x="833" d="M446 596v-269h263v-57h-263v-270h-58v270h-264v57h264l0 269z" />
<glyph unicode="&#44;" horiz-adv-x="278" d="M130 123q20 -15 33 -27q13 -12 20 -22q7 -10 9.5 -19.5q2.5 -9.5 2.5 -20.5q0 -18 -10 -40.5q-10 -22.5 -28 -47q-18 -24.5 -43 -50q-25 -25.5 -55 -48.5l-26 32q32 26 52.5 55q20.5 29 28.5 64q-28 17 -38.5 29q-10.5 12 -10.5 25q0 10 6.5 19q6.5 9 29.5 28l29 23z" />
<glyph unicode="&#45;" horiz-adv-x="350" d="M36 207q8 19 14.5 38q6.5 19 11.5 39q33 -1 62 -1.5q29 -0.5 55 -0.5q26 0 61.5 0q35.5 0 80.5 2q-8 -20 -14.5 -39q-6.5 -19 -11.5 -38q-43 2 -74.5 2q-31.5 0 -52.5 0q-20 0 -53 0t-79 -2z" />
<glyph unicode="&#46;" horiz-adv-x="278" d="M169 98q31 -23 31 -41q0 -13 -7.5 -22.5q-7.5 -9.5 -21.5 -20.5l-38 -28l-36 28q-14 11 -22.5 20.5q-8.5 9.5 -8.5 22.5q0 13 8 21.5q8 8.5 21 19.5l35 29z" />
<glyph unicode="&#47;" horiz-adv-x="461" d="M475 737q-96 -179 -168 -313q-72 -134 -120 -225q-96 -181 -152 -292l-52 23q142 260 251 466q109 206 189 365z" />
<glyph unicode="&#48;" horiz-adv-x="556" d="M38 330q0 89 18.5 159q18.5 70 51.5 118q33 48 78 73.5q45 25.5 99 25.5q52 0 95 -22.5q43 -22.5 73.5 -66.5q30.5 -44 47 -108.5q16.5 -64.5 16.5 -148.5q0 -89 -18.5 -158.5q-18.5 -69.5 -51 -117.5q-32.5 -48 -78 -73q-45.5 -25 -99.5 -25q-53 0 -95.5 23q-42.5 23 -73 67q-30.5 44 -47 108q-16.5 64 -16.5 146zt0 0zM269 653q-142 0 -142 -279q0 -168 41.5 -251.5q41.5 -83.5 119.5 -83.5q142 0 142 282q0 165 -42 248.5t-119 83.5z" />
<glyph unicode="&#49;" horiz-adv-x="556" d="M337 706q-7 -134 -8.5 -246.5q-1.5 -112.5 -1.5 -203.5q0 -62 -0.5 -104.5q-0.5 -42.5 6.5 -69q7 -26.5 24.5 -38q17.5 -11.5 52.5 -11.5q5 0 10 0.5q5 0.5 10 0.5l0 -34q-51 2 -89 3q-38 1 -64 1q-21 0 -57 -1q-36 -1 -88 -3l0 33h15q24 0 40 2q16 2 27 7q11 5 17.5 15q6.5 10 10.5 27q4 16 7 115.5q3 99.5 3 285.5q0 32 -1 69.5q-1 37.5 -2 80.5q-30 -1 -62 -3.5q-32 -2.5 -66 -7.5l-6 37q106 18 222 45z" />
<glyph unicode="&#50;" horiz-adv-x="556" d="M149 84q50 -1 84.5 -1.5q34.5 -0.5 55.5 -0.5h61q30 0 51.5 2q21.5 2 36.5 9.5q15 7.5 24 22q9 14.5 15 39.5l31 -10q-14 -36 -23.5 -71.5q-9.5 -35.5 -14.5 -73.5q-69 2 -128.5 3.5q-59.5 1.5 -111.5 1.5q-45 0 -92 -1.5q-47 -1.5 -99 -3.5l-15 33q83 71 144.5 138q61.5 67 102.5 126.5q41 59.5 61.5 110.5q20.5 51 20.5 90q0 31 -9.5 57q-9.5 26 -26.5 45q-17 19 -40.5 30q-23.5 11 -51.5 11q-44 0 -78.5 -25q-34.5 -25 -67.5 -76l-38 22q81 144 208 144q42 0 78.5 -15.5q36.5 -15.5 63.5 -42q27 -26.5 43 -62q16 -35.5 16 -75.5q0 -44 -20 -90q-20 -46 -58.5 -97.5q-38.5 -51.5 -94.5 -111t-128 -128.5z" />
<glyph unicode="&#51;" horiz-adv-x="556" d="M278 387q6 1 12 1q6 0 11 0q81 0 126.5 -45.5q45.5 -45.5 45.5 -124.5q0 -47 -21.5 -89q-21.5 -42 -58 -74q-36.5 -32 -84.5 -50.5q-48 -18.5 -101 -18.5q-34 0 -64 7q-30 7 -52 19q-22 12 -35 27.5q-13 15.5 -13 32.5q0 14 13.5 28q13.5 14 27.5 14q17 0 26 -9.5q9 -9.5 23 -23.5q21 -23 44 -34q23 -11 54 -11q30 0 57 12q27 12 47 33q20 21 31.5 50.5q11.5 29.5 11.5 64.5q0 31 -9.5 57.5q-9.5 26.5 -26.5 46q-17 19.5 -41 30q-24 10.5 -53 10.5q-41 0 -93 -21l-14 34q195 85 195 188q0 22 -7.5 41q-7.5 19 -22 33.5q-14.5 14.5 -34 23q-19.5 8.5 -43.5 8.5q-68 0 -130 -83l-36 21q67 121 189 121q37 0 69 -12q32 -12 55 -33q23 -21 36 -48.5q13 -27.5 13 -58.5q0 -107 -148 -167z" />
<glyph unicode="&#52;" horiz-adv-x="556" d="M409 702q-4 -103 -5.5 -208q-1.5 -105 -1.5 -213l15 0q24 0 51 1.5q27 1.5 58 3.5q-5 -17 -9 -33.5q-4 -16.5 -7 -33.5q-54 3 -108 3l0 -103q0 -25 1.5 -41.5q1.5 -16.5 8 -26q6.5 -9.5 19 -13.5q12.5 -4 35.5 -4h13v-34q-39 2 -69.5 3q-30.5 1 -50.5 1q-17 0 -46 -1q-29 -1 -71 -3l0 34q5 0 9 -0.5q4 -0.5 9 -0.5q22 0 35 5q13 5 19.5 16.5q6.5 11.5 8.5 31q2 19.5 2 48.5v88q-42 0 -74 0.5q-32 0.5 -55 0.5q-18 0 -55.5 -0.5q-37.5 -0.5 -94.5 -1.5l-20 45q53 64 85.5 105q32.5 41 46.5 61l48 66q32 44 66 92q34 48 73 112zM109 285q50 -2 94.5 -3q44.5 -1 86.5 -1h35l0 309z" />
<glyph unicode="&#53;" horiz-adv-x="556" d="M471 697q-9 -20 -16.5 -41q-7.5 -21 -12.5 -44q-44 -4 -85 -6q-41 -2 -79 -2q-17 0 -38.5 0.5q-21.5 0.5 -47.5 1.5l-33 -211q32 15 61.5 23q29.5 8 61.5 8q43 0 79.5 -15q36.5 -15 63.5 -42q27 -27 42.5 -64q15.5 -37 15.5 -80q0 -50 -20.5 -93.5q-20.5 -43.5 -56 -75.5q-35.5 -32 -83 -51q-47.5 -19 -101.5 -19q-35 0 -64.5 7.5q-29.5 7.5 -52 19.5q-22.5 12 -35 27.5q-12.5 15.5 -12.5 31.5q0 14 13.5 28q13.5 14 27.5 14q17 0 26.5 -9.5q9.5 -9.5 22.5 -23.5q21 -22 43 -33.5q22 -11.5 53 -11.5q31 0 58 12q27 12 46.5 34.5q19.5 22.5 31 54.5q11.5 32 11.5 72q0 70 -39.5 109.5q-39.5 39.5 -106.5 39.5q-55 0 -104 -33l-39 17l44 350q53 -2 93.5 -3.5q40.5 -1.5 69.5 -1.5q49 0 89 2.5t73 7.5z" />
<glyph unicode="&#54;" horiz-adv-x="556" d="M156 369q44 31 81.5 47.5q37.5 16.5 76.5 16.5q39 0 73 -15.5q34 -15.5 59.5 -44q25.5 -28.5 40.5 -67.5q15 -39 15 -87q0 -51 -16.5 -94q-16.5 -43 -46.5 -74q-30 -31 -70.5 -48q-40.5 -17 -88.5 -17q-48 0 -88 20q-40 20 -69 57.5q-29 37.5 -45 92q-16 54.5 -16 123.5q0 96 27.5 174q27.5 78 74 134q46.5 56 107.5 86.5q61 30.5 128 30.5q76 0 76 -50q0 -16 -8.5 -26q-8.5 -10 -22.5 -10q-14 0 -37.5 10q-23.5 10 -59.5 10q-81 0 -132 -69q-51 -69 -59 -200zt0 0zM153 318q-1 -11 -1 -20.5q0 -9.5 0 -19.5q0 -121 36.5 -182q36.5 -61 104.5 -61q55 0 90 40.5q35 40.5 35 113.5q0 84 -39 131q-39 47 -100 47q-57 0 -126 -49z" />
<glyph unicode="&#55;" horiz-adv-x="556" d="M128 -4q85 163 160 314q75 151 144 297q-69 1 -112 1.5q-43 0.5 -63 0.5h-44q-30 0 -50 -2q-20 -2 -33.5 -9.5q-13.5 -7.5 -22 -22.5q-8.5 -15 -13.5 -42l-34 9q10 38 15.5 75q5.5 37 7.5 75q55 -2 100.5 -3.5q45.5 -1.5 82.5 -1.5q54 0 114 1q60 1 129 3l14 -29q-15 -18 -44 -69q-29 -51 -67.5 -134.5q-38.5 -83.5 -84.5 -199q-46 -115.5 -95 -263.5l-104 0z" />
<glyph unicode="&#56;" horiz-adv-x="556" d="M298 403q87 54 87 142q0 50 -31 83q-31 33 -82 33q-23 0 -43 -9q-20 -9 -35 -24q-15 -15 -23.5 -35.5q-8.5 -20.5 -8.5 -43.5q0 -91 136 -146zt0 0zM328 379q81 -35 119.5 -80.5q38.5 -45.5 38.5 -111.5q0 -41 -17.5 -78q-17.5 -37 -47.5 -64.5q-30 -27.5 -70.5 -43.5q-40.5 -16 -86.5 -16q-44 0 -81 14.5q-37 14.5 -64.5 39.5q-27.5 25 -43 58q-15.5 33 -15.5 70q0 117 153 191q-132 59 -132 172q0 36 16 68q16 32 43.5 56.5q27.5 24.5 63.5 38.5q36 14 76 14q38 0 70.5 -12.5q32.5 -12.5 56.5 -34q24 -21.5 38 -50.5q14 -29 14 -62q0 -105 -131 -169zt0 0zM244 331q-50 -32 -74.5 -69.5q-24.5 -37.5 -24.5 -84.5q0 -66 37 -105.5q37 -39.5 97 -39.5q25 0 47.5 10.5q22.5 10.5 40 28.5q17.5 18 27.5 42.5q10 24.5 10 53.5q0 60 -39 96.5t-121 67.5z" />
<glyph unicode="&#57;" horiz-adv-x="556" d="M394 384q0 272 -139 272q-55 0 -88.5 -39q-33.5 -39 -33.5 -110q0 -81 38 -127q38 -46 101 -46q57 0 122 50zt0 0zM391 331q-83 -65 -158 -65q-39 0 -72.5 15.5q-33.5 15.5 -58.5 43.5q-25 28 -39.5 67q-14.5 39 -14.5 85q0 49 15.5 90.5q15.5 41.5 44 72.5q28.5 31 68 48.5q39.5 17.5 87.5 17.5q103 0 162 -76.5q59 -76.5 59 -218.5q0 -96 -27 -174q-27 -78 -72.5 -133.5q-45.5 -55.5 -106.5 -86q-61 -30.5 -129 -30.5q-75 0 -75 47q0 33 34 33q14 0 34.5 -8.5q20.5 -8.5 52.5 -8.5q175 0 196 281z" />
<glyph unicode="&#58;" horiz-adv-x="278" d="M169 418q31 -23 31 -41q0 -13 -7.5 -22.5q-7.5 -9.5 -21.5 -20.5l-38 -28l-36 28q-14 11 -22.5 20.5q-8.5 9.5 -8.5 22.5q0 13 8 21.5q8 8.5 21 19.5l35 29zM169 98q31 -23 31 -41q0 -13 -7.5 -22.5q-7.5 -9.5 -21.5 -20.5l-38 -28l-36 28q-14 11 -22.5 20.5q-8.5 9.5 -8.5 22.5q0 13 8 21.5q8 8.5 21 19.5l35 29z" />
<glyph unicode="&#59;" horiz-adv-x="278" d="M169 418q31 -23 31 -41q0 -13 -7.5 -22.5q-7.5 -9.5 -21.5 -20.5l-38 -28l-36 28q-14 11 -22.5 20.5q-8.5 9.5 -8.5 22.5q0 13 8 21.5q8 8.5 21 19.5l35 29zM130 123q32 -24 48.5 -43q16.5 -19 16.5 -46q0 -32 -33.5 -82q-33.5 -50 -102.5 -104l-26 32q32 25 52 54q20 29 29 65q-24 15 -36.5 27.5q-12.5 12.5 -12.5 26.5q0 12 9.5 23q9.5 11 26.5 24z" />
<glyph unicode="&#60;" horiz-adv-x="833" d="M704 497l-488 -199l488 -198v-63l-575 236v50l575 236z" />
<glyph unicode="&#61;" horiz-adv-x="833" d="M709 233v-57h-585v57zM709 420v-57h-585l0 57z" />
<glyph unicode="&#62;" horiz-adv-x="833" d="M704 323v-50l-575 -236v63l488 198l-488 199l0 62z" />
<glyph unicode="&#63;" horiz-adv-x="470" d="M178 91q26 -20 26 -41q0 -11 -5 -19q-5 -8 -18 -19l-37 -29l-35 27q-26 20 -26 41q0 11 5 19q5 8 19 19l37 28zM124 191q1 12 1 23.5q0 11.5 0 23.5q0 31 -1.5 60.5q-1.5 29.5 -3.5 57.5q98 23 149 70.5q51 47.5 51 106.5q0 24 -9 44.5q-9 20.5 -24.5 35q-15.5 14.5 -36.5 23q-21 8.5 -46 8.5q-23 0 -41.5 -7q-18.5 -7 -33 -15.5q-14.5 -8.5 -26 -15.5q-11.5 -7 -21.5 -7q-14 0 -24 10q-10 10 -10 27q0 31 30 52.5q30 21.5 82 21.5q49 0 90.5 -15.5q41.5 -15.5 71.5 -43q30 -27.5 47 -64.5q17 -37 17 -79q0 -39 -11.5 -68.5q-11.5 -29.5 -33.5 -54q-22 -24.5 -54.5 -45q-32.5 -20.5 -75.5 -40.5q-14 -6 -23.5 -11q-9.5 -5 -15.5 -13q-6 -8 -8.5 -22.5q-2.5 -14.5 -2.5 -39.5l0 -23z" />
<glyph unicode="&#64;" horiz-adv-x="1000" d="M608 407q-16 10 -29.5 15q-13.5 5 -27.5 5q-28 0 -55 -20q-27 -20 -50 -61q-11 -18 -19.5 -41q-8.5 -23 -14.5 -46.5q-6 -23.5 -9.5 -46q-3.5 -22.5 -3.5 -41.5q0 -33 5.5 -50q5.5 -17 22.5 -17q29 0 141 109q10 42 19.5 90.5q9.5 48.5 20.5 103.5zt0 0zM560 164q-63 -60 -104.5 -93q-41.5 -33 -70.5 -33q-63 0 -63 106q0 51 15.5 103.5q15.5 52.5 44.5 97.5q39 60 89 91q50 31 104 31q26 0 55 -10l62 26q-67 -278 -67 -351q0 -45 38 -45q24 0 50.5 21q26.5 21 49 58q22.5 37 37.5 86q15 49 15 106q0 55 -18 99.5q-18 44.5 -51 75.5q-33 31 -79.5 47.5q-46.5 16.5 -103.5 16.5q-73 0 -141.5 -33q-68.5 -33 -124.5 -99q-54 -63 -82 -137.5q-28 -74.5 -28 -149.5q0 -68 22 -123.5q22 -55.5 62 -95.5q40 -40 96.5 -62q56.5 -22 126.5 -22q48 0 98 14.5q50 14.5 98 43q48 28.5 93.5 70.5q45.5 42 84.5 98l18 -29q-83 -122 -189.5 -184.5q-106.5 -62.5 -218.5 -62.5q-81 0 -147.5 25.5q-66.5 25.5 -114 70.5q-47.5 45 -73.5 107.5q-26 62.5 -26 137.5q0 43 9 87q9 44 26.5 86q17.5 42 42 81q24.5 39 56.5 72q66 70 150.5 107.5q84.5 37.5 174.5 37.5q68 0 124 -21.5q56 -21.5 96.5 -59.5q40.5 -38 63 -89q22.5 -51 22.5 -111q0 -70 -31.5 -136q-31.5 -66 -94.5 -122q-74 -66 -132 -66q-32 0 -49.5 23q-17.5 23 -17.5 66q0 11 3 43z" />
<glyph unicode="&#65;" horiz-adv-x="736" d="M427 697q80 -244 133.5 -392q53.5 -148 76.5 -203q15 -36 28 -52q13 -16 46 -16h10v-34q-44 2 -74 3q-30 1 -48 1q-24 0 -56 -1q-32 -1 -74 -3l0 34h10q33 0 46.5 7.5q13.5 7.5 13.5 30.5q0 8 -2.5 18q-2.5 10 -6.5 22l-48 149q-45 1 -76 1.5q-31 0.5 -50 0.5q-14 0 -45 0q-31 0 -79 -1q-29 -73 -44.5 -119q-15.5 -46 -15.5 -66q0 -25 13 -34q13 -9 45 -9h14v-34q-42 2 -72 3q-30 1 -50 1q-16 0 -44.5 -1q-28.5 -1 -68.5 -3l0 34q35 1 55.5 13.5q20.5 12.5 35.5 43.5q10 22 74 173q64 151 169 433zM253 313q32 -1 58 -1.5q26 -0.5 44 -0.5q22 0 49.5 0.5q27.5 0.5 60.5 1.5l-100 292z" />
<glyph unicode="&#66;" horiz-adv-x="622" d="M35 32q5 -1 8.5 -1q3.5 0 7.5 0q28 0 42 13.5q14 13.5 19 43.5q5 30 5 78.5q0 48.5 1 118.5l2 133q1 65 1 107.5q0 42.5 0 64.5q0 42 -15 58q-15 16 -56 16h-4v34q35 -2 65 -3q30 -1 57 -1q47 0 84 2q37 2 65 2q104 0 160.5 -45.5q56.5 -45.5 56.5 -119.5q0 -55 -29.5 -93.5q-29.5 -38.5 -93.5 -73.5q171 -33 171 -169q0 -43 -17.5 -79.5q-17.5 -36.5 -50.5 -63q-33 -26.5 -81.5 -41.5q-48.5 -15 -110.5 -15q-36 0 -80 2.5q-44 2.5 -98 2.5q-13 0 -40 -1q-27 -1 -69 -3zM208 63q57 -16 109 -16q81 0 124.5 39.5q43.5 39.5 43.5 108.5q0 75 -50 110.5q-50 35.5 -151 35.5q-22 0 -41 -0.5q-19 -0.5 -36 -1.5q0 -31 -0.5 -60.5q-0.5 -29.5 -0.5 -58.5q0 -42 0.5 -80.5q0.5 -38.5 1.5 -76.5zt0 0zM207 384q16 -1 31.5 -1q15.5 0 31.5 0q25 0 49 1q24 1 48 3q72 51 72 128q0 61 -38.5 97.5q-38.5 36.5 -109.5 36.5q-17 0 -37 -2q-20 -2 -43 -6q-2 -85 -2.5 -148.5t-1.5 -108.5z" />
<glyph unicode="&#67;" horiz-adv-x="708" d="M646 658q0 -38 2.5 -75q2.5 -37 7.5 -73l-36 -6q-10 71 -66.5 110q-56.5 39 -147.5 39q-121 0 -187.5 -73q-66.5 -73 -66.5 -213q0 -75 20.5 -135.5q20.5 -60.5 57 -102.5q36.5 -42 86.5 -65q50 -23 109 -23q76 0 131.5 34.5q55.5 34.5 87.5 103.5l33 -16q-31 -64 -51 -131q-55 -25 -109.5 -36.5q-54.5 -11.5 -107.5 -11.5q-81 0 -148 26q-67 26 -114.5 74q-47.5 48 -74 115q-26.5 67 -26.5 149q0 81 28 148q28 67 78.5 115q50.5 48 120.5 74.5q70 26.5 153 26.5q100 0 220 -37z" />
<glyph unicode="&#68;" horiz-adv-x="781" d="M208 59q70 -15 139 -15q140 0 212.5 75.5q72.5 75.5 72.5 214.5q0 74 -20 133q-20 59 -58.5 100q-38.5 41 -94 63q-55.5 22 -126.5 22q-57 0 -120 -9q-2 -146 -3.5 -258q-1.5 -112 -1.5 -193zM35 34q5 -1 8.5 -1q3.5 0 7.5 0q28 0 42 13q14 13 19 43q5 30 5 78.5q0 48.5 1 118.5l2 130q1 62 1 105q0 43 0 68q0 42 -15 58q-15 16 -56 16h-4v34q38 -2 64.5 -3q26.5 -1 41.5 -1q70 0 118.5 4q48.5 4 75.5 4q93 0 166 -24.5q73 -24.5 123 -69.5q50 -45 76 -108.5q26 -63.5 26 -140.5q0 -79 -26 -145.5q-26 -66.5 -75.5 -114.5q-49.5 -48 -121 -75q-71.5 -27 -162.5 -27q-43 0 -94 4q-51 4 -111 4q-17 0 -44.5 -1q-27.5 -1 -67.5 -3z" />
<glyph unicode="&#69;" horiz-adv-x="634" d="M46 697q171 -6 269 -6q108 0 222 6q2 -74 9 -152l-33 -3q-2 33 -12.5 53q-10.5 20 -31 30.5q-20.5 10.5 -53 13.5q-32.5 3 -78.5 3q-25 0 -55.5 -0.5q-30.5 -0.5 -66.5 -1.5q-1 -76 -2.5 -139q-1.5 -63 -2.5 -115l15 0q40 0 72 -0.5q32 -0.5 58 -0.5q31 0 53 2q22 2 36 8.5q14 6.5 21 19q7 12.5 8 32.5l31 -3q-4 -32 -5.5 -58q-1.5 -26 -1.5 -46q0 -13 1 -32.5q1 -19.5 3 -45.5l-32 -1v4q0 24 -7.5 38.5q-7.5 14.5 -23.5 21.5q-16 7 -42.5 9q-26.5 2 -63.5 2h-122q0 -35 -0.5 -66.5q-0.5 -31.5 -0.5 -60.5q0 -42 0.5 -79.5q0.5 -37.5 1.5 -69.5q49 -6 124 -6q50 0 86 2.5q36 2.5 61.5 14q25.5 11.5 43.5 34.5q18 23 32 64l35 -12q-29 -80 -45 -157q-155 6 -262 6q-59 0 -121.5 -2q-62.5 -2 -130.5 -4l0 32q5 -1 8.5 -1q3.5 0 7.5 0q28 0 42 13.5q14 13.5 19 43.5q5 30 5 78.5q0 48.5 1 118.5l2 133q1 65 1 107.5q0 42.5 0 64.5q0 42 -15 58q-15 16 -56 16h-4l0 33z" />
<glyph unicode="&#70;" horiz-adv-x="585" d="M35 32q5 -1 9.5 -1q4.5 0 9.5 0q22 0 35.5 7.5q13.5 7.5 20.5 24q7 16.5 9 43.5q2 27 2 65q0 24 -0.5 52q-0.5 28 -0.5 62v133q0 42 0.5 84.5q0.5 42.5 0.5 87.5q0 41 -15 57.5q-15 16.5 -56 16.5h-8v33q85 -2 152 -3.5q67 -1.5 118 -1.5q54 0 109.5 1.5q55.5 1.5 115.5 3.5q0 -41 2.5 -79.5q2.5 -38.5 6.5 -76.5l-34 -4q-2 35 -11.5 56q-9.5 21 -30 32q-20.5 11 -52.5 14q-32 3 -80 3q-29 0 -59.5 -0.5q-30.5 -0.5 -62.5 -1.5q-1 -87 -2.5 -151q-1.5 -64 -2.5 -108l16 0q38 0 68 -0.5q30 -0.5 55 -0.5q31 0 53.5 2q22.5 2 37 8.5q14.5 6.5 21.5 19q7 12.5 8 32.5l31 -2q-3 -29 -5 -54.5q-2 -25.5 -2 -49.5q0 -29 3 -80l-32 -2v8q0 24 -7.5 37.5q-7.5 13.5 -23.5 20.5q-16 7 -41.5 9q-25.5 2 -62.5 2h-119v-190q0 -31 2 -51.5q2 -20.5 10.5 -33q8.5 -12.5 24 -17.5q15.5 -5 42.5 -5h19v-34q-42 2 -78 3q-36 1 -65 1q-14 0 -46 -1q-32 -1 -85 -4l0 33z" />
<glyph unicode="&#71;" horiz-adv-x="742" d="M654 674q1 -39 5 -76.5q4 -37.5 11 -73.5l-37 -8q-14 69 -65 102.5q-51 33.5 -147 33.5q-128 0 -198.5 -74.5q-70.5 -74.5 -70.5 -213.5q0 -76 21.5 -136q21.5 -60 60.5 -102q39 -42 93 -64.5q54 -22.5 119 -22.5q29 0 57.5 6q28.5 6 58.5 17q3 73 3 107q0 36 -2 59q-2 23 -11.5 35.5q-9.5 12.5 -29.5 17.5q-20 5 -57 5h-7v33q48 -2 82.5 -3q34.5 -1 54.5 -1q32 0 63 1q31 1 63 3l0 -33q-25 0 -38.5 -5q-13.5 -5 -19.5 -17.5q-6 -12.5 -7 -35q-1 -22.5 -1 -56.5v-51q0 -22 0.5 -46.5q0.5 -24.5 3.5 -51.5q-61 -13 -120 -26q-59 -13 -120 -13q-86 0 -155 26q-69 26 -117.5 73.5q-48.5 47.5 -74.5 114q-26 66.5 -26 146.5q0 82 29 149.5q29 67.5 81 116q52 48.5 124.5 75.5q72.5 27 159.5 27q52 0 105 -9t109 -29z" />
<glyph unicode="&#72;" horiz-adv-x="794" d="M38 697q40 -2 71 -3q31 -1 53 -1q26 0 57 1q31 1 68 3l0 -34h-13q-25 0 -38.5 -7q-13.5 -7 -20 -23q-6.5 -16 -8 -41.5q-1.5 -25.5 -1.5 -62.5v-144q46 -2 87.5 -2q41.5 0 78.5 0q33 0 85 0q52 0 126 2l0 136q0 39 -1.5 66q-1.5 27 -8 44q-6.5 17 -20 24.5q-13.5 7.5 -38.5 7.5h-13v34q37 -2 68.5 -3q31.5 -1 57.5 -1q22 0 52.5 1q30.5 1 70.5 3l0 -34q-4 0 -7 0.5q-3 0.5 -6 0.5q-21 0 -34 -7q-13 -7 -20 -22q-7 -15 -9 -38.5q-2 -23.5 -2 -57.5q0 -25 0.5 -55.5q0.5 -30.5 0.5 -67.5v-130q0 -37 -0.5 -67.5q-0.5 -30.5 -0.5 -56.5q0 -35 2 -59.5q2 -24.5 9 -40q7 -15.5 20 -22.5q13 -7 34 -7q4 0 8 0q4 0 9 1l0 -34q-45 2 -77 3q-32 1 -50 1q-23 0 -55 -1q-32 -1 -75 -3l0 34q5 0 9 -0.5q4 -0.5 8 -0.5q24 0 37.5 7q13.5 7 20 22q6.5 15 8.5 39.5q2 24.5 2 59.5v166q-51 2 -98 2q-47 0 -92 0q-42 0 -64.5 -0.5q-22.5 -0.5 -25.5 -0.5q-7 0 -31 0q-24 0 -66 -1l0 -155q0 -38 1.5 -64.5q1.5 -26.5 8 -43q6.5 -16.5 20.5 -24q14 -7.5 39 -7.5q4 0 8 0.5q4 0.5 9 0.5l0 -34q-43 2 -75 3q-32 1 -55 1q-19 0 -50.5 -1q-31.5 -1 -76.5 -3l0 34q5 -1 9 -1q4 0 8 0q21 0 34 7q13 7 20 22.5q7 15.5 9 40q2 24.5 2 59.5q0 26 -0.5 56.5q-0.5 30.5 -0.5 67.5v130q0 34 0.5 62.5q0.5 28.5 0.5 51.5q0 36 -2 61.5q-2 25.5 -9 41.5q-7 16 -20 23.5q-13 7.5 -35 7.5q-3 0 -6 -0.5q-3 -0.5 -7 -0.5l0 34z" />
<glyph unicode="&#73;" horiz-adv-x="350" d="M40 697q39 -2 72.5 -3q33.5 -1 61.5 -1q23 0 56 1q33 1 76 3l0 -34h-8q-31 0 -47 -7q-16 -7 -23 -25q-5 -13 -6 -42q-1 -29 -1 -76v-340q0 -45 1.5 -73.5q1.5 -28.5 9.5 -42.5q7 -13 23.5 -18q16.5 -5 45.5 -5h10v-34q-49 2 -83 3q-34 1 -54 1q-24 0 -59 -1q-35 -1 -80 -3l0 34h10q29 0 45.5 5q16.5 5 23.5 18q8 17 10 54q2 37 2 98v268q0 63 -1.5 101q-1.5 38 -6.5 53q-7 19 -23 25.5q-16 6.5 -46 6.5h-9l0 34z" />
<glyph unicode="&#74;" horiz-adv-x="332" d="M33 697q36 -2 67.5 -3q31.5 -1 59.5 -1q27 0 58.5 1q31.5 1 67.5 3l0 -34q-29 -1 -44 -7q-15 -6 -22 -25q-7 -19 -8 -87.5q-1 -68.5 -1 -189.5q0 -77 1 -133q1 -56 1 -93q0 -64 -8 -114.5q-8 -50.5 -40 -98.5q-32 -47 -75.5 -70.5q-43.5 -23.5 -94.5 -23.5q-79 0 -79 50q0 18 11 32.5q11 14.5 27 14.5q10 0 20 -5q10 -5 21 -10.5q11 -5.5 22.5 -10.5q11.5 -5 24.5 -5q44 0 59 42.5q15 42.5 15 125.5v526q0 48 -14.5 65q-14.5 17 -58.5 17h-10l0 34z" />
<glyph unicode="&#75;" horiz-adv-x="693" d="M38 697q40 -2 71 -3q31 -1 53 -1q53 0 125 3l0 -32h-6q-26 0 -41 -7q-15 -7 -22.5 -22.5q-7.5 -15.5 -9 -41.5q-1.5 -26 -1.5 -64v-357q0 -39 1.5 -66q1.5 -27 8 -43q6.5 -16 21 -23q14.5 -7 40.5 -7q4 0 7.5 0.5q3.5 0.5 8.5 0.5l0 -34q-42 2 -75 3q-33 1 -57 1q-19 0 -50.5 -1q-31.5 -1 -76.5 -3l0 34q5 -1 8.5 -1q3.5 0 7.5 0q22 0 35 8q13 8 20 26q7 18 9 46q2 28 2 68q0 22 -0.5 48q-0.5 26 -0.5 57v130q0 34 0.5 62.5q0.5 28.5 0.5 51.5q0 36 -2 61.5q-2 25.5 -9 41.5q-7 16 -20 23.5q-13 7.5 -35 7.5q-3 0 -6 -0.5q-3 -0.5 -7 -0.5zM427 697q35 -2 65.5 -3q30.5 -1 56.5 -1q18 0 44.5 1q26.5 1 63.5 3l0 -33h-4q-21 0 -36.5 -4q-15.5 -4 -28 -10.5q-12.5 -6.5 -23.5 -16.5q-11 -10 -24 -22l-242 -232l223 -224q27 -28 49 -50.5q22 -22.5 41 -38.5q19 -16 36.5 -24.5q17.5 -8.5 36.5 -8.5q3 0 6.5 0q3.5 0 6.5 1l0 -34q-28 2 -50.5 3q-22.5 1 -39.5 1q-16 0 -39 -1q-23 -1 -54 -3q1 2 1 5q0 13 -21 39q-21 26 -60.5 66.5q-39.5 40.5 -97 97.5q-57.5 57 -130.5 132l188 203q40 44 62 67q22 23 22 33q0 21 -40 21l-12 0z" />
<glyph unicode="&#76;" horiz-adv-x="598" d="M125 694q14 -1 25 -1q11 0 19 0q32 0 62 1q30 1 61 4l0 -34h-15q-39 0 -52 -27q-14 -24 -14 -122v-97l1 -358q55 -3 99 -3q132 0 168 24q39 24 61 94l35 -11q-15 -42 -26.5 -82q-11.5 -40 -20.5 -82q-81 2 -149 3.5q-68 1.5 -128 1.5q-42 0 -93.5 -1.5q-51.5 -1.5 -122.5 -3.5l0 32q5 -1 16 -1q65 0 67 188l0 66l1 133q0 11 0 24.5q0 13.5 1 30.5l0 47q0 90 -15 117q-14 27 -55 27h-4l0 34z" />
<glyph unicode="&#77;" horiz-adv-x="914" d="M596 491q33 75 54.5 126q21.5 51 21.5 74q0 2 -0.5 3q-0.5 1 -0.5 3q57 -3 93 -3q35 0 89 3l0 -34h-6q-41 0 -57.5 -14q-16.5 -14 -16.5 -53q0 -2 1 -46q1 -44 6 -129l8 -137q5 -92 8.5 -146.5q3.5 -54.5 8.5 -73.5q8 -30 58 -30h12v-34q-45 2 -77 3q-32 1 -50 1q-22 0 -53.5 -1q-31.5 -1 -73.5 -3l0 35q6 0 11 -0.5q5 -0.5 10 -0.5q38 0 52 13q14 13 14 48q0 7 0 23q0 16 -2 41l-19 420l-200 -460q-5 -10 -16 -35.5q-11 -25.5 -21 -72.5l-32 0q-5 24 -15 47.5q-10 23.5 -21 49.5l-197 446q-9 -158 -15.5 -264q-6.5 -106 -6.5 -163v-5q0 -26 1 -42.5q1 -16.5 8 -27q7 -10.5 21.5 -14.5q14.5 -4 40.5 -4h10v-33q-71 3 -117 3q-16 0 -44 -1q-28 -1 -67 -3l0 34h14q26 0 40.5 6.5q14.5 6.5 22.5 24.5q8 18 12 73.5q4 55.5 11 150.5l9 118q6 82 9.5 132.5q3.5 50.5 3.5 68.5q0 35 -18.5 45.5q-18.5 10.5 -60.5 10.5l0 33q26 -2 49 -3q23 -1 43 -1q17 0 38.5 1q21.5 1 49.5 3l0 -3q0 -38 57 -167q57 -129 159 -356z" />
<glyph unicode="&#78;" horiz-adv-x="808" d="M30 697q26 -2 47.5 -3q21.5 -1 39.5 -1q14 0 34 1q20 1 48 3q8 -18 19.5 -35.5q11.5 -17.5 26.5 -35.5l403 -477q-4 219 -5.5 336.5q-1.5 117.5 -6.5 137.5q-6 23 -21.5 31.5q-15.5 8.5 -47.5 8.5h-15v34q33 -2 61.5 -3q28.5 -1 53.5 -1q25 0 54 1q29 1 62 3l0 -34q-5 1 -8.5 1q-3.5 0 -7.5 0q-29 0 -42.5 -13.5q-13.5 -13.5 -18.5 -43.5q-5 -30 -5 -78.5q0 -48.5 -1 -118.5l-2 -130q-1 -41 -1 -76.5q0 -35.5 0 -66.5q0 -48 1 -84.5q1 -36.5 5 -60.5l-55 0q-6 16 -22.5 36q-16.5 20 -40.5 48l-419 493q1 -227 3 -351q2 -124 7 -144q6 -23 21 -31.5q15 -8.5 47 -8.5h15v-34q-35 2 -63.5 3q-28.5 1 -51.5 1q-20 0 -48.5 -1q-28.5 -1 -65.5 -3l0 34q5 -1 8.5 -1q3.5 0 7.5 0q29 0 42.5 13q13.5 13 18.5 43q5 30 4.5 78.5q-0.5 48.5 1.5 118.5l2 130q1 37 1 67.5q0 30.5 0 54.5q0 36 -1 60q-1 24 -7.5 38.5q-6.5 14.5 -21.5 20.5q-15 6 -43 6h-13l0 34z" />
<glyph unicode="&#79;" horiz-adv-x="802" d="M401 713q73 0 131.5 -21q58.5 -21 106.5 -66q57 -54 87 -124q30 -70 30 -151q0 -82 -32 -154q-32 -72 -90 -124q-47 -42 -109 -65.5q-62 -23.5 -125 -23.5q-158 0 -260 114q-46 52 -70 116q-24 64 -24 136q0 78 29 146q29 68 84 120q51 48 113 72.5q62 24.5 129 24.5zt0 0zM648 334q0 73 -20 133q-20 60 -55 102.5q-35 42.5 -82 65.5q-47 23 -101 23q-51 0 -94.5 -19.5q-43.5 -19.5 -75 -56q-31.5 -36.5 -49 -90q-17.5 -53.5 -17.5 -121.5q0 -76 20.5 -137.5q20.5 -61.5 55.5 -104.5q35 -43 81.5 -66.5q46.5 -23.5 99.5 -23.5q51 0 94.5 20q43.5 20 75 57.5q31.5 37.5 49.5 92.5t18 125z" />
<glyph unicode="&#80;" horiz-adv-x="605" d="M35 32q5 -1 9.5 -1q4.5 0 9.5 0q22 0 35.5 7.5q13.5 7.5 20.5 25q7 17.5 9 45q2 27.5 2 67.5q0 23 -0.5 50q-0.5 27 -0.5 59v306q0 42 -14.5 57.5q-14.5 15.5 -55.5 15.5h-4v34q38 -2 70.5 -3q32.5 -1 60.5 -1q49 0 86.5 2q37.5 2 64.5 2q55 0 98.5 -14.5q43.5 -14.5 74 -40q30.5 -25.5 46.5 -61q16 -35.5 16 -77.5q0 -100 -67.5 -159q-67.5 -59 -200.5 -59q-26 0 -86 6l0 -147q0 -32 2 -53.5q2 -21.5 10 -34.5q8 -13 23 -18.5q15 -5.5 42 -5.5h17v-34q-41 2 -77 3q-36 1 -66 1q-14 0 -44.5 -1q-30.5 -1 -80.5 -4zM209 338q14 -2 31.5 -4q17.5 -2 38.5 -2q93 0 140 41q47 41 47 119q0 70 -46.5 112.5q-46.5 42.5 -127.5 42.5q-43 0 -81 -7q-2 -97 -2 -172t0 -130z" />
<glyph unicode="&#81;" horiz-adv-x="802" d="M648 334q0 73 -20 133q-20 60 -55 102.5q-35 42.5 -82 65.5q-47 23 -101 23q-51 0 -94.5 -19.5q-43.5 -19.5 -75 -56q-31.5 -36.5 -49 -90q-17.5 -53.5 -17.5 -121.5q0 -76 20 -137.5q20 -61.5 55.5 -104.5q35.5 -43 83 -66q47.5 -23 102.5 -23q50 0 93 20q43 20 74 57.5q31 37.5 48.5 92.5q17.5 55 17.5 124zt0 0zM634 -55q65 -39 117 -61.5q52 -22.5 105 -22.5q16 0 36 2.5q20 2.5 43 7.5l6 -30q-48 -14 -87.5 -23q-39.5 -9 -74.5 -9q-39 0 -78.5 12q-39.5 12 -81.5 34q-42 22 -88.5 52.5q-46.5 30.5 -100.5 67.5l-19 13q-5 0 -10.5 -0.5q-5.5 -0.5 -10.5 -0.5q-75 0 -138.5 27.5q-63.5 27.5 -109 76q-45.5 48.5 -71 114.5q-25.5 66 -25.5 143q0 79 29 147q29 68 84 121q50 48 112 72.5q62 24.5 130 24.5q144 0 237 -87q57 -54 87.5 -124q30.5 -70 30.5 -151q0 -121 -61 -209.5q-61 -88.5 -173 -129.5z" />
<glyph unicode="&#82;" horiz-adv-x="703" d="M35 32q5 -1 8.5 -1q3.5 0 7.5 0q28 0 42 13.5q14 13.5 19 43.5q5 30 5 78.5q0 48.5 1 118.5l2 133q1 65 1 107.5q0 42.5 0 64.5q0 42 -15 58q-15 16 -56 16h-4v34q37 -2 69 -3q32 -1 58 -1q45 0 81 2q36 2 65 2q52 0 94 -14.5q42 -14.5 72 -39.5q30 -25 46 -59q16 -34 16 -72q0 -119 -128 -184l91 -138q33 -50 55.5 -82.5q22.5 -32.5 40.5 -51q18 -18.5 35 -26q17 -7.5 39 -7.5h5v-28q-18 -2 -34.5 -3.5q-16.5 -1.5 -32.5 -1.5q-28 0 -48.5 3.5q-20.5 3.5 -36.5 12q-16 8.5 -29.5 21.5q-13.5 13 -26.5 31q-17 23 -52 84q-35 61 -101 155q-20 -2 -41.5 -3q-21.5 -1 -44.5 -1h-29v-150q0 -32 2 -53q2 -21 9.5 -33.5q7.5 -12.5 22.5 -18q15 -5.5 41 -5.5h13v-34q-39 2 -73.5 3q-34.5 1 -63.5 1q-14 0 -45 -1q-31 -1 -80 -4zM209 344q27 -2 47 -3q20 -1 34 -1q28 0 69 3q48 29 69.5 66q21.5 37 21.5 89q0 66 -42 108q-42 42 -120 42q-18 0 -37.5 -1.5q-19.5 -1.5 -39.5 -5.5q-2 -88 -2 -161.5t0 -135.5z" />
<glyph unicode="&#83;" horiz-adv-x="541" d="M459 676q0 -35 4 -70q4 -35 13 -71l-38 -7q-16 119 -155 119q-66 0 -105.5 -32q-39.5 -32 -39.5 -80q0 -30 12.5 -51q12.5 -21 35.5 -36q23 -15 54.5 -27q31.5 -12 70.5 -25l34 -11q78 -26 115.5 -68.5q37.5 -42.5 37.5 -107.5q0 -47 -18.5 -87q-18.5 -40 -53 -69q-34.5 -29 -84.5 -45.5q-50 -16.5 -113 -16.5q-91 0 -180 31q1 8 1 15.5q0 7.5 0 15.5q0 69 -16 136l44 10q8 -80 49.5 -117q41.5 -37 125.5 -37q36 0 66 9.5q30 9.5 51.5 27q21.5 17.5 33.5 41q12 23.5 12 52.5q0 34 -12 54.5q-12 20.5 -34.5 34q-22.5 13.5 -54.5 24q-32 10.5 -72 23.5q-90 30 -136.5 74q-46.5 44 -46.5 121q0 41 17.5 77q17.5 36 48.5 62.5q31 26.5 73.5 41.5q42.5 15 93.5 15q47 0 87 -7.5t79 -18.5z" />
<glyph unicode="&#84;" horiz-adv-x="631" d="M194 34q33 0 48.5 8q15.5 8 21.5 32q5 17 6.5 117.5q1.5 100.5 1.5 287.5v156h-99q-35 0 -57.5 -3.5q-22.5 -3.5 -37.5 -14.5q-15 -11 -24 -31q-9 -20 -15 -52l-32 7q9 41 14 81.5q5 40.5 5 82.5q18 -11 72 -14q54 -3 144 -3h119q107 0 167.5 2q60.5 2 83.5 15q0 -8 -0.5 -15.5q-0.5 -7.5 -0.5 -15.5q0 -32 3 -65q3 -33 8 -66l-31 -6q-3 31 -11.5 50.5q-8.5 19.5 -24 30q-15.5 10.5 -39 14q-23.5 3.5 -57.5 3.5h-92q-1 -85 -1.5 -148.5q-0.5 -63.5 -0.5 -109.5q0 -139 1.5 -216q1.5 -77 8.5 -96q7 -18 22 -24.5q15 -6.5 44 -6.5h17v-34q-47 2 -82 3q-35 1 -59 1q-20 0 -55 -1q-35 -1 -85 -3l0 34z" />
<glyph unicode="&#85;" horiz-adv-x="775" d="M287 663q-5 0 -8.5 0.5q-3.5 0.5 -7.5 0.5q-23 0 -36 -8q-13 -8 -20 -25.5q-7 -17.5 -8.5 -45q-1.5 -27.5 -1.5 -67.5v-178q0 -60 3.5 -104q3.5 -44 17.5 -75q23 -52 69.5 -80q46.5 -28 113.5 -28q98 0 150 58q34 37 41 88.5q7 51.5 7 124.5q0 135 -2.5 210q-2.5 75 -7.5 89q-7 23 -21.5 31.5q-14.5 8.5 -46.5 8.5h-7v34q32 -2 60 -3q28 -1 53 -1q25 0 53 1q28 1 60 3l0 -34h-6q-28 0 -42.5 -7q-14.5 -7 -21.5 -25q-6 -16 -8 -82.5q-2 -66.5 -2 -186.5v-49q0 -55 -4 -102q-4 -47 -21 -88q-27 -64 -93 -101.5q-66 -37.5 -159 -37.5q-64 0 -116.5 18.5q-52.5 18.5 -89.5 53.5q-23 22 -38 46.5q-15 24.5 -23 52.5q-8 28 -11 60q-3 32 -3 70q0 56 1 115q1 59 1 125v15q0 34 -1.5 57.5q-1.5 23.5 -8 38q-6.5 14.5 -20 21q-13.5 6.5 -38.5 6.5h-9v34q40 -2 70.5 -3q30.5 -1 52.5 -1q27 0 59 1q32 1 70 3z" />
<glyph unicode="&#86;" horiz-adv-x="717" d="M7 697q42 -2 74 -3q32 -1 53 -1q27 0 59.5 1q32.5 1 70.5 3l0 -33q-38 -2 -53 -8q-15 -6 -15 -26q0 -17 6 -39.5q6 -22.5 17 -52.5l147 -411q86 216 132.5 339q46.5 123 46.5 159q0 26 -14.5 32.5q-14.5 6.5 -52.5 8.5l0 31q33 -2 61.5 -3q28.5 -1 52.5 -1q20 0 48 1q28 1 64 3l0 -34h-7q-24 0 -38.5 -7.5q-14.5 -7.5 -25 -23.5q-10.5 -16 -19.5 -39.5q-9 -23.5 -22 -54.5q-106 -255 -161.5 -390.5q-55.5 -135.5 -57.5 -155.5l-60 0q0 3 -7.5 29q-7.5 26 -25.5 80q-18 54 -48 138q-30 84 -74 203l-21 58q-18 48 -32.5 80.5q-14.5 32.5 -27.5 51.5q-13 19 -26.5 27q-13.5 8 -30.5 8q-8 0 -13 -1l0 31z" />
<glyph unicode="&#87;" horiz-adv-x="1037" d="M500 495l-30 96q-6 21 -12 35q-6 14 -13.5 22.5q-7.5 8.5 -18 12q-10.5 3.5 -26.5 3.5q-5 0 -10 0q-5 0 -10 -1l0 34q37 -2 66.5 -3.5q29.5 -1.5 52.5 -1.5q23 0 54 1.5q31 1.5 72 3.5l0 -34h-13q-32 0 -45 -5.5q-13 -5.5 -13 -25.5q0 -12 4.5 -27.5q4.5 -15.5 10.5 -35.5l145 -447q79 226 122.5 350q43.5 124 43.5 153q0 24 -13.5 31q-13.5 7 -46.5 7h-13v34q35 -2 62.5 -3q27.5 -1 47.5 -1q23 0 50.5 1q27.5 1 59.5 3l0 -34h-8q-26 0 -40 -10q-14 -11 -38.5 -76q-24.5 -65 -69.5 -183l-41 -108q-46 -121 -73.5 -193.5q-27.5 -72.5 -33.5 -100.5l-57 0q-7 26 -14.5 48.5q-7.5 22.5 -13.5 41.5l-113 340l-132 -328q-5 -14 -15.5 -38.5q-10.5 -24.5 -21.5 -63.5l-57 0q-4 26 -29.5 96.5q-25.5 70.5 -68.5 187.5l-53 146q-23 62 -37.5 107.5q-14.5 45.5 -27 75.5q-12.5 30 -26 45q-13.5 15 -33.5 15q-7 0 -15 -2l0 34q35 -2 62.5 -3q27.5 -1 47.5 -1q24 0 53 1q29 1 64 3l0 -34q-33 0 -45.5 -5.5q-12.5 -5.5 -12.5 -25.5q0 -15 6.5 -36q6.5 -21 15.5 -46l150 -428z" />
<glyph unicode="&#88;" horiz-adv-x="711" d="M45 697q38 -2 68 -3q30 -1 51 -1q26 0 57 1q31 1 68 3l0 -34h-18q-37 0 -37 -20q0 -10 11.5 -30.5q11.5 -20.5 34.5 -55.5l86 -132l75 108q29 42 45.5 68q16.5 26 16.5 39q0 23 -44 23h-10v34q35 -2 62 -3q27 -1 45 -1q23 0 50 1q27 1 59 3l0 -34q-5 1 -14 1q-20 0 -35 -8.5q-15 -8.5 -30 -24q-15 -15.5 -31 -38.5q-16 -23 -38 -52l-121 -161l168 -246q32 -48 56.5 -74.5q24.5 -26.5 59.5 -26.5q8 0 12 1l0 -34q-44 2 -76.5 3q-32.5 1 -55.5 1q-18 0 -49.5 -1q-31.5 -1 -76.5 -3l0 34h13q49 0 49 24q0 11 -7.5 23q-7.5 12 -24.5 37l-126 187l-86 -123q-36 -51 -54.5 -81.5q-18.5 -30.5 -18.5 -43.5q0 -24 48 -24q5 0 8.5 0.5q3.5 0.5 8.5 0.5l0 -34q-42 2 -70.5 3q-28.5 1 -45.5 1q-20 0 -50 -1q-30 -1 -69 -3l0 34q4 -1 7.5 -1q3.5 0 6.5 0q18 0 32.5 6q14.5 6 28 17.5q13.5 11.5 26.5 28q13 16.5 28 37.5l170 227l-156 236q-12 18 -22 32.5q-10 14.5 -20.5 24.5q-10.5 10 -24 15.5q-13.5 5.5 -31.5 5.5h-9l0 34z" />
<glyph unicode="&#89;" horiz-adv-x="659" d="M9 697q36 -2 67.5 -3q31.5 -1 56.5 -1q26 0 56 1q30 1 64 3l0 -34h-7q-55 0 -55 -22q0 -11 24 -53l10 -17l118 -210q160 256 160 279q0 12 -12 17.5q-12 5.5 -39 5.5h-8v34q29 -2 55.5 -3q26.5 -1 46.5 -1q25 0 50.5 1q25.5 1 53.5 3l0 -34q-2 1 -7 1h-6q-43 0 -113 -111l-34 -55l-123 -188l2 -174q2 -69 16 -85q15 -17 58 -17h17v-34q-41 2 -77 3q-36 1 -65 1q-25 0 -61 -1q-36 -1 -79 -3l0 34q4 0 10.5 -0.5q6.5 -0.5 9.5 -0.5q43 0 58 20q14 19 16 81l2 173l-158 266q-2 4 -5 8q-3 4 -6 11q-43 73 -79 73q-3 0 -6 0q-3 0 -11 -2l0 34z" />
<glyph unicode="&#90;" horiz-adv-x="677" d="M76 697q51 -6 112 -7.5q61 -1.5 132 -1.5h116q42 0 87.5 1.5q45.5 1.5 96.5 7.5l14 -27q-23 -21 -42.5 -44q-19.5 -23 -37.5 -47l-386 -514q45 -1 84 -1q39 0 74 0q81 0 134.5 2q53.5 2 80.5 8q29 7 50 34q21 27 38 78l33 -10q-15 -45 -26 -88q-11 -43 -18 -88q-60 6 -136 8.5q-76 2.5 -168 2.5h-37q-57 0 -116.5 -1.5q-59.5 -1.5 -125.5 -9.5l-16 29q22 18 39.5 40q17.5 22 36.5 48l386 518h-164q-59 0 -101 -2.5q-42 -2.5 -69.5 -13q-27.5 -10.5 -43 -31q-15.5 -20.5 -21.5 -55.5l-32 9q12 38 18 76.5t8 78.5z" />
<glyph unicode="&#91;" horiz-adv-x="419" d="M141 751q35 -3 63 -3.5q28 -0.5 51 -0.5h127v-42h-28q-28 0 -62 -2q-34 -2 -75 -6l-7 -818q32 -5 62.5 -7.5q30.5 -2.5 62.5 -2.5q3 0 13 0q10 0 27 1l0 -42h-116q-44 0 -125 -3q5 198 6.5 345q1.5 147 1.5 246q0 81 0 164t-1 171z" />
<glyph unicode="&#92;" horiz-adv-x="461" d="M30 761q35 -70 78 -152q43 -82 94 -178q51 -97 117.5 -221q66.5 -124 151.5 -279l-52 -24q-35 70 -122 234q-87 164 -227 424l-92 172l52 24z" />
<glyph unicode="&#93;" horiz-adv-x="419" d="M283 751q-2 -148 -3.5 -255q-1.5 -107 -1.5 -177q0 -24 0 -147q0 -123 2 -347q-108 3 -155 3h-86v43q14 -1 21.5 -1.5q7.5 -0.5 9.5 -0.5q32 0 66 3q34 3 69 7l1 818q-48 3 -81 5.5q-33 2.5 -52 2.5h-31v42h96q29 0 65 0.5t80 3.5z" />
<glyph unicode="&#94;" horiz-adv-x="1000" d="M543 714l254 -276h-45l-253 213l-254 -213h-44l255 276z" />
<glyph unicode="&#95;" horiz-adv-x="500" d="M500 -178v-58h-500l0 58z" />
<glyph unicode="&#96;" horiz-adv-x="500" d="M324 559l-37 -12l-164 166l72 44z" />
<glyph unicode="&#97;" horiz-adv-x="481" d="M277 229q-41 -11 -71.5 -20q-30.5 -9 -50.5 -20q-20 -11 -29.5 -26q-9.5 -15 -9.5 -37q0 -31 20 -52q20 -21 55 -21q22 0 49 11.5q27 11.5 61 33.5l2 138zM483 40q-40 -29 -69.5 -42q-29.5 -13 -46.5 -13q-61 0 -64 74q-48 -32 -84 -49.5q-36 -17.5 -67 -17.5q-25 0 -46.5 10q-21.5 10 -37 27.5q-15.5 17.5 -24 41q-8.5 23.5 -8.5 49.5q0 40 15.5 62.5q15.5 22.5 48.5 37q33 14.5 83.5 26q50.5 11.5 121.5 29.5q1 23 1.5 39q0.5 16 0.5 27q0 99 -85 99q-42 0 -66 -15.5q-24 -15.5 -24 -41.5q0 -4 0.5 -7q0.5 -3 0.5 -6q0 -17 -15.5 -26q-15.5 -9 -34.5 -9q-34 0 -34 24q0 16 16.5 39q16.5 23 44.5 44.5q28 21.5 64.5 36.5q36.5 15 76.5 15q68 0 103 -37q35 -37 35 -110q0 -60 -4.5 -120q-4.5 -60 -4.5 -123q0 -28 6 -41q6 -13 26 -13q10 0 23.5 5.5q13.5 5.5 33.5 15.5z" />
<glyph unicode="&#98;" horiz-adv-x="558" d="M175 64q43 -23 93 -23q81 0 127.5 52q46.5 52 46.5 138q0 87 -42 141q-42 54 -108 54q-28 0 -57.5 -9.5q-29.5 -9.5 -66.5 -29.5q-1 -42 -1 -80q0 -38 0 -70q0 -75 1.5 -115.5q1.5 -40.5 6.5 -57.5zt0 0zM173 739q-4 -96 -5.5 -165.5q-1.5 -69.5 -1.5 -114.5v-32q51 34 89 48.5q38 14.5 73 14.5q81 0 139 -67q58 -67 58 -161q0 -60 -19 -109.5q-19 -49.5 -55 -85q-36 -35.5 -88 -55q-52 -19.5 -119 -19.5q-85 0 -161 22q6 327 6 384v65q0 26 0.5 54q0.5 28 0.5 63q0 63 -8 85q-8 21 -28 21q-8 0 -29 -3l-5 31q77 15 154 42z" />
<glyph unicode="&#99;" horiz-adv-x="447" d="M429 59q-96 -73 -180 -73q-96 0 -156 68q-61 68 -61 176q0 110 77 187q76 77 187 77q57 0 87.5 -15.5q30.5 -15.5 30.5 -44.5q0 -20 -12 -35q-12 -15 -29 -15q-6 0 -45 24q-42 25 -76 25q-64 0 -101 -46q-37 -44 -37 -124q0 -100 45 -155q44 -55 125 -55q30 0 59.5 10q29.5 10 61.5 33z" />
<glyph unicode="&#100;" horiz-adv-x="562" d="M390 401q-32 19 -61.5 27.5q-29.5 8.5 -59.5 8.5q-75 0 -116 -46.5q-41 -46.5 -41 -132.5q0 -92 40 -145q41 -53 108 -53q26 0 57.5 10q31.5 10 69.5 32zM479 748q-4 -82 -5.5 -168q-1.5 -86 -3.5 -167l-1 -76q0 -27 -1 -73.5q-1 -46.5 -1 -115.5q0 -75 5 -95q6 -18 21 -18q18 0 40 8l8 -31q-69 -26 -133 -26h-14q-3 21 -5 39q-2 18 -2 34q-28 -18 -51 -30q-23 -12 -41 -19q-34 -14 -70 -14q-85 0 -139 65q-54 64 -54 168q0 115 69 186q69 71 179 71q49 0 112 -19q0 2 0 5q0 3 1 8q1 43 1.5 81q0.5 38 0.5 73q0 31 -9.5 43.5q-9.5 12.5 -31.5 12.5q-5 0 -12 -1.5q-7 -1.5 -20 -3.5l-6 32q36 6 76 16q40 10 88 24z" />
<glyph unicode="&#101;" horiz-adv-x="485" d="M361 324q-15 62 -45 93q-30 31 -71 31q-45 0 -79 -36q-34 -36 -45 -103q84 0 143.5 3q59.5 3 96.5 12zt0 0zM213 273q-25 0 -48.5 -1q-23.5 -1 -46.5 -3l0 -18q0 -97 44.5 -148.5q44.5 -51.5 124.5 -51.5q38 0 72.5 12.5q34.5 12.5 71.5 36.5l19 -31q-101 -83 -199 -83q-47 0 -86.5 17.5q-39.5 17.5 -69 49q-29.5 31.5 -46 76q-16.5 44.5 -16.5 98.5q0 58 18 107q18 49 48 84q30 35 70.5 55q40.5 20 85.5 20q85 0 136.5 -56.5q51.5 -56.5 59.5 -163.5z" />
<glyph unicode="&#102;" horiz-adv-x="320" d="M185 469h33q50 0 97 3q-1 -14 -1.5 -26.5q-0.5 -12.5 -0.5 -23.5q-28 2 -54 3q-26 1 -51 1h-21q0 -57 -0.5 -91q-0.5 -34 -0.5 -45q0 -93 1 -148q1 -55 6 -75q5 -22 22.5 -28q17.5 -6 56.5 -6l0 -33q-38 2 -67.5 3.5q-29.5 1.5 -49.5 1.5q-20 0 -49 -1.5q-29 -1.5 -69 -3.5l0 33h12q19 0 30 6q11 6 17 19q6 13 8 34q2 21 2 51q0 23 -0.5 53q-0.5 30 -0.5 66q0 13 0 53q0 40 -1 109l-32 0q-2 0 -11 -0.5q-9 -0.5 -25 -1.5l0 36q41 2 68 20l0 9q0 61 15 110.5q15 49.5 43 84.5q28 35 68.5 54.5q40.5 19.5 91.5 19.5q48 0 72.5 -15.5q24.5 -15.5 24.5 -41.5q0 -18 -10 -29.5q-10 -11.5 -24 -11.5q-9 0 -20.5 6q-11.5 6 -25.5 13.5q-14 7.5 -29 13.5q-15 6 -31 6q-57 0 -76 -44q-19 -44 -19 -134l0 -9z" />
<glyph unicode="&#103;" horiz-adv-x="516" d="M363 459q28 0 61.5 1q33.5 1 71.5 3l-2 -49q-26 3 -52.5 4q-26.5 1 -54.5 1q47 -36 47 -98q0 -32 -14 -61q-14 -29 -39 -51q-25 -22 -60 -35.5q-35 -13.5 -77 -13.5q-10 0 -21 1q-11 1 -24 2q-27 -17 -46 -38q14 -27 39 -47q45 1 78 1.5q33 0.5 55 0.5q83 0 124.5 -24.5q41.5 -24.5 41.5 -88.5q0 -38 -20.5 -76.5q-20.5 -38.5 -60.5 -71.5q-40 -33 -91 -51.5q-51 -18.5 -102 -18.5q-40 0 -72.5 11.5q-32.5 11.5 -56 30q-23.5 18.5 -36.5 43.5q-13 25 -13 52q0 38 24.5 70.5q24.5 32.5 71.5 70.5q-43 38 -60 87q17 15 37.5 30q20.5 15 47.5 31q-50 16 -77.5 52.5q-27.5 36.5 -27.5 84.5q0 37 14.5 69.5q14.5 32.5 40.5 57q26 24.5 62 39q36 14.5 79 14.5q31 0 57.5 -8q26.5 -8 54.5 -25zt0 0zM158 7q-23 -26 -34.5 -48q-11.5 -22 -11.5 -43q0 -22 10 -41.5q10 -19.5 29 -34.5q19 -15 45.5 -23.5q26.5 -8.5 58.5 -8.5q38 0 69.5 11.5q31.5 11.5 54.5 29.5q23 18 35.5 40.5q12.5 22.5 12.5 44.5q0 23 -8 37.5q-8 14.5 -23 22q-15 7.5 -37.5 10q-22.5 2.5 -52.5 2.5q-14 0 -32.5 0.5q-18.5 0.5 -41.5 0.5zM247 456q-52 0 -81 -31.5q-29 -31.5 -29 -91.5q0 -65 28 -100.5q28 -35.5 79 -35.5q51 0 80.5 32q29.5 32 29.5 90q0 66 -28 101.5t-79 35.5z" />
<glyph unicode="&#104;" horiz-adv-x="584" d="M186 755q-5 -164 -6 -343q53 40 96 60.5q43 20.5 80 20.5q144 0 144 -162q0 -4 -0.5 -25.5q-0.5 -21.5 -0.5 -52q0 -30.5 -0.5 -66q-0.5 -35.5 -0.5 -66.5q0 -48 8 -68q8 -20 39 -20q2 0 5.5 0.5q3.5 0.5 6.5 0.5l0 -34q-35 2 -60.5 3.5q-25.5 1.5 -43.5 1.5q-17 0 -44 -1q-27 -1 -63 -4l0 34h7q24 0 37 5.5q13 5.5 19 20q6 14.5 7 38.5q1 24 1 60l1 125q0 35 -2.5 62.5q-2.5 27.5 -12.5 46q-10 18.5 -28.5 28.5q-18.5 10 -49.5 10q-30 0 -64.5 -14.5q-34.5 -14.5 -77.5 -42.5l-2 -174q-1 -20 -1 -37.5q0 -17.5 0 -31.5q0 -55 8 -76q8 -21 39 -21q3 0 6 0.5q3 0.5 7 0.5l0 -34q-38 3 -64.5 4q-26.5 1 -40.5 1q-22 0 -49 -1q-27 -1 -60 -3l0 33q5 0 8.5 -0.5q3.5 -0.5 7.5 -0.5q21 0 33 6.5q12 6.5 17 20.5q5 14 6 37.5q1 23.5 1 57.5l2 487q0 42 -36 42q-6 0 -13 -1q-7 -1 -15 -3l-7 32q79 15 156 43z" />
<glyph unicode="&#105;" horiz-adv-x="287" d="M175 703q26 -20 26 -42q0 -13 -6 -21q-6 -8 -18 -17l-37 -28l-34 27q-27 21 -27 41q0 13 6.5 21q6.5 8 18.5 17l36 28zM193 499q-3 -96 -5.5 -177.5q-2.5 -81.5 -2.5 -151.5v-52q0 -24 1.5 -40.5q1.5 -16.5 6.5 -26.5q5 -10 16 -14.5q11 -4.5 29 -4.5q4 0 7.5 0.5q3.5 0.5 7.5 0.5l0 -33q-35 2 -62.5 3.5q-27.5 1.5 -47.5 1.5q-19 0 -46.5 -1.5q-27.5 -1.5 -65.5 -3.5l0 34h12q25 0 37 7q12 7 17.5 23.5q5.5 16.5 5.5 44.5q0 28 1 71l2 121q0 18 0.5 33q0.5 15 0.5 27q0 35 -6 50q-6 15 -29 15q-9 0 -28 -3l-5 31q77 15 154 45z" />
<glyph unicode="&#106;" horiz-adv-x="274" d="M165 703q26 -20 26 -42q0 -13 -6 -21q-6 -8 -18 -17l-37 -28l-34 27q-27 21 -27 41q0 13 6.5 20.5q6.5 7.5 18.5 17.5l36 28zM183 499q-4 -93 -5 -172q-1 -79 -1 -146v-68q0 -90 -2.5 -150.5q-2.5 -60.5 -15.5 -93.5q-23 -59 -72.5 -94.5q-49.5 -35.5 -115.5 -35.5h-12l2 39q40 3 66 18.5q26 15.5 41.5 43q15.5 27.5 22 68q6.5 40.5 6.5 94.5v353q0 38 -5 54.5q-5 16.5 -29 16.5q-9 0 -25 -3l-6 31q39 8 76.5 18.5t74.5 26.5z" />
<glyph unicode="&#107;" horiz-adv-x="546" d="M32 34q26 0 38.5 7q12.5 7 18.5 25q7 20 7.5 84q0.5 64 1.5 175l1 95q1 53 2 93q1 40 1 70q0 55 -7.5 78q-7.5 23 -32.5 23q-6 0 -13 -1q-7 -1 -15 -3l-7 32q79 15 156 43q-5 -211 -6.5 -331.5q-1.5 -120.5 -1.5 -154.5v-176q0 -18 1.5 -29.5q1.5 -11.5 8 -18q6.5 -6.5 19 -9q12.5 -2.5 35.5 -2.5l0 -32q-34 2 -61 3q-27 1 -47 1q-15 0 -41.5 -0.5q-26.5 -0.5 -64.5 -2.5l0 31zM381 10q0 17 -10.5 29.5q-10.5 12.5 -30.5 34.5l-165 186q81 76 125.5 116q44.5 40 44.5 57q0 13 -35 13h-7v33q61 -3 94 -3q44 0 101 3l0 -33q-4 1 -12 1q-24 0 -47.5 -12q-23.5 -12 -50.5 -33.5q-27 -21.5 -59.5 -51.5q-32.5 -30 -72.5 -66l173 -186q11 -12 20.5 -24q9.5 -12 20 -21q10.5 -9 23.5 -14.5q13 -5.5 30 -5.5q3 0 6.5 0q3.5 0 7.5 1l-1 -33q-25 2 -46.5 3q-21.5 1 -40.5 1q-10 0 -26.5 -1q-16.5 -1 -41.5 -3z" />
<glyph unicode="&#108;" horiz-adv-x="292" d="M184 755q-3 -98 -3 -176.5q0 -78.5 -1 -140.5l-1 -100v-218q0 -23 1.5 -39q1.5 -16 7.5 -26.5q6 -10.5 18 -15.5q12 -5 33 -5h11v-34q-42 3 -70.5 4q-28.5 1 -44.5 1q-17 0 -44 -1q-27 -1 -64 -3l0 33q5 0 8.5 -0.5q3.5 -0.5 7.5 -0.5q21 0 33 6.5q12 6.5 17 20.5q5 14 6 37.5q1 23.5 1 57.5v36l2 367v84q0 42 -36 42q-6 0 -13.5 -1q-7.5 -1 -15.5 -3l-7 32q81 14 154 43z" />
<glyph unicode="&#109;" horiz-adv-x="884" d="M181 499q-5 -40 -6 -77q50 32 90.5 51.5q40.5 19.5 84.5 19.5q42 0 71.5 -19q29.5 -19 49.5 -60q56 37 99.5 58q43.5 21 81.5 21q76 0 106 -46.5q30 -46.5 30 -137.5l-2 -171q0 -22 -0.5 -33.5q-0.5 -11.5 -0.5 -12.5q0 -35 10.5 -46.5q10.5 -11.5 43.5 -11.5h11v-34q-37 2 -64 3.5q-27 1.5 -45 1.5q-18 0 -44 -1.5q-26 -1.5 -61 -3.5l0 34q5 -1 10 -1q5 0 10 0q18 0 28.5 6q10.5 6 15.5 20q5 14 6.5 36.5q1.5 22.5 1.5 56.5v71q0 25 0.5 46.5q0.5 21.5 0.5 40.5q0 60 -21.5 90.5q-21.5 30.5 -71.5 30.5q-25 0 -57.5 -13.5q-32.5 -13.5 -74.5 -37.5l-4 -241v-40q0 -19 1.5 -31.5q1.5 -12.5 7 -20q5.5 -7.5 16.5 -10.5q11 -3 31 -3h6v-34q-33 2 -60.5 3.5q-27.5 1.5 -48.5 1.5q-14 0 -37.5 -1q-23.5 -1 -58.5 -4l0 34q16 0 26.5 1q10.5 1 17 4.5q6.5 3.5 10 9.5q3.5 6 5.5 17q3 14 5 76q2 62 2 173q0 60 -21.5 88q-21.5 28 -70.5 28q-24 0 -56.5 -12.5q-32.5 -12.5 -75.5 -36.5q-2 -69 -3.5 -129.5q-1.5 -60.5 -1.5 -115.5q0 -31 1 -51q1 -20 5.5 -32q4.5 -12 15 -16.5q10.5 -4.5 30.5 -4.5q4 0 7.5 0.5q3.5 0.5 8.5 0.5l0 -34q-38 3 -65.5 4q-27.5 1 -46.5 1q-16 0 -42 -1q-26 -1 -62 -4l0 34h9q25 0 38 7q13 7 18 23.5q5 16.5 5.5 45q0.5 28.5 0.5 70.5l1 168q1 41 -5 59.5q-6 18.5 -29 18.5q-8 0 -23 -4l-6 30q31 8 67.5 19.5t78.5 27.5z" />
<glyph unicode="&#110;" horiz-adv-x="584" d="M178 417q51 37 92.5 56.5q41.5 19.5 78.5 19.5q144 0 144 -162q0 -4 -0.5 -25.5q-0.5 -21.5 -0.5 -52q0 -30.5 -0.5 -66q-0.5 -35.5 -0.5 -66.5q0 -48 8 -68q8 -20 39 -20q2 0 5.5 0.5q3.5 0.5 6.5 0.5l0 -34q-35 2 -60.5 3.5q-25.5 1.5 -43.5 1.5q-17 0 -44.5 -1q-27.5 -1 -62.5 -4l0 34h7q24 0 37 5.5q13 5.5 19 20q6 14.5 7 38.5q1 24 1 60l1 123q0 35 -2.5 63q-2.5 28 -12.5 47q-10 19 -28.5 29q-18.5 10 -49.5 10q-58 0 -136 -53q-2 -58 -3 -102q-1 -44 -1 -76v-67q0 -28 1.5 -47q1.5 -19 6 -30.5q4.5 -11.5 14 -16.5q9.5 -5 25.5 -5q3 0 6 0.5q3 0.5 7 0.5l0 -34q-35 2 -61.5 3.5q-26.5 1.5 -44.5 1.5q-17 0 -44 -1.5q-27 -1.5 -62 -3.5l0 34h9q25 0 38 7q13 7 18 23.5q5 16.5 5.5 45q0.5 28.5 0.5 70.5l1 168q1 41 -5 59.5q-6 18.5 -29 18.5q-8 0 -23 -4l-6 30q38 8 75 19.5q37 11.5 74 27.5z" />
<glyph unicode="&#111;" horiz-adv-x="552" d="M281 493q53 0 97 -19q44 -19 75.5 -52q31.5 -33 48.5 -76.5q17 -43.5 17 -92.5q0 -56 -19 -104.5q-19 -48.5 -52.5 -84.5q-33.5 -36 -78.5 -56.5q-45 -20.5 -97 -20.5q-53 0 -97 19q-44 19 -75.5 52q-31.5 33 -49 78.5q-17.5 45.5 -17.5 98.5q0 55 20 102q20 47 54 81.5q34 34.5 79 54.5q45 20 95 20zt0 0zM268 442q-31 0 -57.5 -11.5q-26.5 -11.5 -46 -34q-19.5 -22.5 -30.5 -55.5q-11 -33 -11 -75q0 -53 12 -95.5q12 -42.5 33 -72.5q21 -30 50 -46.5q29 -16.5 64 -16.5q66 0 108 48.5q42 48.5 42 140.5q0 48 -12.5 88.5q-12.5 40.5 -34 69q-21.5 28.5 -51.5 44.5t-66 16z" />
<glyph unicode="&#112;" horiz-adv-x="564" d="M184 427q43 29 81.5 44q38.5 15 76.5 15q40 0 74.5 -17q34.5 -17 60 -47q25.5 -30 40 -71q14.5 -41 14.5 -89q0 -125 -69 -194.5q-69 -69.5 -191 -69.5q-23 0 -46 4.5q-23 4.5 -45 13.5l0 -174q0 -22 2.5 -33.5q2.5 -11.5 11.5 -17q9 -5.5 25.5 -7q16.5 -1.5 45.5 -1.5l0 -34q-39 2 -69 3q-30 1 -50 1q-20 0 -49.5 -1.5q-29.5 -1.5 -70.5 -3.5l0 33q25 1 39 3.5q14 2.5 21 13.5q11 19 11.5 82q0.5 63 2.5 174l1 111v161q0 50 -5 70.5q-5 20.5 -30 20.5q-10 0 -26 -4l-5 30q41 11 78.5 26.5q37.5 15.5 73.5 35.5zM181 71q30 -15 59 -22.5q29 -7.5 55 -7.5q71 0 113 46q42 46 42 134q0 48 -11 85.5q-11 37.5 -31 63.5q-20 26 -47 39.5q-27 13.5 -58 13.5q-27 0 -58 -9q-31 -9 -61 -27q-3 -109 -3.5 -171.5q-0.5 -62.5 -0.5 -79.5q0 -14 0.5 -30.5t0.5 -34.5z" />
<glyph unicode="&#113;" horiz-adv-x="558" d="M472 498q-2 -49 -4 -131.5q-2 -82.5 -2 -199.5q0 -31 0 -69q0 -38 -0.5 -72.5q-0.5 -34.5 -0.5 -59.5q0 -25 0 -31v-60q0 -26 1.5 -44.5q1.5 -18.5 6 -29.5q4.5 -11 14 -16q9.5 -5 25.5 -5q5 0 9.5 0q4.5 0 10.5 1l0 -33q-75 3 -127 3q-16 0 -43 -0.5q-27 -0.5 -65 -1.5l0 32h22q27 0 40 5q13 5 19 23q5 16 6 76.5q1 60.5 2 168.5q-41 -28 -76 -43.5q-35 -15.5 -75 -15.5q-45 0 -82 17q-37 17 -64 47q-27 30 -42 72q-15 42 -15 92q0 57 19 105.5q19 48.5 52.5 83.5q33.5 35 79.5 54.5q46 19.5 100 19.5q32 0 64 -7q32 -7 67 -21q16 8 30.5 18q14.5 10 27.5 22zt0 0zM382 401q-31 19 -60 28.5q-29 9.5 -59 9.5q-68 0 -108.5 -45.5q-40.5 -45.5 -40.5 -133.5q0 -47 12.5 -84.5q12.5 -37.5 34 -64q21.5 -26.5 49.5 -41q28 -14.5 60 -14.5q47 0 115 38q2 64 2 103q0 39 0 53q0 35 -0.5 72.5t-4.5 78.5z" />
<glyph unicode="&#114;" horiz-adv-x="390" d="M182 499q-4 -40 -5.5 -74.5q-1.5 -34.5 -2.5 -64.5q37 66 70.5 98.5q33.5 32.5 71.5 32.5q27 0 43.5 -14.5q16.5 -14.5 16.5 -40.5q0 -19 -10.5 -31.5q-10.5 -12.5 -24.5 -12.5q-14 0 -27 9.5q-13 9.5 -32 9.5q-26 0 -51.5 -23q-25.5 -23 -52.5 -68l0 -54q0 -82 1.5 -129q1.5 -47 3.5 -59q5 -26 19 -35q14 -9 49 -9h14v-33q-38 2 -68 3.5q-30 1.5 -50 1.5q-20 0 -50 -1q-30 -1 -71 -4l0 33h11q21 0 33 5.5q12 5.5 18.5 17q6.5 11.5 8 30q1.5 18.5 1.5 44.5v210q0 44 -5.5 63.5q-5.5 19.5 -28.5 19.5q-5 0 -11 -0.5q-6 -0.5 -12 -1.5l-6 30q36 8 72.5 20t74.5 27z" />
<glyph unicode="&#115;" horiz-adv-x="443" d="M360 473q0 -29 3.5 -59.5q3.5 -30.5 9.5 -61.5l-38 -6q-10 101 -106 101q-40 0 -66.5 -22q-26.5 -22 -26.5 -57q0 -55 115 -86l31 -8q57 -16 84 -46q27 -30 27 -78q0 -35 -15 -65q-15 -30 -41.5 -52q-26.5 -22 -63.5 -34.5q-37 -12.5 -80 -12.5q-63 0 -132 27q1 5 1 10.5q0 5.5 0 16.5q0 43 -11 104l36 9q16 -121 122 -121q50 0 80.5 24q30.5 24 30.5 61q0 53 -103 84l-15 5q-38 12 -63.5 25q-25.5 13 -41.5 30q-16 17 -23 38.5q-7 21.5 -7 48.5q0 31 13.5 57.5q13.5 26.5 37.5 46q24 19.5 56.5 30.5q32.5 11 70.5 11q23 0 51.5 -4.5t63.5 -15.5z" />
<glyph unicode="&#116;" horiz-adv-x="360" d="M186 562q-2 -20 -4 -42q-2 -22 -3 -48l35 0q55 0 115 3l-12 -53q-23 2 -51 3q-28 1 -63 1h-23q-2 -67 -3.5 -117.5q-1.5 -50.5 -1.5 -85.5q0 -44 2 -77q2 -33 9 -55.5q7 -22.5 20.5 -33.5q13.5 -11 37.5 -11q17 0 37.5 7.5q20.5 7.5 46.5 21.5l16 -32q-95 -57 -151 -57q-55 0 -77.5 37.5q-22.5 37.5 -22.5 113.5q0 40 2 111.5q2 71.5 2 176.5q-20 -1 -37 -1.5q-17 -0.5 -31 -0.5l0 35q95 14 125 114z" />
<glyph unicode="&#117;" horiz-adv-x="580" d="M176 494q-4 -111 -5.5 -178q-1.5 -67 -1.5 -90q0 -41 3 -73.5q3 -32.5 12.5 -55q9.5 -22.5 28.5 -34q19 -11.5 51 -11.5q50 0 130 51q3 150 3 196v33q0 25 -1 43q-1 18 -6 29q-5 11 -15 16q-10 5 -28 5q-2 0 -7 0q-5 0 -15 -1l-3 31q80 6 161 24q-5 -128 -6 -215q-1 -87 -1 -137q0 -41 6.5 -57.5q6.5 -16.5 30.5 -16.5q9 0 29 5l4 -30l-149 -38l-2 73q-50 -38 -90 -57.5q-40 -19.5 -75 -19.5q-68 0 -105 38.5q-37 38.5 -37 107.5q0 18 0 45.5q0 27.5 2 64.5l1 55q0 19 0.5 34.5q0.5 15.5 0.5 29.5q0 38 -6 53.5q-6 15.5 -27 15.5q-12 0 -30 -3l-3 32q37 6 74.5 15t75.5 20z" />
<glyph unicode="&#118;" horiz-adv-x="491" d="M0 479q30 -2 54 -3.5q24 -1.5 42 -1.5q17 0 42.5 1.5q25.5 1.5 58.5 3.5l0 -34h-13q-23 0 -33.5 -6.5q-10.5 -6.5 -10.5 -23.5q0 -15 30 -94q30 -79 83 -227q62 148 94 228q32 80 32 96q0 17 -13 22.5q-13 5.5 -40 5.5l0 33q25 -2 45.5 -3q20.5 -1 37.5 -1q14 0 34 1q20 1 48 3l0 -35h-5q-15 0 -24.5 -6.5q-9.5 -6.5 -17.5 -18.5q-8 -12 -15.5 -30q-7.5 -18 -17.5 -42q-71 -158 -109.5 -247q-38.5 -89 -42.5 -112l-54 0q0 18 -33.5 109q-33.5 91 -99.5 259q-8 21 -14.5 37.5q-6.5 16.5 -13.5 28q-7 11.5 -16.5 17.5q-9.5 6 -23.5 6h-4l0 34z" />
<glyph unicode="&#119;" horiz-adv-x="775" d="M6 479q30 -2 52.5 -3q22.5 -1 37.5 -1q21 0 47 1q26 1 56 3l0 -33h-7q-26 0 -37 -7.5q-11 -7.5 -11 -27.5q0 -14 9 -39l94 -270l129 273l-9 27q-8 24 -18.5 34q-10.5 10 -37.5 10h-14v33q32 -2 56 -3q24 -1 40 -1q23 0 49 1q26 1 58 3l0 -33q-4 0 -7.5 -0.5q-3.5 -0.5 -6.5 -0.5q-39 0 -39 -28q0 -17 10 -46l91 -266l29 74q39 103 60.5 161q21.5 58 21.5 74q0 19 -10.5 25.5q-10.5 6.5 -39.5 6.5h-9v33q26 -2 47.5 -3q21.5 -1 39.5 -1q15 0 35.5 1q20.5 1 47.5 3l0 -32q-30 0 -42 -18q-14 -20 -59.5 -130.5q-45.5 -110.5 -126.5 -312.5l-35 0l-115 327q-49 -95 -87 -176q-38 -81 -64 -151l-33 0q-70 193 -107 303.5q-37 110.5 -52 136.5q-12 20 -36 20h-7l0 33z" />
<glyph unicode="&#120;" horiz-adv-x="530" d="M9 34q4 -1 12 -1q20 0 40.5 14q20.5 14 45 40.5q24.5 26.5 54 64.5q29.5 38 67.5 86l-110 151q-20 28 -36 43q-16 15 -36 15q-2 0 -4 -0.5q-2 -0.5 -4 -0.5l0 34q29 -2 53.5 -3.5q24.5 -1.5 44.5 -1.5q16 0 39.5 1q23.5 1 55.5 3l0 -33h-4q-33 0 -33 -23q0 -13 17.5 -38.5q17.5 -25.5 50.5 -69.5l14 -18q42 55 63.5 86.5q21.5 31.5 21.5 42.5q0 12 -8.5 15.5q-8.5 3.5 -27.5 4.5l0 33q26 -2 46.5 -3q20.5 -1 34.5 -1q18 0 39 1q21 1 46 3l0 -33q-3 1 -8 1q-17 0 -34.5 -12.5q-17.5 -12.5 -38.5 -36q-21 -23.5 -47.5 -57.5q-26.5 -34 -61.5 -77l131 -175q19 -26 34 -40.5q15 -14.5 40 -14.5h5v-34q-31 2 -55.5 3q-24.5 1 -43.5 1q-15 0 -39 -1q-24 -1 -58 -3l0 34h6q35 0 35 21q0 13 -27 48q-27 35 -75 101q-99 -128 -99 -151q0 -19 29 -19h6v-34q-30 2 -53 3q-23 1 -40 1q-13 0 -34.5 -1q-21.5 -1 -53.5 -3l0 34z" />
<glyph unicode="&#121;" horiz-adv-x="496" d="M0 479q30 -2 54 -3.5q24 -1.5 42 -1.5q17 0 42.5 1.5q25.5 1.5 58.5 3.5l0 -34h-13q-23 0 -33.5 -6.5q-10.5 -6.5 -10.5 -23.5q0 -16 30 -93q30 -77 81 -222q61 145 92 223.5q31 78.5 31 94.5q0 17 -13 22.5q-13 5.5 -40 5.5l0 33q25 -2 46 -3q21 -1 38 -1q14 0 34 1q20 1 48 3l0 -35h-4q-33 0 -46 -29q-4 -8 -33 -75q-29 -67 -86 -195q-47 -104 -78.5 -180.5q-31.5 -76.5 -55.5 -126.5q-24 -50 -44.5 -74q-20.5 -24 -46.5 -24q-20 0 -33 12.5q-13 12.5 -13 32.5q0 14 6 20.5q6 6.5 14.5 9.5q8.5 3 19 4q10.5 1 19.5 5q12 5 23 18q11 13 22 35q11 22 24.5 52q13.5 30 31.5 69q-44 112 -73.5 196q-29.5 84 -51 140q-21.5 56 -39 84q-17.5 28 -35.5 28q-5 0 -8 -1l0 34z" />
<glyph unicode="&#122;" horiz-adv-x="472" d="M66 479q82 -6 138 -6q63 0 115.5 0.5q52.5 0.5 94.5 5.5l17 -27q-27 -22 -55 -55.5q-28 -33.5 -60 -78.5l-173 -237q31 -2 57 -3q26 -1 47 -1h35q29 0 50.5 1.5q21.5 1.5 36.5 8q15 6.5 25 20q10 13.5 15 36.5l31 -9q-9 -33 -15 -66.5q-6 -33.5 -10 -67.5l-22 1q-51 2 -96.5 4.5q-45.5 2.5 -87.5 2.5q-43 0 -84.5 -2q-41.5 -2 -83.5 -6l-16 31q32 24 59.5 58q27.5 34 56.5 74l177 240q-40 1 -69.5 1.5q-29.5 0.5 -49.5 0.5h-20q-24 0 -41.5 -1q-17.5 -1 -29.5 -7q-12 -6 -20 -17.5q-8 -11.5 -12 -32.5l-32 9q8 30 13.5 60.5t8.5 62.5z" />
<glyph unicode="&#123;" horiz-adv-x="419" d="M420 714q-11 1 -16.5 1q-5.5 0 -7.5 0q-30 0 -52 -5q-22 -5 -37 -18q-15 -13 -22 -31q-7 -18 -9 -40.5q-2 -22.5 -2 -49.5q0 -27 -1 -60l-1 -30q-1 -40 -5.5 -71q-4.5 -31 -17 -54.5q-12.5 -23.5 -35 -40q-22.5 -16.5 -59.5 -25.5l0 -3q37 -9 59.5 -25.5q22.5 -16.5 35 -40q12.5 -23.5 17 -55q4.5 -31.5 5.5 -71.5l1 -29q1 -60 2.5 -102.5q1.5 -42.5 24.5 -70.5q14 -17 37.5 -24q23.5 -7 58.5 -7q2 0 7.5 0q5.5 0 16.5 1l0 -38h-46q-58 0 -92.5 14.5q-34.5 14.5 -53 43q-18.5 28.5 -24.5 69q-6 40.5 -7 93.5l-2 94q-1 35 -6 60q-5 25 -18 40.5q-13 15.5 -34 23q-21 7.5 -53 7.5h-10v36h10q32 0 53 7q21 7 34 23q13 16 18 41q5 25 6 60l2 95q1 53 7 94q6 41 24.5 69q18.5 28 53 42.5q34.5 14.5 92.5 14.5q9 0 20.5 -0.5q11.5 -0.5 25.5 -0.5z" />
<glyph unicode="&#124;" horiz-adv-x="500" d="M281 764v-1000h-62l0 1000z" />
<glyph unicode="&#125;" horiz-adv-x="419" d="M0 714q11 1 16.5 1q5.5 0 7.5 0q30 0 52 -5q22 -5 37 -18q15 -13 22 -31q7 -18 9 -40.5q2 -22.5 2 -49.5q0 -27 1 -60l1 -30q1 -40 5.5 -71q4.5 -31 17 -54.5q12.5 -23.5 35 -40q22.5 -16.5 59.5 -25.5l0 -3q-37 -9 -59.5 -25.5q-22.5 -16.5 -35 -40q-12.5 -23.5 -17 -55q-4.5 -31.5 -5.5 -71.5l-1 -29q-1 -60 -2.5 -102.5q-1.5 -42.5 -24.5 -70.5q-14 -17 -37.5 -24q-23.5 -7 -58.5 -7q-2 0 -7.5 0q-5.5 0 -16.5 1l0 -38h46q58 0 92.5 14.5q34.5 14.5 53 43q18.5 28.5 24.5 69q6 40.5 7 93.5l2 94q1 35 6 60q5 25 18 40.5q13 15.5 34 23q21 7.5 53 7.5h10v36h-10q-32 0 -53 7q-21 7 -34 23q-13 16 -18 41q-5 25 -6 60l-2 95q-1 53 -7 94q-6 41 -24.5 69q-18.5 28 -53 42.5q-34.5 14.5 -92.5 14.5q-9 0 -20.5 -0.5q-11.5 -0.5 -25.5 -0.5z" />
<glyph unicode="&#126;" horiz-adv-x="833" d="M276 368q34 0 72 -11q38 -11 77 -24.5q39 -13.5 77 -24.5q38 -11 70 -11q49 0 93 23.5q44 23.5 82 58.5l17 -31q-44 -48 -93 -80q-49 -32 -113 -32q-36 0 -72 11q-36 11 -72.5 24.5q-36.5 13.5 -74 24.5q-37.5 11 -77.5 11q-49 0 -93 -23.5q-44 -23.5 -82 -58.5l-17 31q44 48 93 80t113 32z" />
<glyph unicode="&#160;" horiz-adv-x="278" />
<glyph unicode="&#161;" horiz-adv-x="337" d="M212 0q-6 69 -11 131.5q-5 62.5 -9.5 123.5q-4.5 61 -8.5 122.5q-4 61.5 -8 128.5l-40 0q-4 -234 -24 -506zM186 606q13 10 19.5 19.5q6.5 9.5 6.5 21.5q0 13 -5.5 21q-5.5 8 -17.5 17l-37 28l-34 -26q-27 -21 -27 -42q0 -13 7 -21q7 -8 18 -17l36 -28z" />
<glyph unicode="&#162;" horiz-adv-x="556" d="M270 713l-3 -166q5 0 9.5 -0.5q4.5 -0.5 9.5 -0.5q43 0 71 -14.5q28 -14.5 28 -39.5q0 -17 -9.5 -28.5q-9.5 -11.5 -22.5 -11.5q-11 0 -19.5 7q-8.5 7 -17.5 16q-9 9 -20.5 17q-11.5 8 -29.5 9l0 -293q5 -1 8.5 -1q3.5 0 4.5 0q40 0 97 46l23 -31q-65 -60 -132 -69l2 -172h-46l1 172q-74 10 -117 61.5q-43 51.5 -43 125.5q0 81 43.5 135q43.5 54 118.5 68l-3 170zM226 500q-40 -9 -63 -45q-23 -36 -23 -93q0 -57 22 -95q22 -38 64 -54z" />
<glyph unicode="&#163;" horiz-adv-x="556" d="M302 354q29 0 58.5 0.5q29.5 0.5 59.5 1.5l0 -46q-41 1 -79.5 1.5q-38.5 0.5 -76.5 0.5q2 -18 3 -30.5q1 -12.5 1 -20.5q0 -48 -19 -88.5q-19 -40.5 -59 -80.5l19 0q39 0 79.5 -10q40.5 -10 78.5 -10q48 0 70 25.5q22 25.5 27 82.5l34 -5l-4 -44q-7 -73 -34.5 -108q-27.5 -35 -83.5 -35q-25 0 -51.5 6q-26.5 6 -53.5 12.5q-27 6.5 -54.5 12.5q-27.5 6 -53.5 6q-26 0 -50 -10q-24 -10 -50 -30l-22 29q82 51 122.5 102.5q40.5 51.5 40.5 112.5q0 19 -4.5 39.5q-4.5 20.5 -12.5 43.5q-19 0 -34 -0.5q-15 -0.5 -27 -0.5q-4 0 -18 -0.5q-14 -0.5 -37 -0.5l0 46l106 -3q-17 73 -17 122q0 54 15 97q15 43 41 73q26 30 60.5 46.5q34.5 16.5 74.5 16.5q24 0 44 -5.5q20 -5.5 34.5 -14q14.5 -8.5 22.5 -20q8 -11.5 8 -23.5q0 -16 -11 -27.5q-11 -11.5 -24 -11.5q-12 0 -23.5 8.5q-11.5 8.5 -23.5 18q-12 9.5 -26 18q-14 8.5 -32 8.5q-35 0 -56 -31q-21 -31 -21 -94q0 -36 5.5 -81q5.5 -45 10.5 -99z" />
<glyph unicode="&#164;" horiz-adv-x="606" d="M304 586q-63 0 -108 -45q-45 -45 -45 -108q0 -64 44.5 -109q44.5 -45 108.5 -45q63 0 108 45.5q45 45.5 45 108.5q0 63 -44.5 108q-44.5 45 -108.5 45zt0 0zM77 693l101 -101q30 22 60.5 33q30.5 11 64.5 11q35 0 66.5 -11q31.5 -11 60.5 -33l100 101l35 -36l-100 -100q21 -28 31.5 -59q10.5 -31 10.5 -66q0 -35 -10.5 -66.5q-10.5 -31.5 -31.5 -58.5l100 -100l-35 -36l-100 101q-28 -22 -59.5 -32.5q-31.5 -10.5 -67.5 -10.5q-36 0 -66.5 10.5q-30.5 10.5 -58.5 32.5l-101 -101l-35 36l101 100q-21 28 -32 59.5q-11 31.5 -11 65.5q0 34 11 65.5q11 31.5 32 59.5l-101 100z" />
<glyph unicode="&#165;" horiz-adv-x="556" d="M148 33q5 0 10 -0.5q5 -0.5 10 -0.5q22 0 34.5 5q12.5 5 18.5 17q6 12 7 31.5q1 19.5 1 48.5v141q-39 0 -78.5 -0.5q-39.5 -0.5 -81.5 -1.5l0 35q22 -1 42.5 -1q20.5 0 40.5 0h78l-47 97q-50 -2 -114 -3l0 37h40q11 0 25.5 0q14.5 0 31.5 1l-72 152q-17 35 -30.5 52q-13.5 17 -37.5 17q-8 0 -12 -1l0 34q64 -6 107 -6q44 0 107 6l0 -34q-27 0 -40.5 -5q-13.5 -5 -13.5 -19q0 -7 5.5 -21.5q5.5 -14.5 16.5 -37.5l91 -205l102 205q26 52 26 61q0 22 -41 22h-6v34q26 -2 48 -3q22 -1 40 -1q14 0 35 1q21 1 50 3l0 -34h-11q-15 0 -24 -4q-9 -4 -15.5 -11.5q-6.5 -7.5 -12 -18.5q-5.5 -11 -12.5 -25l-87 -161h43q13 0 29.5 0.5q16.5 0.5 36.5 1.5l0 -38q-24 0 -56 0.5q-32 0.5 -71 0.5l-52 -97h44q66 0 135 3l0 -35h-177l1 -129q0 -33 1 -55q1 -22 6.5 -35q5.5 -13 18.5 -18q13 -5 37 -5h17v-33q-83 6 -126 6q-20 0 -49.5 -2q-29.5 -2 -68.5 -4z" />
<glyph unicode="&#166;" horiz-adv-x="500" d="M281 199v-370h-62v370zM281 699v-370h-62l0 370z" />
<glyph unicode="&#167;" horiz-adv-x="500" d="M276 705q31 0 58 -9q27 -9 46.5 -22.5q19.5 -13.5 30.5 -30.5q11 -17 11 -32q0 -20 -12 -34q-12 -14 -29 -14q-8 0 -13.5 3.5q-5.5 3.5 -10 9.5q-4.5 6 -9.5 14.5q-5 8.5 -12 19.5q-30 47 -74 47q-31 0 -52.5 -23.5q-21.5 -23.5 -21.5 -59.5q0 -38 33 -81q33 -43 93 -102q29 -29 53.5 -55q24.5 -26 42 -53.5q17.5 -27.5 27 -59.5q9.5 -32 9.5 -73q0 -57 -20 -106q-20 -49 -52 -85.5q-32 -36.5 -73.5 -57.5q-41.5 -21 -84.5 -21q-35 0 -64 9.5q-29 9.5 -50 24.5q-21 15 -32.5 32.5q-11.5 17.5 -11.5 33.5q0 20 14 33.5q14 13.5 30 13.5q18 0 25.5 -11.5q7.5 -11.5 19.5 -31.5q32 -55 85 -55q36 0 59.5 26.5q23.5 26.5 23.5 63.5q0 25 -9.5 48q-9.5 23 -26 45.5q-16.5 22.5 -39 46.5q-22.5 24 -49.5 53q-30 31 -54 60q-24 29 -41 58q-17 29 -26.5 60.5q-9.5 31.5 -9.5 67.5q0 50 17.5 95q17.5 45 47.5 78.5q30 33.5 69 53.5q39 20 82 20zt0 0zM170 630q-32 -30 -48 -68q-16 -38 -16 -80q0 -54 29 -102.5q29 -48.5 81 -104.5q29 -31 54.5 -58.5q25.5 -27.5 44.5 -54q19 -26.5 30 -53.5q11 -27 11 -57q0 -24 -6 -46q-6 -22 -18 -45q35 38 51.5 77.5q16.5 39.5 16.5 86.5q0 36 -10.5 65q-10.5 29 -28 54.5q-17.5 25.5 -40.5 50q-23 24.5 -49 51.5q-59 61 -91.5 110.5q-32.5 49.5 -32.5 100.5q0 35 22 73z" />
<glyph unicode="&#168;" horiz-adv-x="418" d="M319 715q18 0 40 -20q22 -19 22 -37q0 -18 -22 -37q-20 -20 -40 -20q-21 0 -41 19q-20 20 -20 38q0 17 21 37q22 20 40 20zt0 0zM111 715q18 0 40 -20q21 -20 21 -37q0 -18 -21 -37q-20 -20 -40 -20q-21 0 -41 19q-20 20 -20 38q0 17 21 37q22 20 40 20z" />
<glyph unicode="&#169;" horiz-adv-x="732" d="M496 150q-37 -15 -69 -22.5q-32 -7.5 -62 -7.5q-45 0 -82 14q-37 14 -64 41.5q-27 27.5 -41.5 67.5q-14.5 40 -14.5 91q0 44 16 83q16 39 44 68q28 29 67 46q39 17 86 17q31 0 63.5 -6.5q32.5 -6.5 71.5 -20.5l0 -21q0 -25 1 -46.5q1 -21.5 4 -41.5l-28 -4q-12 102 -117 102q-34 0 -59.5 -13.5q-25.5 -13.5 -42.5 -36q-17 -22.5 -25.5 -52q-8.5 -29.5 -8.5 -62.5q0 -38 8.5 -72q8.5 -34 26.5 -59.5q18 -25.5 46 -41q28 -15.5 67 -15.5q88 0 117 92l25 -11q-10 -25 -17 -46.5q-7 -21.5 -12 -42.5zt0 0zM366 641q-129 0 -220 -91q-90 -90 -90 -219q0 -129 90 -219q91 -90 220 -90q128 0 218 91q91 91 91 218q0 129 -91 219q-91 91 -218 91zt0 0zM367 676q57 0 113 -20.5q56 -20.5 103 -58.5q58 -46 93 -118q33 -72 33 -148q0 -67 -26.5 -130.5q-26.5 -63.5 -75.5 -113.5q-48 -49 -110 -74.5q-62 -25.5 -131 -25.5q-70 0 -132 25.5q-62 25.5 -111 74.5q-49 49 -75.5 112q-26.5 63 -26.5 132q0 60 20 115q20 55 58 102q49 61 119 94q69 34 149 34z" />
<glyph unicode="&#170;" horiz-adv-x="361" d="M227 526q-35 -9 -61.5 -16q-26.5 -7 -44 -15q-17.5 -8 -26 -18.5q-8.5 -10.5 -8.5 -27.5q0 -22 15 -36.5q15 -14.5 41 -14.5q31 0 83 32zM362 389q-29 -20 -51 -29q-22 -9 -36 -9q-45 0 -48 51q-35 -23 -62.5 -35q-27.5 -12 -50.5 -12q-38 0 -62.5 26.5q-24.5 26.5 -24.5 63.5q0 28 11.5 43.5q11.5 15.5 36.5 26q25 10.5 63 18.5q38 8 91 20q1 16 1 27.5q0 11.5 0 19.5q0 69 -63 69q-32 0 -50 -10.5q-18 -10.5 -18 -29.5q0 -2 0.5 -4.5q0.5 -2.5 0.5 -4.5q0 -11 -12 -18q-12 -7 -26 -7q-25 0 -25 17q0 11 12.5 27.5q12.5 16.5 33.5 31.5q21 15 48 25.5q27 10.5 57 10.5q104 0 104 -103q0 -42 -3.5 -84q-3.5 -42 -3.5 -86q0 -20 4.5 -29q4.5 -9 19.5 -9q8 0 18 4q10 4 25 11z" />
<glyph unicode="&#171;" horiz-adv-x="418" d="M330 57q-13 21 -32.5 53q-19.5 32 -46.5 76l-32 52q5 8 12 20q7 12 18 29q27 45 47 78.5q20 33.5 34 57.5l40 -18l-30 -71l-39 -95q5 -11 12.5 -31q7.5 -20 18.5 -47l35 -87zM178 53q-37 54 -72.5 99q-35.5 45 -72.5 85q38 44 74.5 91q36.5 47 71.5 98l37 -22q-22 -42 -43.5 -82.5q-21.5 -40.5 -41.5 -82.5q22 -45 42.5 -86q20.5 -41 42.5 -79z" />
<glyph unicode="&#172;" horiz-adv-x="833" d="M709 419v-245h-56v188h-529l0 57z" />
<glyph unicode="&#173;" horiz-adv-x="350" d="M36 207q8 19 14.5 38q6.5 19 11.5 39q33 -1 62 -1.5q29 -0.5 55 -0.5q26 0 61.5 0q35.5 0 80.5 2q-8 -20 -14.5 -39q-6.5 -19 -11.5 -38q-43 2 -74.5 2q-31.5 0 -52.5 0q-20 0 -53 0t-79 -2z" />
<glyph unicode="&#174;" horiz-adv-x="732" d="M305 337q25 -3 41 -3q2 0 7 0q5 0 13 1q12 0 15 1q40 30 40 83q0 37 -19.5 64q-19.5 27 -55.5 27q-13 0 -37 -6l-2 0q-1 -32 -1.5 -51q-0.5 -19 -0.5 -29.5q0 -10.5 0 -14q0 -3.5 0 -4.5zM187 159q3 0 7.5 -0.5q4.5 -0.5 6.5 -0.5q20 0 28 13q8 12 8 57v216q0 47 -8 58q-6 13 -26 13h-10v28q17 -1 35 -2.5q18 -1.5 37 -1.5q19 0 52 3q17 1 28.5 1.5q11.5 0.5 18.5 0.5q24 0 47 -6.5q23 -6.5 41 -20.5q18 -14 29 -35q11 -21 11 -50q0 -33 -16.5 -58.5q-16.5 -25.5 -53.5 -47.5l15 -24q45 -75 75 -112.5q30 -37.5 50 -37.5q1 0 3.5 0q2.5 0 4.5 1l0 -25q-24 -3 -41 -3q-70 0 -136 120q-10 19 -18 33.5q-8 14.5 -14 25.5q-14 -2 -23 -2q-9 0 -17 0h-16v-68q0 -9 0.5 -15.5q0.5 -6.5 0.5 -11.5v-9q0 -23 7.5 -31q7.5 -8 30.5 -8h8v-27q-29 2 -50 2q-21 0 -36 0q-11 0 -30.5 0q-19.5 0 -48.5 -2zM366 641q-65 0 -119 -23q-54 -23 -100 -68q-91 -90 -91 -219q0 -129 90 -219q91 -90 220 -90q128 0 218 91q91 91 91 218q0 129 -91 219q-91 91 -218 91zt0 0zM367 676q57 0 113 -20.5q56 -20.5 103 -58.5q60 -48 93 -118q34 -74 34 -148q0 -67 -26.5 -131q-26.5 -64 -75.5 -113q-48 -49 -110.5 -74.5q-62.5 -25.5 -131.5 -25.5q-69 0 -131.5 25.5q-62.5 25.5 -111.5 74.5q-49 49 -75.5 112q-26.5 63 -26.5 132q0 60 20 115q20 55 58 102q51 61 119 94q69 34 149 34z" />
<glyph unicode="&#175;" horiz-adv-x="424" d="M45 608q9 13 16 27q7 14 15 31q4 -1 17 -1q43 0 73.5 -0.5q30.5 -0.5 48.5 -0.5q14 0 28.5 0q14.5 0 33.5 0q19 0 44.5 0.5q25.5 0.5 63.5 1.5q-20 -32 -31 -58q-35 1 -69 1.5q-34 0.5 -83 0.5q-48 0 -84 -0.5t-73 -1.5z" />
<glyph unicode="&#176;" horiz-adv-x="329" d="M166 663q-17 0 -33 -5q-16 -5 -28.5 -16q-12.5 -11 -20.5 -28q-8 -17 -8 -41q0 -18 7 -34.5q7 -16.5 19 -28.5q12 -12 28.5 -19.5q16.5 -7.5 35.5 -7.5q18 0 34.5 7q16.5 7 28.5 19q12 12 19.5 28.5q7.5 16.5 7.5 35.5q0 18 -7 34q-7 16 -19 28.5q-12 12.5 -28.5 20q-16.5 7.5 -35.5 7.5zt0 0zM166 717q28 0 54 -11q26 -11 46 -30.5q20 -19.5 32 -45.5q12 -26 12 -57q0 -28 -11 -53.5q-11 -25.5 -30.5 -45.5q-19.5 -20 -46 -32q-26.5 -12 -57.5 -12q-28 0 -54 10.5q-26 10.5 -45.5 29.5q-19.5 19 -31.5 45.5q-12 26.5 -12 57.5q0 28 11 54q11 26 30 46q19 20 45.5 32t57.5 12z" />
<glyph unicode="&#177;" horiz-adv-x="833" d="M709 77v-57h-585v57zM446 576v-168h263v-57h-263v-168h-58v168h-264v57h264l0 168z" />
<glyph unicode="&#178;" horiz-adv-x="367" d="M98 327q33 0 56 -0.5q23 -0.5 37 -0.5h40q40 0 58 7q18 7 26 37l20 -6q-18 -42 -25 -87q-90 3 -158 3q-59 0 -126 -3l-10 20q110 85 163.5 158q53.5 73 53.5 121q0 37 -24 61.5q-24 24.5 -60 24.5q-29 0 -52 -15.5q-23 -15.5 -45 -45.5l-25 13q54 87 137 87q28 0 52 -9.5q24 -9.5 42 -25q18 -15.5 28.5 -37q10.5 -21.5 10.5 -45.5q0 -53 -51.5 -113t-147.5 -144z" />
<glyph unicode="&#179;" horiz-adv-x="367" d="M183 509q5 1 8.5 1q3.5 0 7.5 0q53 0 83 -27q30 -27 30 -75q0 -28 -14 -53.5q-14 -25.5 -38 -44.5q-24 -19 -56 -30q-32 -11 -67 -11q-23 0 -42.5 4.5q-19.5 4.5 -34 11.5q-14.5 7 -23 16q-8.5 9 -8.5 19q0 9 9 17q9 8 18 8q11 0 17.5 -5.5q6.5 -5.5 14.5 -13.5q14 -14 29.5 -20.5q15.5 -6.5 35.5 -6.5q41 0 69 27q28 27 28 69q0 38 -23.5 62q-23.5 24 -62.5 24q-28 0 -61 -13l-9 21q128 51 128 113q0 26 -19 44.5q-19 18.5 -51 18.5q-45 0 -86 -50l-24 13q45 73 125 73q50 0 82 -27q32 -27 32 -65q0 -64 -98 -100z" />
<glyph unicode="&#180;" horiz-adv-x="500" d="M380 710l-163 -163l-37 13l127 197z" />
<glyph unicode="&#181;" horiz-adv-x="570" d="M240 -14q-35 0 -64 12.5q-29 12.5 -46 43.5l-5 0q0 -32 4 -70.5q4 -38.5 9 -74.5q5 -36 9 -66q4 -30 4 -44q0 -28 -13 -38q-13 -10 -35 -10q-14 0 -24 1.5q-10 1.5 -16.5 7.5q-6.5 6 -9.5 18q-3 12 -3 32q0 17 6 56.5q6 39.5 13.5 101.5q7.5 62 14 147.5q6.5 85.5 6.5 195.5v33q0 56 -1.5 88q-1.5 32 -4.5 50l92 23q-3 -84 -4.5 -155.5q-1.5 -71.5 -1.5 -120.5q0 -53 4.5 -83q4.5 -30 15.5 -48q22 -34 74 -34q51 0 130 51q3 150 3 196v33q0 56 -1.5 88q-1.5 32 -4.5 50l92 23q-3 -84 -4.5 -155.5q-1.5 -71.5 -1.5 -120.5q0 -58 0.5 -90.5q0.5 -32.5 3.5 -49q3 -16.5 10.5 -20.5q7.5 -4 21.5 -4q5 0 11.5 1q6.5 1 17.5 4l4 -30l-149 -38l-2 73q-26 -20 -47 -34.5q-21 -14.5 -39 -24q-18 -9.5 -34.5 -14t-34.5 -4.5z" />
<glyph unicode="&#182;" horiz-adv-x="549" d="M376 659q-42 -5 -60.5 -52q-18.5 -47 -18.5 -151q0 -110 19 -166q19 -56 60 -64zM508 663h-11q-33 0 -47.5 -10q-14.5 -10 -18.5 -36q-1 -6 -1.5 -32q-0.5 -26 -1 -66.5q-0.5 -40.5 -1 -93q-0.5 -52.5 -0.5 -113.5q0 -31 0.5 -98q0.5 -67 1.5 -172l2 -186h-58l3 336q-2 0 -4 -0.5q-2 -0.5 -5 -0.5q-30 -3 -42 -3q-59 0 -108 18.5q-49 18.5 -84.5 51.5q-35.5 33 -55.5 78.5q-20 45.5 -20 99.5q0 55 21.5 103q21.5 48 59.5 82.5q38 34.5 90.5 54.5q52.5 20 114.5 20q7 0 19.5 -0.5q12.5 -0.5 25.5 -0.5q13 0 23.5 -0.5q10.5 -0.5 14.5 -0.5q35 0 82 3z" />
<glyph unicode="&#183;" horiz-adv-x="272" d="M139 433q36 0 58 -23q22 -23 22 -57q0 -32 -21.5 -56q-21.5 -24 -58.5 -24q-35 0 -57.5 23.5q-22.5 23.5 -22.5 56.5q0 32 22 56t58 24z" />
<glyph unicode="&#184;" horiz-adv-x="500" d="M326 10l-56 -69q32 -8 49 -24.5q17 -16.5 17 -39.5q0 -33 -32 -59q-32 -26 -91 -40l-15 29q66 15 66 60q0 36 -59 47l84 96z" />
<glyph unicode="&#185;" horiz-adv-x="367" d="M222 701q-5 -80 -5.5 -146.5q-0.5 -66.5 -0.5 -121.5v-55q0 -22 1.5 -37.5q1.5 -15.5 7 -25q5.5 -9.5 16.5 -14q11 -4.5 30 -4.5h13v-20q-33 2 -58.5 2q-25.5 0 -42.5 0q-14 0 -37.5 0q-23.5 0 -58.5 -2l0 20h10q32 0 45 5q13 5 18 25q6 19 6 241q0 20 -0.5 42q-0.5 22 -1.5 48q-20 -1 -41 -2.5q-21 -1.5 -43 -4.5l-4 23q72 11 146 27z" />
<glyph unicode="&#186;" horiz-adv-x="413" d="M211 706q40 0 72.5 -13.5q32.5 -13.5 56 -36q23.5 -22.5 36.5 -53.5q13 -31 13 -65q0 -39 -14.5 -73q-14.5 -34 -39 -59q-24.5 -25 -58.5 -39.5q-34 -14.5 -73 -14.5q-40 0 -73 13q-33 13 -56.5 36.5q-23.5 23.5 -36.5 55q-13 31.5 -13 68.5q0 39 15 72q15 33 40.5 57q25.5 24 59 38q33.5 14 71.5 14zt0 0zM201 670q-47 0 -78 -31.5q-31 -31.5 -31 -91.5q0 -74 34 -118q34 -44 86 -44q49 0 80.5 34q31.5 34 31.5 99q0 68 -34.5 110t-88.5 42z" />
<glyph unicode="&#187;" horiz-adv-x="418" d="M89 421q24 -41 51.5 -85.5q27.5 -44.5 59.5 -95.5l-5 -8q-35 -57 -62 -101q-27 -44 -45 -76l-39 19q15 37 31 76q16 39 37 90l-22 55q-15 37 -25.5 64.5q-10.5 27.5 -17.5 44.5zM240 426q31 -46 67.5 -91.5q36.5 -45.5 78.5 -93.5q-38 -44 -74.5 -91q-36.5 -47 -71.5 -98l-37 22q27 51 47.5 91q20.5 40 37.5 74q-24 50 -44.5 90q-20.5 40 -40.5 76z" />
<glyph unicode="&#188;" horiz-adv-x="867" d="M212 700q-5 -74 -5.5 -136q-0.5 -62 -0.5 -113v-51q0 -42 8.5 -59.5q8.5 -17.5 43.5 -17.5q3 0 6 0.5q3 0.5 6 0.5l0 -19q-32 2 -55.5 2q-23.5 0 -40.5 0q-14 0 -36.5 0q-22.5 0 -54.5 -2l0 18h9q30 0 42.5 5q12.5 5 17.5 24q2 9 4 65q2 56 2 160q0 18 -0.5 39q-0.5 21 -1.5 45q-19 -1 -39 -2.5q-20 -1.5 -41 -4.5l-4 21q34 5 68.5 11q34.5 6 71.5 14zt0 0zM684 687q-113 -165 -228 -341.5q-115 -176.5 -236 -366.5l-38 25q116 168 231 344q115 176 234 363zM775 393q-2 -58 -3.5 -117q-1.5 -59 -1.5 -119l10 0q30 0 68 3q-2 -9 -5 -18q-3 -9 -5 -19q-17 1 -34 1q-17 0 -34 0l0 -57q0 -14 1 -23.5q1 -9.5 5 -15q4 -5.5 12.5 -7.5q8.5 -2 22.5 -2h8v-19q-25 2 -44 2q-19 0 -32 0q-11 0 -29 0q-18 0 -45 -2l0 19q3 0 6 -0.5q3 -0.5 6 -0.5q28 0 34.5 12.5q6.5 12.5 6.5 44.5v49q-27 0 -47.5 0.5q-20.5 0.5 -34.5 0.5q-11 0 -34.5 -0.5q-23.5 -0.5 -59.5 -0.5l-13 25q33 36 54 59q21 23 30 34l30 37q18 23 40.5 51q22.5 28 46.5 63zM586 160q61 -3 114 -3h22l0 173z" />
<glyph unicode="&#189;" horiz-adv-x="867" d="M212 700q-5 -74 -5.5 -136q-0.5 -62 -0.5 -113v-51q0 -42 8.5 -59.5q8.5 -17.5 43.5 -17.5q3 0 6 0.5q3 0.5 6 0.5l0 -19q-32 2 -55.5 2q-23.5 0 -40.5 0q-14 0 -36.5 0q-22.5 0 -54.5 -2l0 18h9q30 0 42.5 5q12.5 5 17.5 24q2 9 4 65q2 56 2 160q0 18 -0.5 39q-0.5 21 -1.5 45q-19 -1 -39 -2.5q-20 -1.5 -41 -4.5l-4 21q34 5 68.5 11q34.5 6 71.5 14zt0 0zM684 687q-113 -165 -228 -341.5q-115 -176.5 -236 -366.5l-38 25q116 168 231 344q115 176 234 363zM611 47q31 -1 52.5 -1q21.5 0 35.5 0h38q19 0 33 1q14 1 23 5q9 4 15 12.5q6 8.5 10 22.5l19 -6q-8 -20 -14 -40q-6 -20 -10 -41q-86 3 -151 3q-56 0 -120 -3l-10 18q105 80 156 148.5q51 68.5 51 112.5q0 35 -22.5 57.5q-22.5 22.5 -57.5 22.5q-28 0 -50 -14q-22 -14 -42 -43l-24 13q51 80 131 80q26 0 49 -8.5q23 -8.5 40 -23.5q17 -15 27 -35q10 -20 10 -42q0 -49 -49 -105t-140 -134z" />
<glyph unicode="&#190;" horiz-adv-x="868" d="M190 522q51 0 79.5 -25q28.5 -25 28.5 -70q0 -26 -13.5 -49.5q-13.5 -23.5 -36.5 -41.5q-23 -18 -53.5 -28.5q-30.5 -10.5 -63.5 -10.5q-43 0 -73 15q-30 15 -30 33q0 8 8.5 16q8.5 8 17.5 8q10 0 16 -5.5q6 -5.5 14 -13.5q14 -12 28 -18.5q14 -6.5 34 -6.5q19 0 36 6.5q17 6.5 29.5 18.5q12.5 12 20 28.5q7.5 16.5 7.5 36.5q0 35 -22.5 57.5q-22.5 22.5 -59.5 22.5q-24 0 -59 -11l-9 19q123 48 123 105q0 24 -18.5 41.5q-18.5 17.5 -48.5 17.5q-43 0 -82 -46l-23 12q43 67 119 67q47 0 78 -25q31 -25 31 -60q0 -61 -93 -93zM684 687q-113 -165 -228 -341.5q-115 -176.5 -236 -366.5l-38 25q116 168 231 344q115 176 234 363zM775 393q-2 -58 -3.5 -117q-1.5 -59 -1.5 -119l10 0q30 0 68 3q-2 -9 -5 -18q-3 -9 -5 -19q-17 1 -34 1q-17 0 -34 0l0 -57q0 -14 1 -23.5q1 -9.5 5 -15q4 -5.5 12.5 -7.5q8.5 -2 22.5 -2h8v-19q-25 2 -44 2q-19 0 -32 0q-11 0 -29 0q-18 0 -45 -2l0 19q3 0 6 -0.5q3 -0.5 6 -0.5q28 0 34.5 12.5q6.5 12.5 6.5 44.5v49q-27 0 -47.5 0.5q-20.5 0.5 -34.5 0.5q-11 0 -34.5 -0.5q-23.5 -0.5 -59.5 -0.5l-13 25q33 36 54 59q21 23 30 34l30 37q18 23 40.5 51q22.5 28 46.5 63zM586 160q61 -3 114 -3h22l0 173z" />
<glyph unicode="&#191;" horiz-adv-x="470" d="M292 602q-26 20 -26 41q0 11 5 19q5 8 18 19l37 29l35 -27q26 -20 26 -41q0 -11 -5 -19q-5 -8 -19 -19l-37 -28zM346 502q-1 -12 -1 -23.5q0 -11.5 0 -23.5q0 -31 1.5 -60.5q1.5 -29.5 3.5 -57.5q-98 -23 -149 -70.5q-51 -47.5 -51 -106.5q0 -24 9 -44.5q9 -20.5 24.5 -35q15.5 -14.5 36.5 -23q21 -8.5 46 -8.5q23 0 41.5 7q18.5 7 33 15.5q14.5 8.5 26 15.5q11.5 7 21.5 7q14 0 24 -10q10 -10 10 -27q0 -31 -30 -52.5q-30 -21.5 -82 -21.5q-49 0 -90.5 15.5q-41.5 15.5 -71.5 43q-30 27.5 -47 64.5q-17 37 -17 79q0 39 11.5 68.5q11.5 29.5 33.5 54q22 24.5 54.5 45q32.5 20.5 75.5 40.5q14 6 23.5 11q9.5 5 15.5 13q6 8 8.5 22.5q2.5 14.5 2.5 39.5l0 23z" />
<glyph unicode="&#192;" horiz-adv-x="736" d="M427 697q80 -244 133.5 -392q53.5 -148 76.5 -203q15 -36 28 -52q13 -16 46 -16h10v-34q-44 2 -74 3q-30 1 -48 1q-24 0 -56 -1q-32 -1 -74 -3l0 34h10q33 0 46.5 7.5q13.5 7.5 13.5 30.5q0 8 -2.5 18q-2.5 10 -6.5 22l-48 149q-45 1 -76 1.5q-31 0.5 -50 0.5q-14 0 -45 0q-31 0 -79 -1q-29 -73 -44.5 -119q-15.5 -46 -15.5 -66q0 -25 13 -34q13 -9 45 -9h14v-34q-42 2 -72 3q-30 1 -50 1q-16 0 -44.5 -1q-28.5 -1 -68.5 -3l0 34q35 1 55.5 13.5q20.5 12.5 35.5 43.5q10 22 74 173q64 151 169 433zM253 313q32 -1 58 -1.5q26 -0.5 44 -0.5q22 0 49.5 0.5q27.5 0.5 60.5 1.5l-100 292zM325 977l127 -197l-37 -13l-163 163z" />
<glyph unicode="&#193;" horiz-adv-x="736" d="M427 697q80 -244 133.5 -392q53.5 -148 76.5 -203q15 -36 28 -52q13 -16 46 -16h10v-34q-44 2 -74 3q-30 1 -48 1q-24 0 -56 -1q-32 -1 -74 -3l0 34h10q33 0 46.5 7.5q13.5 7.5 13.5 30.5q0 8 -2.5 18q-2.5 10 -6.5 22l-48 149q-45 1 -76 1.5q-31 0.5 -50 0.5q-14 0 -45 0q-31 0 -79 -1q-29 -73 -44.5 -119q-15.5 -46 -15.5 -66q0 -25 13 -34q13 -9 45 -9h14v-34q-42 2 -72 3q-30 1 -50 1q-16 0 -44.5 -1q-28.5 -1 -68.5 -3l0 34q35 1 55.5 13.5q20.5 12.5 35.5 43.5q10 22 74 173q64 151 169 433zM253 313q32 -1 58 -1.5q26 -0.5 44 -0.5q22 0 49.5 0.5q27.5 0.5 60.5 1.5l-100 292zM497 930l-163 -163l-37 13l127 197z" />
<glyph unicode="&#194;" horiz-adv-x="736" d="M427 697q80 -244 133.5 -392q53.5 -148 76.5 -203q15 -36 28 -52q13 -16 46 -16h10v-34q-44 2 -74 3q-30 1 -48 1q-24 0 -56 -1q-32 -1 -74 -3l0 34h10q33 0 46.5 7.5q13.5 7.5 13.5 30.5q0 8 -2.5 18q-2.5 10 -6.5 22l-48 149q-45 1 -76 1.5q-31 0.5 -50 0.5q-14 0 -45 0q-31 0 -79 -1q-29 -73 -44.5 -119q-15.5 -46 -15.5 -66q0 -25 13 -34q13 -9 45 -9h14v-34q-42 2 -72 3q-30 1 -50 1q-16 0 -44.5 -1q-28.5 -1 -68.5 -3l0 34q35 1 55.5 13.5q20.5 12.5 35.5 43.5q10 22 74 173q64 151 169 433zM253 313q32 -1 58 -1.5q26 -0.5 44 -0.5q22 0 49.5 0.5q27.5 0.5 60.5 1.5l-100 292zM393 939l133 -157l-29 -15l-120 99l-119 -99l-29 15l134 157z" />
<glyph unicode="&#195;" horiz-adv-x="736" d="M427 697q80 -244 133.5 -392q53.5 -148 76.5 -203q15 -36 28 -52q13 -16 46 -16h10v-34q-44 2 -74 3q-30 1 -48 1q-24 0 -56 -1q-32 -1 -74 -3l0 34h10q33 0 46.5 7.5q13.5 7.5 13.5 30.5q0 8 -2.5 18q-2.5 10 -6.5 22l-48 149q-45 1 -76 1.5q-31 0.5 -50 0.5q-14 0 -45 0q-31 0 -79 -1q-29 -73 -44.5 -119q-15.5 -46 -15.5 -66q0 -25 13 -34q13 -9 45 -9h14v-34q-42 2 -72 3q-30 1 -50 1q-16 0 -44.5 -1q-28.5 -1 -68.5 -3l0 34q35 1 55.5 13.5q20.5 12.5 35.5 43.5q10 22 74 173q64 151 169 433zM253 313q32 -1 58 -1.5q26 -0.5 44 -0.5q22 0 49.5 0.5q27.5 0.5 60.5 1.5l-100 292zM553 906q-26 -34 -52 -58q-26 -24 -57 -42q-17 2 -38 4q-21 2 -47 6q-25 5 -40.5 6.5q-15.5 1.5 -23.5 1.5q-30 0 -52.5 -11.5q-22.5 -11.5 -42.5 -35.5l-24 23q26 34 54.5 58.5q28.5 24.5 60.5 41.5q18 -2 39 -4q21 -2 46 -7q26 -4 42.5 -6q16.5 -2 24.5 -2q50 0 84 46z" />
<glyph unicode="&#196;" horiz-adv-x="736" d="M427 697q80 -244 133.5 -392q53.5 -148 76.5 -203q15 -36 28 -52q13 -16 46 -16h10v-34q-44 2 -74 3q-30 1 -48 1q-24 0 -56 -1q-32 -1 -74 -3l0 34h10q33 0 46.5 7.5q13.5 7.5 13.5 30.5q0 8 -2.5 18q-2.5 10 -6.5 22l-48 149q-45 1 -76 1.5q-31 0.5 -50 0.5q-14 0 -45 0q-31 0 -79 -1q-29 -73 -44.5 -119q-15.5 -46 -15.5 -66q0 -25 13 -34q13 -9 45 -9h14v-34q-42 2 -72 3q-30 1 -50 1q-16 0 -44.5 -1q-28.5 -1 -68.5 -3l0 34q35 1 55.5 13.5q20.5 12.5 35.5 43.5q10 22 74 173q64 151 169 433zM253 313q32 -1 58 -1.5q26 -0.5 44 -0.5q22 0 49.5 0.5q27.5 0.5 60.5 1.5l-100 292zM483 892q19 0 41 -19q21 -21 21 -38q0 -18 -21 -37q-23 -20 -41 -20q-18 0 -40 19q-21 21 -21 38q0 17 21 37q22 20 40 20zt0 0zM275 892q20 0 40 -19q21 -21 21 -38q0 -18 -21 -37q-22 -20 -40 -20q-18 0 -40 19q-21 21 -21 38q0 17 21 37q22 20 40 20z" />
<glyph unicode="&#197;" horiz-adv-x="736" d="M427 697q80 -244 133.5 -392q53.5 -148 76.5 -203q15 -36 28 -52q13 -16 46 -16h10v-34q-44 2 -74 3q-30 1 -48 1q-24 0 -56 -1q-32 -1 -74 -3l0 34h10q33 0 46.5 7.5q13.5 7.5 13.5 30.5q0 8 -2.5 18q-2.5 10 -6.5 22l-48 149q-45 1 -76 1.5q-31 0.5 -50 0.5q-14 0 -45 0q-31 0 -79 -1q-29 -73 -44.5 -119q-15.5 -46 -15.5 -66q0 -25 13 -34q13 -9 45 -9h14v-34q-42 2 -72 3q-30 1 -50 1q-16 0 -44.5 -1q-28.5 -1 -68.5 -3l0 34q35 1 55.5 13.5q20.5 12.5 35.5 43.5q10 22 74 173q64 151 169 433zM253 313q32 -1 58 -1.5q26 -0.5 44 -0.5q22 0 49.5 0.5q27.5 0.5 60.5 1.5l-100 292zM385 913q-31 0 -48.5 -19q-17.5 -19 -17.5 -48q0 -27 17 -47q17 -20 49 -20q30 0 48 19q18 19 18 48q0 26 -17.5 46.5q-17.5 20.5 -48.5 20.5zt0 0zM385 962q23 0 44 -9q21 -9 37 -24.5q16 -15.5 25.5 -37q9.5 -21.5 9.5 -45.5q0 -24 -8.5 -45q-8.5 -21 -23.5 -37q-15 -16 -36.5 -25.5q-21.5 -9.5 -47.5 -9.5q-24 0 -45.5 9q-21.5 9 -37.5 24.5q-16 15.5 -25 37q-9 21.5 -9 46.5q0 23 9 44q9 21 24.5 37q15.5 16 37 25.5t46.5 9.5z" />
<glyph unicode="&#198;" horiz-adv-x="1053" d="M397 697q65 -4 132 -5.5q67 -1.5 138 -1.5q72 0 144 2q72 2 145 5q2 -74 9 -152l-34 -3q-2 33 -12.5 53q-10.5 20 -31 30.5q-20.5 10.5 -53 13.5q-32.5 3 -78.5 3q-25 0 -55 -0.5q-30 -0.5 -67 -1.5q-1 -84 -2 -146.5q-1 -62.5 -2 -107.5l15 0q40 0 72 -0.5q32 -0.5 58 -0.5q31 0 53 2q22 2 36 8.5q14 6.5 21 19q7 12.5 8 32.5l31 -3q-4 -32 -5.5 -58q-1.5 -26 -1.5 -46q0 -27 3 -78l-32 -1v4q0 24 -7.5 38.5q-7.5 14.5 -23.5 21.5q-16 7 -42 9q-26 2 -63 2h-122q0 -35 -0.5 -66.5q-0.5 -31.5 -0.5 -60.5q0 -42 0.5 -79.5q0.5 -37.5 1.5 -69.5q49 -6 124 -6q50 0 86 2.5q36 2.5 61.5 14q25.5 11.5 43.5 34.5q18 23 32 64l35 -12q-29 -80 -45 -157q-73 2 -144 4q-71 2 -142 2q-50 0 -106 -1.5q-56 -1.5 -121 -5.5l0 34q7 -1 13 -1.5q6 -0.5 11 -0.5q22 0 34 7q12 7 18 23q6 16 7 40.5q1 24.5 1 59.5v34q0 14 0 30.5q0 16.5 1 34.5q-52 1 -83 1.5q-31 0.5 -42 0.5q-29 0 -61 0q-32 0 -68 -1q-53 -85 -83 -132q-30 -47 -30 -63q0 -20 14 -26.5q14 -6.5 45 -6.5h10v-33q-83 6 -122 6q-43 0 -119 -6l0 32h8q19 0 34 5q15 5 30.5 19q15.5 14 33.5 38q18 24 45 63q73 107 133.5 191.5q60.5 84.5 103.5 145.5q43 61 66.5 97q23.5 36 23.5 45q0 17 -14.5 22.5q-14.5 5.5 -43.5 5.5h-24zM320 309q49 -1 77.5 -1q28.5 0 37.5 0q20 0 46 0q26 0 58 1q1 132 6 336z" />
<glyph unicode="&#199;" horiz-adv-x="708" d="M646 658q0 -38 2.5 -75q2.5 -37 7.5 -73l-36 -6q-10 71 -66.5 110q-56.5 39 -147.5 39q-121 0 -187.5 -73q-66.5 -73 -66.5 -213q0 -75 20.5 -135.5q20.5 -60.5 57 -102.5q36.5 -42 86.5 -65q50 -23 109 -23q76 0 131.5 34.5q55.5 34.5 87.5 103.5l33 -16q-31 -64 -51 -131q-55 -25 -109.5 -36.5q-54.5 -11.5 -107.5 -11.5q-81 0 -148 26q-67 26 -114.5 74q-47.5 48 -74 115q-26.5 67 -26.5 149q0 81 28 148q28 67 78.5 115q50.5 48 120.5 74.5q70 26.5 153 26.5q100 0 220 -37zM443 10l-56 -69q32 -8 49 -24.5q17 -16.5 17 -39.5q0 -33 -32 -59q-32 -26 -91 -40l-15 29q66 15 66 60q0 36 -59 47l84 96z" />
<glyph unicode="&#200;" horiz-adv-x="634" d="M46 697q171 -6 269 -6q108 0 222 6q2 -74 9 -152l-33 -3q-2 33 -12.5 53q-10.5 20 -31 30.5q-20.5 10.5 -53 13.5q-32.5 3 -78.5 3q-25 0 -55.5 -0.5q-30.5 -0.5 -66.5 -1.5q-1 -76 -2.5 -139q-1.5 -63 -2.5 -115l15 0q40 0 72 -0.5q32 -0.5 58 -0.5q31 0 53 2q22 2 36 8.5q14 6.5 21 19q7 12.5 8 32.5l31 -3q-4 -32 -5.5 -58q-1.5 -26 -1.5 -46q0 -13 1 -32.5q1 -19.5 3 -45.5l-32 -1v4q0 24 -7.5 38.5q-7.5 14.5 -23.5 21.5q-16 7 -42.5 9q-26.5 2 -63.5 2h-122q0 -35 -0.5 -66.5q-0.5 -31.5 -0.5 -60.5q0 -42 0.5 -79.5q0.5 -37.5 1.5 -69.5q49 -6 124 -6q50 0 86 2.5q36 2.5 61.5 14q25.5 11.5 43.5 34.5q18 23 32 64l35 -12q-29 -80 -45 -157q-155 6 -262 6q-59 0 -121.5 -2q-62.5 -2 -130.5 -4l0 32q5 -1 8.5 -1q3.5 0 7.5 0q28 0 42 13.5q14 13.5 19 43.5q5 30 5 78.5q0 48.5 1 118.5l2 133q1 65 1 107.5q0 42.5 0 64.5q0 42 -15 58q-15 16 -56 16h-4v33zM281 977l127 -197l-37 -13l-163 163z" />
<glyph unicode="&#201;" horiz-adv-x="634" d="M46 697q171 -6 269 -6q108 0 222 6q2 -74 9 -152l-33 -3q-2 33 -12.5 53q-10.5 20 -31 30.5q-20.5 10.5 -53 13.5q-32.5 3 -78.5 3q-25 0 -55.5 -0.5q-30.5 -0.5 -66.5 -1.5q-1 -76 -2.5 -139q-1.5 -63 -2.5 -115l15 0q40 0 72 -0.5q32 -0.5 58 -0.5q31 0 53 2q22 2 36 8.5q14 6.5 21 19q7 12.5 8 32.5l31 -3q-4 -32 -5.5 -58q-1.5 -26 -1.5 -46q0 -13 1 -32.5q1 -19.5 3 -45.5l-32 -1v4q0 24 -7.5 38.5q-7.5 14.5 -23.5 21.5q-16 7 -42.5 9q-26.5 2 -63.5 2h-122q0 -35 -0.5 -66.5q-0.5 -31.5 -0.5 -60.5q0 -42 0.5 -79.5q0.5 -37.5 1.5 -69.5q49 -6 124 -6q50 0 86 2.5q36 2.5 61.5 14q25.5 11.5 43.5 34.5q18 23 32 64l35 -12q-29 -80 -45 -157q-155 6 -262 6q-59 0 -121.5 -2q-62.5 -2 -130.5 -4l0 32q5 -1 8.5 -1q3.5 0 7.5 0q28 0 42 13.5q14 13.5 19 43.5q5 30 5 78.5q0 48.5 1 118.5l2 133q1 65 1 107.5q0 42.5 0 64.5q0 42 -15 58q-15 16 -56 16h-4v33zM464 930l-163 -163l-37 13l127 197z" />
<glyph unicode="&#202;" horiz-adv-x="634" d="M46 697q171 -6 269 -6q108 0 222 6q2 -74 9 -152l-33 -3q-2 33 -12.5 53q-10.5 20 -31 30.5q-20.5 10.5 -53 13.5q-32.5 3 -78.5 3q-25 0 -55.5 -0.5q-30.5 -0.5 -66.5 -1.5q-1 -76 -2.5 -139q-1.5 -63 -2.5 -115l15 0q40 0 72 -0.5q32 -0.5 58 -0.5q31 0 53 2q22 2 36 8.5q14 6.5 21 19q7 12.5 8 32.5l31 -3q-4 -32 -5.5 -58q-1.5 -26 -1.5 -46q0 -13 1 -32.5q1 -19.5 3 -45.5l-32 -1v4q0 24 -7.5 38.5q-7.5 14.5 -23.5 21.5q-16 7 -42.5 9q-26.5 2 -63.5 2h-122q0 -35 -0.5 -66.5q-0.5 -31.5 -0.5 -60.5q0 -42 0.5 -79.5q0.5 -37.5 1.5 -69.5q49 -6 124 -6q50 0 86 2.5q36 2.5 61.5 14q25.5 11.5 43.5 34.5q18 23 32 64l35 -12q-29 -80 -45 -157q-155 6 -262 6q-59 0 -121.5 -2q-62.5 -2 -130.5 -4l0 32q5 -1 8.5 -1q3.5 0 7.5 0q28 0 42 13.5q14 13.5 19 43.5q5 30 5 78.5q0 48.5 1 118.5l2 133q1 65 1 107.5q0 42.5 0 64.5q0 42 -15 58q-15 16 -56 16h-4v33zM346 939l133 -157l-29 -15l-120 99l-119 -99l-29 15l134 157z" />
<glyph unicode="&#203;" horiz-adv-x="634" d="M46 697q171 -6 269 -6q108 0 222 6q2 -74 9 -152l-33 -3q-2 33 -12.5 53q-10.5 20 -31 30.5q-20.5 10.5 -53 13.5q-32.5 3 -78.5 3q-25 0 -55.5 -0.5q-30.5 -0.5 -66.5 -1.5q-1 -76 -2.5 -139q-1.5 -63 -2.5 -115l15 0q40 0 72 -0.5q32 -0.5 58 -0.5q31 0 53 2q22 2 36 8.5q14 6.5 21 19q7 12.5 8 32.5l31 -3q-4 -32 -5.5 -58q-1.5 -26 -1.5 -46q0 -13 1 -32.5q1 -19.5 3 -45.5l-32 -1v4q0 24 -7.5 38.5q-7.5 14.5 -23.5 21.5q-16 7 -42.5 9q-26.5 2 -63.5 2h-122q0 -35 -0.5 -66.5q-0.5 -31.5 -0.5 -60.5q0 -42 0.5 -79.5q0.5 -37.5 1.5 -69.5q49 -6 124 -6q50 0 86 2.5q36 2.5 61.5 14q25.5 11.5 43.5 34.5q18 23 32 64l35 -12q-29 -80 -45 -157q-155 6 -262 6q-59 0 -121.5 -2q-62.5 -2 -130.5 -4l0 32q5 -1 8.5 -1q3.5 0 7.5 0q28 0 42 13.5q14 13.5 19 43.5q5 30 5 78.5q0 48.5 1 118.5l2 133q1 65 1 107.5q0 42.5 0 64.5q0 42 -15 58q-15 16 -56 16h-4v33zM423 892q19 0 41 -19q21 -21 21 -38q0 -18 -21 -37q-23 -20 -41 -20q-18 0 -40 19q-21 21 -21 38q0 17 21 37q22 20 40 20zt0 0zM215 892q20 0 40 -19q21 -21 21 -38q0 -18 -21 -37q-22 -20 -40 -20q-18 0 -40 19q-21 21 -21 38q0 17 21 37q22 20 40 20z" />
<glyph unicode="&#204;" horiz-adv-x="350" d="M40 697q39 -2 72.5 -3q33.5 -1 61.5 -1q23 0 56 1q33 1 76 3l0 -34h-8q-31 0 -47 -7q-16 -7 -23 -25q-5 -13 -6 -42q-1 -29 -1 -76v-340q0 -45 1.5 -73.5q1.5 -28.5 9.5 -42.5q7 -13 23.5 -18q16.5 -5 45.5 -5h10v-34q-49 2 -83 3q-34 1 -54 1q-24 0 -59 -1q-35 -1 -80 -3l0 34h10q29 0 45.5 5q16.5 5 23.5 18q8 17 10 54q2 37 2 98v268q0 63 -1.5 101q-1.5 38 -6.5 53q-7 19 -23 25.5q-16 6.5 -46 6.5h-9v34zM138 977l127 -197l-37 -13l-163 163z" />
<glyph unicode="&#205;" horiz-adv-x="350" d="M40 697q39 -2 72.5 -3q33.5 -1 61.5 -1q23 0 56 1q33 1 76 3l0 -34h-8q-31 0 -47 -7q-16 -7 -23 -25q-5 -13 -6 -42q-1 -29 -1 -76v-340q0 -45 1.5 -73.5q1.5 -28.5 9.5 -42.5q7 -13 23.5 -18q16.5 -5 45.5 -5h10v-34q-49 2 -83 3q-34 1 -54 1q-24 0 -59 -1q-35 -1 -80 -3l0 34h10q29 0 45.5 5q16.5 5 23.5 18q8 17 10 54q2 37 2 98v268q0 63 -1.5 101q-1.5 38 -6.5 53q-7 19 -23 25.5q-16 6.5 -46 6.5h-9v34zM285 930l-163 -163l-37 13l127 197z" />
<glyph unicode="&#206;" horiz-adv-x="350" d="M40 697q39 -2 72.5 -3q33.5 -1 61.5 -1q23 0 56 1q33 1 76 3l0 -34h-8q-31 0 -47 -7q-16 -7 -23 -25q-5 -13 -6 -42q-1 -29 -1 -76v-340q0 -45 1.5 -73.5q1.5 -28.5 9.5 -42.5q7 -13 23.5 -18q16.5 -5 45.5 -5h10v-34q-49 2 -83 3q-34 1 -54 1q-24 0 -59 -1q-35 -1 -80 -3l0 34h10q29 0 45.5 5q16.5 5 23.5 18q8 17 10 54q2 37 2 98v268q0 63 -1.5 101q-1.5 38 -6.5 53q-7 19 -23 25.5q-16 6.5 -46 6.5h-9v34zM203 939l133 -157l-29 -15l-120 99l-119 -99l-29 15l134 157z" />
<glyph unicode="&#207;" horiz-adv-x="350" d="M40 697q39 -2 72.5 -3q33.5 -1 61.5 -1q23 0 56 1q33 1 76 3l0 -34h-8q-31 0 -47 -7q-16 -7 -23 -25q-5 -13 -6 -42q-1 -29 -1 -76v-340q0 -45 1.5 -73.5q1.5 -28.5 9.5 -42.5q7 -13 23.5 -18q16.5 -5 45.5 -5h10v-34q-49 2 -83 3q-34 1 -54 1q-24 0 -59 -1q-35 -1 -80 -3l0 34h10q29 0 45.5 5q16.5 5 23.5 18q8 17 10 54q2 37 2 98v268q0 63 -1.5 101q-1.5 38 -6.5 53q-7 19 -23 25.5q-16 6.5 -46 6.5h-9v34zM280 892q19 0 41 -19q21 -21 21 -38q0 -18 -21 -37q-23 -20 -41 -20q-18 0 -40 19q-21 21 -21 38q0 17 21 37q22 20 40 20zt0 0zM72 892q20 0 40 -19q21 -21 21 -38q0 -18 -21 -37q-22 -20 -40 -20q-18 0 -40 19q-21 21 -21 38q0 17 21 37q22 20 40 20z" />
<glyph unicode="&#208;" horiz-adv-x="781" d="M210 59q70 -15 139 -15q140 0 212.5 75.5q72.5 75.5 72.5 214.5q0 74 -20 133q-20 59 -58 100q-38 41 -93.5 63q-55.5 22 -126.5 22q-58 0 -121 -9q-2 -66 -2.5 -132q-0.5 -66 -1.5 -132l93 0q23 0 47 0.5q24 0.5 48 0.5l0 -50q-48 1 -76 1q-28 0 -37 0h-75q-1 -60 -1 -94.5q0 -34.5 0 -44.5zM35 34q5 -1 9.5 -1q4.5 0 8.5 0q23 0 36.5 8.5q13.5 8.5 20 26.5q6.5 18 8.5 47.5q2 29.5 2 71.5v144h-122v49q16 0 31 -0.5q15 -0.5 29 -0.5h62v37q0 38 0.5 69.5q0.5 31.5 0.5 57.5q0 32 -2 55q-2 23 -9 37.5q-7 14.5 -20 21q-13 6.5 -35 6.5h-9v34q42 -2 68 -3q26 -1 38 -1q72 0 120.5 4q48.5 4 75.5 4q93 0 166 -24.5q73 -24.5 123 -69.5q50 -45 76 -108.5q26 -63.5 26 -140.5q0 -79 -26 -145.5q-26 -66.5 -75.5 -114.5q-49.5 -48 -121 -75q-71.5 -27 -162.5 -27q-42 0 -93.5 4q-51.5 4 -113.5 4q-17 0 -44.5 -1q-27.5 -1 -67.5 -3z" />
<glyph unicode="&#209;" horiz-adv-x="808" d="M30 697q26 -2 47.5 -3q21.5 -1 39.5 -1q14 0 34 1q20 1 48 3q8 -18 19.5 -35.5q11.5 -17.5 26.5 -35.5l403 -477q-4 219 -5.5 336.5q-1.5 117.5 -6.5 137.5q-6 23 -21.5 31.5q-15.5 8.5 -47.5 8.5h-15v34q33 -2 61.5 -3q28.5 -1 53.5 -1q25 0 54 1q29 1 62 3l0 -34q-5 1 -8.5 1q-3.5 0 -7.5 0q-29 0 -42.5 -13.5q-13.5 -13.5 -18.5 -43.5q-5 -30 -5 -78.5q0 -48.5 -1 -118.5l-2 -130q-1 -41 -1 -76.5q0 -35.5 0 -66.5q0 -48 1 -84.5q1 -36.5 5 -60.5l-55 0q-6 16 -22.5 36q-16.5 20 -40.5 48l-419 493q1 -227 3 -351q2 -124 7 -144q6 -23 21 -31.5q15 -8.5 47 -8.5h15v-34q-35 2 -63.5 3q-28.5 1 -51.5 1q-20 0 -48.5 -1q-28.5 -1 -65.5 -3l0 34q5 -1 8.5 -1q3.5 0 7.5 0q29 0 42.5 13q13.5 13 18.5 43q5 30 4.5 78.5q-0.5 48.5 1.5 118.5l2 130q1 37 1 67.5q0 30.5 0 54.5q0 36 -1 60q-1 24 -7.5 38.5q-6.5 14.5 -21.5 20.5q-15 6 -43 6h-13v34zM596 906q-26 -34 -52 -58q-26 -24 -57 -42q-17 2 -38 4q-21 2 -47 6q-25 5 -40.5 6.5q-15.5 1.5 -23.5 1.5q-30 0 -52.5 -11.5q-22.5 -11.5 -42.5 -35.5l-24 23q26 34 54.5 58.5q28.5 24.5 60.5 41.5q18 -2 39 -4q21 -2 46 -7q26 -4 42.5 -6q16.5 -2 24.5 -2q50 0 84 46z" />
<glyph unicode="&#210;" horiz-adv-x="802" d="M401 713q73 0 131.5 -21q58.5 -21 106.5 -66q57 -54 87 -124q30 -70 30 -151q0 -82 -32 -154q-32 -72 -90 -124q-47 -42 -109 -65.5q-62 -23.5 -125 -23.5q-158 0 -260 114q-46 52 -70 116q-24 64 -24 136q0 78 29 146q29 68 84 120q51 48 113 72.5q62 24.5 129 24.5zt0 0zM648 334q0 73 -20 133q-20 60 -55 102.5q-35 42.5 -82 65.5q-47 23 -101 23q-51 0 -94.5 -19.5q-43.5 -19.5 -75 -56q-31.5 -36.5 -49 -90q-17.5 -53.5 -17.5 -121.5q0 -76 20.5 -137.5q20.5 -61.5 55.5 -104.5q35 -43 81.5 -66.5q46.5 -23.5 99.5 -23.5q51 0 94.5 20q43.5 20 75 57.5q31.5 37.5 49.5 92.5q18 55 18 125zt0 0zM365 977l127 -197l-37 -13l-163 163z" />
<glyph unicode="&#211;" horiz-adv-x="802" d="M401 713q73 0 131.5 -21q58.5 -21 106.5 -66q57 -54 87 -124q30 -70 30 -151q0 -82 -32 -154q-32 -72 -90 -124q-47 -42 -109 -65.5q-62 -23.5 -125 -23.5q-158 0 -260 114q-46 52 -70 116q-24 64 -24 136q0 78 29 146q29 68 84 120q51 48 113 72.5q62 24.5 129 24.5zt0 0zM648 334q0 73 -20 133q-20 60 -55 102.5q-35 42.5 -82 65.5q-47 23 -101 23q-51 0 -94.5 -19.5q-43.5 -19.5 -75 -56q-31.5 -36.5 -49 -90q-17.5 -53.5 -17.5 -121.5q0 -76 20.5 -137.5q20.5 -61.5 55.5 -104.5q35 -43 81.5 -66.5q46.5 -23.5 99.5 -23.5q51 0 94.5 20q43.5 20 75 57.5q31.5 37.5 49.5 92.5q18 55 18 125zt0 0zM513 930l-163 -163l-37 13l127 197z" />
<glyph unicode="&#212;" horiz-adv-x="802" d="M401 713q73 0 131.5 -21q58.5 -21 106.5 -66q57 -54 87 -124q30 -70 30 -151q0 -82 -32 -154q-32 -72 -90 -124q-47 -42 -109 -65.5q-62 -23.5 -125 -23.5q-158 0 -260 114q-46 52 -70 116q-24 64 -24 136q0 78 29 146q29 68 84 120q51 48 113 72.5q62 24.5 129 24.5zt0 0zM648 334q0 73 -20 133q-20 60 -55 102.5q-35 42.5 -82 65.5q-47 23 -101 23q-51 0 -94.5 -19.5q-43.5 -19.5 -75 -56q-31.5 -36.5 -49 -90q-17.5 -53.5 -17.5 -121.5q0 -76 20.5 -137.5q20.5 -61.5 55.5 -104.5q35 -43 81.5 -66.5q46.5 -23.5 99.5 -23.5q51 0 94.5 20q43.5 20 75 57.5q31.5 37.5 49.5 92.5q18 55 18 125zt0 0zM430 939l133 -157l-29 -15l-120 99l-119 -99l-29 15l134 157z" />
<glyph unicode="&#213;" horiz-adv-x="802" d="M401 713q73 0 131.5 -21q58.5 -21 106.5 -66q57 -54 87 -124q30 -70 30 -151q0 -82 -32 -154q-32 -72 -90 -124q-47 -42 -109 -65.5q-62 -23.5 -125 -23.5q-158 0 -260 114q-46 52 -70 116q-24 64 -24 136q0 78 29 146q29 68 84 120q51 48 113 72.5q62 24.5 129 24.5zt0 0zM648 334q0 73 -20 133q-20 60 -55 102.5q-35 42.5 -82 65.5q-47 23 -101 23q-51 0 -94.5 -19.5q-43.5 -19.5 -75 -56q-31.5 -36.5 -49 -90q-17.5 -53.5 -17.5 -121.5q0 -76 20.5 -137.5q20.5 -61.5 55.5 -104.5q35 -43 81.5 -66.5q46.5 -23.5 99.5 -23.5q51 0 94.5 20q43.5 20 75 57.5q31.5 37.5 49.5 92.5q18 55 18 125zt0 0zM593 906q-26 -34 -52 -58q-26 -24 -57 -42q-17 2 -38 4q-21 2 -47 6q-25 5 -40.5 6.5q-15.5 1.5 -23.5 1.5q-30 0 -52.5 -11.5q-22.5 -11.5 -42.5 -35.5l-24 23q26 34 54.5 58.5q28.5 24.5 60.5 41.5q18 -2 39 -4q21 -2 46 -7q26 -4 42.5 -6q16.5 -2 24.5 -2q50 0 84 46z" />
<glyph unicode="&#214;" horiz-adv-x="802" d="M401 713q73 0 131.5 -21q58.5 -21 106.5 -66q57 -54 87 -124q30 -70 30 -151q0 -82 -32 -154q-32 -72 -90 -124q-47 -42 -109 -65.5q-62 -23.5 -125 -23.5q-158 0 -260 114q-46 52 -70 116q-24 64 -24 136q0 78 29 146q29 68 84 120q51 48 113 72.5q62 24.5 129 24.5zt0 0zM648 334q0 73 -20 133q-20 60 -55 102.5q-35 42.5 -82 65.5q-47 23 -101 23q-51 0 -94.5 -19.5q-43.5 -19.5 -75 -56q-31.5 -36.5 -49 -90q-17.5 -53.5 -17.5 -121.5q0 -76 20.5 -137.5q20.5 -61.5 55.5 -104.5q35 -43 81.5 -66.5q46.5 -23.5 99.5 -23.5q51 0 94.5 20q43.5 20 75 57.5q31.5 37.5 49.5 92.5q18 55 18 125zt0 0zM507 892q19 0 41 -19q21 -21 21 -38q0 -18 -21 -37q-23 -20 -41 -20q-18 0 -40 19q-21 21 -21 38q0 17 21 37q22 20 40 20zt0 0zM299 892q20 0 40 -19q21 -21 21 -38q0 -18 -21 -37q-22 -20 -40 -20q-18 0 -40 19q-21 21 -21 38q0 17 21 37q22 20 40 20z" />
<glyph unicode="&#215;" horiz-adv-x="833" d="M419 338l232 233l40 -40l-232 -233l232 -232l-40 -40l-232 232l-233 -232l-39 40l232 232l-232 233l39 40z" />
<glyph unicode="&#216;" horiz-adv-x="802" d="M537 612q-68 51 -146 51q-112 0 -177 -80q-67 -79 -67 -212q0 -151 79 -243q33 48 86 130.5q53 82.5 128 200.5zM567 584q-69 -103 -145.5 -222q-76.5 -119 -167.5 -266q73 -61 162 -61q105 0 172 82q67 84 67 218q0 155 -88 249zt0 0zM679 759q-14 -21 -24.5 -37.5q-10.5 -16.5 -18.5 -27.5l-28 -43q72 -55 110 -132q38 -77 38 -168q0 -80 -32 -153q-31 -72 -90 -125q-46 -42 -110 -66q-63 -23 -124 -23q-54 0 -98.5 12q-44.5 12 -82.5 37q-16 -25 -33 -53.5q-17 -28.5 -37 -63.5l-39 24q31 48 48 72l28 44q-66 49 -103 127q-37 75 -37 167q0 154 104 258q105 105 260 105q86 0 162 -38q10 16 23 37.5q13 21.5 30 50.5l13 22z" />
<glyph unicode="&#217;" horiz-adv-x="775" d="M287 663q-5 0 -8.5 0.5q-3.5 0.5 -7.5 0.5q-23 0 -36 -8q-13 -8 -20 -25.5q-7 -17.5 -8.5 -45q-1.5 -27.5 -1.5 -67.5v-178q0 -60 3.5 -104q3.5 -44 17.5 -75q23 -52 69.5 -80q46.5 -28 113.5 -28q98 0 150 58q34 37 41 88.5q7 51.5 7 124.5q0 135 -2.5 210q-2.5 75 -7.5 89q-7 23 -21.5 31.5q-14.5 8.5 -46.5 8.5h-7v34q32 -2 60 -3q28 -1 53 -1q25 0 53 1q28 1 60 3l0 -34h-6q-28 0 -42.5 -7q-14.5 -7 -21.5 -25q-6 -16 -8 -82.5q-2 -66.5 -2 -186.5v-49q0 -55 -4 -102q-4 -47 -21 -88q-27 -64 -93 -101.5q-66 -37.5 -159 -37.5q-64 0 -116.5 18.5q-52.5 18.5 -89.5 53.5q-23 22 -38 46.5q-15 24.5 -23 52.5q-8 28 -11 60q-3 32 -3 70q0 56 1 115q1 59 1 125v15q0 34 -1.5 57.5q-1.5 23.5 -8 38q-6.5 14.5 -20 21q-13.5 6.5 -38.5 6.5h-9v34q40 -2 70.5 -3q30.5 -1 52.5 -1q27 0 59 1q32 1 70 3zM358 977l127 -197l-37 -13l-163 163z" />
<glyph unicode="&#218;" horiz-adv-x="775" d="M287 663q-5 0 -8.5 0.5q-3.5 0.5 -7.5 0.5q-23 0 -36 -8q-13 -8 -20 -25.5q-7 -17.5 -8.5 -45q-1.5 -27.5 -1.5 -67.5v-178q0 -60 3.5 -104q3.5 -44 17.5 -75q23 -52 69.5 -80q46.5 -28 113.5 -28q98 0 150 58q34 37 41 88.5q7 51.5 7 124.5q0 135 -2.5 210q-2.5 75 -7.5 89q-7 23 -21.5 31.5q-14.5 8.5 -46.5 8.5h-7v34q32 -2 60 -3q28 -1 53 -1q25 0 53 1q28 1 60 3l0 -34h-6q-28 0 -42.5 -7q-14.5 -7 -21.5 -25q-6 -16 -8 -82.5q-2 -66.5 -2 -186.5v-49q0 -55 -4 -102q-4 -47 -21 -88q-27 -64 -93 -101.5q-66 -37.5 -159 -37.5q-64 0 -116.5 18.5q-52.5 18.5 -89.5 53.5q-23 22 -38 46.5q-15 24.5 -23 52.5q-8 28 -11 60q-3 32 -3 70q0 56 1 115q1 59 1 125v15q0 34 -1.5 57.5q-1.5 23.5 -8 38q-6.5 14.5 -20 21q-13.5 6.5 -38.5 6.5h-9v34q40 -2 70.5 -3q30.5 -1 52.5 -1q27 0 59 1q32 1 70 3zM572 930l-163 -163l-37 13l127 197z" />
<glyph unicode="&#219;" horiz-adv-x="775" d="M287 663q-5 0 -8.5 0.5q-3.5 0.5 -7.5 0.5q-23 0 -36 -8q-13 -8 -20 -25.5q-7 -17.5 -8.5 -45q-1.5 -27.5 -1.5 -67.5v-178q0 -60 3.5 -104q3.5 -44 17.5 -75q23 -52 69.5 -80q46.5 -28 113.5 -28q98 0 150 58q34 37 41 88.5q7 51.5 7 124.5q0 135 -2.5 210q-2.5 75 -7.5 89q-7 23 -21.5 31.5q-14.5 8.5 -46.5 8.5h-7v34q32 -2 60 -3q28 -1 53 -1q25 0 53 1q28 1 60 3l0 -34h-6q-28 0 -42.5 -7q-14.5 -7 -21.5 -25q-6 -16 -8 -82.5q-2 -66.5 -2 -186.5v-49q0 -55 -4 -102q-4 -47 -21 -88q-27 -64 -93 -101.5q-66 -37.5 -159 -37.5q-64 0 -116.5 18.5q-52.5 18.5 -89.5 53.5q-23 22 -38 46.5q-15 24.5 -23 52.5q-8 28 -11 60q-3 32 -3 70q0 56 1 115q1 59 1 125v15q0 34 -1.5 57.5q-1.5 23.5 -8 38q-6.5 14.5 -20 21q-13.5 6.5 -38.5 6.5h-9v34q40 -2 70.5 -3q30.5 -1 52.5 -1q27 0 59 1q32 1 70 3zM423 939l133 -157l-29 -15l-120 99l-119 -99l-29 15l134 157z" />
<glyph unicode="&#220;" horiz-adv-x="775" d="M287 663q-5 0 -8.5 0.5q-3.5 0.5 -7.5 0.5q-23 0 -36 -8q-13 -8 -20 -25.5q-7 -17.5 -8.5 -45q-1.5 -27.5 -1.5 -67.5v-178q0 -60 3.5 -104q3.5 -44 17.5 -75q23 -52 69.5 -80q46.5 -28 113.5 -28q98 0 150 58q34 37 41 88.5q7 51.5 7 124.5q0 135 -2.5 210q-2.5 75 -7.5 89q-7 23 -21.5 31.5q-14.5 8.5 -46.5 8.5h-7v34q32 -2 60 -3q28 -1 53 -1q25 0 53 1q28 1 60 3l0 -34h-6q-28 0 -42.5 -7q-14.5 -7 -21.5 -25q-6 -16 -8 -82.5q-2 -66.5 -2 -186.5v-49q0 -55 -4 -102q-4 -47 -21 -88q-27 -64 -93 -101.5q-66 -37.5 -159 -37.5q-64 0 -116.5 18.5q-52.5 18.5 -89.5 53.5q-23 22 -38 46.5q-15 24.5 -23 52.5q-8 28 -11 60q-3 32 -3 70q0 56 1 115q1 59 1 125v15q0 34 -1.5 57.5q-1.5 23.5 -8 38q-6.5 14.5 -20 21q-13.5 6.5 -38.5 6.5h-9v34q40 -2 70.5 -3q30.5 -1 52.5 -1q27 0 59 1q32 1 70 3zM500 892q19 0 41 -19q21 -21 21 -38q0 -18 -21 -37q-23 -20 -41 -20q-18 0 -40 19q-21 21 -21 38q0 17 21 37q22 20 40 20zt0 0zM292 892q20 0 40 -19q21 -21 21 -38q0 -18 -21 -37q-22 -20 -40 -20q-18 0 -40 19q-21 21 -21 38q0 17 21 37q22 20 40 20z" />
<glyph unicode="&#221;" horiz-adv-x="659" d="M9 697q36 -2 67.5 -3q31.5 -1 56.5 -1q26 0 56 1q30 1 64 3l0 -34h-7q-55 0 -55 -22q0 -11 24 -53l10 -17l118 -210q160 256 160 279q0 12 -12 17.5q-12 5.5 -39 5.5h-8v34q29 -2 55.5 -3q26.5 -1 46.5 -1q25 0 50.5 1q25.5 1 53.5 3l0 -34q-2 1 -7 1h-6q-43 0 -113 -111l-34 -55l-123 -188l2 -174q2 -69 16 -85q15 -17 58 -17h17v-34q-41 2 -77 3q-36 1 -65 1q-25 0 -61 -1q-36 -1 -79 -3l0 34q4 0 10.5 -0.5q6.5 -0.5 9.5 -0.5q43 0 58 20q14 19 16 81l2 173l-158 266q-2 4 -5 8q-3 4 -6 11q-43 73 -79 73q-3 0 -6 0q-3 0 -11 -2l0 34zM518 930l-163 -163l-37 13l127 197z" />
<glyph unicode="&#222;" horiz-adv-x="580" d="M46 698q39 -2 69.5 -4q30.5 -2 53.5 -2q18 0 48 1.5q30 1.5 72 3.5l0 -34h-10q-41 0 -56 -14.5q-15 -14.5 -17 -53.5l-1 -26q37 2 65 3q28 1 47 1q58 0 102.5 -14q44.5 -14 75.5 -39.5q31 -25.5 47 -60.5q16 -35 16 -78q0 -100 -67.5 -159.5q-67.5 -59.5 -200.5 -59.5q-13 0 -36 2.5q-23 2.5 -50 4.5l0 -33q0 -31 2.5 -51q2.5 -20 11 -31q8.5 -11 25 -15.5q16.5 -4.5 43.5 -4.5h12v-34q-41 2 -75.5 3q-34.5 1 -64.5 1q-13 0 -43.5 -1q-30.5 -1 -79.5 -4l0 33q5 -1 9.5 -1q4.5 0 9.5 0q23 0 36 8q13 8 20 25.5q7 17.5 8.5 45q1.5 27.5 1.5 67.5l1 413q0 42 -15 58q-15 16 -56 16h-4zM204 213q14 -2 32 -3.5q18 -1.5 39 -1.5q93 0 139.5 41q46.5 41 46.5 119q0 70 -46 112.5q-46 42.5 -127 42.5q-38 0 -81 -8q-3 -192 -3 -302z" />
<glyph unicode="&#223;" horiz-adv-x="586" d="M34 33q5 -1 9.5 -1.5q4.5 -0.5 9.5 -0.5q35 0 44 31q9 31 9 102q0 23 -0.5 50.5q-0.5 27.5 -0.5 59.5v204q0 140 57.5 209q57.5 69 163.5 69q37 0 68.5 -11.5q31.5 -11.5 53.5 -32q22 -20.5 34.5 -47q12.5 -26.5 12.5 -56.5q0 -34 -16.5 -64q-16.5 -30 -49.5 -62l-5 -5q-21 -21 -34 -37q-13 -16 -13 -32q0 -13 11 -26.5q11 -13.5 31 -31.5q27 -25 51 -45.5q24 -20.5 42 -41.5q18 -21 28.5 -45q10.5 -24 10.5 -55q0 -37 -15 -68.5q-15 -31.5 -39.5 -55q-24.5 -23.5 -56 -36.5q-31.5 -13 -65.5 -13q-47 0 -72.5 20q-25.5 20 -25.5 52q0 14 9.5 24.5q9.5 10.5 26.5 10.5q14 0 22 -9q8 -9 16 -20.5q8 -11.5 19.5 -20.5q11.5 -9 32.5 -9q35 0 57 23.5q22 23.5 22 60.5q0 22 -9 41.5q-9 19.5 -25.5 38q-16.5 18.5 -38.5 38q-22 19.5 -47 43.5q-28 26 -42 49q-14 23 -14 41q0 26 15.5 44.5q15.5 18.5 38.5 43.5q31 35 47 67q16 32 16 64q0 53 -31.5 86q-31.5 33 -86.5 33q-62 0 -90.5 -47.5q-28.5 -47.5 -28.5 -143.5v-309q0 -26 -0.5 -47q-0.5 -21 -0.5 -38q0 -52 7 -73.5q7 -21.5 33 -21.5q2 0 4.5 0.5q2.5 0.5 5.5 0.5l0 -33q-33 2 -59 3.5q-26 1.5 -46 1.5q-14 0 -37.5 -1q-23.5 -1 -58.5 -4l0 33z" />
<glyph unicode="&#224;" horiz-adv-x="481" d="M277 229q-41 -11 -71.5 -20q-30.5 -9 -50.5 -20q-20 -11 -29.5 -26q-9.5 -15 -9.5 -37q0 -31 20 -52q20 -21 55 -21q22 0 49 11.5q27 11.5 61 33.5l2 138zM483 40q-40 -29 -69.5 -42q-29.5 -13 -46.5 -13q-61 0 -64 74q-48 -32 -84 -49.5q-36 -17.5 -67 -17.5q-25 0 -46.5 10q-21.5 10 -37 27.5q-15.5 17.5 -24 41q-8.5 23.5 -8.5 49.5q0 40 15.5 62.5q15.5 22.5 48.5 37q33 14.5 83.5 26q50.5 11.5 121.5 29.5q1 23 1.5 39q0.5 16 0.5 27q0 99 -85 99q-42 0 -66 -15.5q-24 -15.5 -24 -41.5q0 -4 0.5 -7q0.5 -3 0.5 -6q0 -17 -15.5 -26q-15.5 -9 -34.5 -9q-34 0 -34 24q0 16 16.5 39q16.5 23 44.5 44.5q28 21.5 64.5 36.5q36.5 15 76.5 15q68 0 103 -37q35 -37 35 -110q0 -60 -4.5 -120q-4.5 -60 -4.5 -123q0 -28 6 -41q6 -13 26 -13q10 0 23.5 5.5q13.5 5.5 33.5 15.5zM315 559l-37 -12l-164 166l72 44z" />
<glyph unicode="&#225;" horiz-adv-x="481" d="M277 229q-41 -11 -71.5 -20q-30.5 -9 -50.5 -20q-20 -11 -29.5 -26q-9.5 -15 -9.5 -37q0 -31 20 -52q20 -21 55 -21q22 0 49 11.5q27 11.5 61 33.5l2 138zM483 40q-40 -29 -69.5 -42q-29.5 -13 -46.5 -13q-61 0 -64 74q-48 -32 -84 -49.5q-36 -17.5 -67 -17.5q-25 0 -46.5 10q-21.5 10 -37 27.5q-15.5 17.5 -24 41q-8.5 23.5 -8.5 49.5q0 40 15.5 62.5q15.5 22.5 48.5 37q33 14.5 83.5 26q50.5 11.5 121.5 29.5q1 23 1.5 39q0.5 16 0.5 27q0 99 -85 99q-42 0 -66 -15.5q-24 -15.5 -24 -41.5q0 -4 0.5 -7q0.5 -3 0.5 -6q0 -17 -15.5 -26q-15.5 -9 -34.5 -9q-34 0 -34 24q0 16 16.5 39q16.5 23 44.5 44.5q28 21.5 64.5 36.5q36.5 15 76.5 15q68 0 103 -37q35 -37 35 -110q0 -60 -4.5 -120q-4.5 -60 -4.5 -123q0 -28 6 -41q6 -13 26 -13q10 0 23.5 5.5q13.5 5.5 33.5 15.5zM371 710l-163 -163l-37 13l127 197z" />
<glyph unicode="&#226;" horiz-adv-x="481" d="M277 229q-41 -11 -71.5 -20q-30.5 -9 -50.5 -20q-20 -11 -29.5 -26q-9.5 -15 -9.5 -37q0 -31 20 -52q20 -21 55 -21q22 0 49 11.5q27 11.5 61 33.5l2 138zM483 40q-40 -29 -69.5 -42q-29.5 -13 -46.5 -13q-61 0 -64 74q-48 -32 -84 -49.5q-36 -17.5 -67 -17.5q-25 0 -46.5 10q-21.5 10 -37 27.5q-15.5 17.5 -24 41q-8.5 23.5 -8.5 49.5q0 40 15.5 62.5q15.5 22.5 48.5 37q33 14.5 83.5 26q50.5 11.5 121.5 29.5q1 23 1.5 39q0.5 16 0.5 27q0 99 -85 99q-42 0 -66 -15.5q-24 -15.5 -24 -41.5q0 -4 0.5 -7q0.5 -3 0.5 -6q0 -17 -15.5 -26q-15.5 -9 -34.5 -9q-34 0 -34 24q0 16 16.5 39q16.5 23 44.5 44.5q28 21.5 64.5 36.5q36.5 15 76.5 15q68 0 103 -37q35 -37 35 -110q0 -60 -4.5 -120q-4.5 -60 -4.5 -123q0 -28 6 -41q6 -13 26 -13q10 0 23.5 5.5q13.5 5.5 33.5 15.5zM257 719l133 -157l-30 -15l-119 99l-119 -99l-29 15l134 157z" />
<glyph unicode="&#227;" horiz-adv-x="481" d="M277 229q-41 -11 -71.5 -20q-30.5 -9 -50.5 -20q-20 -11 -29.5 -26q-9.5 -15 -9.5 -37q0 -31 20 -52q20 -21 55 -21q22 0 49 11.5q27 11.5 61 33.5l2 138zM483 40q-40 -29 -69.5 -42q-29.5 -13 -46.5 -13q-61 0 -64 74q-48 -32 -84 -49.5q-36 -17.5 -67 -17.5q-25 0 -46.5 10q-21.5 10 -37 27.5q-15.5 17.5 -24 41q-8.5 23.5 -8.5 49.5q0 40 15.5 62.5q15.5 22.5 48.5 37q33 14.5 83.5 26q50.5 11.5 121.5 29.5q1 23 1.5 39q0.5 16 0.5 27q0 99 -85 99q-42 0 -66 -15.5q-24 -15.5 -24 -41.5q0 -4 0.5 -7q0.5 -3 0.5 -6q0 -17 -15.5 -26q-15.5 -9 -34.5 -9q-34 0 -34 24q0 16 16.5 39q16.5 23 44.5 44.5q28 21.5 64.5 36.5q36.5 15 76.5 15q68 0 103 -37q35 -37 35 -110q0 -60 -4.5 -120q-4.5 -60 -4.5 -123q0 -28 6 -41q6 -13 26 -13q10 0 23.5 5.5q13.5 5.5 33.5 15.5zM428 686q-26 -34 -52 -58.5q-26 -24.5 -57 -41.5q-17 1 -38.5 3.5q-21.5 2.5 -46.5 6.5q-25 5 -41 6.5q-16 1.5 -24 1.5q-57 0 -94 -47l-24 23q50 66 115 100q17 -2 38.5 -4.5q21.5 -2.5 46.5 -6.5q25 -4 41.5 -6q16.5 -2 24.5 -2q49 0 85 46z" />
<glyph unicode="&#228;" horiz-adv-x="481" d="M277 229q-41 -11 -71.5 -20q-30.5 -9 -50.5 -20q-20 -11 -29.5 -26q-9.5 -15 -9.5 -37q0 -31 20 -52q20 -21 55 -21q22 0 49 11.5q27 11.5 61 33.5l2 138zM483 40q-40 -29 -69.5 -42q-29.5 -13 -46.5 -13q-61 0 -64 74q-48 -32 -84 -49.5q-36 -17.5 -67 -17.5q-25 0 -46.5 10q-21.5 10 -37 27.5q-15.5 17.5 -24 41q-8.5 23.5 -8.5 49.5q0 40 15.5 62.5q15.5 22.5 48.5 37q33 14.5 83.5 26q50.5 11.5 121.5 29.5q1 23 1.5 39q0.5 16 0.5 27q0 99 -85 99q-42 0 -66 -15.5q-24 -15.5 -24 -41.5q0 -4 0.5 -7q0.5 -3 0.5 -6q0 -17 -15.5 -26q-15.5 -9 -34.5 -9q-34 0 -34 24q0 16 16.5 39q16.5 23 44.5 44.5q28 21.5 64.5 36.5q36.5 15 76.5 15q68 0 103 -37q35 -37 35 -110q0 -60 -4.5 -120q-4.5 -60 -4.5 -123q0 -28 6 -41q6 -13 26 -13q10 0 23.5 5.5q13.5 5.5 33.5 15.5zM337 715q18 0 40 -20q22 -19 22 -37q0 -18 -22 -37q-20 -20 -40 -20q-21 0 -41 19q-20 20 -20 38q0 17 21 37q22 20 40 20zt0 0zM129 715q18 0 40 -20q21 -20 21 -37q0 -18 -21 -37q-20 -20 -40 -20q-21 0 -41 19q-20 20 -20 38q0 17 21 37q22 20 40 20z" />
</font>
</defs>
</svg>
