<?xml version="1.0" standalone="no"?>
<!DOCTYPE svg PUBLIC "-//W3C//DTD SVG 1.1//EN" "http://www.w3.org/Graphics/SVG/1.1/DTD/svg11.dtd" >
<svg xmlns="http://www.w3.org/2000/svg">
<metadata>
Generated by SVGconv.
Copyright   : Copyright  2010 ParaType Inc., ParaType Ltd. All rights reserved.
Designer    : Natalia Vasilyeva
Foundry     : ParaType Ltd
Foundry URL : http://www.paratype.com
</metadata>
<defs>
<font id="DecaSerifWeb-Regular" horiz-adv-x="521" >
<font-face units-per-em="1000" ascent="927" descent="301" />
<missing-glyph horiz-adv-x="500" />
<glyph unicode="&#13;" horiz-adv-x="300" />
<glyph unicode="&#32;" horiz-adv-x="300" />
<glyph unicode="&#33;" horiz-adv-x="265" d="M197 46q0 -9 -2 -20q-2 -11 -8.5 -20q-6.5 -9 -18 -15.5q-11.5 -6.5 -30.5 -6.5q-32 0 -43.5 19.5q-11.5 19.5 -11.5 42.5q0 8 2 18.5q2 10.5 8 20.5q6 10 17.5 16.5q11.5 6.5 31.5 6.5q31 0 43 -19.5q12 -19.5 12 -42.5zt0 0zM120 185l-20 312q-1 19 -3 48.5q-2 29.5 -3.5 58q-1.5 28.5 -2.5 51.5q-1 23 -1 30q0 26 12 36q12 10 38 10q26 0 38 -10q12 -10 12 -36q0 -7 -1 -30q-1 -23 -2.5 -51.5q-1.5 -28.5 -3.5 -58q-2 -29.5 -3 -48.5l-20 -312z" />
<glyph unicode="&#34;" horiz-adv-x="320" d="M92 752q26 0 37 -6.5q11 -6.5 11 -29.5q0 -8 -3 -28.5q-3 -20.5 -7 -43.5l-19 -121h-36l-19 121q-4 23 -7 43.5q-3 20.5 -3 28.5q0 23 10 29.5q10 6.5 36 6.5zt0 0zM231 752q26 0 37 -6.5q11 -6.5 11 -29.5q0 -8 -3 -28.5q-3 -20.5 -7 -43.5l-19 -121h-36l-19 121q-4 23 -7 43.5q-3 20.5 -3 28.5q0 23 10 29.5t36 6.5z" />
<glyph unicode="&#35;" horiz-adv-x="653" d="M629 519l-12 -60h-121l-42 -248h125l-12 -60h-124l-32 -200h-59l31 200h-168l-33 -200h-59l31 200h-125l15 60h120l42 248h-127l14 60h124l33 201h59l-32 -201h168l34 201h59l-32 -201zM435 459h-168l-42 -248l168 0z" />
<glyph unicode="&#36;" horiz-adv-x="490" d="M463 175q0 -36 -11.5 -69.5q-11.5 -33.5 -35.5 -59.5q-24 -26 -60.5 -42q-36.5 -16 -85.5 -19l0 -87h-41v88q-34 2 -63 7.5q-29 5.5 -52 12.5q-26 8 -48 17l-16 172l29 6l17 -45q23 -59 53 -90q30 -31 80 -35l0 291l-43 24q-41 22 -66.5 46q-25.5 24 -40 49q-14.5 25 -20 49.5q-5.5 24.5 -5.5 47.5q0 73 43.5 119q43.5 46 131.5 51l0 62h41v-61q26 -1 53 -2.5q27 -1.5 50 -3.5q26 -3 51 -5l19 -185l-29 -6l-16 44q-11 31 -23 52.5q-12 21.5 -27 34.5q-15 13 -34 19q-19 6 -44 7l0 -268l67 -37q39 -21 63.5 -42q24.5 -21 38.5 -43q14 -22 19 -46.5q5 -24.5 5 -52.5zt0 0zM229 662q-16 -2 -32.5 -7q-16.5 -5 -29.5 -16.5q-13 -11.5 -21.5 -30.5q-8.5 -19 -8.5 -48q0 -20 2.5 -37q2.5 -17 12 -33.5q9.5 -16.5 28 -33.5q18.5 -17 49.5 -36zM379 156q0 29 -7.5 50q-7.5 21 -22 36.5q-14.5 15.5 -34.5 29q-20 13.5 -45 27.5l0 -268q31 0 52 10.5q21 10.5 33.5 27.5q12.5 17 18 40t5.5 47z" />
<glyph unicode="&#37;" horiz-adv-x="693" d="M336 556q0 -46 -12.5 -76q-12.5 -30 -33 -48q-20.5 -18 -46 -25q-25.5 -7 -51.5 -7q-68 0 -105 35.5q-37 35.5 -37 121.5q0 45 12 75q12 30 31.5 47.5q19.5 17.5 45 25q25.5 7.5 52.5 7.5q71 0 107.5 -35q36.5 -35 36.5 -121zt0 0zM265 547q0 35 -2.5 59.5q-2.5 24.5 -10 40.5q-7.5 16 -22.5 23q-15 7 -40 7q-20 0 -33 -8q-13 -8 -20.5 -22.5q-7.5 -14.5 -10.5 -34q-3 -19.5 -3 -43.5q0 -30 2.5 -55q2.5 -25 10 -42.5q7.5 -17.5 21.5 -27.5q14 -10 37 -10q42 0 56.5 26.5q14.5 26.5 14.5 86.5zt0 0zM644 137q0 -46 -12.5 -76q-12.5 -30 -33 -48q-20.5 -18 -46 -25q-25.5 -7 -51.5 -7q-68 0 -105 35.5q-37 35.5 -37 121.5q0 45 12 75q12 30 31.5 47.5q19.5 17.5 45 25q25.5 7.5 52.5 7.5q71 0 107.5 -35q36.5 -35 36.5 -121zt0 0zM573 128q0 35 -2.5 59.5q-2.5 24.5 -10 40.5q-7.5 16 -22.5 23q-15 7 -40 7q-20 0 -33 -8q-13 -8 -20.5 -22.5q-7.5 -14.5 -10.5 -34q-3 -19.5 -3 -43.5q0 -30 2.5 -55q2.5 -25 10 -42.5q7.5 -17.5 21.5 -27.5q14 -10 37 -10q42 0 56.5 26.5q14.5 26.5 14.5 86.5zt0 0zM583 691l-439 -713l-38 22l439 713z" />
<glyph unicode="&#38;" horiz-adv-x="676" d="M667 53q-13 -18 -29 -32q-14 -12 -32.5 -22q-18.5 -10 -38.5 -10q-18 0 -31 3.5q-13 3.5 -25.5 12.5q-12.5 9 -27.5 25.5q-15 16.5 -37 43.5q-30 -29 -59.5 -45.5q-29.5 -16.5 -59 -25q-29.5 -8.5 -58 -11q-28.5 -2.5 -55.5 -2.5q-27 0 -59.5 8.5q-32.5 8.5 -60 29.5q-27.5 21 -46.5 56q-19 35 -19 88q0 45 14 77.5q14 32.5 37.5 57.5q23.5 25 53 44.5q29.5 19.5 59.5 36.5q-22 26 -37.5 48q-15.5 22 -26 42.5q-10.5 20.5 -15.5 40.5q-5 20 -5 43q0 42 14.5 71q14.5 29 39.5 47q25 18 58.5 26.5q33.5 8.5 70.5 8.5q40 0 69 -11q29 -11 47.5 -30q18.5 -19 27 -44q8.5 -25 8.5 -53q0 -57 -35.5 -99q-35.5 -42 -106.5 -85l170 -217q8 15 16.5 36q8.5 21 8.5 50q0 40 -29 46l-22 5v31h171v-31l-14 -6q-20 -8 -30 -22.5q-10 -14.5 -23 -48.5q-12 -32 -24 -57q-12 -25 -21 -41q13 -18 26 -34q13 -16 25 -29q12 -13 23 -20.5q11 -7.5 20 -7.5q10 0 18.5 4.5q8.5 4.5 16.5 9.5q8 6 16 14zM369 571q0 54 -21 75.5q-21 21.5 -63 21.5q-14 0 -30 -2.5q-16 -2.5 -30 -12q-14 -9.5 -23.5 -28q-9.5 -18.5 -9.5 -49.5q0 -28 12.5 -54.5q12.5 -26.5 27.5 -47.5q18 -25 40 -47q49 23 73 60q24 37 24 84zt0 0zM225 354q-11 -5 -28.5 -17.5q-17.5 -12.5 -34 -32.5q-16.5 -20 -28 -47q-11.5 -27 -11.5 -61q0 -42 11.5 -71q11.5 -29 31 -46.5q19.5 -17.5 44 -25.5q24.5 -8 51.5 -8q35 0 61 6.5q26 6.5 44 16q18 9.5 30 20.5q12 11 20 21z" />
<glyph unicode="&#39;" horiz-adv-x="194" d="M92 752q26 0 37 -6.5q11 -6.5 11 -29.5q0 -8 -3 -28.5q-3 -20.5 -7 -43.5l-19 -121h-36l-19 121q-4 23 -7 43.5q-3 20.5 -3 28.5q0 23 10 29.5t36 6.5z" />
<glyph unicode="&#40;" horiz-adv-x="296" d="M260 -178q-42 35 -82 83.5q-40 48.5 -71 108q-31 59.5 -49.5 129q-18.5 69.5 -18.5 146.5q0 73 18.5 142q18.5 69 49.5 129.5q31 60.5 71 110.5q40 50 82 86l25 -25q-32 -31 -60 -78.5q-28 -47.5 -50 -105.5q-22 -58 -34.5 -124q-12.5 -66 -12.5 -135q0 -69 12.5 -135q12.5 -66 34.5 -124q22 -58 50 -105.5q28 -47.5 60 -78.5z" />
<glyph unicode="&#41;" horiz-adv-x="296" d="M43 -178q42 35 82 83.5q40 48.5 71 108q31 59.5 49.5 129q18.5 69.5 18.5 146.5q0 73 -18.5 142q-18.5 69 -49.5 129.5q-31 60.5 -71 110.5q-40 50 -82 86l-25 -25q32 -31 60 -78.5q28 -47.5 50 -105.5q22 -58 34.5 -124q12.5 -66 12.5 -135q0 -69 -12.5 -135q-12.5 -66 -34.5 -124q-22 -58 -50 -105.5q-28 -47.5 -60 -78.5z" />
<glyph unicode="&#42;" horiz-adv-x="406" d="M376 474q0 -7 -2.5 -14q-2.5 -7 -6.5 -15q-13 -26 -33 -26q-8 0 -15.5 4.5q-7.5 4.5 -21.5 19.5l-77 80l-4 -2l26 -110q2 -8 4 -15.5q2 -7.5 2 -15.5q0 -16 -12 -22.5q-12 -6.5 -30 -6.5q-18 0 -29 6.5q-11 6.5 -11 22.5q0 8 1 15.5q1 7.5 3 15.5l27 110l-5 2l-77 -80q-8 -9 -17.5 -16.5q-9.5 -7.5 -20.5 -7.5q-17 0 -32 26q-9 16 -9 29q0 11 9 18q9 7 33 14l106 31l-1 6l-105 30q-24 7 -33 14q-9 7 -9 19q0 8 2 14q2 6 7 14q15 26 32 26q11 0 19 -6.5q8 -6.5 19 -17.5l77 -76l5 3l-27 107q-2 6 -3 14q-1 8 -1 15q0 16 11 22q11 6 29 6q18 0 30 -6q12 -6 12 -22q0 -8 -2 -15.5q-2 -7.5 -4 -13.5l-26 -107l5 -3l76 76q15 15 23 19.5q8 4.5 14 4.5q20 0 33 -26q4 -8 6.5 -14q2.5 -6 2.5 -14q0 -12 -9 -19.5q-9 -7.5 -34 -13.5l-105 -28v-5l105 -34q25 -8 34 -14.5t9 -17.5z" />
<glyph unicode="&#43;" horiz-adv-x="652" d="M578 301h-224v-224h-57v224h-223v57h223v225h57v-225l224 0z" />
<glyph unicode="&#44;" horiz-adv-x="202" d="M160 39q0 -31 -10.5 -63q-10.5 -32 -26.5 -60q-16 -28 -34 -50q-18 -22 -33 -34l-20 28q16 18 28.5 41.5q12.5 23.5 12.5 61.5q0 13 -6 23.5q-6 10.5 -13 20q-7 9.5 -13 18.5q-6 9 -6 19q0 11 6.5 24q6.5 13 17.5 24q11 11 25 18q14 7 28 7q19 0 31.5 -23.5t12.5 -54.5z" />
<glyph unicode="&#45;" horiz-adv-x="345" d="M289 237h-234v68l234 0z" />
<glyph unicode="&#46;" horiz-adv-x="221" d="M169 46q0 -9 -2 -20q-2 -11 -8.5 -20q-6.5 -9 -18 -15.5q-11.5 -6.5 -30.5 -6.5q-32 0 -43.5 19.5q-11.5 19.5 -11.5 42.5q0 8 2 18.5q2 10.5 8 20.5q6 10 17.5 16.5q11.5 6.5 31.5 6.5q31 0 43 -19.5t12 -42.5z" />
<glyph unicode="&#47;" horiz-adv-x="402" d="M402 752l-364 -954l-41 18l362 953z" />
<glyph unicode="&#48;" horiz-adv-x="490" d="M453 356q0 -122 -18.5 -196q-18.5 -74 -48.5 -114.5q-30 -40.5 -67 -53.5q-37 -13 -73 -13q-39 0 -76 13q-37 13 -66.5 53q-29.5 40 -47 114.5q-17.5 74.5 -17.5 196.5q0 122 18.5 193.5q18.5 71.5 48.5 108.5q30 37 67 47.5q37 10.5 73 10.5q41 0 78.5 -10q37.5 -10 66 -46.5q28.5 -36.5 45.5 -108.5q17 -72 17 -195zt0 0zM361 407q0 96 -9.5 149q-9.5 53 -25 78q-15.5 25 -36.5 30q-21 5 -44 5q-19 0 -39.5 -4q-20.5 -4 -37 -28.5q-16.5 -24.5 -27.5 -78q-11 -53.5 -11 -151.5v-98q0 -102 11 -158.5q11 -56.5 28.5 -84.5q17.5 -28 37.5 -34q20 -6 38 -6q19 0 39.5 6q20.5 6 37 34q16.5 28 27.5 84.5q11 56.5 11 158.5z" />
<glyph unicode="&#49;" horiz-adv-x="490" d="M295 99q0 -17 1.5 -28q1.5 -11 6 -18q4.5 -7 14 -10.5q9.5 -3.5 25.5 -6.5l26 -5v-31h-239v31l26 5q15 3 24 6.5q9 3.5 14.5 10.5q5.5 7 7 18q1.5 11 1.5 28v479q0 16 -3.5 26q-3.5 10 -16.5 10q-12 0 -23.5 -2q-11.5 -2 -28.5 -4l-34 -5l-4 28l175 75l28 0z" />
<glyph unicode="&#50;" horiz-adv-x="490" d="M422 531q0 -42 -16 -83q-16 -41 -42.5 -81.5q-26.5 -40.5 -61 -81.5q-34.5 -41 -72.5 -82l-104 -114h202q20 0 38.5 11.5q18.5 11.5 32.5 37.5l26 -6l-31 -132h-351l11 69q13 15 29 32q16 17 37 40.5q21 23.5 48 56q27 32.5 62 79.5q51 69 73 127.5q22 58.5 22 113.5q0 34 -4 62.5q-4 28.5 -15.5 48q-11.5 19.5 -31 30.5q-19.5 11 -49.5 11q-31 0 -47.5 -14q-16.5 -14 -21.5 -23q-2 -4 -4.5 -14q-2.5 -10 -5 -21q-2.5 -11 -4 -20.5q-1.5 -9.5 -2.5 -12.5q-2 -8 -6 -10.5q-4 -2.5 -13 -2.5q-9 0 -24.5 3.5q-15.5 3.5 -22.5 6.5q-7 3 -11 9q-4 6 -4 21q0 15 1.5 32q1.5 17 6.5 27q4 9 16 20q12 11 33 21q21 10 50.5 17q29.5 7 67.5 7q51 0 87 -9q36 -9 58.5 -31q22.5 -22 32.5 -57.5t10 -87.5z" />
<glyph unicode="&#51;" horiz-adv-x="490" d="M433 217q0 -72 -21.5 -117q-21.5 -45 -53.5 -70.5q-32 -25.5 -69.5 -35q-37.5 -9.5 -70.5 -9.5q-30 0 -57.5 4q-27.5 4 -49 10q-21.5 6 -35.5 14q-14 8 -18 17q-5 10 -6.5 27q-1.5 17 -1.5 32q0 15 4.5 21q4.5 6 10.5 9q9 4 22.5 7q13.5 3 24.5 3q10 0 13 -2.5q3 -2.5 6 -10.5q3 -8 7 -31q2 -8 4 -15.5q2 -7.5 6 -14.5q5 -9 24 -17q19 -8 50 -8q22 0 43.5 7.5q21.5 7.5 38 27.5q16.5 20 26.5 54.5q10 34.5 10 88.5q0 51 -11.5 79q-11.5 28 -32.5 41q-21 13 -51.5 15q-30.5 2 -68.5 2h-29v45h29q75 0 112 44.5q37 44.5 37 122.5q0 38 -7.5 60.5q-7.5 22.5 -20 34q-12.5 11.5 -29.5 15q-17 3.5 -36 3.5q-31 0 -47 -8q-16 -8 -21 -17q-4 -7 -6 -14.5q-2 -7.5 -4 -15.5q-4 -23 -7 -31q-3 -8 -6 -10.5q-3 -2.5 -13 -2.5q-11 0 -24.5 3q-13.5 3 -22.5 7q-6 3 -10.5 9q-4.5 6 -4.5 21q0 15 1.5 32q1.5 17 6.5 27q8 17 49.5 31.5q41.5 14.5 117.5 14.5q33 0 65 -6.5q32 -6.5 57.5 -24q25.5 -17.5 41 -47q15.5 -29.5 15.5 -75.5q0 -36 -10 -62.5q-10 -26.5 -28 -46q-18 -19.5 -42 -35q-24 -15.5 -51 -29.5l0 -6q24 -5 49.5 -13q25.5 -8 46.5 -26q21 -18 34.5 -48.5t13.5 -79.5z" />
<glyph unicode="&#52;" horiz-adv-x="490" d="M442 166h-58v-166h-89v166h-266v55l293 485h62v-485h58zM295 221v349l-207 -349z" />
<glyph unicode="&#53;" horiz-adv-x="490" d="M435 230q0 -75 -21.5 -122.5q-21.5 -47.5 -55 -75q-33.5 -27.5 -73.5 -37.5q-40 -10 -76 -10q-60 0 -99.5 14q-39.5 14 -47.5 31q-5 10 -6.5 27q-1.5 17 -1.5 32q0 15 4.5 21q4.5 6 10.5 9q9 4 22.5 7q13.5 3 24.5 3q10 0 13 -2.5q3 -2.5 6 -10.5q3 -8 7 -31q2 -8 4 -15.5q2 -7.5 6 -14.5q5 -9 24 -17q19 -8 50 -8q22 0 43.5 6.5q21.5 6.5 37.5 25.5q16 19 26 54q10 35 10 92q0 51 -10.5 83.5q-10.5 32.5 -27.5 51.5q-17 19 -38.5 26.5q-21.5 7.5 -44.5 7.5q-23 0 -39 -4q-16 -4 -33 -11q-19 -8 -33 -14q-14 -6 -21 -6q-11 0 -11 13q0 2 0.5 9q0.5 7 0.5 11l22 331h215q16 0 26 2q10 2 17 6.5q7 4.5 12 11.5q5 7 11 17l26 -6l-26 -121h-239l-13 -206q12 7 27 11.5q15 4.5 31 7.5q16 3 31.5 4q15.5 1 27.5 1q25 0 56 -6.5q31 -6.5 59 -28q28 -21.5 47 -62t19 -107.5z" />
<glyph unicode="&#54;" horiz-adv-x="490" d="M448 227q0 -60 -15 -105.5q-15 -45.5 -42 -76q-27 -30.5 -64.5 -45.5q-37.5 -15 -81.5 -15q-66 0 -105 26.5q-39 26.5 -59.5 69.5q-20.5 43 -27 98.5q-6.5 55.5 -6.5 112.5q0 113 13.5 193.5q13.5 80.5 42.5 131.5q29 51 74.5 75q45.5 24 109.5 24q35 0 57.5 -4q22.5 -4 36.5 -10.5q14 -6.5 20.5 -14.5q6.5 -8 10.5 -17q5 -10 6.5 -27q1.5 -17 1.5 -32q0 -15 -4.5 -21q-4.5 -6 -10.5 -9q-9 -4 -22.5 -7q-13.5 -3 -24.5 -3q-10 0 -13 2.5q-3 2.5 -6 10.5q-2 8 -6.5 26q-4.5 18 -10.5 35q-2 4 -4.5 9q-2.5 5 -7.5 8.5q-5 3.5 -13.5 6q-8.5 2.5 -22.5 2.5q-69 0 -99.5 -66q-30.5 -66 -30.5 -212q33 30 66.5 41q33.5 11 68.5 11q26 0 56 -7q30 -7 55 -29.5q25 -22.5 41.5 -66q16.5 -43.5 16.5 -115.5zt0 0zM356 198q0 104 -25 149.5q-25 45.5 -86 45.5q-28 0 -56.5 -13.5q-28.5 -13.5 -48.5 -47.5l0 -54q0 -57 3 -102.5q3 -45.5 14.5 -77.5q11.5 -32 33 -49q21.5 -17 59.5 -17q24 0 43.5 9q19.5 9 33.5 28.5q14 19.5 21.5 51t7.5 77.5z" />
<glyph unicode="&#55;" horiz-adv-x="490" d="M452 706l-9 -80l-241 -626h-86l278 616h-224q-16 0 -27 -2.5q-11 -2.5 -20 -9.5q-9 -7 -17 -18q-8 -11 -18 -27l-26 6l32 141z" />
<glyph unicode="&#56;" horiz-adv-x="490" d="M252 -15q-100 0 -153 51.5q-53 51.5 -53 153.5q0 53 12 87q12 34 31 54.5q19 20.5 43.5 30.5q24.5 10 48.5 16q-25 7 -47.5 19.5q-22.5 12.5 -39 32.5q-16.5 20 -26 48q-9.5 28 -9.5 67q0 87 50 129q50 42 143 42q97 0 145 -41.5q48 -41.5 48 -129.5q0 -39 -10.5 -67.5q-10.5 -28.5 -27.5 -48.5q-17 -20 -39 -32.5q-22 -12.5 -45 -18.5q24 -6 48.5 -16q24.5 -10 43.5 -30.5q19 -20.5 31 -54.5q12 -34 12 -87q0 -102 -53 -153.5q-53 -51.5 -153 -51.5zt0 0zM252 671q-20 0 -38.5 -5q-18.5 -5 -32.5 -19.5q-14 -14.5 -22.5 -40.5q-8.5 -26 -8.5 -67q0 -40 8 -68q8 -28 22 -45q14 -17 32.5 -25q18.5 -8 39.5 -8q21 0 39.5 8q18.5 8 32.5 25q14 17 22 45q8 28 8 68q0 41 -8.5 67q-8.5 26 -22.5 40.5q-14 14.5 -32.5 19.5q-18.5 5 -38.5 5zt0 0zM253 346q-40 0 -63 -11q-23 -11 -34.5 -32.5q-11.5 -21.5 -14.5 -52.5q-3 -31 -3 -71q0 -47 10 -76q10 -29 26 -45q16 -16 36.5 -22q20.5 -6 41.5 -6q21 0 41.5 6q20.5 6 36.5 22q16 16 26 45q10 29 10 76q0 40 -3 71q-3 31 -14.5 52.5q-11.5 21.5 -34 32.5t-61.5 11z" />
<glyph unicode="&#57;" horiz-adv-x="490" d="M445 409q0 -113 -12 -193.5q-12 -80.5 -39.5 -131.5q-27.5 -51 -72 -75q-44.5 -24 -108.5 -24q-35 0 -59 5.5q-24 5.5 -38.5 12.5q-14.5 7 -22 14.5q-7.5 7.5 -9.5 12.5q-5 10 -8.5 27.5q-3.5 17.5 -3.5 32.5q0 15 4.5 21q4.5 6 10.5 9q9 4 22.5 7q13.5 3 24.5 3q14 0 16 -11q2 -11 9 -37q7 -28 20 -40q13 -12 39 -12q69 0 101.5 66q32.5 66 32.5 212q-33 -30 -68.5 -41q-35.5 -11 -70.5 -11q-26 0 -56 7q-30 7 -55 29.5q-25 22.5 -41.5 66q-16.5 43.5 -16.5 115.5q0 60 15 105.5q15 45.5 42 76q27 30.5 64.5 45.5q37.5 15 81.5 15q66 0 105 -26.5q39 -26.5 59.5 -69.5q20.5 -43 27 -98.5q6.5 -55.5 6.5 -112.5zt0 0zM352 423q0 57 -3 102.5q-3 45.5 -14.5 77.5q-11.5 32 -33.5 49q-22 17 -59 17q-48 0 -77 -37.5q-29 -37.5 -29 -128.5q0 -104 25 -149.5q25 -45.5 86 -45.5q28 0 56.5 13.5q28.5 13.5 48.5 47.5z" />
<glyph unicode="&#58;" horiz-adv-x="235" d="M180 431q0 -9 -2.5 -20.5q-2.5 -11.5 -9 -21q-6.5 -9.5 -19 -16q-12.5 -6.5 -32.5 -6.5q-33 0 -45.5 20q-12.5 20 -12.5 44q0 8 1.5 19.5q1.5 11.5 8 22q6.5 10.5 19 17.5q12.5 7 33.5 7q32 0 45.5 -20.5q13.5 -20.5 13.5 -45.5zt0 0zM180 53q0 -9 -2.5 -20.5q-2.5 -11.5 -9 -21q-6.5 -9.5 -19 -16q-12.5 -6.5 -32.5 -6.5q-33 0 -45.5 20q-12.5 20 -12.5 44q0 8 1.5 19.5q1.5 11.5 8 22q6.5 10.5 19 17.5q12.5 7 33.5 7q32 0 45.5 -20.5t13.5 -45.5z" />
<glyph unicode="&#59;" horiz-adv-x="235" d="M180 431q0 -9 -2.5 -20.5q-2.5 -11.5 -9 -21q-6.5 -9.5 -19 -16q-12.5 -6.5 -32.5 -6.5q-33 0 -45.5 20q-12.5 20 -12.5 44q0 8 1.5 19.5q1.5 11.5 8 22q6.5 10.5 19 17.5q12.5 7 33.5 7q32 0 45.5 -20.5q13.5 -20.5 13.5 -45.5zt0 0zM179 39q0 -31 -10.5 -63q-10.5 -32 -26.5 -60q-16 -28 -34 -50q-18 -22 -33 -34l-20 28q16 18 28.5 41.5q12.5 23.5 12.5 61.5q0 13 -6 23.5q-6 10.5 -13 20q-7 9.5 -13 18.5q-6 9 -6 19q0 11 6.5 24q6.5 13 17.5 24q11 11 25 18q14 7 28 7q19 0 31.5 -23.5t12.5 -54.5z" />
<glyph unicode="&#60;" horiz-adv-x="506" d="M452 106l-22 -46l-399 262l399 258l22 -44l-327 -216z" />
<glyph unicode="&#61;" horiz-adv-x="652" d="M578 222h-503v56h503zM577 382h-503v57l503 0z" />
<glyph unicode="&#62;" horiz-adv-x="506" d="M30 106l22 -46l399 262l-399 258l-22 -44l327 -216z" />
<glyph unicode="&#63;" horiz-adv-x="420" d="M416 557q0 -44 -6.5 -75q-6.5 -31 -22 -56q-15.5 -25 -41.5 -47.5q-26 -22.5 -66 -48.5q-18 -12 -30 -23.5q-12 -11.5 -20 -29.5q-8 -18 -11.5 -45q-3.5 -27 -3.5 -70l-36 0v28q0 22 1 46q1 24 5.5 46q4.5 22 13.5 41.5q9 19.5 25 33.5q26 23 44 43.5q18 20.5 29 42q11 21.5 16 46q5 24.5 5 54.5q0 46 -10.5 72q-10.5 26 -26 39q-15.5 13 -33.5 16q-18 3 -33 3q-23 0 -37 -5q-14 -5 -23 -11.5q-9 -6.5 -13 -14q-4 -7.5 -6 -11.5q-2 -6 -5 -17q-3 -11 -5 -22.5q-2 -11.5 -4 -21.5q-2 -10 -3 -14q-2 -8 -5.5 -10.5q-3.5 -2.5 -13.5 -2.5q-11 0 -24.5 3q-13.5 3 -22.5 7q-6 3 -10.5 9q-4.5 6 -4.5 21q0 15 1.5 32q1.5 17 6.5 27q4 9 15.5 21.5q11.5 12.5 34 24q22.5 11.5 57 20q34.5 8.5 83.5 8.5q38 0 71 -8q33 -8 57 -27q24 -19 38 -49q14 -30 14 -75zt0 0zM257 46q0 -9 -2 -20q-2 -11 -8.5 -20q-6.5 -9 -18 -15.5q-11.5 -6.5 -30.5 -6.5q-32 0 -43.5 19.5q-11.5 19.5 -11.5 42.5q0 8 2 18.5q2 10.5 8 20.5q6 10 17.5 16.5q11.5 6.5 31.5 6.5q31 0 43 -19.5t12 -42.5z" />
<glyph unicode="&#64;" horiz-adv-x="857" d="M820 456q0 -64 -23 -121.5q-23 -57.5 -61 -100.5q-38 -43 -87.5 -68q-49.5 -25 -102.5 -25q-53 0 -57 53q-26 -20 -59.5 -34.5q-33.5 -14.5 -63.5 -14.5q-45 0 -71.5 23.5q-26.5 23.5 -26.5 76.5q0 51 9.5 92.5q9.5 41.5 27.5 80.5q29 64 72.5 88q43.5 24 101.5 24q17 0 32.5 -3.5q15.5 -3.5 26.5 -7.5q13 -4 23 -10l44 10h21l-60 -299q-2 -5 -2 -11q0 -6 0 -11q0 -5 4 -12q4 -7 18 -7q30 0 58.5 24q28.5 24 51 62.5q22.5 38.5 36.5 87q14 48.5 14 98.5q0 110 -65 166q-65 56 -207 56q-163 0 -254 -94.5q-91 -94.5 -91 -290.5q0 -80 22 -140q22 -60 62.5 -100q40.5 -40 97.5 -59.5q57 -19.5 126 -19.5q42 0 87 10.5q45 10.5 89 34q44 23.5 86 60q42 36.5 78 88.5l27 -18q-17 -33 -49.5 -72q-32.5 -39 -79.5 -72.5q-47 -33.5 -110 -56q-63 -22.5 -141 -22.5q-82 0 -150.5 23q-68.5 23 -118.5 68.5q-50 45.5 -78 114q-28 68.5 -28 160.5q0 118 37.5 200q37.5 82 97.5 132.5q60 50.5 136 73q76 22.5 154 22.5q76 0 139.5 -13.5q63.5 -13.5 109.5 -44.5q46 -31 71.5 -80q25.5 -49 25.5 -121zt0 0zM544 461q-8 11 -24.5 20.5q-16.5 9.5 -41.5 9.5q-23 0 -39.5 -6.5q-16.5 -6.5 -28.5 -19q-12 -12.5 -21 -30.5q-9 -18 -18 -40q-6 -15 -10.5 -34.5q-4.5 -19.5 -8 -38q-3.5 -18.5 -5 -34q-1.5 -15.5 -1.5 -23.5q0 -39 10.5 -55.5q10.5 -16.5 42.5 -16.5q35 0 58 15.5q23 15.5 40 34.5z" />
<glyph unicode="&#65;" horiz-adv-x="694" d="M680 0h-223v31l22 5q22 5 28.5 14.5q6.5 9.5 6.5 17.5q0 9 -2.5 20q-2.5 11 -5.5 22l-42 125h-266l-35 -91q-10 -25 -15 -44q-5 -19 -5 -28q0 -10 7 -20.5q7 -10.5 28 -15.5l22 -5v-31h-187v31l18 6q19 6 36.5 34q17.5 28 36.5 73l238 570h52l209 -604q10 -29 22 -48.5q12 -19.5 32 -24.5l23 -6zM451 279l-109 323l-125 -323z" />
<glyph unicode="&#66;" horiz-adv-x="617" d="M584 200q0 -50 -14 -84q-14 -34 -37 -56.5q-23 -22.5 -51 -34.5q-28 -12 -56 -17.5q-28 -5.5 -53 -6.5q-25 -1 -41 -1h-295v31l22 5q27 6 32 23.5q5 17.5 5 46.5v494q0 29 -5 46.5q-5 17.5 -32 23.5l-22 5v31h255q42 0 88 -2.5q46 -2.5 84 -17q38 -14.5 62.5 -45q24.5 -30.5 24.5 -87.5q0 -38 -13 -66.5q-13 -28.5 -32.5 -49.5q-19.5 -21 -41.5 -34q-22 -13 -40 -19l0 -6q24 -6 52 -16.5q28 -10.5 52 -30.5q24 -20 40 -52q16 -32 16 -80zt0 0zM453 532q0 41 -14 65.5q-14 24.5 -37 37.5q-23 13 -51.5 17q-28.5 4 -58.5 4h-103v-264h107q26 0 54 4q28 4 51 18.5q23 14.5 37.5 42.5q14.5 28 14.5 75zt0 0zM481 209q0 49 -18.5 77.5q-18.5 28.5 -48 42.5q-29.5 14 -66.5 17.5q-37 3.5 -75 3.5h-84v-293q25 -2 44.5 -4.5q19.5 -2.5 50.5 -2.5q39 0 74.5 4q35.5 4 63 20q27.5 16 43.5 47.5t16 87.5z" />
<glyph unicode="&#67;" horiz-adv-x="645" d="M621 165l-31 -133q-13 -9 -39.5 -18q-26.5 -9 -59 -17q-32.5 -8 -65.5 -13q-33 -5 -60 -5q-37 0 -75 3q-38 3 -72.5 14.5q-34.5 11.5 -64.5 35.5q-30 24 -52 65q-22 41 -34.5 102.5q-12.5 61.5 -12.5 149.5q0 101 19 170.5q19 69.5 58.5 113q39.5 43.5 100 63q60.5 19.5 143.5 19.5q33 0 70 -2.5q37 -2.5 69 -5.5q37 -4 73 -7l9 -185l-31 -6l-28 79q-17 46 -55 63q-38 17 -109 17q-15 0 -37.5 -1.5q-22.5 -1.5 -46.5 -10q-24 -8.5 -48.5 -25.5q-24.5 -17 -43.5 -48q-19 -31 -31 -77.5q-12 -46.5 -12 -114.5v-55q0 -99 18.5 -159q18.5 -60 49.5 -92.5q31 -32.5 71 -42.5q40 -10 82 -10q66 0 123.5 32.5q57.5 32.5 90.5 109.5z" />
<glyph unicode="&#68;" horiz-adv-x="709" d="M657 365q0 -90 -27 -158.5q-27 -68.5 -77.5 -114q-50.5 -45.5 -124 -69q-73.5 -23.5 -166.5 -23.5h-225v31l22 5q26 6 31.5 23.5q5.5 17.5 5.5 46.5v494q0 29 -4.5 46.5q-4.5 17.5 -32.5 23.5l-22 5v31h251q89 0 158 -14q69 -14 116 -52q47 -38 71 -104q24 -66 24 -171zt0 0zM557 393q0 78 -17.5 128.5q-17.5 50.5 -51 80.5q-33.5 30 -81.5 42q-48 12 -109 12h-109v-592q9 -2 18 -4.5q9 -2.5 21 -4.5q12 -2 29 -3.5q17 -1.5 41 -1.5q51 0 98 17.5q47 17.5 82.5 56q35.5 38.5 57 100q21.5 61.5 21.5 149.5z" />
<glyph unicode="&#69;" horiz-adv-x="582" d="M550 188l-30 -188h-487v31l26 5q23 5 30 16.5q7 11.5 7 46.5v508q0 33 -7 45.5q-7 12.5 -30 17.5l-26 5v31h474l10 -176l-30 -4l-17 49q-10 28 -22 44.5q-12 16.5 -27 24.5q-15 8 -33.5 10q-18.5 2 -39.5 2h-159v-270h110q18 0 30 1.5q12 1.5 20 6.5q8 5 13.5 16q5.5 11 10.5 30l7 30h33v-208h-33l-7 30q-4 17 -9.5 27q-5.5 10 -14 15.5q-8.5 5.5 -20.5 7q-12 1.5 -30 1.5h-110v-281q13 -5 41.5 -8.5q28.5 -3.5 84.5 -3.5q49 0 80 4.5q31 4.5 50 14.5q19 10 30 26.5q11 16.5 21 40.5l24 57z" />
<glyph unicode="&#70;" horiz-adv-x="534" d="M507 530l-30 -4l-17 49q-10 28 -22 44.5q-12 16.5 -27 24.5q-15 8 -33.5 10q-18.5 2 -39.5 2h-149v-290h100q18 0 30 1.5q12 1.5 20 6.5q8 5 13.5 16q5.5 11 10.5 30l7 30h33v-208h-33l-7 30q-4 17 -9.5 27q-5.5 10 -14 15.5q-8.5 5.5 -20.5 7q-12 1.5 -30 1.5h-100v-219q0 -34 7 -48.5q7 -14.5 38 -19.5l28 -5v-31h-229v31l26 5q23 5 30 16.5q7 11.5 7 46.5v508q0 33 -7 45.5q-7 12.5 -30 17.5l-26 5v31l464 0z" />
<glyph unicode="&#71;" horiz-adv-x="689" d="M155 336q0 -88 15 -146.5q15 -58.5 42 -93.5q27 -35 65 -49.5q38 -14.5 84 -14.5q30 0 56.5 3q26.5 3 47.5 7.5q21 4.5 35 9.5q14 5 20 10l0 180q0 24 -5 42.5q-5 18.5 -32 21.5l-42 5v31h219v-31l-22 -5q-17 -4 -21 -20q-4 -16 -4 -44v-210q-19 -10 -46.5 -19.5q-27.5 -9.5 -60.5 -17q-33 -7.5 -71 -12q-38 -4.5 -78 -4.5q-35 0 -71 3q-36 3 -69.5 14.5q-33.5 11.5 -63 35.5q-29.5 24 -51.5 65q-22 41 -34.5 102.5q-12.5 61.5 -12.5 149.5q0 98 19 167.5q19 69.5 58.5 113.5q39.5 44 100 64.5q60.5 20.5 143.5 20.5q33 0 70 -2.5q37 -2.5 69 -5.5q37 -4 73 -7l9 -185l-31 -6l-28 79q-17 46 -55 63q-38 17 -109 17q-14 0 -36 -1.5q-22 -1.5 -46 -9q-24 -7.5 -48.5 -24.5q-24.5 -17 -44 -47.5q-19.5 -30.5 -32 -78q-12.5 -47.5 -12.5 -116.5z" />
<glyph unicode="&#72;" horiz-adv-x="701" d="M673 0h-219v31l26 5q23 5 30 23q7 18 7 47v230h-328v-237q0 -35 7 -46.5q7 -11.5 30 -16.5l26 -5v-31h-219v31l26 5q23 5 30 16.5q7 11.5 7 46.5v508q0 33 -7 45.5q-7 12.5 -30 17.5l-26 5v31h219v-31l-26 -5q-23 -5 -30 -16.5q-7 -11.5 -7 -46.5v-224h328v224q0 35 -7 46.5q-7 11.5 -30 16.5l-26 5v31h219v-31l-26 -5q-23 -5 -30 -17q-7 -12 -7 -46v-501q0 -20 1.5 -32.5q1.5 -12.5 5.5 -20q4 -7.5 11 -11.5q7 -4 19 -6l26 -5z" />
<glyph unicode="&#73;" horiz-adv-x="280" d="M252 0h-219v31l26 5q23 5 30 16.5q7 11.5 7 46.5v508q0 33 -7 45.5q-7 12.5 -30 17.5l-26 5v31h219v-31l-26 -5q-23 -5 -30 -16.5q-7 -11.5 -7 -46.5v-508q0 -35 7 -46.5q7 -11.5 30 -16.5l26 -5z" />
<glyph unicode="&#74;" horiz-adv-x="299" d="M271 675l-26 -5q-23 -5 -30 -16.5q-7 -11.5 -7 -46.5v-425q0 -32 -5 -68.5q-5 -36.5 -14.5 -72.5q-9.5 -36 -22.5 -69.5q-13 -33.5 -29 -59.5q-24 -39 -54.5 -62.5q-30.5 -23.5 -57.5 -23.5q-29 0 -42 8q-13 8 -13 22q0 12 3 29q3 17 8 28q3 7 7 8.5q4 1.5 9 1.5q7 0 21.5 -5q14.5 -5 42.5 -5q20 0 28 5q8 5 16 20q3 5 5 15q2 10 3 29q1 19 1.5 49.5q0.5 30.5 0.5 78.5v497q0 33 -7 45.5q-7 12.5 -30 17.5l-26 5v31l219 0z" />
<glyph unicode="&#75;" horiz-adv-x="622" d="M610 0h-97q-21 0 -32.5 6.5q-11.5 6.5 -27.5 26.5l-264 337v-264q0 -30 5 -47q5 -17 32 -23l22 -5v-31h-211v31l22 5q28 6 32.5 23.5q4.5 17.5 4.5 46.5v494q0 29 -4.5 46.5q-4.5 17.5 -32.5 23.5l-22 5v31h211v-31l-22 -5q-27 -6 -32 -23q-5 -17 -5 -47v-219l118 115q33 32 57.5 55.5q24.5 23.5 40 41q15.5 17.5 23.5 29.5q8 12 8 21q0 9 -3 15.5q-3 6.5 -12 10.5l-14 6v31h181v-31l-13 -6q-20 -9 -58.5 -42q-38.5 -33 -95.5 -87l-147 -141l241 -298q17 -21 27 -33q10 -12 17.5 -18q7.5 -6 14.5 -8.5q7 -2.5 18 -5.5l18 -5z" />
<glyph unicode="&#76;" horiz-adv-x="556" d="M554 188l-30 -188h-487v31l22 5q27 6 32 23.5q5 17.5 5 46.5v494q0 29 -6.5 47q-6.5 18 -30.5 23l-22 5v31h211v-31l-22 -5q-28 -6 -32.5 -23q-4.5 -17 -4.5 -47v-538q9 -2 20 -4q11 -2 26 -4q15 -2 35.5 -3q20.5 -1 48.5 -1q49 0 80 4.5q31 4.5 50 14.5q19 10 30 26.5q11 16.5 21 40.5l24 57z" />
<glyph unicode="&#77;" horiz-adv-x="847" d="M819 0h-219v31l26 5q23 5 30 23q7 18 7 47v507l-249 -613h-32l-249 613v-514q0 -35 7 -46.5q7 -11.5 30 -16.5l26 -5v-31h-182v31l26 5q23 5 30 16.5q7 11.5 7 46.5v501q0 31 -4.5 47.5q-4.5 16.5 -32.5 22.5l-22 5v31h172l230 -570l230 570h169v-31l-26 -5q-23 -5 -30 -17q-7 -12 -7 -46v-501q0 -20 1.5 -32.5q1.5 -12.5 5.5 -20q4 -7.5 11 -11.5q7 -4 19 -6l26 -5z" />
<glyph unicode="&#78;" horiz-adv-x="705" d="M677 675l-26 -5q-12 -2 -19 -5.5q-7 -3.5 -11 -10.5q-4 -7 -5.5 -18q-1.5 -11 -1.5 -29v-607h-42l-423 621v-522q0 -35 7 -46.5q7 -11.5 30 -16.5l26 -5v-31h-182v31l26 5q23 4 30 16q7 12 7 47v501q0 30 -4.5 47q-4.5 17 -32.5 23l-22 5v31h164l360 -524v425q0 35 -7 46.5q-7 11.5 -30 16.5l-26 5v31l182 0z" />
<glyph unicode="&#79;" horiz-adv-x="724" d="M672 357q0 -111 -21.5 -184q-21.5 -73 -61 -116q-39.5 -43 -96.5 -60.5q-57 -17.5 -128 -17.5q-78 0 -135.5 17.5q-57.5 17.5 -96 61q-38.5 43.5 -57 116.5q-18.5 73 -18.5 183q0 109 23 179q23 70 64.5 109.5q41.5 39.5 97.5 54.5q56 15 122 15q73 0 130 -13q57 -13 96.5 -52q39.5 -39 60 -109q20.5 -70 20.5 -184zt0 0zM573 399q0 88 -18 141.5q-18 53.5 -47 81.5q-29 28 -66.5 37q-37.5 9 -76.5 9q-39 0 -76.5 -7.5q-37.5 -7.5 -66.5 -35.5q-29 -28 -47 -81.5q-18 -53.5 -18 -144.5v-86q0 -93 16.5 -149q16.5 -56 45 -87q28.5 -31 66 -41q37.5 -10 80.5 -10q42 0 79.5 10.5q37.5 10.5 66 41.5q28.5 31 45.5 87q17 56 17 148z" />
<glyph unicode="&#80;" horiz-adv-x="579" d="M542 515q0 -60 -19 -102.5q-19 -42.5 -52.5 -70q-33.5 -27.5 -79.5 -40.5q-46 -13 -100 -13q-17 0 -34.5 2q-17.5 2 -32.5 4q-18 3 -35 6l0 -198q0 -28 4.5 -45q4.5 -17 32.5 -22l28 -5v-31h-217v31l22 5q28 6 32.5 23.5q4.5 17.5 4.5 46.5v494q0 29 -4.5 46.5q-4.5 17.5 -32.5 23.5l-22 5v31h238q42 0 88.5 -4q46.5 -4 86.5 -22.5q40 -18.5 66 -57q26 -38.5 26 -107.5zt0 0zM447 501q0 51 -12.5 82q-12.5 31 -33.5 47q-21 16 -49.5 21q-28.5 5 -60.5 5h-102v-307q21 -5 45.5 -9.5q24.5 -4.5 56.5 -4.5q23 0 50 5.5q27 5.5 50.5 23q23.5 17.5 39.5 50t16 87.5z" />
<glyph unicode="&#81;" horiz-adv-x="727" d="M573 399q0 88 -18 141.5q-18 53.5 -47 81.5q-29 28 -66.5 37q-37.5 9 -76.5 9q-39 0 -76.5 -7.5q-37.5 -7.5 -66.5 -35.5q-29 -28 -47 -81.5q-18 -53.5 -18 -144.5v-86q0 -93 16.5 -149q16.5 -56 45 -87q28.5 -31 66 -41q37.5 -10 80.5 -10q42 0 79.5 10.5q37.5 10.5 66 41.5q28.5 31 45.5 87q17 56 17 148zM460 -1q31 0 51.5 -3.5q20.5 -3.5 37.5 -10.5q10 -4 30.5 -16q20.5 -12 49.5 -28q20 -11 34 -16q14 -5 30 -5q11 0 21 4.5q10 4.5 26 16.5l11 -16q-23 -28 -47.5 -46.5q-24.5 -18.5 -59.5 -18.5q-27 0 -59 18.5q-32 18.5 -70 41q-38 22.5 -83 41q-45 18.5 -99 18.5h-9q-56 0 -104.5 17.5q-48.5 17.5 -84.5 61q-36 43.5 -56.5 116.5q-20.5 73 -20.5 183q0 109 23 179q23 70 64.5 109.5q41.5 39.5 97.5 54.5q56 15 122 15q73 0 130 -13q57 -13 96.5 -52q39.5 -39 60 -109q20.5 -70 20.5 -184q0 -148 -49.5 -236q-49.5 -88 -162.5 -118z" />
<glyph unicode="&#82;" horiz-adv-x="624" d="M609 0h-117q-18 9 -32.5 36q-14.5 27 -28.5 51l-104 189q-14 26 -33 35q-19 9 -46 9h-59v-214q0 -30 4.5 -47q4.5 -17 32.5 -23l22 -5v-31h-211v31l22 5q27 6 32 23.5q5 17.5 5 46.5v494q0 29 -5.5 46.5q-5.5 17.5 -31.5 23.5l-22 5v31h255q42 0 84 -6q42 -6 75 -24.5q33 -18.5 53.5 -52q20.5 -33.5 20.5 -88.5q0 -52 -15 -87q-15 -35 -39.5 -57.5q-24.5 -22.5 -55 -35.5q-30.5 -13 -61.5 -20l0 -4q19 -9 33.5 -21q14.5 -12 26 -26q11.5 -14 21 -29q9.5 -15 17.5 -30l73 -128q11 -20 26.5 -38.5q15.5 -18.5 32.5 -22.5l25 -5zM431 528q0 41 -14 66.5q-14 25.5 -36.5 39q-22.5 13.5 -51.5 18q-29 4.5 -59 4.5h-81v-295h81q34 0 63 8.5q29 8.5 51 28q22 19.5 34.5 51.5t12.5 79z" />
<glyph unicode="&#83;" horiz-adv-x="555" d="M514 175q0 -39 -14.5 -73.5q-14.5 -34.5 -43.5 -60.5q-29 -26 -72 -41q-43 -15 -99 -15q-39 0 -77 5.5q-38 5.5 -69 13.5q-36 8 -69 19l-17 172l31 6l18 -45q26 -65 75 -95.5q49 -30.5 108 -30.5q39 0 65 10.5q26 10.5 42 28.5q16 18 22.5 40.5q6.5 22.5 6.5 46.5q0 33 -6.5 54.5q-6.5 21.5 -21 37.5q-14.5 16 -38.5 30q-24 14 -59 32l-98 50q-44 22 -71.5 43q-27.5 21 -42.5 43q-15 22 -20.5 45.5q-5.5 23.5 -5.5 52.5q0 37 13.5 68.5q13.5 31.5 40.5 54q27 22.5 66.5 35.5q39.5 13 90.5 13q27 0 61 -2q34 -2 63 -4q34 -3 69 -5l9 -185l-31 -6l-13 44q-20 66 -55.5 89.5q-35.5 23.5 -92.5 23.5q-16 0 -38.5 -4q-22.5 -4 -43 -15q-20.5 -11 -35 -31q-14.5 -20 -14.5 -53q0 -28 4 -47.5q4 -19.5 17 -35.5q13 -16 37.5 -31.5q24.5 -15.5 66.5 -35.5l102 -49q40 -20 67 -39q27 -19 43 -41.5q16 -22.5 22.5 -50t6.5 -62.5z" />
<glyph unicode="&#84;" horiz-adv-x="568" d="M548 530l-30 -4l-12 40q-6 22 -14 38.5q-8 16.5 -21.5 28q-13.5 11.5 -34 17.5q-20.5 6 -52.5 6h-53v-553q0 -15 0.5 -26q0.5 -11 4 -19q3.5 -8 11 -13.5q7.5 -5.5 21.5 -8.5l22 -5v-31h-211v31l22 5q26 6 31.5 23.5q5.5 17.5 5.5 46.5v550h-53q-32 0 -52.5 -6q-20.5 -6 -34 -17.5q-13.5 -11.5 -21.5 -28q-8 -16.5 -14 -38.5l-12 -40l-30 4l10 176l507 0z" />
<glyph unicode="&#85;" horiz-adv-x="658" d="M632 675l-22 -5q-27 -6 -32 -29.5q-5 -23.5 -5 -53.5v-382q0 -46 -12.5 -85q-12.5 -39 -41.5 -67.5q-29 -28.5 -76 -45q-47 -16.5 -115 -16.5q-78 0 -124 19.5q-46 19.5 -70 49.5q-24 30 -31 66q-7 36 -7 69v405q0 29 -4.5 46.5q-4.5 17.5 -32.5 23.5l-22 5v31h211v-31l-22 -5q-14 -3 -21.5 -8.5q-7.5 -5.5 -11 -13.5q-3.5 -8 -4 -20q-0.5 -12 -0.5 -28v-375q0 -38 6.5 -70q6.5 -32 24 -56q17.5 -24 49 -37.5q31.5 -13.5 82.5 -13.5q47 0 80 12.5q33 12.5 53.5 34q20.5 21.5 29.5 49.5q9 28 9 59v384q0 15 -0.5 28.5q-0.5 13.5 -4 24.5q-3.5 11 -11 19q-7.5 8 -21.5 11l-22 5v31l168 0z" />
<glyph unicode="&#86;" horiz-adv-x="659" d="M646 675l-22 -5q-20 -5 -32 -24.5q-12 -19.5 -26 -57.5l-206 -588h-75l-202 596q-11 34 -20.5 51q-9.5 17 -30.5 23l-22 5v31h218v-31l-22 -5q-18 -4 -25 -9.5q-7 -5.5 -7 -19.5q0 -8 5 -28.5q5 -20.5 11 -39.5l160 -470l148 459q5 14 9.5 36q4.5 22 4.5 36q0 14 -6 24q-6 10 -19 12l-26 5v31l185 0z" />
<glyph unicode="&#87;" horiz-adv-x="880" d="M869 675l-17 -5q-14 -4 -22 -9q-8 -5 -13.5 -16.5q-5.5 -11.5 -10 -30.5q-4.5 -19 -11.5 -52l-114 -562h-86l-162 598l-186 -598h-86l-91 596q-5 36 -14 51.5q-9 15.5 -29 22.5l-17 5v31h208v-31l-22 -5q-16 -4 -26 -9q-10 -5 -10 -20q0 -8 1 -21q1 -13 3 -24l69 -486l189 596h68l165 -596l77 452q4 20 6 37.5q2 17.5 2 34.5q0 31 -25 36l-26 5v31l180 0z" />
<glyph unicode="&#88;" horiz-adv-x="613" d="M596 0h-218v31l13 2q15 2 20.5 10.5q5.5 8.5 5.5 20.5q0 8 -6 23q-6 15 -16 32l-101 176l-76 -124q-21 -35 -34.5 -61q-13.5 -26 -13.5 -45q0 -26 18 -29l26 -5v-31h-197v31l21 5q10 2 20.5 11q10.5 9 25 26.5q14.5 17.5 33.5 44q19 26.5 45 64.5l107 154l-140 257q-12 22 -26.5 45q-14.5 23 -40.5 32l-20 5v31h211v-31l-13 -2q-15 -2 -20.5 -9q-5.5 -7 -5.5 -22q0 -8 6 -24.5q6 -16.5 12 -28.5l92 -179l71 119q16 26 26 44q10 18 16 30q6 12 8.5 21q2.5 9 2.5 17q0 17 -7 22q-7 5 -15 7l-26 5v31h188v-31l-18 -5q-10 -3 -19.5 -10.5q-9.5 -7.5 -23 -24q-13.5 -16.5 -32.5 -44.5q-19 -28 -47 -71l-99 -150l150 -251q12 -21 21.5 -35q9.5 -14 18 -24q8.5 -10 17.5 -15.5q9 -5.5 21 -8.5l19 -5z" />
<glyph unicode="&#89;" horiz-adv-x="578" d="M572 675l-15 -4q-11 -3 -18 -7.5q-7 -4.5 -15 -16.5q-8 -12 -19 -34q-11 -22 -29 -59l-145 -302v-150q0 -33 7 -47q7 -14 30 -19l22 -5v-31h-211v31l22 5q24 5 30.5 21q6.5 16 6.5 49v146l-155 340q-11 23 -17.5 36.5q-6.5 13.5 -13.5 21.5q-7 8 -14.5 12q-7.5 4 -19.5 8l-15 5v31h208v-31l-16 -5q-13 -4 -19.5 -9q-6.5 -5 -6.5 -20q0 -8 4 -21q4 -13 10 -27l126 -287l111 243q11 23 17.5 48q6.5 25 6.5 36q0 28 -26 36l-21 6v31l175 0z" />
<glyph unicode="&#90;" horiz-adv-x="549" d="M525 188l-43 -188h-456v40l378 616h-172q-29 0 -48 -5q-19 -5 -32 -15.5q-13 -10.5 -22.5 -26.5q-9.5 -16 -21.5 -39l-22 -44l-30 4l26 176h431v-40l-373 -616h175q42 0 70 9.5q28 9.5 46 24.5q18 15 28 33q10 18 18 35l18 41z" />
<glyph unicode="&#91;" horiz-adv-x="299" d="M249 -132h-158v889h158v-43h-87v-803l87 0z" />
<glyph unicode="&#92;" horiz-adv-x="424" d="M419 -198l-40 -18l-374 981l42 17z" />
<glyph unicode="&#93;" horiz-adv-x="291" d="M71 -89h87v803h-87v43h158v-889l-158 0z" />
<glyph unicode="&#94;" horiz-adv-x="413" d="M379 547l-31 -18l-142 119l-141 -119l-31 18l172 222z" />
<glyph unicode="&#95;" horiz-adv-x="540" d="M540 -198h-540v35l540 0z" />
<glyph unicode="&#96;" horiz-adv-x="264" d="M217 582l-20 -24l-131 80q-15 9 -22.5 15.5q-7.5 6.5 -7.5 19.5q0 5 5 14q5 9 13 17.5q8 8.5 17.5 14.5q9.5 6 17.5 6q9 0 16.5 -4.5q7.5 -4.5 24.5 -27.5z" />
<glyph unicode="&#97;" horiz-adv-x="507" d="M478 0h-94q-23 0 -31 20.5q-8 20.5 -8 48.5q-11 -14 -26 -28q-15 -14 -36 -25.5q-21 -11.5 -48.5 -19q-27.5 -7.5 -63.5 -7.5q-33 0 -57 11q-24 11 -40 30.5q-16 19.5 -23.5 46q-7.5 26.5 -7.5 57.5q0 49 20 77q20 28 49 42.5q29 14.5 60.5 18.5q31.5 4 54.5 6q13 1 29.5 2q16.5 1 33 1.5q16.5 0.5 31 1q14.5 0.5 23.5 0.5l0 78q0 31 -7 49.5q-7 18.5 -20.5 28.5q-13.5 10 -32.5 13.5q-19 3.5 -44 3.5q-44 0 -60 -9.5q-16 -9.5 -20 -20.5q-2 -5 -2.5 -14.5q-0.5 -9.5 -1.5 -20.5q-1 -11 -2 -20.5q-1 -9.5 -2 -12.5q-3 -7 -9 -10q-6 -3 -25 -3q-25 0 -31.5 4.5q-6.5 4.5 -11.5 15.5q-5 10 -5 56q0 17 14.5 32q14.5 15 38.5 25.5q24 10.5 56 16.5q32 6 68 6q45 0 79.5 -3q34.5 -3 57.5 -15.5q23 -12.5 34.5 -37.5q11.5 -25 11.5 -68v-281q0 -36 8.5 -49q8.5 -13 27.5 -13h12zM344 240q-19 0 -37 -1q-16 -1 -35.5 -2q-19.5 -1 -36.5 -3q-25 -3 -43.5 -7q-18.5 -4 -30.5 -14.5q-12 -10.5 -18 -29q-6 -18.5 -6 -49.5q0 -35 17.5 -60.5q17.5 -25.5 63.5 -25.5q24 0 45.5 9.5q21.5 9.5 38.5 22q17 12.5 28 26q11 13.5 14 21.5z" />
<glyph unicode="&#98;" horiz-adv-x="555" d="M511 261q0 -92 -20 -147q-20 -55 -52.5 -83.5q-32.5 -28.5 -74 -37q-41.5 -8.5 -84.5 -8.5q-46 0 -81.5 4.5q-35.5 4.5 -60.5 10.5q-29 6 -51 15l0 566q0 45 -5.5 74q-5.5 29 -33.5 34l-18 3v27l143 12v-297q10 11 25 23q15 12 33.5 21.5q18.5 9.5 40.5 16q22 6.5 45 6.5q45 0 80.5 -12q35.5 -12 61 -40.5q25.5 -28.5 39 -74.5q13.5 -46 13.5 -113zt0 0zM423 248q0 95 -29 144q-29 49 -105 49q-27 0 -46.5 -6.5q-19.5 -6.5 -33 -16.5q-13.5 -10 -22.5 -22q-9 -12 -14 -22l0 -318q23 -12 49 -19.5q26 -7.5 56 -7.5q22 0 47.5 6q25.5 6 47 28q21.5 22 36 66t14.5 119z" />
<glyph unicode="&#99;" horiz-adv-x="473" d="M440 65q-20 -22 -43.5 -37q-23.5 -15 -48 -24.5q-24.5 -9.5 -49 -14q-24.5 -4.5 -45.5 -4.5q-105 0 -158 59.5q-53 59.5 -53 186.5q0 65 11 110.5q11 45.5 29.5 75.5q18.5 30 42 46.5q23.5 16.5 48.5 25q25 8.5 50 10.5q25 2 46 2q29 0 54 -4q25 -4 45 -10q30 -8 48 -22.5q18 -14.5 18 -31.5q0 -20 -2 -47q-2 -27 -7 -38q-7 -16 -25.5 -21q-18.5 -5 -34.5 -5q-23 0 -23 27v55q0 27 -15 39.5q-15 12.5 -64 12.5q-26 0 -50 -7.5q-24 -7.5 -42 -30.5q-18 -23 -29 -65.5q-11 -42.5 -11 -112.5q0 -62 12.5 -100.5q12.5 -38.5 32 -60.5q19.5 -22 44.5 -30q25 -8 51 -8q42 0 82.5 13.5q40.5 13.5 67.5 35.5z" />
<glyph unicode="&#100;" horiz-adv-x="549" d="M523 0h-142v59q-29 -27 -72.5 -48.5q-43.5 -21.5 -89.5 -21.5q-36 0 -68.5 10.5q-32.5 10.5 -56.5 36.5q-24 26 -38.5 69.5q-14.5 43.5 -14.5 109.5v38q0 71 16.5 118.5q16.5 47.5 46 76.5q29.5 29 70.5 41q41 12 91 12q25 0 45.5 -4.5q20.5 -4.5 36.5 -9.5q18 -6 33 -13l0 120q0 19 -0.5 35q-0.5 16 -4.5 29q-4 13 -12.5 21q-8.5 8 -23.5 11l-18 3v27l144 12v-640q0 -32 4.5 -43.5q4.5 -11.5 22.5 -14.5l31 -5zM379 422q-14 11 -49 21q-35 10 -70 10q-38 0 -63 -15q-25 -15 -40 -42q-15 -27 -21.5 -63.5q-6.5 -36.5 -6.5 -79.5v-31q0 -56 11 -90q11 -34 29.5 -52q18.5 -18 42 -24q23.5 -6 48.5 -6q19 0 38 7q19 7 35 16.5q16 9.5 28 20.5q12 11 18 19z" />
<glyph unicode="&#101;" horiz-adv-x="485" d="M442 65q-20 -22 -44.5 -37q-24.5 -15 -50 -24.5q-25.5 -9.5 -51 -14q-25.5 -4.5 -46.5 -4.5q-48 0 -86 13q-38 13 -65 42.5q-27 29.5 -41.5 77q-14.5 47.5 -14.5 117.5q0 63 10 107.5q10 44.5 28 75.5q27 46 74 64.5q47 18.5 100 18.5q43 0 78 -10q35 -10 59.5 -32q24.5 -22 37.5 -56.5q13 -34.5 13 -83.5q0 -41 -7 -58l-11 -6h-294v-16q0 -65 13 -104q13 -39 34.5 -59.5q21.5 -20.5 49 -27q27.5 -6.5 57.5 -6.5q38 0 75 13q37 13 64 35zM356 332q0 36 -8 60q-8 24 -22 38.5q-14 14.5 -33.5 20q-19.5 5.5 -43.5 5.5q-60 0 -87 -35q-27 -35 -31 -122l209 0q11 0 13.5 7.5t2.5 25.5z" />
<glyph unicode="&#102;" horiz-adv-x="328" d="M369 690q0 -13 -17 -32q-14 -15 -20.5 -19q-6.5 -4 -14.5 -4q-7 0 -20 12q-17 16 -29.5 24.5q-12.5 8.5 -28.5 8.5q-5 0 -14 -3q-9 -3 -19 -14.5q-10 -11.5 -17 -34.5q-7 -23 -7 -64v-75h126v-47h-126v-340q0 -32 6 -48q6 -16 30 -20l32 -5v-29h-211v29l21 5q24 6 30 22.5q6 16.5 6 45.5v340h-58v47h57v10q0 65 19 108q19 43 52 72q33 29 60.5 41q27.5 12 59.5 12q14 0 25.5 -2.5q11.5 -2.5 21.5 -7.5l13 -6q10 -5 16.5 -13t6.5 -13z" />
<glyph unicode="&#103;" horiz-adv-x="516" d="M399 445q10 -10 22.5 -32.5q12.5 -22.5 12.5 -68.5q0 -44 -16 -73.5q-16 -29.5 -43.5 -47.5q-27.5 -18 -64.5 -26q-37 -8 -79 -8q-8 0 -16.5 0.5q-8.5 0.5 -15.5 1.5q-8 1 -16 2q-20 -11 -36 -30.5q-16 -19.5 -16 -38.5q0 -11 12.5 -19q12.5 -8 39.5 -10q36 -2 76 -3q40 -1 72 -3q41 -2 70 -9q29 -7 47.5 -20.5q18.5 -13.5 27 -35.5q8.5 -22 8.5 -55q0 -40 -19 -75.5q-19 -35.5 -53.5 -62.5q-34.5 -27 -83.5 -42.5q-49 -15.5 -108 -15.5q-40 0 -76 7q-36 7 -63 23.5q-27 16.5 -42.5 43q-15.5 26.5 -15.5 65.5q0 21 8.5 38q8.5 17 21 31.5q12.5 14.5 27 26.5q14.5 12 26.5 21q-24 11 -36 24.5q-12 13.5 -12 41.5q0 23 9.5 40.5q9.5 17.5 23.5 31q14 13.5 28.5 22.5q14.5 9 25.5 14q-17 4 -34.5 13.5q-17.5 9.5 -32 25.5q-14.5 16 -23.5 40q-9 24 -9 57q0 51 17 83q17 32 44.5 50q27.5 18 62 24q34.5 6 69.5 6q38 0 73 -7q35 -7 56 -19q29 10 48 17.5q19 7.5 31.5 11.5q12.5 4 19.5 6q7 2 12 2q22 0 22 -44q0 -4 -0.5 -7.5q-0.5 -3.5 -0.5 -5.5v-5zM343 359q0 23 -3.5 41q-3.5 18 -14 31q-10.5 13 -31.5 19.5q-21 6.5 -55 6.5q-60 0 -81 -25q-21 -25 -21 -73v-27q0 -49 22.5 -73.5q22.5 -24.5 79.5 -24.5q61 0 82.5 25q21.5 25 21.5 73zM393 -64q0 21 -5 34q-5 13 -15 20.5q-10 7.5 -23.5 10.5q-13.5 3 -29.5 5q-33 3 -75.5 5q-42.5 2 -99.5 7q-17 -12 -31 -38q-14 -26 -14 -59q0 -20 6.5 -38.5q6.5 -18.5 22.5 -32.5q16 -14 42.5 -23q26.5 -9 67.5 -9q48 0 78.5 11q30.5 11 47 28q16.5 17 22.5 38t6 41z" />
<glyph unicode="&#104;" horiz-adv-x="570" d="M544 0h-200v29l21 5q25 6 30.5 16q5.5 10 5.5 33v233q0 23 -4 43.5q-4 20.5 -14 35.5q-10 15 -28 24q-18 9 -46 9q-24 0 -43.5 -7q-19.5 -7 -34.5 -19q-15 -12 -27 -27q-12 -15 -22 -31l0 -261q0 -24 6 -33.5q6 -9.5 30 -15.5l21 -5v-29h-200v29l21 5q25 6 30.5 16q5.5 10 5.5 33v553q0 15 -1 24q-1 9 -4.5 14.5q-3.5 5.5 -11.5 8.5q-8 3 -23 6l-18 3v27l144 12v-325q32 43 77.5 67q45.5 24 94.5 24q42 0 68.5 -15.5q26.5 -15.5 40.5 -39.5q14 -24 19 -52q5 -28 5 -53v-254q0 -17 6 -30q6 -13 30 -19l21 -5z" />
<glyph unicode="&#105;" horiz-adv-x="265" d="M188 632q0 -8 -2 -18q-2 -10 -8 -19q-6 -9 -17 -15q-11 -6 -29 -6q-14 0 -24 5.5q-10 5.5 -16 14q-6 8.5 -8.5 18.5q-2.5 10 -2.5 20q0 8 1.5 17.5q1.5 9.5 7.5 18q6 8.5 17 14.5q11 6 29 6q32 0 42 -17q10 -17 10 -39zt0 0zM239 0h-200v29l21 5q25 6 30.5 16q5.5 10 5.5 33v314q0 15 -1.5 23.5q-1.5 8.5 -6 13q-4.5 4.5 -13 6.5q-8.5 2 -21.5 4l-20 3v29l148 13v-406q0 -24 6 -33.5q6 -9.5 30 -15.5l21 -5z" />
<glyph unicode="&#106;" horiz-adv-x="255" d="M182 178q0 -25 -3 -61q-3 -36 -9.5 -75.5q-6.5 -39.5 -16.5 -79q-10 -39.5 -25 -70.5q-12 -26 -27 -51q-15 -25 -33 -44.5q-18 -19.5 -37.5 -32q-19.5 -12.5 -38.5 -12.5q-29 0 -39.5 10.5q-10.5 10.5 -10.5 19.5q0 12 3 31.5q3 19.5 8 30.5q5 12 16 12q7 0 20 -6q13 -6 30 -6q39 0 56 34q4 9 8 22.5q4 13.5 7 38q3 24.5 4.5 64q1.5 39.5 1.5 99.5v295q0 15 -1.5 23.5q-1.5 8.5 -6 13q-4.5 4.5 -13 6.5q-8.5 2 -21.5 4l-20 3v29l148 13zM188 632q0 -8 -2 -18q-2 -10 -8 -19q-6 -9 -17 -15q-11 -6 -29 -6q-14 0 -24 5.5q-10 5.5 -16 14q-6 8.5 -8.5 18.5q-2.5 10 -2.5 20q0 8 1.5 17.5q1.5 9.5 7.5 18q6 8.5 17 14.5q11 6 29 6q32 0 42 -17t10 -39z" />
<glyph unicode="&#107;" horiz-adv-x="519" d="M509 0h-126l-197 253l78 80q23 24 38 40q15 16 23.5 27q8.5 11 12 18q3.5 7 3.5 13q0 12 -4.5 16.5q-4.5 4.5 -15.5 7.5l-18 5v29h180v-29l-20 -9q-10 -5 -19.5 -9.5q-9.5 -4.5 -21.5 -13.5q-12 -9 -28.5 -23.5q-16.5 -14.5 -40.5 -37.5l-89 -86l151 -182q16 -20 27.5 -32q11.5 -12 20 -19q8.5 -7 16.5 -10.5q8 -3.5 18 -6.5l12 -3zM239 0h-200v29l21 5q25 6 30.5 16q5.5 10 5.5 33v553q0 15 -0.5 24q-0.5 9 -4.5 14.5q-4 5.5 -12 8.5q-8 3 -23 6l-18 3v27l144 12v-648q0 -24 6 -33.5q6 -9.5 30 -15.5l21 -5z" />
<glyph unicode="&#108;" horiz-adv-x="265" d="M239 0h-200v29l21 5q25 6 30.5 16q5.5 10 5.5 33v553q0 15 -0.5 24q-0.5 9 -4.5 14.5q-4 5.5 -12 8.5q-8 3 -23 6l-18 3v27l144 12v-648q0 -24 6 -33.5q6 -9.5 30 -15.5l21 -5z" />
<glyph unicode="&#109;" horiz-adv-x="863" d="M837 0h-200v29l21 5q25 6 30.5 16q5.5 10 5.5 33v227q0 52 -22 85q-22 33 -73 33q-32 0 -54.5 -12q-22.5 -12 -36.5 -29q-14 -17 -20.5 -36q-6.5 -19 -6.5 -34v-215q0 -29 5 -45.5q5 -16.5 31 -22.5l21 -5v-29h-200v29l21 5q26 6 31 22.5q5 16.5 5 45.5v195q0 27 -4 51q-4 24 -15 42q-11 18 -29.5 28q-18.5 10 -46.5 10q-24 0 -42.5 -8.5q-18.5 -8.5 -32.5 -22q-14 -13.5 -24.5 -31q-10.5 -17.5 -18.5 -35.5l0 -248q0 -24 6 -33.5q6 -9.5 30 -15.5l21 -5v-29h-200v29l21 5q25 6 30.5 16q5.5 10 5.5 33v301q0 15 -0.5 25.5q-0.5 10.5 -4.5 17q-4 6.5 -11.5 10.5q-7.5 4 -22.5 7l-18 3v29l139 13l4 -85q43 51 83 72q40 21 82 21q30 0 52 -10.5q22 -10.5 36.5 -26q14.5 -15.5 21.5 -34.5q7 -19 9 -35q44 59 87 82.5q43 23.5 84 23.5q42 0 70 -12q28 -12 44 -32q16 -20 22.5 -46.5q6.5 -26.5 6.5 -55.5v-268q0 -17 6 -30q6 -13 30 -19l21 -5z" />
<glyph unicode="&#110;" horiz-adv-x="570" d="M544 0h-200v29l21 5q25 6 30.5 16q5.5 10 5.5 33v233q0 23 -4 43.5q-4 20.5 -14 35.5q-10 15 -28 24q-18 9 -46 9q-24 0 -43.5 -7q-19.5 -7 -34.5 -19q-15 -12 -27 -27q-12 -15 -22 -31l0 -261q0 -24 6 -33.5q6 -9.5 30 -15.5l21 -5v-29h-200v29l21 5q25 6 30.5 16q5.5 10 5.5 33v301q0 15 -0.5 25.5q-0.5 10.5 -4.5 17q-4 6.5 -11.5 10.5q-7.5 4 -22.5 7l-18 3v29l139 13l4 -83q32 43 77.5 67q45.5 24 94.5 24q42 0 68.5 -15.5q26.5 -15.5 40.5 -39.5q14 -24 19 -52q5 -28 5 -53v-254q0 -17 6 -30q6 -13 30 -19l21 -5z" />
<glyph unicode="&#111;" horiz-adv-x="541" d="M497 247q0 -81 -19.5 -132.5q-19.5 -51.5 -51.5 -80q-32 -28.5 -73 -39q-41 -10.5 -83 -10.5q-48 0 -89.5 9q-41.5 9 -72 37q-30.5 28 -48 79.5q-17.5 51.5 -17.5 136.5q0 82 19 132q19 50 51 77q32 27 72.5 36q40.5 9 84.5 9q48 0 89.5 -9q41.5 -9 72 -36q30.5 -27 48 -77q17.5 -50 17.5 -132zt0 0zM408 261q0 69 -12 108q-12 39 -31.5 58.5q-19.5 19.5 -44 24q-24.5 4.5 -50.5 4.5q-26 0 -51 -5.5q-25 -5.5 -44.5 -25q-19.5 -19.5 -31 -58.5q-11.5 -39 -11.5 -106v-36q0 -68 11.5 -106.5q11.5 -38.5 31 -58.5q19.5 -20 44.5 -25q25 -5 51 -5q26 0 50.5 5.5q24.5 5.5 44 25q19.5 19.5 31.5 58.5q12 39 12 106z" />
<glyph unicode="&#112;" horiz-adv-x="559" d="M515 232q0 -75 -19.5 -123q-19.5 -48 -50 -75.5q-30.5 -27.5 -69 -38q-38.5 -10.5 -76.5 -10.5q-12 0 -27.5 1.5q-15.5 1.5 -32 5.5q-16.5 4 -31.5 9.5q-15 5.5 -27 14.5l0 -172q0 -12 1 -19.5q1 -7.5 6.5 -13q5.5 -5.5 16 -9q10.5 -3.5 28.5 -7.5l24 -5v-29h-220v29l19 5q20 5 29.5 15.5q9.5 10.5 9.5 33.5v540q0 17 -1.5 28q-1.5 11 -5.5 17q-4 6 -11.5 9.5q-7.5 3.5 -20.5 5.5l-18 3v27l139 15l4 -49q9 11 25 22q16 11 36.5 19.5q20.5 8.5 44 14q23.5 5.5 46.5 5.5q31 0 63 -9.5q32 -9.5 58 -34q26 -24.5 43 -67.5q17 -43 17 -110zM427 262q0 63 -14 99q-14 36 -34.5 53.5q-20.5 17.5 -44 22q-23.5 4.5 -42.5 4.5q-35 0 -66 -15q-31 -15 -44 -42l0 -314q6 -9 18 -16.5q12 -7.5 26.5 -13q14.5 -5.5 30.5 -8q16 -2.5 31 -2.5q22 0 46.5 5.5q24.5 5.5 45 25q20.5 19.5 34 58.5q13.5 39 13.5 106z" />
<glyph unicode="&#113;" horiz-adv-x="538" d="M528 -239h-218v29l35 5q28 7 34 17q6 10 6 32v215q-33 -36 -74.5 -53q-41.5 -17 -87.5 -17q-38 0 -70.5 10.5q-32.5 10.5 -56.5 38.5q-24 28 -37.5 75.5q-13.5 47.5 -13.5 122.5q0 72 16.5 122.5q16.5 50.5 46 82q29.5 31.5 70.5 46q41 14.5 91 14.5q21 0 42.5 -3q21.5 -3 41 -6.5q19.5 -3.5 37 -7.5q17.5 -4 29.5 -6l43 14l9 -7v-641q0 -20 5 -31.5q5 -11.5 31 -17.5l21 -5zM383 434q-19 10 -47 16q-28 6 -59 6q-42 0 -70 -14.5q-28 -14.5 -44.5 -41q-16.5 -26.5 -23 -64q-6.5 -37.5 -6.5 -83.5v-27q0 -56 10.5 -90.5q10.5 -34.5 28.5 -54q18 -19.5 41.5 -26.5q23.5 -7 50.5 -7q25 0 45.5 7q20.5 7 35 17q14.5 10 24 21q9.5 11 14.5 19z" />
<glyph unicode="&#114;" horiz-adv-x="419" d="M408 450q0 -16 -15 -47q-13 -25 -29 -25q-8 0 -19.5 10q-11.5 10 -24.5 19q-18 13 -32.5 15.5q-14.5 2.5 -28.5 2.5q-14 0 -26 -7.5q-12 -7.5 -22 -19.5q-10 -12 -17 -26.5q-7 -14.5 -12 -28.5l0 -241q0 -29 5 -46q5 -17 31 -22l29 -5v-29h-208v29l21 5q26 6 31 22.5q5 16.5 5 45.5v261q0 38 -5.5 57q-5.5 19 -33.5 24l-18 3v27l134 14l5 -73h5q38 45 70.5 62.5q32.5 17.5 66.5 17.5q38 0 63 -15t25 -30z" />
<glyph unicode="&#115;" horiz-adv-x="449" d="M405 137q0 -26 -9 -53q-9 -27 -30 -49q-21 -22 -56.5 -36q-35.5 -14 -89.5 -14q-38 0 -65.5 5q-27.5 5 -46.5 11q-22 7 -38 16l-9 122l28 7q11 -24 24 -45.5q13 -21.5 30 -37q17 -15.5 38.5 -24.5q21.5 -9 49.5 -9q49 0 74 23.5q25 23.5 25 61.5q0 14 -3.5 26q-3.5 12 -15.5 23.5q-12 11.5 -33.5 22.5q-21.5 11 -57.5 23l-46 16q-52 18 -84 49.5q-32 31.5 -32 85.5q0 73 48.5 106.5q48.5 33.5 124.5 33.5q30 0 55 -4.5q25 -4.5 44 -9.5q22 -6 40 -13l9 -122l-28 -7q-25 51 -54.5 81q-29.5 30 -80.5 30q-7 0 -21 -2q-14 -2 -28 -9.5q-14 -7.5 -24.5 -21q-10.5 -13.5 -10.5 -35.5q0 -20 5.5 -33q5.5 -13 16.5 -22.5q11 -9.5 29 -17q18 -7.5 43 -16.5l59 -21q61 -22 90.5 -54.5t29.5 -86.5z" />
<glyph unicode="&#116;" horiz-adv-x="329" d="M323 16q-19 -5 -40.5 -9.5q-21.5 -4.5 -41 -7.5q-19.5 -3 -35.5 -4.5q-16 -1.5 -24 -1.5q-30 0 -47 10q-17 10 -25.5 25.5q-8.5 15.5 -11 35.5q-2.5 20 -2.5 41v337h-72v40q27 5 41.5 18.5q14.5 13.5 21.5 21.5q11 13 19 32q8 19 13.5 38.5q5.5 19.5 9 37q3.5 17.5 6.5 29.5l47 0v-170h121v-47h-121v-337q0 -7 1 -18q1 -11 6 -21.5q5 -10.5 16 -18q11 -7.5 31 -7.5q18 0 33 2q15 2 26 4q13 3 24 6z" />
<glyph unicode="&#117;" horiz-adv-x="575" d="M549 0h-149v96q-21 -29 -45.5 -49q-24.5 -20 -49 -32q-24.5 -12 -48 -17.5q-23.5 -5.5 -44.5 -5.5q-42 0 -65.5 14q-23.5 14 -35 37q-11.5 23 -14 51.5q-2.5 28.5 -2.5 57.5v250q0 29 -6 40q-6 11 -29 15l-18 3v29h139v-315q0 -20 2.5 -40q2.5 -20 10.5 -36.5q8 -16.5 23 -26.5q15 -10 41 -10q22 0 43 8q21 8 39.5 21.5q18.5 13.5 33.5 30.5q15 17 26 35l0 252q0 20 -4.5 32q-4.5 12 -31.5 17l-18 3v29h140v-403q0 -23 6 -34q6 -11 35 -18l21 -5z" />
<glyph unicode="&#118;" horiz-adv-x="505" d="M502 460l-19 -5q-12 -3 -20.5 -10.5q-8.5 -7.5 -16.5 -20.5q-8 -13 -16.5 -33q-8.5 -20 -19.5 -47l-134 -344h-62l-142 387q-11 30 -21.5 47q-10.5 17 -24.5 21l-21 5v29h196v-29l-21 -5q-15 -4 -20.5 -9q-5.5 -5 -5.5 -16q0 -7 2.5 -19q2.5 -12 7.5 -24l102 -296l88 250q24 66 24 89q0 20 -21 25l-21 5v29l166 0z" />
<glyph unicode="&#119;" horiz-adv-x="730" d="M720 460l-20 -9q-9 -4 -17 -9.5q-8 -5.5 -15.5 -18q-7.5 -12.5 -16 -36.5q-8.5 -24 -18.5 -64l-80 -323h-57l-133 399l-144 -399h-60l-86 387q-5 26 -14 44.5q-9 18.5 -29 23.5l-21 5v29h188v-29l-21 -5q-15 -4 -19.5 -8q-4.5 -4 -4.5 -11q0 -11 2 -26q2 -15 4 -23l58 -275l137 377h61l126 -377l48 219q5 25 9.5 48.5q4.5 23.5 4.5 40.5q0 16 -6 23.5q-6 7.5 -21 11.5l-21 5v29l166 0z" />
<glyph unicode="&#120;" horiz-adv-x="517" d="M497 0h-208v29l21 5q14 4 17 10q3 6 3 13q0 8 -4 17q-4 9 -11 19l-72 108l-74 -108q-6 -9 -10.5 -18.5q-4.5 -9.5 -4.5 -17.5q0 -5 4 -12.5q4 -7.5 16 -10.5l21 -5v-29h-178v29l21 5q8 2 17 6.5q9 4.5 20.5 14.5q11.5 10 26.5 27q15 17 35 45l80 110l-104 153q-12 18 -29 39q-17 21 -38 26l-21 5v29h207v-29l-22 -5q-15 -4 -17.5 -9q-2.5 -5 -2.5 -10q0 -14 15 -37l63 -100l61 97q17 27 17 40q0 5 -4 10.5q-4 5.5 -16 8.5l-21 5v29h176v-29l-21 -5q-8 -2 -17.5 -6q-9.5 -4 -21 -14q-11.5 -10 -26.5 -27.5q-15 -17.5 -34 -45.5l-66 -98l114 -162q6 -9 14 -20q8 -11 17 -21q9 -10 18.5 -17.5q9.5 -7.5 17.5 -9.5l21 -5z" />
<glyph unicode="&#121;" horiz-adv-x="537" d="M521 463l-17 -6q-9 -3 -15.5 -10q-6.5 -7 -15 -26q-8.5 -19 -21 -54q-12.5 -35 -32.5 -93l-129 -377q-26 -77 -55 -111q-29 -34 -68 -34q-29 0 -46.5 8q-17.5 8 -17.5 22q0 6 0.5 15q0.5 9 2 18.5q1.5 9.5 3.5 18q2 8.5 5 14.5q5 12 16 12q8 0 24.5 -6q16.5 -6 39.5 -6q10 0 23 6.5q13 6.5 21 23.5q9 19 12.5 41.5q3.5 22.5 3.5 42.5q0 19 -8.5 41.5q-8.5 22.5 -16.5 43.5l-140 338q-8 20 -13.5 32q-5.5 12 -11.5 19q-6 7 -13 11q-7 4 -19 8l-16 5v29h201v-29l-17 -4q-12 -3 -20.5 -9q-8.5 -6 -8.5 -17q0 -12 5.5 -28.5q5.5 -16.5 16.5 -42.5l113 -282l81 265q8 27 12.5 50.5q4.5 23.5 4.5 37.5q0 13 -8.5 18.5q-8.5 5.5 -21.5 8.5l-13 3v29l159 0z" />
<glyph unicode="&#122;" horiz-adv-x="455" d="M429 154l-29 -154h-366v31l280 412h-97q-30 0 -49 -4.5q-19 -4.5 -33.5 -17q-14.5 -12.5 -26 -34.5q-11.5 -22 -26.5 -56l-29 4l20 154h345v-29l-279 -414h140q26 0 43 6.5q17 6.5 30 20q13 13.5 24 35q11 21.5 24 50.5z" />
<glyph unicode="&#123;" horiz-adv-x="371" d="M312 -204q-46 9 -76.5 24q-30.5 15 -48.5 37q-18 22 -25.5 53.5q-7.5 31.5 -7.5 73.5q0 23 2.5 55.5q2.5 32.5 2.5 77.5q0 33 -3 56q-3 23 -9 39q-6 16 -16 26q-10 10 -24 17q-4 2 -12.5 4q-8.5 2 -18 3.5q-9.5 1.5 -19 2.5q-9.5 1 -15.5 1l0 35q6 0 15.5 1q9.5 1 19 2.5q9.5 1.5 18 3.5q8.5 2 12.5 4q15 7 25 17q10 10 16 26q6 16 8.5 39q2.5 23 2.5 56q0 45 -2.5 77.5q-2.5 32.5 -2.5 55.5q0 42 7.5 73.5q7.5 31.5 25.5 53.5q18 22 48.5 37q30.5 15 76.5 24l0 -35q-38 -10 -57.5 -40.5q-19.5 -30.5 -19.5 -72.5q0 -32 0.5 -55.5q0.5 -23.5 1 -44q0.5 -20.5 1 -38.5q0.5 -18 0.5 -37q0 -61 -22.5 -101.5q-22.5 -40.5 -79.5 -60.5l0 -5q59 -17 80.5 -59q21.5 -42 21.5 -103q0 -20 -0.5 -37.5q-0.5 -17.5 -1 -38q-0.5 -20.5 -1 -44.5q-0.5 -24 -0.5 -55q0 -42 19.5 -72.5q19.5 -30.5 57.5 -40.5z" />
<glyph unicode="&#124;" horiz-adv-x="165" d="M111 -231h-51v1081l51 0z" />
<glyph unicode="&#125;" horiz-adv-x="371" d="M60 -169q38 10 57.5 40.5q19.5 30.5 19.5 72.5q0 31 -0.5 55q-0.5 24 -1 44.5q-0.5 20.5 -1 38q-0.5 17.5 -0.5 37.5q0 61 21.5 103q21.5 42 80.5 59l0 5q-57 20 -79.5 60.5q-22.5 40.5 -22.5 101.5q0 19 0.5 37q0.5 18 1 38.5q0.5 20.5 1 44q0.5 23.5 0.5 55.5q0 42 -19.5 72.5q-19.5 30.5 -57.5 40.5l0 35q46 -9 76.5 -24q30.5 -15 48.5 -37q18 -22 25.5 -53.5q7.5 -31.5 7.5 -73.5q0 -23 -2.5 -55.5q-2.5 -32.5 -2.5 -77.5q0 -33 2.5 -56q2.5 -23 8.5 -39q6 -16 16 -26q10 -10 25 -17q4 -2 12 -4q8 -2 18 -3.5q10 -1.5 19.5 -2.5q9.5 -1 15.5 -1l0 -35q-6 0 -15.5 -1q-9.5 -1 -19.5 -2.5q-10 -1.5 -18 -3.5q-8 -2 -12 -4q-14 -7 -24 -17q-10 -10 -16 -26q-6 -16 -9 -39q-3 -23 -3 -56q0 -45 2.5 -77.5q2.5 -32.5 2.5 -55.5q0 -42 -7.5 -73.5q-7.5 -31.5 -25.5 -53.5q-18 -22 -48.5 -37q-30.5 -15 -76.5 -24z" />
<glyph unicode="&#126;" horiz-adv-x="607" d="M576 358q-18 -26 -35 -48q-17 -22 -36 -38.5q-19 -16.5 -41 -26q-22 -9.5 -50 -9.5q-32 0 -61.5 10q-29.5 10 -58 21.5q-28.5 11.5 -55.5 21.5q-27 10 -54 10q-15 0 -29.5 -2.5q-14.5 -2.5 -29 -9.5q-14.5 -7 -30 -20.5q-15.5 -13.5 -34.5 -35.5l-23 25q18 25 35 47.5q17 22.5 36 39q19 16.5 41 26q22 9.5 50 9.5q36 0 66.5 -10q30.5 -10 57.5 -21.5q27 -11.5 52.5 -21.5q25.5 -10 52.5 -10q15 0 29.5 2.5q14.5 2.5 29 9.5q14.5 7 30 20.5q15.5 13.5 34.5 35.5z" />
<glyph unicode="&#160;" horiz-adv-x="300" />
<glyph unicode="&#161;" horiz-adv-x="265" d="M83 669q0 9 2 20q2 11 8.5 20q6.5 9 18 15.5q11.5 6.5 30.5 6.5q32 0 43.5 -19.5q11.5 -19.5 11.5 -42.5q0 -8 -2 -18.5q-2 -10.5 -8 -20.5q-6 -10 -17.5 -16.5q-11.5 -6.5 -31.5 -6.5q-31 0 -43 19.5q-12 19.5 -12 42.5zt0 0zM160 530l20 -312q1 -19 3 -48.5q2 -29.5 3.5 -58q1.5 -28.5 2.5 -51.5q1 -23 1 -30q0 -26 -12 -36q-12 -10 -38 -10q-26 0 -38 10q-12 10 -12 36q0 7 1 30q1 23 2.5 51.5q1.5 28.5 3.5 58q2 29.5 3 48.5l20 312z" />
<glyph unicode="&#162;" horiz-adv-x="490" d="M290 -126h-51v112q-94 7 -140.5 66.5q-46.5 59.5 -46.5 178.5q0 83 17.5 134.5q17.5 51.5 45 80q27.5 28.5 60.5 39.5q33 11 64 14l0 109h51v-107q26 -1 47.5 -5q21.5 -4 40.5 -9q30 -8 48 -22.5q18 -14.5 18 -31.5q0 -20 -2 -47q-2 -27 -7 -38q-7 -16 -25.5 -21q-18.5 -5 -34.5 -5q-23 0 -23 27v55q0 24 -12 36.5q-12 12.5 -50 14.5l0 -414q40 2 77.5 15q37.5 13 63.5 34l18 -25q-33 -37 -76.5 -55q-43.5 -18 -82.5 -23zM141 240q0 -49 8 -83q8 -34 21.5 -57q13.5 -23 31 -35.5q17.5 -12.5 37.5 -18.5l0 407q-21 -4 -38.5 -16q-17.5 -12 -31 -36q-13.5 -24 -21 -63.5t-7.5 -97.5z" />
<glyph unicode="&#163;" horiz-adv-x="490" d="M328 336h-123q1 -14 4 -37q3 -23 3 -33q0 -46 -10.5 -75.5q-10.5 -29.5 -26 -49.5q-15.5 -20 -32.5 -34.5q-17 -14.5 -30 -29.5l2 -5q29 17 60 25.5q31 8.5 68 8.5q9 0 22 -2.5q13 -2.5 27.5 -6q14.5 -3.5 30 -6q15.5 -2.5 28.5 -2.5q14 0 23.5 1.5q9.5 1.5 17 6.5q7.5 5 13 15q5.5 10 11.5 27l30 -5q-7 -39 -13 -65q-6 -26 -14.5 -41.5q-8.5 -15.5 -21.5 -21.5q-13 -6 -34 -6q-22 0 -39 4.5q-17 4.5 -35 10.5q-18 6 -38 10.5q-20 4.5 -48 4.5q-30 0 -51.5 -1.5q-21.5 -1.5 -39 -4.5q-17.5 -3 -34 -9q-16.5 -6 -36.5 -15l-12 28q16 13 33.5 32.5q17.5 19.5 31.5 45q14 25.5 23.5 56q9.5 30.5 9.5 65.5q0 59 -9 109l-81 0v47h76q-5 29 -8.5 57.5q-3.5 28.5 -3.5 45.5q0 34 10.5 74q10.5 40 35.5 74q25 34 64.5 56.5q39.5 22.5 98.5 22.5q25 0 41.5 -7.5q16.5 -7.5 30.5 -23.5q12 -13 16 -22.5q4 -9.5 4 -19.5q0 -7 -20 -24q-18 -15 -30 -15q-10 0 -15 8q-5 8 -20 26q-16 20 -27.5 24.5q-11.5 4.5 -28.5 4.5q-23 0 -39 -12.5q-16 -12.5 -25.5 -31.5q-9.5 -19 -14 -42.5q-4.5 -23.5 -4.5 -45.5q0 -30 5.5 -70q5.5 -40 13.5 -79l130 0z" />
<glyph unicode="&#164;" horiz-adv-x="622" d="M580 90l-39 -39l-84 86q-38 -29 -77.5 -41.5q-39.5 -12.5 -72.5 -12.5q-33 0 -72.5 12.5q-39.5 12.5 -77.5 41.5l-84 -86l-36 39l84 83q-29 38 -41 77.5q-12 39.5 -12 72.5q0 33 12 72.5q12 39.5 41 77.5l-84 84l36 39l84 -87q38 29 77.5 41q39.5 12 72.5 12q33 0 72.5 -12q39.5 -12 77.5 -41l84 86l39 -38l-87 -84q29 -38 41.5 -77.5q12.5 -39.5 12.5 -72.5q0 -33 -12.5 -72.5q-12.5 -39.5 -41.5 -77.5zM494 323q0 40 -14.5 74.5q-14.5 34.5 -40 60.5q-25.5 26 -59.5 41q-34 15 -73 15q-39 0 -72.5 -15q-33.5 -15 -59 -41q-25.5 -26 -40 -60.5q-14.5 -34.5 -14.5 -74.5q0 -40 14.5 -75q14.5 -35 40 -61q25.5 -26 59 -41q33.5 -15 72.5 -15q39 0 73 15q34 15 59.5 41q25.5 26 40 61t14.5 75z" />
<glyph unicode="&#165;" horiz-adv-x="490" d="M394 197h-105v-48h103v-44h-103q0 -35 6.5 -49.5q6.5 -14.5 30.5 -19.5l22 -5v-31h-211v31l22 5q24 6 30.5 23q6.5 17 6.5 46l-106 0v44h106v48h-105v45h105v10l-119 340q-9 24 -15 38.5q-6 14.5 -12 22q-6 7.5 -12.5 11q-6.5 3.5 -15.5 6.5l-15 5v31h206v-31l-22 -5q-13 -3 -20.5 -8.5q-7.5 -5.5 -7.5 -20.5q0 -8 3 -24q3 -16 8 -30l93 -281l70 227q10 32 18.5 60.5q8.5 28.5 8.5 39.5q0 28 -26 36l-21 6v31h168v-31l-15 -4q-11 -3 -19.5 -10q-8.5 -7 -16.5 -20q-8 -13 -16.5 -34.5q-8.5 -21.5 -19.5 -52.5l-109 -302v-10l105 0z" />
<glyph unicode="&#166;" horiz-adv-x="165" d="M107 418h-47v332h47zM107 -62h-47v332l47 0z" />
<glyph unicode="&#167;" horiz-adv-x="460" d="M413 343q0 -28 -9 -53q-9 -25 -23.5 -46q-14.5 -21 -32 -38q-17.5 -17 -33.5 -27q21 -14 35 -25q14 -11 22.5 -24q8.5 -13 12.5 -28q4 -15 4 -36q0 -33 -15 -58.5q-15 -25.5 -38.5 -42q-23.5 -16.5 -53 -25q-29.5 -8.5 -58.5 -8.5q-57 0 -96 16q-18 8 -31.5 17.5q-13.5 9.5 -13.5 26.5q0 8 4.5 20.5q4.5 12.5 10.5 23.5q4 7 8.5 12q4.5 5 15.5 5q8 0 20 -15q12 -15 31 -32q37 -34 76 -34q31 0 48.5 17q17.5 17 17.5 52q0 15 -4 26q-4 11 -14 21q-10 10 -28 21q-18 11 -46 26l-72 38q-31 16 -50 31.5q-19 15.5 -29.5 32q-10.5 16.5 -14.5 35q-4 18.5 -4 41.5q0 28 10 52q10 24 24.5 44.5q14.5 20.5 31.5 37q17 16.5 32 30.5q-21 12 -35 22.5q-14 10.5 -22.5 23q-8.5 12.5 -12.5 28q-4 15.5 -4 38.5q0 33 15 58.5q15 25.5 38.5 42q23.5 16.5 53 25q29.5 8.5 58.5 8.5q57 0 96 -16q18 -8 31.5 -17.5q13.5 -9.5 13.5 -26.5q0 -8 -4.5 -20.5q-4.5 -12.5 -10.5 -23.5q-4 -7 -8.5 -12q-4.5 -5 -15.5 -5q-8 0 -20 15q-12 15 -31 32q-37 34 -76 34q-31 0 -48.5 -17q-17.5 -17 -17.5 -52q0 -16 5 -27.5q5 -11.5 15.5 -21.5q10.5 -10 28 -20.5q17.5 -10.5 43.5 -23.5l72 -38q31 -17 50 -32.5q19 -15.5 29.5 -32q10.5 -16.5 14.5 -35q4 -18.5 4 -40.5zt0 0zM338 311q0 44 -23.5 68.5q-23.5 24.5 -72.5 46.5l-64 28q-20 -29 -35 -56q-15 -27 -15 -53q0 -24 6 -40.5q6 -16.5 18 -29q12 -12.5 30 -23q18 -10.5 42 -22.5l59 -30q29 31 42 58t13 53z" />
<glyph unicode="&#168;" horiz-adv-x="350" d="M156 633q0 -8 -2 -18q-2 -10 -8 -19q-6 -9 -17 -15q-11 -6 -29 -6q-14 0 -24 5.5q-10 5.5 -16 14q-6 8.5 -8.5 18.5q-2.5 10 -2.5 20q0 8 1.5 17.5q1.5 9.5 7.5 18q6 8.5 17 14.5q11 6 29 6q32 0 42 -17q10 -17 10 -39zt0 0zM311 633q0 -8 -2 -18q-2 -10 -8 -19q-6 -9 -17 -15q-11 -6 -29 -6q-14 0 -24 5.5q-10 5.5 -16 14q-6 8.5 -8.5 18.5q-2.5 10 -2.5 20q0 8 1.5 17.5q1.5 9.5 7.5 18q6 8.5 17 14.5q11 6 29 6q32 0 42 -17t10 -39z" />
<glyph unicode="&#169;" horiz-adv-x="803" d="M774 366q0 -76 -28.5 -146q-28.5 -70 -79 -123.5q-50.5 -53.5 -118.5 -85.5q-68 -32 -146 -32q-78 0 -146 31q-68 31 -118.5 84q-50.5 53 -79 123.5q-28.5 70.5 -28.5 148.5q0 78 28.5 148.5q28.5 70.5 79 123.5q50.5 53 118.5 84q68 31 146 31q78 0 146 -32q68 -32 118.5 -85.5q50.5 -53.5 79 -123.5q28.5 -70 28.5 -146zt0 0zM740 366q0 69 -26 133q-26 64 -71.5 113q-45.5 49 -107.5 78q-62 29 -133 29q-71 0 -133 -28.5q-62 -28.5 -107.5 -77q-45.5 -48.5 -71.5 -112.5q-26 -64 -26 -135q0 -71 26 -135q26 -64 71.5 -112.5q45.5 -48.5 107.5 -77q62 -28.5 133 -28.5q71 0 133 29q62 29 107.5 78q45.5 49 71.5 113q26 64 26 133zt0 0zM586 253l-22 -94q-9 -6 -27.5 -12.5q-18.5 -6.5 -41 -12.5q-22.5 -6 -46 -9.5q-23.5 -3.5 -42.5 -3.5q-28 0 -65.5 5.5q-37.5 5.5 -71 29q-33.5 23.5 -56.5 71.5q-23 48 -23 133q0 76 16.5 126q16.5 50 46 78.5q29.5 28.5 70.5 40q41 11.5 90 11.5q23 0 49 -2q26 -2 49 -4q26 -3 51 -5l6 -131l-24 -4l-20 54q-12 32 -37.5 43q-25.5 11 -74.5 11q-11 0 -34.5 -3.5q-23.5 -3.5 -47.5 -22.5q-24 -19 -42 -60.5q-18 -41.5 -18 -116.5v-19q0 -63 11.5 -101q11.5 -38 31 -58.5q19.5 -20.5 45.5 -27.5q26 -7 55 -7q46 0 85.5 23q39.5 23 62.5 76z" />
<glyph unicode="&#170;" horiz-adv-x="384" d="M343 409h-61q-25 0 -28 36q-6 -5 -16 -12.5q-10 -7.5 -22.5 -14.5q-12.5 -7 -28 -11.5q-15.5 -4.5 -32.5 -4.5q-82 0 -82 92q0 31 12.5 48.5q12.5 17.5 30.5 26.5q18 9 38 12q20 3 34 4q16 2 32.5 2q16.5 0 33.5 1l0 42q0 34 -15.5 43q-15.5 9 -42.5 9q-24 0 -31.5 -4q-7.5 -4 -10.5 -8q-2 -2 -3 -9q-1 -7 -1.5 -14.5q-0.5 -7.5 -1 -13.5q-0.5 -6 -0.5 -7q-3 -10 -17 -10q-14 0 -24.5 4.5q-10.5 4.5 -12.5 11.5q-2 4 -2 19q0 8 1 15.5q1 7.5 3 12.5q5 12 32 26q27 14 72 14q28 0 50 -2q22 -2 36 -10q14 -8 21.5 -24q7.5 -16 7.5 -44v-167q0 -23 5 -28.5q5 -5.5 14 -5.5h9zM254 557q-5 0 -9 -0.5q-4 -0.5 -9 -0.5q-21 -1 -39 -2.5q-18 -1.5 -30.5 -7.5q-12.5 -6 -20 -18q-7.5 -12 -7.5 -34q0 -19 9.5 -33q9.5 -14 33.5 -14q13 0 25 5q12 5 22 11.5q10 6.5 16.5 14q6.5 7.5 8.5 12.5z" />
<glyph unicode="&#171;" horiz-adv-x="380" d="M359 89l-23 -11l-170 181l170 182l23 -11l-99 -171zM235 71l-24 -12l-187 200l187 200l24 -11l-110 -189z" />
<glyph unicode="&#172;" horiz-adv-x="648" d="M571 184h-46v109h-448v44l494 0z" />
<glyph unicode="&#173;" horiz-adv-x="538" d="M471 290h-404v47l404 0z" />
<glyph unicode="&#174;" horiz-adv-x="799" d="M774 366q0 -76 -28.5 -146q-28.5 -70 -79 -123.5q-50.5 -53.5 -118.5 -85.5q-68 -32 -146 -32q-78 0 -146 31q-68 31 -118.5 84q-50.5 53 -79 123.5q-28.5 70.5 -28.5 148.5q0 78 28.5 148.5q28.5 70.5 79 123.5q50.5 53 118.5 84q68 31 146 31q78 0 146 -32q68 -32 118.5 -85.5q50.5 -53.5 79 -123.5q28.5 -70 28.5 -146zt0 0zM740 366q0 69 -26 133q-26 64 -71.5 113q-45.5 49 -107.5 78q-62 29 -133 29q-71 0 -133 -28.5q-62 -28.5 -107.5 -77q-45.5 -48.5 -71.5 -112.5q-26 -64 -26 -135q0 -71 26 -135q26 -64 71.5 -112.5q45.5 -48.5 107.5 -77q62 -28.5 133 -28.5q71 0 133 29q62 29 107.5 78q45.5 49 71.5 113q26 64 26 133zt0 0zM609 142h-47q-23 0 -33 5.5q-10 5.5 -20 23.5l-51 92q-9 15 -18 30q-9 15 -20 27q-11 12 -25 19q-14 7 -33 7h-26v-130q0 -21 3.5 -33q3.5 -12 22.5 -16l15 -3v-22h-145v22l16 3q20 5 23 17q3 12 3 32v314q0 20 -3 32q-3 12 -23 17l-16 3v22h190q27 0 54.5 -4.5q27.5 -4.5 50 -18q22.5 -13.5 37 -38q14.5 -24.5 14.5 -63.5q0 -30 -10.5 -51q-10.5 -21 -28 -35.5q-17.5 -14.5 -41 -23q-23.5 -8.5 -49.5 -14.5l0 -4q12 -4 22.5 -13q10.5 -9 18.5 -20q8 -11 15 -22.5q7 -11.5 13 -21.5l44 -72q9 -15 19 -24q10 -9 18 -12l10 -3zM512 472q0 29 -8.5 48q-8.5 19 -23 30q-14.5 11 -33.5 15.5q-19 4.5 -39 4.5q-16 0 -28.5 -0.5q-12.5 -0.5 -22.5 -1.5q-11 -1 -21 -2l0 -191h59q10 0 30 3.5q20 3.5 39 14q19 10.5 33.5 29.5t14.5 50z" />
<glyph unicode="&#175;" horiz-adv-x="349" d="M305 592h-270v52l270 0z" />
<glyph unicode="&#176;" horiz-adv-x="358" d="M309 563q0 -28 -10 -53q-10 -25 -28 -44.5q-18 -19.5 -42 -31q-24 -11.5 -52 -11.5q-29 0 -53 11.5q-24 11.5 -41 31q-17 19.5 -27 44.5q-10 25 -10 53q0 29 10 54q10 25 27.5 44q17.5 19 41.5 29.5q24 10.5 52 10.5q29 0 53.5 -10.5q24.5 -10.5 42 -29.5q17.5 -19 27 -44q9.5 -25 9.5 -54zt0 0zM258 566q0 38 -21.5 61q-21.5 23 -59.5 23q-38 0 -59 -23q-21 -23 -21 -61q0 -38 21 -65.5q21 -27.5 59 -27.5q38 0 59.5 27.5t21.5 65.5z" />
<glyph unicode="&#177;" horiz-adv-x="652" d="M578 89h-504v57h504zM578 362h-224v-164h-57v164h-223v57h223v165h57v-165l224 0z" />
<glyph unicode="&#178;" horiz-adv-x="333" d="M272 607q0 -23 -8 -44q-8 -21 -22 -42q-14 -21 -33.5 -42q-19.5 -21 -42.5 -44l-53 -54h103q15 0 21.5 7q6.5 7 14.5 20l23 -5l-20 -80h-197l7 45l23 26q12 14 29.5 33q17.5 19 43.5 52q27 34 38 63q11 29 11 58q0 35 -9.5 55.5q-9.5 20.5 -38.5 20.5q-15 0 -23.5 -5.5q-8.5 -5.5 -10.5 -9.5q-2 -4 -4 -16q-2 -12 -3 -21q-3 -10 -15 -10q-5 0 -15 1.5q-10 1.5 -13 3.5q-5 3 -7.5 6.5q-2.5 3.5 -2.5 13.5q0 8 0.5 18q0.5 10 3.5 15q3 4 10 11q7 7 18.5 13.5q11.5 6.5 28 11q16.5 4.5 37.5 4.5q58 0 82 -23t24 -82z" />
<glyph unicode="&#179;" horiz-adv-x="322" d="M273 446q0 -39 -11.5 -63.5q-11.5 -24.5 -29.5 -39q-18 -14.5 -38.5 -19.5q-20.5 -5 -38.5 -5q-34 0 -59 8.5q-25 8.5 -30 18.5q-3 5 -4 15q-1 10 -1 18q0 11 3 14.5q3 3.5 8 5.5q6 4 14 5q8 1 14 1q7 0 10.5 -4.5q3.5 -4.5 4.5 -9.5l3 -18q2 -12 12 -16q10 -4 27 -4q28 0 42 18q14 18 14 71q0 24 -5.5 37.5q-5.5 13.5 -16 19.5q-10.5 6 -25.5 7q-15 1 -33 1h-22v32h39q33 0 44 23.5q11 23.5 11 61.5q0 36 -12.5 45q-12.5 9 -30.5 9q-15 0 -22 -3.5q-7 -3.5 -9 -7.5q-5 -5 -6.5 -15.5q-1.5 -10.5 -2.5 -17.5q-2 -5 -4.5 -6.5q-2.5 -1.5 -10.5 -1.5q-14 0 -25.5 8q-11.5 8 -11.5 17q0 19 5 29q5 12 28 22q23 10 63 10q19 0 37 -3.5q18 -3.5 32 -13.5q14 -10 22.5 -26.5q8.5 -16.5 8.5 -41.5q0 -38 -18 -58.5q-18 -20.5 -43 -34.5q13 -3 25.5 -8q12.5 -5 22 -15q9.5 -10 15 -25.5t5.5 -39.5z" />
<glyph unicode="&#180;" horiz-adv-x="245" d="M123 693q17 23 24.5 27.5q7.5 4.5 16.5 4.5q8 0 17.5 -6q9.5 -6 17.5 -14.5q8 -8.5 13 -17.5q5 -9 5 -14q0 -13 -7.5 -19.5q-7.5 -6.5 -22.5 -15.5l-131 -80l-20 24z" />
<glyph unicode="&#181;" horiz-adv-x="600" d="M572 97q-21 -54 -49 -82.5q-28 -28.5 -73 -28.5q-43 0 -62.5 28.5q-19.5 28.5 -21.5 82.5l-7 0q-8 -32 -22 -53q-14 -21 -31 -34q-17 -13 -36.5 -18.5q-19.5 -5.5 -38.5 -5.5q-42 0 -66 23.5q-24 23.5 -41 80.5l-8 0v-43q0 -42 4 -84q4 -42 9 -77.5q5 -35.5 9 -62q4 -26.5 4 -37.5q0 -20 -11.5 -30q-11.5 -10 -37.5 -10q-23 0 -35.5 8q-12.5 8 -12.5 26q0 12 4 42q4 30 9.5 75q5.5 45 9.5 105q4 60 4 133v354h86v-294q0 -32 3.5 -57q3.5 -25 13 -42q9.5 -17 25.5 -25.5q16 -8.5 41 -8.5q61 0 89 46q28 46 28 121v260h86v-349q0 -45 8.5 -69.5q8.5 -24.5 31.5 -24.5q20 0 35.5 15q15.5 15 29.5 51z" />
<glyph unicode="&#182;" horiz-adv-x="517" d="M476 656h-89v-844h-55v844h-96v-844h-55v620q-29 0 -54.5 6q-25.5 6 -45.5 21q-20 15 -31.5 41q-11.5 26 -11.5 67q0 66 35.5 102.5q35.5 36.5 103.5 36.5l299 0z" />
<glyph unicode="&#183;" horiz-adv-x="221" d="M169 283q0 -23 -15.5 -38.5q-15.5 -15.5 -38.5 -15.5q-23 0 -38.5 15.5q-15.5 15.5 -15.5 38.5q0 23 15.5 38.5q15.5 15.5 38.5 15.5q23 0 38.5 -15.5t15.5 -38.5z" />
<glyph unicode="&#184;" horiz-adv-x="231" d="M123 -42q0 -3 12.5 -7.5q12.5 -4.5 27 -13.5q14.5 -9 27 -22.5q12.5 -13.5 12.5 -33.5q0 -24 -9 -40.5q-9 -16.5 -24 -26.5q-15 -10 -34 -14.5q-19 -4.5 -39 -4.5q-9 0 -17 0.5q-8 0.5 -19 2.5l3 24q9 -2 16.5 -2q7.5 0 14.5 0q20 0 32.5 11.5q12.5 11.5 12.5 29.5q0 17 -9 26q-9 9 -20.5 14q-11.5 5 -20.5 8.5q-9 3.5 -9 9.5q0 8 3 18q3 10 8 29l11 40h32l-7 -29q-2 -6 -3 -11t-1 -8z" />
<glyph unicode="&#185;" horiz-adv-x="335" d="M196 386q0 -15 3.5 -19.5q3.5 -4.5 16.5 -7.5l18 -5v-23h-140v23l18 5q11 3 15.5 8q4.5 5 4.5 19v253q0 5 -1.5 10q-1.5 5 -3.5 5q-6 0 -15 -1q-9 -1 -17 -3l-17 -4l-2 22l92 44l28 0z" />
<glyph unicode="&#186;" horiz-adv-x="376" d="M332 555q0 -51 -12.5 -82.5q-12.5 -31.5 -32.5 -49.5q-20 -18 -45.5 -24.5q-25.5 -6.5 -51.5 -6.5q-30 0 -56 5.5q-26 5.5 -45 23q-19 17.5 -30 49.5q-11 32 -11 85q0 51 12 82q12 31 31.5 48.5q19.5 17.5 45.5 23q26 5.5 53 5.5q30 0 56 -5.5q26 -5.5 45 -23q19 -17.5 30 -48.5q11 -31 11 -82zt0 0zM269 564q0 40 -7 62.5q-7 22.5 -18 33.5q-11 11 -25 13.5q-14 2.5 -29 2.5q-15 0 -29 -3q-14 -3 -25.5 -14.5q-11.5 -11.5 -18 -33.5q-6.5 -22 -6.5 -61v-22q0 -39 6.5 -61.5q6.5 -22.5 18 -34.5q11.5 -12 25.5 -15q14 -3 29 -3q15 0 29 3q14 3 25 15q11 12 18 34.5q7 22.5 7 61.5z" />
<glyph unicode="&#187;" horiz-adv-x="365" d="M118 259l-99 171l23 11l170 -182l-170 -181l-23 11zM253 259l-110 189l24 11l187 -200l-187 -200l-24 12z" />
<glyph unicode="&#188;" horiz-adv-x="670" d="M196 386q0 -15 3.5 -19.5q3.5 -4.5 16.5 -7.5l18 -5v-23h-140v23l18 5q11 3 15.5 8q4.5 5 4.5 19v253q0 5 -1.5 10q-1.5 5 -3.5 5q-6 0 -15 -1q-9 -1 -17 -3l-17 -4l-2 22l92 44h28zM583 691l-439 -713l-38 22l439 713zM589 71h-31v-88h-64v88h-139v35l155 258h48v-254h31zM494 110v165l-97 -165z" />
<glyph unicode="&#189;" horiz-adv-x="670" d="M196 386q0 -15 3.5 -19.5q3.5 -4.5 16.5 -7.5l18 -5v-23h-140v23l18 5q11 3 15.5 8q4.5 5 4.5 19v253q0 5 -1.5 10q-1.5 5 -3.5 5q-6 0 -15 -1q-9 -1 -17 -3l-17 -4l-2 22l92 44h28zM583 691l-439 -713l-38 22l439 713zM631 267q0 -23 -8 -44q-8 -21 -22 -42q-14 -21 -33.5 -42q-19.5 -21 -42.5 -44l-53 -54h103q15 0 21.5 7q6.5 7 14.5 20l23 -5l-20 -80h-197l7 45l23 26q12 14 29.5 33q17.5 19 43.5 52q27 34 38 63q11 29 11 58q0 35 -9.5 55.5q-9.5 20.5 -38.5 20.5q-15 0 -23.5 -5.5q-8.5 -5.5 -10.5 -9.5q-2 -4 -4 -16q-2 -12 -3 -21q-3 -10 -15 -10q-5 0 -15 1.5q-10 1.5 -13 3.5q-5 3 -7.5 6.5q-2.5 3.5 -2.5 13.5q0 8 0.5 18q0.5 10 3.5 15q3 4 10 11q7 7 18.5 13.5q11.5 6.5 28 11q16.5 4.5 37.5 4.5q58 0 82 -23t24 -82z" />
<glyph unicode="&#190;" horiz-adv-x="670" d="M589 71h-31v-88h-64v88h-139v35l155 258h48v-254h31zM494 110v165l-97 -165zM583 691l-439 -713l-38 22l439 713zM273 446q0 -39 -11.5 -63.5q-11.5 -24.5 -29.5 -39q-18 -14.5 -38.5 -19.5q-20.5 -5 -38.5 -5q-34 0 -59 8.5q-25 8.5 -30 18.5q-3 5 -4 15q-1 10 -1 18q0 11 3 14.5q3 3.5 8 5.5q6 4 14 5q8 1 14 1q7 0 10.5 -4.5q3.5 -4.5 4.5 -9.5l3 -18q2 -12 12 -16q10 -4 27 -4q28 0 42 18q14 18 14 71q0 24 -5.5 37.5q-5.5 13.5 -16 19.5q-10.5 6 -25.5 7q-15 1 -33 1h-22v32h39q33 0 44 23.5q11 23.5 11 61.5q0 36 -12.5 45q-12.5 9 -30.5 9q-15 0 -22 -3.5q-7 -3.5 -9 -7.5q-5 -5 -6.5 -15.5q-1.5 -10.5 -2.5 -17.5q-2 -5 -4.5 -6.5q-2.5 -1.5 -10.5 -1.5q-14 0 -25.5 8q-11.5 8 -11.5 17q0 19 5 29q5 12 28 22q23 10 63 10q19 0 37 -3.5q18 -3.5 32 -13.5q14 -10 22.5 -26.5q8.5 -16.5 8.5 -41.5q0 -38 -18 -58.5q-18 -20.5 -43 -34.5q13 -3 25.5 -8q12.5 -5 22 -15q9.5 -10 15 -25.5t5.5 -39.5z" />
<glyph unicode="&#191;" horiz-adv-x="420" d="M38 143q0 44 6.5 75q6.5 31 22 56q15.5 25 41.5 47.5q26 22.5 66 48.5q18 12 30 23.5q12 11.5 20 29.5q8 18 11.5 45q3.5 27 3.5 70l36 0v-28q0 -22 -1 -46q-1 -24 -5.5 -46q-4.5 -22 -13.5 -41.5q-9 -19.5 -25 -33.5q-26 -23 -44 -43.5q-18 -20.5 -29 -42q-11 -21.5 -16 -46q-5 -24.5 -5 -54.5q0 -46 10.5 -72q10.5 -26 26 -39q15.5 -13 33.5 -16q18 -3 33 -3q23 0 37 5q14 5 23 11.5q9 6.5 13 14q4 7.5 6 11.5q2 6 5 17q3 11 5 22.5q2 11.5 4 21.5q2 10 3 14q2 8 5.5 10.5q3.5 2.5 13.5 2.5q11 0 24.5 -3q13.5 -3 22.5 -7q6 -3 10.5 -9q4.5 -6 4.5 -21q0 -15 -1.5 -32q-1.5 -17 -6.5 -27q-4 -9 -15.5 -21.5q-11.5 -12.5 -34 -24q-22.5 -11.5 -57 -20q-34.5 -8.5 -83.5 -8.5q-38 0 -71 8q-33 8 -57 27q-24 19 -38 49q-14 30 -14 75zt0 0zM197 654q0 9 2 20q2 11 8.5 20q6.5 9 18 15.5q11.5 6.5 30.5 6.5q32 0 43.5 -19.5q11.5 -19.5 11.5 -42.5q0 -8 -2 -18.5q-2 -10.5 -8 -20.5q-6 -10 -17.5 -16.5q-11.5 -6.5 -31.5 -6.5q-31 0 -43 19.5t-12 42.5z" />
<glyph unicode="&#192;" horiz-adv-x="694" d="M680 0h-223v31l22 5q22 5 28.5 14.5q6.5 9.5 6.5 17.5q0 9 -2.5 20q-2.5 11 -5.5 22l-42 125h-266l-35 -91q-10 -25 -15 -44q-5 -19 -5 -28q0 -10 7 -20.5q7 -10.5 28 -15.5l22 -5v-31h-187v31l18 6q19 6 36.5 34q17.5 28 36.5 73l238 570h52l209 -604q10 -29 22 -48.5q12 -19.5 32 -24.5l23 -6zM451 279l-109 323l-125 -323zM425 761l-26 -13l-136 70q-16 8 -22 13.5q-6 5.5 -6 15.5q0 8 6.5 16.5q6.5 8.5 15.5 15.5q9 7 18.5 11.5q9.5 4.5 16.5 4.5q9 0 17.5 -4q8.5 -4 24.5 -23z" />
<glyph unicode="&#193;" horiz-adv-x="694" d="M680 0h-223v31l22 5q22 5 28.5 14.5q6.5 9.5 6.5 17.5q0 9 -2.5 20q-2.5 11 -5.5 22l-42 125h-266l-35 -91q-10 -25 -15 -44q-5 -19 -5 -28q0 -10 7 -20.5q7 -10.5 28 -15.5l22 -5v-31h-187v31l18 6q19 6 36.5 34q17.5 28 36.5 73l238 570h52l209 -604q10 -29 22 -48.5q12 -19.5 32 -24.5l23 -6zM451 279l-109 323l-125 -323zM376 868q16 19 24.5 23q8.5 4 17.5 4q7 0 16.5 -4.5q9.5 -4.5 18.5 -11.5q9 -7 15.5 -15.5q6.5 -8.5 6.5 -16.5q0 -10 -6 -15.5q-6 -5.5 -22 -13.5l-136 -70l-26 13z" />
<glyph unicode="&#194;" horiz-adv-x="694" d="M680 0h-223v31l22 5q22 5 28.5 14.5q6.5 9.5 6.5 17.5q0 9 -2.5 20q-2.5 11 -5.5 22l-42 125h-266l-35 -91q-10 -25 -15 -44q-5 -19 -5 -28q0 -10 7 -20.5q7 -10.5 28 -15.5l22 -5v-31h-187v31l18 6q19 6 36.5 34q17.5 28 36.5 73l238 570h52l209 -604q10 -29 22 -48.5q12 -19.5 32 -24.5l23 -6zM451 279l-109 323l-125 -323zM514 764l-28 -12l-121 62l-122 -62l-27 12l149 133z" />
<glyph unicode="&#195;" horiz-adv-x="694" d="M680 0h-223v31l22 5q22 5 28.5 14.5q6.5 9.5 6.5 17.5q0 9 -2.5 20q-2.5 11 -5.5 22l-42 125h-266l-35 -91q-10 -25 -15 -44q-5 -19 -5 -28q0 -10 7 -20.5q7 -10.5 28 -15.5l22 -5v-31h-187v31l18 6q19 6 36.5 34q17.5 28 36.5 73l238 570h52l209 -604q10 -29 22 -48.5q12 -19.5 32 -24.5l23 -6zM451 279l-109 323l-125 -323zM545 855q-7 -16 -15.5 -33.5q-8.5 -17.5 -19.5 -32q-11 -14.5 -26.5 -24.5q-15.5 -10 -35.5 -11q-19 0 -36 5.5q-17 5.5 -46 15.5q-24 8 -38 14q-14 6 -34 7q-10 -1 -19.5 -2.5q-9.5 -1.5 -18.5 -6.5q-9 -5 -17 -14q-8 -9 -15 -24l-23 11q7 16 15.5 33.5q8.5 17.5 20 32q11.5 14.5 26.5 24q15 9.5 36 11.5q20 0 40.5 -7q20.5 -7 43.5 -15q27 -10 41 -15q14 -5 27 -5q10 1 20.5 2.5q10.5 1.5 19.5 6q9 4.5 17 13.5q8 9 15 24z" />
<glyph unicode="&#196;" horiz-adv-x="694" d="M680 0h-223v31l22 5q22 5 28.5 14.5q6.5 9.5 6.5 17.5q0 9 -2.5 20q-2.5 11 -5.5 22l-42 125h-266l-35 -91q-10 -25 -15 -44q-5 -19 -5 -28q0 -10 7 -20.5q7 -10.5 28 -15.5l22 -5v-31h-187v31l18 6q19 6 36.5 34q17.5 28 36.5 73l238 570h52l209 -604q10 -29 22 -48.5q12 -19.5 32 -24.5l23 -6zM451 279l-109 323l-125 -323zM337 798q0 -7 -2 -16q-2 -9 -8 -17.5q-6 -8.5 -17 -14q-11 -5.5 -29 -5.5q-29 0 -40 17.5q-11 17.5 -11 35.5q0 7 1.5 16q1.5 9 7.5 16.5q6 7.5 17 13q11 5.5 29 5.5q32 0 42 -15.5q10 -15.5 10 -35.5zt0 0zM492 798q0 -7 -2 -16q-2 -9 -8 -17.5q-6 -8.5 -17 -14q-11 -5.5 -29 -5.5q-29 0 -40 17.5q-11 17.5 -11 35.5q0 7 1.5 16q1.5 9 7.5 16.5q6 7.5 17 13q11 5.5 29 5.5q32 0 42 -15.5t10 -35.5z" />
<glyph unicode="&#197;" horiz-adv-x="694" d="M268 809q0 41 28.5 69.5q28.5 28.5 70.5 28.5q21 0 39 -7.5q18 -7.5 31.5 -21q13.5 -13.5 21.5 -31.5q8 -18 8 -38q0 -36 -21 -61.5q-21 -25.5 -54 -33.5l211 -604q10 -29 22 -48.5q12 -19.5 32 -24.5l23 -6v-31h-223v31l22 5q23 5 29 14.5q6 9.5 6 17.5q0 9 -3 22q-3 13 -5 20l-42 125h-266l-35 -91q-10 -25 -15 -44q-5 -19 -5 -28q0 -10 7 -20.5q7 -10.5 28 -15.5l22 -5v-31h-187v31l18 6q19 6 36.5 34q17.5 28 36.5 73l238 570q-35 8 -54.5 33.5q-19.5 25.5 -19.5 61.5zt0 0zM451 279l-109 323l-125 -323zM317 808q0 -20 14 -35q14 -15 36 -15q23 0 36 15q13 15 13 35q0 20 -13 34.5q-13 14.5 -36 14.5q-23 0 -36.5 -14.5t-13.5 -34.5z" />
<glyph unicode="&#198;" horiz-adv-x="1004" d="M948 188l-30 -188h-487v31l26 5q23 5 30 16.5q7 11.5 7 46.5v136h-245l-46 -70q-8 -11 -16.5 -25.5q-8.5 -14.5 -15.5 -28q-7 -13.5 -12 -24.5q-5 -11 -5 -15q0 -10 7 -20.5q7 -10.5 28 -15.5l22 -5v-31h-196v31l17 5q20 6 46 36.5q26 30.5 72 98.5l327 492q-2 3 -9 4.5q-7 1.5 -15 3.5l-22 4v31h474l10 -176l-30 -4l-17 49q-10 28 -22 44.5q-12 16.5 -27 24.5q-15 8 -33.5 10q-18.5 2 -39.5 2h-159v-270h110q18 0 30 1.5q12 1.5 20 6.5q8 5 13.5 16q5.5 11 10.5 30l7 30h33v-208h-33l-7 30q-4 17 -9.5 27q-5.5 10 -14 15.5q-8.5 5.5 -20.5 7q-12 1.5 -30 1.5h-110v-281q11 -5 44.5 -8.5q33.5 -3.5 81.5 -3.5q49 0 80 4.5q31 4.5 50 14.5q19 10 30 26.5q11 16.5 21 40.5l24 57zM494 279v332l-215 -332z" />
<glyph unicode="&#199;" horiz-adv-x="645" d="M621 165l-31 -133q-12 -8 -33.5 -16q-21.5 -8 -48.5 -15q-27 -7 -56 -12.5q-29 -5.5 -55 -7.5l-2 -8q-2 -6 -3.5 -12q-1.5 -6 -1.5 -10q0 -3 14 -8q14 -5 31 -14.5q17 -9.5 31 -25q14 -15.5 14 -40.5q0 -51 -33.5 -74.5q-33.5 -23.5 -86.5 -23.5q-11 0 -20.5 0.5q-9.5 0.5 -21.5 2.5l4 28q11 -2 19 -2.5q8 -0.5 16 -0.5q23 0 37.5 13.5q14.5 13.5 14.5 33.5q0 19 -10.5 29.5q-10.5 10.5 -23.5 16.5q-13 6 -23.5 9.5q-10.5 3.5 -10.5 10.5q0 10 3.5 21.5q3.5 11.5 9.5 32.5l5 19q-37 0 -74 3.5q-37 3.5 -70.5 15.5q-33.5 12 -63 36q-29.5 24 -51 65q-21.5 41 -33.5 102q-12 61 -12 148q0 101 19 170.5q19 69.5 58.5 113q39.5 43.5 100 63q60.5 19.5 143.5 19.5q33 0 70 -2.5q37 -2.5 69 -5.5q37 -4 73 -7l9 -185l-31 -6l-28 79q-9 24 -25 39.5q-16 15.5 -38 24.5q-22 9 -47.5 12.5q-25.5 3.5 -53.5 3.5q-16 0 -38 -1.5q-22 -1.5 -46.5 -9.5q-24.5 -8 -48.5 -25q-24 -17 -43 -47.5q-19 -30.5 -31 -78q-12 -47.5 -12 -115.5v-55q0 -99 18.5 -159q18.5 -60 49.5 -92.5q31 -32.5 71 -42.5q40 -10 82 -10q66 0 123.5 32.5q57.5 32.5 90.5 109.5z" />
<glyph unicode="&#200;" horiz-adv-x="582" d="M550 188l-30 -188h-487v31l26 5q23 5 30 16.5q7 11.5 7 46.5v508q0 33 -7 45.5q-7 12.5 -30 17.5l-26 5v31h474l10 -176l-30 -4l-17 49q-10 28 -22 44.5q-12 16.5 -27 24.5q-15 8 -33.5 10q-18.5 2 -39.5 2h-159v-270h110q18 0 30 1.5q12 1.5 20 6.5q8 5 13.5 16q5.5 11 10.5 30l7 30h33v-208h-33l-7 30q-4 17 -9.5 27q-5.5 10 -14 15.5q-8.5 5.5 -20.5 7q-12 1.5 -30 1.5h-110v-281q13 -5 41.5 -8.5q28.5 -3.5 84.5 -3.5q49 0 80 4.5q31 4.5 50 14.5q19 10 30 26.5q11 16.5 21 40.5l24 57zM381 752l-20 -24l-131 80q-15 9 -22.5 15.5q-7.5 6.5 -7.5 19.5q0 5 5 14q5 9 13 17.5q8 8.5 17.5 14.5q9.5 6 17.5 6q9 0 16.5 -4.5q7.5 -4.5 24.5 -27.5z" />
<glyph unicode="&#201;" horiz-adv-x="582" d="M550 188l-30 -188h-487v31l26 5q23 5 30 16.5q7 11.5 7 46.5v508q0 33 -7 45.5q-7 12.5 -30 17.5l-26 5v31h474l10 -176l-30 -4l-17 49q-10 28 -22 44.5q-12 16.5 -27 24.5q-15 8 -33.5 10q-18.5 2 -39.5 2h-159v-270h110q18 0 30 1.5q12 1.5 20 6.5q8 5 13.5 16q5.5 11 10.5 30l7 30h33v-208h-33l-7 30q-4 17 -9.5 27q-5.5 10 -14 15.5q-8.5 5.5 -20.5 7q-12 1.5 -30 1.5h-110v-281q13 -5 41.5 -8.5q28.5 -3.5 84.5 -3.5q49 0 80 4.5q31 4.5 50 14.5q19 10 30 26.5q11 16.5 21 40.5l24 57zM328 868q16 19 24.5 23q8.5 4 17.5 4q7 0 16.5 -4.5q9.5 -4.5 18.5 -11.5q9 -7 15.5 -15.5q6.5 -8.5 6.5 -16.5q0 -10 -6 -15.5q-6 -5.5 -22 -13.5l-136 -70l-26 13z" />
<glyph unicode="&#202;" horiz-adv-x="582" d="M550 188l-30 -188h-487v31l26 5q23 5 30 16.5q7 11.5 7 46.5v508q0 33 -7 45.5q-7 12.5 -30 17.5l-26 5v31h474l10 -176l-30 -4l-17 49q-10 28 -22 44.5q-12 16.5 -27 24.5q-15 8 -33.5 10q-18.5 2 -39.5 2h-159v-270h110q18 0 30 1.5q12 1.5 20 6.5q8 5 13.5 16q5.5 11 10.5 30l7 30h33v-208h-33l-7 30q-4 17 -9.5 27q-5.5 10 -14 15.5q-8.5 5.5 -20.5 7q-12 1.5 -30 1.5h-110v-281q13 -5 41.5 -8.5q28.5 -3.5 84.5 -3.5q49 0 80 4.5q31 4.5 50 14.5q19 10 30 26.5q11 16.5 21 40.5l24 57zM434 764l-28 -12l-121 62l-122 -62l-27 12l149 133z" />
<glyph unicode="&#203;" horiz-adv-x="582" d="M550 188l-30 -188h-487v31l26 5q23 5 30 16.5q7 11.5 7 46.5v508q0 33 -7 45.5q-7 12.5 -30 17.5l-26 5v31h474l10 -176l-30 -4l-17 49q-10 28 -22 44.5q-12 16.5 -27 24.5q-15 8 -33.5 10q-18.5 2 -39.5 2h-159v-270h110q18 0 30 1.5q12 1.5 20 6.5q8 5 13.5 16q5.5 11 10.5 30l7 30h33v-208h-33l-7 30q-4 17 -9.5 27q-5.5 10 -14 15.5q-8.5 5.5 -20.5 7q-12 1.5 -30 1.5h-110v-281q13 -5 41.5 -8.5q28.5 -3.5 84.5 -3.5q49 0 80 4.5q31 4.5 50 14.5q19 10 30 26.5q11 16.5 21 40.5l24 57zM275 798q0 -7 -2 -16q-2 -9 -8 -17.5q-6 -8.5 -17 -14q-11 -5.5 -29 -5.5q-29 0 -40 17.5q-11 17.5 -11 35.5q0 7 1.5 16q1.5 9 7.5 16.5q6 7.5 17 13q11 5.5 29 5.5q32 0 42 -15.5q10 -15.5 10 -35.5zt0 0zM430 798q0 -7 -2 -16q-2 -9 -8 -17.5q-6 -8.5 -17 -14q-11 -5.5 -29 -5.5q-29 0 -40 17.5q-11 17.5 -11 35.5q0 7 1.5 16q1.5 9 7.5 16.5q6 7.5 17 13q11 5.5 29 5.5q32 0 42 -15.5t10 -35.5z" />
<glyph unicode="&#204;" horiz-adv-x="280" d="M252 0h-219v31l26 5q23 5 30 16.5q7 11.5 7 46.5v508q0 33 -7 45.5q-7 12.5 -30 17.5l-26 5v31h219v-31l-26 -5q-23 -5 -30 -16.5q-7 -11.5 -7 -46.5v-508q0 -35 7 -46.5q7 -11.5 30 -16.5l26 -5zM230 761l-26 -13l-136 70q-16 8 -22 13.5q-6 5.5 -6 15.5q0 8 6.5 16.5q6.5 8.5 15.5 15.5q9 7 18.5 11.5q9.5 4.5 16.5 4.5q9 0 17.5 -4q8.5 -4 24.5 -23z" />
<glyph unicode="&#205;" horiz-adv-x="280" d="M252 0h-219v31l26 5q23 5 30 16.5q7 11.5 7 46.5v508q0 33 -7 45.5q-7 12.5 -30 17.5l-26 5v31h219v-31l-26 -5q-23 -5 -30 -16.5q-7 -11.5 -7 -46.5v-508q0 -35 7 -46.5q7 -11.5 30 -16.5l26 -5zM192 868q16 19 24.5 23q8.5 4 17.5 4q7 0 16.5 -4.5q9.5 -4.5 18.5 -11.5q9 -7 15.5 -15.5q6.5 -8.5 6.5 -16.5q0 -10 -6 -15.5q-6 -5.5 -22 -13.5l-136 -70l-26 13z" />
<glyph unicode="&#206;" horiz-adv-x="280" d="M252 0h-219v31l26 5q23 5 30 16.5q7 11.5 7 46.5v508q0 33 -7 45.5q-7 12.5 -30 17.5l-26 5v31h219v-31l-26 -5q-23 -5 -30 -16.5q-7 -11.5 -7 -46.5v-508q0 -35 7 -46.5q7 -11.5 30 -16.5l26 -5zM289 764l-28 -12l-121 62l-122 -62l-27 12l149 133z" />
<glyph unicode="&#207;" horiz-adv-x="282" d="M252 0h-219v31l26 5q23 5 30 16.5q7 11.5 7 46.5v508q0 33 -7 45.5q-7 12.5 -30 17.5l-26 5v31h219v-31l-26 -5q-23 -5 -30 -16.5q-7 -11.5 -7 -46.5v-508q0 -35 7 -46.5q7 -11.5 30 -16.5l26 -5zM128 798q0 -7 -2 -16q-2 -9 -8 -17.5q-6 -8.5 -17 -14q-11 -5.5 -29 -5.5q-29 0 -40 17.5q-11 17.5 -11 35.5q0 7 1.5 16q1.5 9 7.5 16.5q6 7.5 17 13q11 5.5 29 5.5q32 0 42 -15.5q10 -15.5 10 -35.5zt0 0zM263 798q0 -7 -2 -16q-2 -9 -8 -17.5q-6 -8.5 -17 -14q-11 -5.5 -29 -5.5q-29 0 -40 17.5q-11 17.5 -11 35.5q0 7 1.5 16q1.5 9 7.5 16.5q6 7.5 17 13q11 5.5 29 5.5q32 0 42 -15.5t10 -35.5z" />
<glyph unicode="&#208;" horiz-adv-x="709" d="M657 365q0 -90 -27 -158.5q-27 -68.5 -77.5 -114q-50.5 -45.5 -124 -69q-73.5 -23.5 -166.5 -23.5h-225v31l22 5q26 6 31.5 23.5q5.5 17.5 5.5 46.5v229h-57v50h57v215q0 29 -4.5 46.5q-4.5 17.5 -32.5 23.5l-22 5v31h251q89 0 158 -14q69 -14 116 -52q47 -38 71 -104q24 -66 24 -171zt0 0zM304 335h-115v-271q9 -2 18 -4.5q9 -2.5 21 -4.5q12 -2 29 -3.5q17 -1.5 41 -1.5q51 0 98 17.5q47 17.5 82.5 56q35.5 38.5 57 100q21.5 61.5 21.5 149.5v20q0 78 -17.5 128.5q-17.5 50.5 -51 80.5q-33.5 30 -81.5 42q-48 12 -109 12h-109v-271l115 0z" />
<glyph unicode="&#209;" horiz-adv-x="705" d="M677 675l-26 -5q-12 -2 -19 -5.5q-7 -3.5 -11 -10.5q-4 -7 -5.5 -18q-1.5 -11 -1.5 -29v-607h-42l-423 621v-522q0 -35 7 -46.5q7 -11.5 30 -16.5l26 -5v-31h-182v31l26 5q23 4 30 16q7 12 7 47v501q0 30 -4.5 47q-4.5 17 -32.5 23l-22 5v31h164l360 -524v425q0 35 -7 46.5q-7 11.5 -30 16.5l-26 5v31h182zM534 855q-7 -16 -15.5 -33.5q-8.5 -17.5 -19.5 -32q-11 -14.5 -26.5 -24.5q-15.5 -10 -35.5 -11q-19 0 -36 5.5q-17 5.5 -46 15.5q-24 8 -38 14q-14 6 -34 7q-10 -1 -19.5 -2.5q-9.5 -1.5 -18.5 -6.5q-9 -5 -17 -14q-8 -9 -15 -24l-23 11q7 16 15.5 33.5q8.5 17.5 20 32q11.5 14.5 26.5 24q15 9.5 36 11.5q20 0 40.5 -7q20.5 -7 43.5 -15q27 -10 41 -15q14 -5 27 -5q10 1 20.5 2.5q10.5 1.5 19.5 6q9 4.5 17 13.5q8 9 15 24z" />
<glyph unicode="&#210;" horiz-adv-x="724" d="M672 357q0 -111 -21.5 -184q-21.5 -73 -61 -116q-39.5 -43 -96.5 -60.5q-57 -17.5 -128 -17.5q-78 0 -135.5 17.5q-57.5 17.5 -96 61q-38.5 43.5 -57 116.5q-18.5 73 -18.5 183q0 109 23 179q23 70 64.5 109.5q41.5 39.5 97.5 54.5q56 15 122 15q73 0 130 -13q57 -13 96.5 -52q39.5 -39 60 -109q20.5 -70 20.5 -184zt0 0zM573 399q0 88 -18 141.5q-18 53.5 -47 81.5q-29 28 -66.5 37q-37.5 9 -76.5 9q-39 0 -76.5 -7.5q-37.5 -7.5 -66.5 -35.5q-29 -28 -47 -81.5q-18 -53.5 -18 -144.5v-86q0 -93 16.5 -149q16.5 -56 45 -87q28.5 -31 66 -41q37.5 -10 80.5 -10q42 0 79.5 10.5q37.5 10.5 66 41.5q28.5 31 45.5 87q17 56 17 148zM430 761l-26 -13l-136 70q-16 8 -22 13.5q-6 5.5 -6 15.5q0 8 6.5 16.5q6.5 8.5 15.5 15.5q9 7 18.5 11.5q9.5 4.5 16.5 4.5q9 0 17.5 -4q8.5 -4 24.5 -23z" />
<glyph unicode="&#211;" horiz-adv-x="724" d="M672 357q0 -111 -21.5 -184q-21.5 -73 -61 -116q-39.5 -43 -96.5 -60.5q-57 -17.5 -128 -17.5q-78 0 -135.5 17.5q-57.5 17.5 -96 61q-38.5 43.5 -57 116.5q-18.5 73 -18.5 183q0 109 23 179q23 70 64.5 109.5q41.5 39.5 97.5 54.5q56 15 122 15q73 0 130 -13q57 -13 96.5 -52q39.5 -39 60 -109q20.5 -70 20.5 -184zt0 0zM573 399q0 88 -18 141.5q-18 53.5 -47 81.5q-29 28 -66.5 37q-37.5 9 -76.5 9q-39 0 -76.5 -7.5q-37.5 -7.5 -66.5 -35.5q-29 -28 -47 -81.5q-18 -53.5 -18 -144.5v-86q0 -93 16.5 -149q16.5 -56 45 -87q28.5 -31 66 -41q37.5 -10 80.5 -10q42 0 79.5 10.5q37.5 10.5 66 41.5q28.5 31 45.5 87q17 56 17 148zM398 868q16 19 24.5 23q8.5 4 17.5 4q7 0 16.5 -4.5q9.5 -4.5 18.5 -11.5q9 -7 15.5 -15.5q6.5 -8.5 6.5 -16.5q0 -10 -6 -15.5q-6 -5.5 -22 -13.5l-136 -70l-26 13z" />
<glyph unicode="&#212;" horiz-adv-x="724" d="M672 357q0 -111 -21.5 -184q-21.5 -73 -61 -116q-39.5 -43 -96.5 -60.5q-57 -17.5 -128 -17.5q-78 0 -135.5 17.5q-57.5 17.5 -96 61q-38.5 43.5 -57 116.5q-18.5 73 -18.5 183q0 109 23 179q23 70 64.5 109.5q41.5 39.5 97.5 54.5q56 15 122 15q73 0 130 -13q57 -13 96.5 -52q39.5 -39 60 -109q20.5 -70 20.5 -184zt0 0zM573 399q0 88 -18 141.5q-18 53.5 -47 81.5q-29 28 -66.5 37q-37.5 9 -76.5 9q-39 0 -76.5 -7.5q-37.5 -7.5 -66.5 -35.5q-29 -28 -47 -81.5q-18 -53.5 -18 -144.5v-86q0 -93 16.5 -149q16.5 -56 45 -87q28.5 -31 66 -41q37.5 -10 80.5 -10q42 0 79.5 10.5q37.5 10.5 66 41.5q28.5 31 45.5 87q17 56 17 148zM516 764l-28 -12l-121 62l-122 -62l-27 12l149 133z" />
<glyph unicode="&#213;" horiz-adv-x="724" d="M672 357q0 -111 -21.5 -184q-21.5 -73 -61 -116q-39.5 -43 -96.5 -60.5q-57 -17.5 -128 -17.5q-78 0 -135.5 17.5q-57.5 17.5 -96 61q-38.5 43.5 -57 116.5q-18.5 73 -18.5 183q0 109 23 179q23 70 64.5 109.5q41.5 39.5 97.5 54.5q56 15 122 15q73 0 130 -13q57 -13 96.5 -52q39.5 -39 60 -109q20.5 -70 20.5 -184zt0 0zM573 399q0 88 -18 141.5q-18 53.5 -47 81.5q-29 28 -66.5 37q-37.5 9 -76.5 9q-39 0 -76.5 -7.5q-37.5 -7.5 -66.5 -35.5q-29 -28 -47 -81.5q-18 -53.5 -18 -144.5v-86q0 -93 16.5 -149q16.5 -56 45 -87q28.5 -31 66 -41q37.5 -10 80.5 -10q42 0 79.5 10.5q37.5 10.5 66 41.5q28.5 31 45.5 87q17 56 17 148zM534 855q-7 -16 -15.5 -33.5q-8.5 -17.5 -19.5 -32q-11 -14.5 -26.5 -24.5q-15.5 -10 -35.5 -11q-19 0 -36 5.5q-17 5.5 -46 15.5q-24 8 -38 14q-14 6 -34 7q-10 -1 -19.5 -2.5q-9.5 -1.5 -18.5 -6.5q-9 -5 -17 -14q-8 -9 -15 -24l-23 11q7 16 15.5 33.5q8.5 17.5 20 32q11.5 14.5 26.5 24q15 9.5 36 11.5q20 0 40.5 -7q20.5 -7 43.5 -15q27 -10 41 -15q14 -5 27 -5q10 1 20.5 2.5q10.5 1.5 19.5 6q9 4.5 17 13.5q8 9 15 24z" />
<glyph unicode="&#214;" horiz-adv-x="724" d="M672 357q0 -111 -21.5 -184q-21.5 -73 -61 -116q-39.5 -43 -96.5 -60.5q-57 -17.5 -128 -17.5q-78 0 -135.5 17.5q-57.5 17.5 -96 61q-38.5 43.5 -57 116.5q-18.5 73 -18.5 183q0 109 23 179q23 70 64.5 109.5q41.5 39.5 97.5 54.5q56 15 122 15q73 0 130 -13q57 -13 96.5 -52q39.5 -39 60 -109q20.5 -70 20.5 -184zt0 0zM573 399q0 88 -18 141.5q-18 53.5 -47 81.5q-29 28 -66.5 37q-37.5 9 -76.5 9q-39 0 -76.5 -7.5q-37.5 -7.5 -66.5 -35.5q-29 -28 -47 -81.5q-18 -53.5 -18 -144.5v-86q0 -93 16.5 -149q16.5 -56 45 -87q28.5 -31 66 -41q37.5 -10 80.5 -10q42 0 79.5 10.5q37.5 10.5 66 41.5q28.5 31 45.5 87q17 56 17 148zM335 798q0 -7 -2 -16q-2 -9 -8 -17.5q-6 -8.5 -17 -14q-11 -5.5 -29 -5.5q-29 0 -40 17.5q-11 17.5 -11 35.5q0 7 1.5 16q1.5 9 7.5 16.5q6 7.5 17 13q11 5.5 29 5.5q32 0 42 -15.5q10 -15.5 10 -35.5zt0 0zM490 798q0 -7 -2 -16q-2 -9 -8 -17.5q-6 -8.5 -17 -14q-11 -5.5 -29 -5.5q-29 0 -40 17.5q-11 17.5 -11 35.5q0 7 1.5 16q1.5 9 7.5 16.5q6 7.5 17 13q11 5.5 29 5.5q32 0 42 -15.5t10 -35.5z" />
<glyph unicode="&#215;" horiz-adv-x="658" d="M488 121l-159 159l-158 -159l-40 41l158 158l-158 158l41 40l157 -158l159 159l41 -40l-159 -159l158 -158z" />
<glyph unicode="&#216;" horiz-adv-x="724" d="M596 721l-28 -52q50 -35 77 -108.5q27 -73.5 27 -203.5q0 -111 -21.5 -184q-21.5 -73 -61 -116q-39.5 -43 -96.5 -60.5q-57 -17.5 -128 -17.5q-89 0 -149 22l-28 -54l-41 18l29 56q-60 37 -89 117.5q-29 80.5 -29 218.5q0 109 23 179q23 70 64.5 109.5q41.5 39.5 97.5 54.5q56 15 122 15q48 0 88.5 -5q40.5 -5 74.5 -19l25 47zM365 668q-39 0 -76.5 -7.5q-37.5 -7.5 -66.5 -35.5q-29 -28 -47 -81.5q-18 -53.5 -18 -144.5v-86q0 -87 14 -141q14 -54 39 -86l287 545q-29 23 -63 30q-34 7 -69 7zt0 0zM573 399q0 71 -12 118q-12 47 -32 78l-285 -541q26 -17 56.5 -22.5q30.5 -5.5 64.5 -5.5q42 0 79.5 10.5q37.5 10.5 66 41.5q28.5 31 45.5 87q17 56 17 148z" />
<glyph unicode="&#217;" horiz-adv-x="658" d="M632 675l-22 -5q-27 -6 -32 -29.5q-5 -23.5 -5 -53.5v-382q0 -46 -12.5 -85q-12.5 -39 -41.5 -67.5q-29 -28.5 -76 -45q-47 -16.5 -115 -16.5q-78 0 -124 19.5q-46 19.5 -70 49.5q-24 30 -31 66q-7 36 -7 69v405q0 29 -4.5 46.5q-4.5 17.5 -32.5 23.5l-22 5v31h211v-31l-22 -5q-14 -3 -21.5 -8.5q-7.5 -5.5 -11 -13.5q-3.5 -8 -4 -20q-0.5 -12 -0.5 -28v-375q0 -38 6.5 -70q6.5 -32 24 -56q17.5 -24 49 -37.5q31.5 -13.5 82.5 -13.5q47 0 80 12.5q33 12.5 53.5 34q20.5 21.5 29.5 49.5q9 28 9 59v384q0 15 -0.5 28.5q-0.5 13.5 -4 24.5q-3.5 11 -11 19q-7.5 8 -21.5 11l-22 5v31h168zM417 761l-26 -13l-136 70q-16 8 -22 13.5q-6 5.5 -6 15.5q0 8 6.5 16.5q6.5 8.5 15.5 15.5q9 7 18.5 11.5q9.5 4.5 16.5 4.5q9 0 17.5 -4q8.5 -4 24.5 -23z" />
<glyph unicode="&#218;" horiz-adv-x="658" d="M632 675l-22 -5q-27 -6 -32 -29.5q-5 -23.5 -5 -53.5v-382q0 -46 -12.5 -85q-12.5 -39 -41.5 -67.5q-29 -28.5 -76 -45q-47 -16.5 -115 -16.5q-78 0 -124 19.5q-46 19.5 -70 49.5q-24 30 -31 66q-7 36 -7 69v405q0 29 -4.5 46.5q-4.5 17.5 -32.5 23.5l-22 5v31h211v-31l-22 -5q-14 -3 -21.5 -8.5q-7.5 -5.5 -11 -13.5q-3.5 -8 -4 -20q-0.5 -12 -0.5 -28v-375q0 -38 6.5 -70q6.5 -32 24 -56q17.5 -24 49 -37.5q31.5 -13.5 82.5 -13.5q47 0 80 12.5q33 12.5 53.5 34q20.5 21.5 29.5 49.5q9 28 9 59v384q0 15 -0.5 28.5q-0.5 13.5 -4 24.5q-3.5 11 -11 19q-7.5 8 -21.5 11l-22 5v31h168zM403 868q16 19 24.5 23q8.5 4 17.5 4q7 0 16.5 -4.5q9.5 -4.5 18.5 -11.5q9 -7 15.5 -15.5q6.5 -8.5 6.5 -16.5q0 -10 -6 -15.5q-6 -5.5 -22 -13.5l-136 -70l-26 13z" />
<glyph unicode="&#219;" horiz-adv-x="658" d="M632 675l-22 -5q-27 -6 -32 -29.5q-5 -23.5 -5 -53.5v-382q0 -46 -12.5 -85q-12.5 -39 -41.5 -67.5q-29 -28.5 -76 -45q-47 -16.5 -115 -16.5q-78 0 -124 19.5q-46 19.5 -70 49.5q-24 30 -31 66q-7 36 -7 69v405q0 29 -4.5 46.5q-4.5 17.5 -32.5 23.5l-22 5v31h211v-31l-22 -5q-14 -3 -21.5 -8.5q-7.5 -5.5 -11 -13.5q-3.5 -8 -4 -20q-0.5 -12 -0.5 -28v-375q0 -38 6.5 -70q6.5 -32 24 -56q17.5 -24 49 -37.5q31.5 -13.5 82.5 -13.5q47 0 80 12.5q33 12.5 53.5 34q20.5 21.5 29.5 49.5q9 28 9 59v384q0 15 -0.5 28.5q-0.5 13.5 -4 24.5q-3.5 11 -11 19q-7.5 8 -21.5 11l-22 5v31h168zM494 764l-28 -12l-121 62l-122 -62l-27 12l149 133z" />
<glyph unicode="&#220;" horiz-adv-x="658" d="M632 675l-22 -5q-27 -6 -32 -29.5q-5 -23.5 -5 -53.5v-382q0 -46 -12.5 -85q-12.5 -39 -41.5 -67.5q-29 -28.5 -76 -45q-47 -16.5 -115 -16.5q-78 0 -124 19.5q-46 19.5 -70 49.5q-24 30 -31 66q-7 36 -7 69v405q0 29 -4.5 46.5q-4.5 17.5 -32.5 23.5l-22 5v31h211v-31l-22 -5q-14 -3 -21.5 -8.5q-7.5 -5.5 -11 -13.5q-3.5 -8 -4 -20q-0.5 -12 -0.5 -28v-375q0 -38 6.5 -70q6.5 -32 24 -56q17.5 -24 49 -37.5q31.5 -13.5 82.5 -13.5q47 0 80 12.5q33 12.5 53.5 34q20.5 21.5 29.5 49.5q9 28 9 59v384q0 15 -0.5 28.5q-0.5 13.5 -4 24.5q-3.5 11 -11 19q-7.5 8 -21.5 11l-22 5v31h168zM326 798q0 -7 -2 -16q-2 -9 -8 -17.5q-6 -8.5 -17 -14q-11 -5.5 -29 -5.5q-29 0 -40 17.5q-11 17.5 -11 35.5q0 7 1.5 16q1.5 9 7.5 16.5q6 7.5 17 13q11 5.5 29 5.5q32 0 42 -15.5q10 -15.5 10 -35.5zt0 0zM481 798q0 -7 -2 -16q-2 -9 -8 -17.5q-6 -8.5 -17 -14q-11 -5.5 -29 -5.5q-29 0 -40 17.5q-11 17.5 -11 35.5q0 7 1.5 16q1.5 9 7.5 16.5q6 7.5 17 13q11 5.5 29 5.5q32 0 42 -15.5t10 -35.5z" />
<glyph unicode="&#221;" horiz-adv-x="578" d="M572 675l-15 -4q-11 -3 -18 -7.5q-7 -4.5 -15 -16.5q-8 -12 -19 -34q-11 -22 -29 -59l-145 -302v-150q0 -33 7 -47q7 -14 30 -19l22 -5v-31h-211v31l22 5q24 5 30.5 21q6.5 16 6.5 49v146l-155 340q-11 23 -17.5 36.5q-6.5 13.5 -13.5 21.5q-7 8 -14.5 12q-7.5 4 -19.5 8l-15 5v31h208v-31l-16 -5q-13 -4 -19.5 -9q-6.5 -5 -6.5 -20q0 -8 4 -21q4 -13 10 -27l126 -287l111 243q11 23 17.5 48q6.5 25 6.5 36q0 28 -26 36l-21 6v31h175zM356 868q16 19 24.5 23q8.5 4 17.5 4q7 0 16.5 -4.5q9.5 -4.5 18.5 -11.5q9 -7 15.5 -15.5q6.5 -8.5 6.5 -16.5q0 -10 -6 -15.5q-6 -5.5 -22 -13.5l-136 -70l-26 13z" />
<glyph unicode="&#222;" horiz-adv-x="572" d="M447 378q0 47 -12.5 77q-12.5 30 -33.5 47.5q-21 17.5 -49.5 24q-28.5 6.5 -60.5 6.5q-24 0 -50.5 -1q-26.5 -1 -51.5 -6l0 -300q21 -5 45.5 -9.5q24.5 -4.5 56.5 -4.5q23 0 50 5.5q27 5.5 50.5 23q23.5 17.5 39.5 50q16 32.5 16 87.5zt0 0zM189 573q21 4 53 7q32 3 54 3q32 0 74.5 -4q42.5 -4 80.5 -22.5q38 -18.5 64.5 -57q26.5 -38.5 26.5 -107.5q0 -60 -19 -102.5q-19 -42.5 -52.5 -70q-33.5 -27.5 -79.5 -40.5q-46 -13 -100 -13q-17 0 -34.5 2q-17.5 2 -32.5 4q-18 3 -35 6l0 -75q0 -32 5 -46.5q5 -14.5 32 -20.5l22 -5v-31h-211v31l22 5q26 6 31.5 23.5q5.5 17.5 5.5 46.5v501q0 33 -7 45.5q-7 12.5 -30 17.5l-26 5v31h219v-31l-26 -5q-23 -5 -30 -16.5q-7 -11.5 -7 -46.5z" />
<glyph unicode="&#223;" horiz-adv-x="541" d="M341 32q24 0 40 8.5q16 8.5 25 22.5q9 14 13 31.5q4 17.5 4 35.5q0 20 -2 36.5q-2 16.5 -11.5 33q-9.5 16.5 -30.5 34.5q-21 18 -58 41q-46 29 -69 47.5q-23 18.5 -23 40.5q0 12 3 23q3 11 10.5 23q7.5 12 21.5 25.5q14 13.5 35 31.5q16 13 29 25q13 12 21 25q8 13 12.5 29q4.5 16 4.5 39q0 33 -8 53.5q-8 20.5 -20.5 31q-12.5 10.5 -28 14q-15.5 3.5 -30.5 3.5q-21 0 -39 -6.5q-18 -6.5 -31 -24q-13 -17.5 -20 -47q-7 -29.5 -7 -74.5v-534h-143v29l21 5q25 6 30.5 16q5.5 10 5.5 33v431q0 55 15 96q15 41 41 68q26 27 60.5 40q34.5 13 73.5 13q32 0 61.5 -4q29.5 -4 52.5 -18q23 -14 37 -40.5q14 -26.5 14 -71.5q0 -40 -23 -70q-23 -30 -50.5 -52q-27.5 -22 -50.5 -37.5q-23 -15.5 -23 -26.5q0 -7 2.5 -13q2.5 -6 10.5 -14q8 -8 22.5 -19q14.5 -11 38.5 -26q34 -22 58 -41q24 -19 39 -38.5q15 -19.5 22 -41q7 -21.5 7 -48.5q0 -42 -14 -75.5q-14 -33.5 -37.5 -56.5q-23.5 -23 -54.5 -35.5q-31 -12.5 -65 -12.5q-42 0 -66 8q-24 8 -30 21q-4 8 -5.5 21q-1.5 13 -1.5 24q0 11 3.5 16q3.5 5 8.5 7q8 2 22 4.5q14 2.5 23 2.5q10 0 14 -8.5q4 -8.5 6 -20.5q4 -20 11 -26.5t23 -6.5z" />
<glyph unicode="&#224;" horiz-adv-x="507" d="M478 0h-94q-23 0 -31 20.5q-8 20.5 -8 48.5q-11 -14 -26 -28q-15 -14 -36 -25.5q-21 -11.5 -48.5 -19q-27.5 -7.5 -63.5 -7.5q-33 0 -57 11q-24 11 -40 30.5q-16 19.5 -23.5 46q-7.5 26.5 -7.5 57.5q0 49 20 77q20 28 49 42.5q29 14.5 60.5 18.5q31.5 4 54.5 6q13 1 29.5 2q16.5 1 33 1.5q16.5 0.5 31 1q14.5 0.5 23.5 0.5l0 78q0 31 -7 49.5q-7 18.5 -20.5 28.5q-13.5 10 -32.5 13.5q-19 3.5 -44 3.5q-44 0 -60 -9.5q-16 -9.5 -20 -20.5q-2 -5 -2.5 -14.5q-0.5 -9.5 -1.5 -20.5q-1 -11 -2 -20.5q-1 -9.5 -2 -12.5q-3 -7 -9 -10q-6 -3 -25 -3q-25 0 -31.5 4.5q-6.5 4.5 -11.5 15.5q-5 10 -5 56q0 17 14.5 32q14.5 15 38.5 25.5q24 10.5 56 16.5q32 6 68 6q45 0 79.5 -3q34.5 -3 57.5 -15.5q23 -12.5 34.5 -37.5q11.5 -25 11.5 -68v-281q0 -36 8.5 -49q8.5 -13 27.5 -13h12zM344 240q-19 0 -37 -1q-16 -1 -35.5 -2q-19.5 -1 -36.5 -3q-25 -3 -43.5 -7q-18.5 -4 -30.5 -14.5q-12 -10.5 -18 -29q-6 -18.5 -6 -49.5q0 -35 17.5 -60.5q17.5 -25.5 63.5 -25.5q24 0 45.5 9.5q21.5 9.5 38.5 22q17 12.5 28 26q11 13.5 14 21.5zM332 582l-20 -24l-131 80q-15 9 -22.5 15.5q-7.5 6.5 -7.5 19.5q0 5 5 14q5 9 13 17.5q8 8.5 17.5 14.5q9.5 6 17.5 6q9 0 16.5 -4.5q7.5 -4.5 24.5 -27.5z" />
<glyph unicode="&#225;" horiz-adv-x="507" d="M478 0h-94q-23 0 -31 20.5q-8 20.5 -8 48.5q-11 -14 -26 -28q-15 -14 -36 -25.5q-21 -11.5 -48.5 -19q-27.5 -7.5 -63.5 -7.5q-33 0 -57 11q-24 11 -40 30.5q-16 19.5 -23.5 46q-7.5 26.5 -7.5 57.5q0 49 20 77q20 28 49 42.5q29 14.5 60.5 18.5q31.5 4 54.5 6q13 1 29.5 2q16.5 1 33 1.5q16.5 0.5 31 1q14.5 0.5 23.5 0.5l0 78q0 31 -7 49.5q-7 18.5 -20.5 28.5q-13.5 10 -32.5 13.5q-19 3.5 -44 3.5q-44 0 -60 -9.5q-16 -9.5 -20 -20.5q-2 -5 -2.5 -14.5q-0.5 -9.5 -1.5 -20.5q-1 -11 -2 -20.5q-1 -9.5 -2 -12.5q-3 -7 -9 -10q-6 -3 -25 -3q-25 0 -31.5 4.5q-6.5 4.5 -11.5 15.5q-5 10 -5 56q0 17 14.5 32q14.5 15 38.5 25.5q24 10.5 56 16.5q32 6 68 6q45 0 79.5 -3q34.5 -3 57.5 -15.5q23 -12.5 34.5 -37.5q11.5 -25 11.5 -68v-281q0 -36 8.5 -49q8.5 -13 27.5 -13h12zM344 240q-19 0 -37 -1q-16 -1 -35.5 -2q-19.5 -1 -36.5 -3q-25 -3 -43.5 -7q-18.5 -4 -30.5 -14.5q-12 -10.5 -18 -29q-6 -18.5 -6 -49.5q0 -35 17.5 -60.5q17.5 -25.5 63.5 -25.5q24 0 45.5 9.5q21.5 9.5 38.5 22q17 12.5 28 26q11 13.5 14 21.5zM311 693q17 23 24.5 27.5q7.5 4.5 16.5 4.5q8 0 17.5 -6q9.5 -6 17.5 -14.5q8 -8.5 13 -17.5q5 -9 5 -14q0 -13 -7.5 -19.5q-7.5 -6.5 -22.5 -15.5l-131 -80l-20 24z" />
<glyph unicode="&#226;" horiz-adv-x="507" d="M478 0h-94q-23 0 -31 20.5q-8 20.5 -8 48.5q-11 -14 -26 -28q-15 -14 -36 -25.5q-21 -11.5 -48.5 -19q-27.5 -7.5 -63.5 -7.5q-33 0 -57 11q-24 11 -40 30.5q-16 19.5 -23.5 46q-7.5 26.5 -7.5 57.5q0 49 20 77q20 28 49 42.5q29 14.5 60.5 18.5q31.5 4 54.5 6q13 1 29.5 2q16.5 1 33 1.5q16.5 0.5 31 1q14.5 0.5 23.5 0.5l0 78q0 31 -7 49.5q-7 18.5 -20.5 28.5q-13.5 10 -32.5 13.5q-19 3.5 -44 3.5q-44 0 -60 -9.5q-16 -9.5 -20 -20.5q-2 -5 -2.5 -14.5q-0.5 -9.5 -1.5 -20.5q-1 -11 -2 -20.5q-1 -9.5 -2 -12.5q-3 -7 -9 -10q-6 -3 -25 -3q-25 0 -31.5 4.5q-6.5 4.5 -11.5 15.5q-5 10 -5 56q0 17 14.5 32q14.5 15 38.5 25.5q24 10.5 56 16.5q32 6 68 6q45 0 79.5 -3q34.5 -3 57.5 -15.5q23 -12.5 34.5 -37.5q11.5 -25 11.5 -68v-281q0 -36 8.5 -49q8.5 -13 27.5 -13h12zM344 240q-19 0 -37 -1q-16 -1 -35.5 -2q-19.5 -1 -36.5 -3q-25 -3 -43.5 -7q-18.5 -4 -30.5 -14.5q-12 -10.5 -18 -29q-6 -18.5 -6 -49.5q0 -35 17.5 -60.5q17.5 -25.5 63.5 -25.5q24 0 45.5 9.5q21.5 9.5 38.5 22q17 12.5 28 26q11 13.5 14 21.5zM398 568l-26 -12l-114 69l-115 -69l-25 12l140 149z" />
<glyph unicode="&#227;" horiz-adv-x="507" d="M478 0h-94q-23 0 -31 20.5q-8 20.5 -8 48.5q-11 -14 -26 -28q-15 -14 -36 -25.5q-21 -11.5 -48.5 -19q-27.5 -7.5 -63.5 -7.5q-33 0 -57 11q-24 11 -40 30.5q-16 19.5 -23.5 46q-7.5 26.5 -7.5 57.5q0 49 20 77q20 28 49 42.5q29 14.5 60.5 18.5q31.5 4 54.5 6q13 1 29.5 2q16.5 1 33 1.5q16.5 0.5 31 1q14.5 0.5 23.5 0.5l0 78q0 31 -7 49.5q-7 18.5 -20.5 28.5q-13.5 10 -32.5 13.5q-19 3.5 -44 3.5q-44 0 -60 -9.5q-16 -9.5 -20 -20.5q-2 -5 -2.5 -14.5q-0.5 -9.5 -1.5 -20.5q-1 -11 -2 -20.5q-1 -9.5 -2 -12.5q-3 -7 -9 -10q-6 -3 -25 -3q-25 0 -31.5 4.5q-6.5 4.5 -11.5 15.5q-5 10 -5 56q0 17 14.5 32q14.5 15 38.5 25.5q24 10.5 56 16.5q32 6 68 6q45 0 79.5 -3q34.5 -3 57.5 -15.5q23 -12.5 34.5 -37.5q11.5 -25 11.5 -68v-281q0 -36 8.5 -49q8.5 -13 27.5 -13h12zM344 240q-19 0 -37 -1q-16 -1 -35.5 -2q-19.5 -1 -36.5 -3q-25 -3 -43.5 -7q-18.5 -4 -30.5 -14.5q-12 -10.5 -18 -29q-6 -18.5 -6 -49.5q0 -35 17.5 -60.5q17.5 -25.5 63.5 -25.5q24 0 45.5 9.5q21.5 9.5 38.5 22q17 12.5 28 26q11 13.5 14 21.5zM432 683q-7 -16 -15.5 -33.5q-8.5 -17.5 -19.5 -32q-11 -14.5 -26.5 -24.5q-15.5 -10 -35.5 -11q-19 0 -36 5.5q-17 5.5 -46 15.5q-24 8 -38 14q-14 6 -34 7q-10 -1 -19.5 -2.5q-9.5 -1.5 -18.5 -6.5q-9 -5 -17 -14q-8 -9 -15 -24l-23 11q7 16 15.5 33.5q8.5 17.5 20 32q11.5 14.5 26.5 24q15 9.5 36 11.5q20 0 40.5 -7q20.5 -7 43.5 -15q27 -10 41 -15q14 -5 27 -5q10 1 20.5 2.5q10.5 1.5 19.5 6q9 4.5 17 13.5q8 9 15 24z" />
<glyph unicode="&#228;" horiz-adv-x="507" d="M478 0h-94q-23 0 -31 20.5q-8 20.5 -8 48.5q-11 -14 -26 -28q-15 -14 -36 -25.5q-21 -11.5 -48.5 -19q-27.5 -7.5 -63.5 -7.5q-33 0 -57 11q-24 11 -40 30.5q-16 19.5 -23.5 46q-7.5 26.5 -7.5 57.5q0 49 20 77q20 28 49 42.5q29 14.5 60.5 18.5q31.5 4 54.5 6q13 1 29.5 2q16.5 1 33 1.5q16.5 0.5 31 1q14.5 0.5 23.5 0.5l0 78q0 31 -7 49.5q-7 18.5 -20.5 28.5q-13.5 10 -32.5 13.5q-19 3.5 -44 3.5q-44 0 -60 -9.5q-16 -9.5 -20 -20.5q-2 -5 -2.5 -14.5q-0.5 -9.5 -1.5 -20.5q-1 -11 -2 -20.5q-1 -9.5 -2 -12.5q-3 -7 -9 -10q-6 -3 -25 -3q-25 0 -31.5 4.5q-6.5 4.5 -11.5 15.5q-5 10 -5 56q0 17 14.5 32q14.5 15 38.5 25.5q24 10.5 56 16.5q32 6 68 6q45 0 79.5 -3q34.5 -3 57.5 -15.5q23 -12.5 34.5 -37.5q11.5 -25 11.5 -68v-281q0 -36 8.5 -49q8.5 -13 27.5 -13h12zM344 240q-19 0 -37 -1q-16 -1 -35.5 -2q-19.5 -1 -36.5 -3q-25 -3 -43.5 -7q-18.5 -4 -30.5 -14.5q-12 -10.5 -18 -29q-6 -18.5 -6 -49.5q0 -35 17.5 -60.5q17.5 -25.5 63.5 -25.5q24 0 45.5 9.5q21.5 9.5 38.5 22q17 12.5 28 26q11 13.5 14 21.5zM229 633q0 -8 -2 -18q-2 -10 -8 -19q-6 -9 -17 -15q-11 -6 -29 -6q-14 0 -24 5.5q-10 5.5 -16 14q-6 8.5 -8.5 18.5q-2.5 10 -2.5 20q0 8 1.5 17.5q1.5 9.5 7.5 18q6 8.5 17 14.5q11 6 29 6q32 0 42 -17q10 -17 10 -39zt0 0zM384 633q0 -8 -2 -18q-2 -10 -8 -19q-6 -9 -17 -15q-11 -6 -29 -6q-14 0 -24 5.5q-10 5.5 -16 14q-6 8.5 -8.5 18.5q-2.5 10 -2.5 20q0 8 1.5 17.5q1.5 9.5 7.5 18q6 8.5 17 14.5q11 6 29 6q32 0 42 -17t10 -39z" />
<glyph unicode="&#229;" horiz-adv-x="507" d="M478 0h-94q-23 0 -31 20.5q-8 20.5 -8 48.5q-11 -14 -26 -28q-15 -14 -36 -25.5q-21 -11.5 -48.5 -19q-27.5 -7.5 -63.5 -7.5q-33 0 -57 11q-24 11 -40 30.5q-16 19.5 -23.5 46q-7.5 26.5 -7.5 57.5q0 49 20 77q20 28 49 42.5q29 14.5 60.5 18.5q31.5 4 54.5 6q13 1 29.5 2q16.5 1 33 1.5q16.5 0.5 31 1q14.5 0.5 23.5 0.5l0 78q0 31 -7 49.5q-7 18.5 -20.5 28.5q-13.5 10 -32.5 13.5q-19 3.5 -44 3.5q-44 0 -60 -9.5q-16 -9.5 -20 -20.5q-2 -5 -2.5 -14.5q-0.5 -9.5 -1.5 -20.5q-1 -11 -2 -20.5q-1 -9.5 -2 -12.5q-3 -7 -9 -10q-6 -3 -25 -3q-25 0 -31.5 4.5q-6.5 4.5 -11.5 15.5q-5 10 -5 56q0 17 14.5 32q14.5 15 38.5 25.5q24 10.5 56 16.5q32 6 68 6q45 0 79.5 -3q34.5 -3 57.5 -15.5q23 -12.5 34.5 -37.5q11.5 -25 11.5 -68v-281q0 -36 8.5 -49q8.5 -13 27.5 -13h12zM344 240q-19 0 -37 -1q-16 -1 -35.5 -2q-19.5 -1 -36.5 -3q-25 -3 -43.5 -7q-18.5 -4 -30.5 -14.5q-12 -10.5 -18 -29q-6 -18.5 -6 -49.5q0 -35 17.5 -60.5q17.5 -25.5 63.5 -25.5q24 0 45.5 9.5q21.5 9.5 38.5 22q17 12.5 28 26q11 13.5 14 21.5zM154 640q0 41 28.5 69.5q28.5 28.5 70.5 28.5q21 0 39 -7.5q18 -7.5 31.5 -21q13.5 -13.5 21.5 -31.5q8 -18 8 -38q0 -20 -8 -38q-8 -18 -21.5 -31q-13.5 -13 -31.5 -20.5q-18 -7.5 -39 -7.5q-42 0 -70.5 28q-28.5 28 -28.5 69zt0 0zM203 640q0 -20 14 -35q14 -15 36 -15q23 0 36 15q13 15 13 35q0 20 -13 34.5q-13 14.5 -36 14.5q-23 0 -36.5 -14.5t-13.5 -34.5z" />
<glyph unicode="&#230;" horiz-adv-x="787" d="M744 65q-20 -22 -44.5 -37q-24.5 -15 -50 -24.5q-25.5 -9.5 -51 -14q-25.5 -4.5 -46.5 -4.5q-62 0 -111.5 21.5q-49.5 21.5 -75.5 74.5q-17 -19 -35.5 -35.5q-18.5 -16.5 -41 -29q-22.5 -12.5 -51.5 -20q-29 -7.5 -66 -7.5q-33 0 -57 11q-24 11 -40 30.5q-16 19.5 -23.5 46q-7.5 26.5 -7.5 57.5q0 49 20 77q20 28 49 42.5q29 14.5 60.5 18.5q31.5 4 54.5 6q13 1 29.5 2q16.5 1 33 1.5q16.5 0.5 31 1q14.5 0.5 23.5 0.5l0 78q0 31 -7 49.5q-7 18.5 -20.5 28.5q-13.5 10 -32.5 13.5q-19 3.5 -44 3.5q-44 0 -60 -9.5q-16 -9.5 -20 -20.5q-2 -5 -2.5 -14.5q-0.5 -9.5 -1.5 -20.5q-1 -11 -2 -20.5q-1 -9.5 -2 -12.5q-3 -7 -9 -10q-6 -3 -25 -3q-25 0 -31.5 4.5q-6.5 4.5 -11.5 15.5q-5 10 -5 56q0 17 14.5 32q14.5 15 38.5 25.5q24 10.5 56 16.5q32 6 68 6q63 0 102.5 -12q39.5 -12 59.5 -47q28 35 67.5 47q39.5 12 80.5 12q40 0 74 -10q34 -10 59.5 -32q25.5 -22 40 -56.5q14.5 -34.5 14.5 -83.5q0 -41 -7 -58l-11 -6h-294v-16q0 -65 13 -104q13 -39 34.5 -59.5q21.5 -20.5 49 -27q27.5 -6.5 57.5 -6.5q38 0 75 13q37 13 64 35zM345 240q-19 0 -37 -1q-17 -1 -36 -2q-19 -1 -37 -3q-20 -2 -37.5 -5q-17.5 -3 -31 -12.5q-13.5 -9.5 -21.5 -29q-8 -19.5 -8 -53.5q0 -35 17.5 -60.5q17.5 -25.5 63.5 -25.5q24 0 45.5 9.5q21.5 9.5 39 22q17.5 12.5 28.5 26q11 13.5 14 21.5zM658 332q0 36 -9 60q-9 24 -24 38.5q-15 14.5 -34 20q-19 5.5 -40 5.5q-60 0 -87 -35q-27 -35 -31 -122l209 0q11 0 13.5 7.5t2.5 25.5z" />
<glyph unicode="&#231;" horiz-adv-x="473" d="M440 65q-35 -39 -81 -57.5q-46 -18.5 -86 -21.5l-2 -9q-2 -5 -3 -10.5q-1 -5.5 -1 -8.5q0 -3 12.5 -8q12.5 -5 27 -14q14.5 -9 27 -22.5q12.5 -13.5 12.5 -32.5q0 -38 -29.5 -62q-29.5 -24 -76.5 -24q-9 0 -17 0.5q-8 0.5 -19 2.5l3 24q9 -2 16.5 -2q7.5 0 14.5 0q20 0 32.5 11.5q12.5 11.5 12.5 29.5q0 17 -9 26q-9 9 -20.5 14q-11.5 5 -20.5 8.5q-9 3.5 -9 9.5q0 8 3 18q3 10 8 29l5 19q-98 4 -147.5 63.5q-49.5 59.5 -49.5 182.5q0 65 11 110.5q11 45.5 29.5 75.5q18.5 30 42 46.5q23.5 16.5 48.5 25q25 8.5 50 10.5q25 2 46 2q29 0 54 -4q25 -4 45 -10q30 -8 48 -22.5q18 -14.5 18 -31.5q0 -20 -2 -47q-2 -27 -7 -38q-7 -16 -25.5 -21q-18.5 -5 -34.5 -5q-23 0 -23 27v55q0 27 -15 39.5q-15 12.5 -64 12.5q-26 0 -50 -7.5q-24 -7.5 -42 -30.5q-18 -23 -29 -65.5q-11 -42.5 -11 -112.5q0 -62 12.5 -100.5q12.5 -38.5 32 -60.5q19.5 -22 44.5 -30q25 -8 51 -8q42 0 82.5 13.5q40.5 13.5 67.5 35.5z" />
<glyph unicode="&#232;" horiz-adv-x="485" d="M442 65q-20 -22 -44.5 -37q-24.5 -15 -50 -24.5q-25.5 -9.5 -51 -14q-25.5 -4.5 -46.5 -4.5q-48 0 -86 13q-38 13 -65 42.5q-27 29.5 -41.5 77q-14.5 47.5 -14.5 117.5q0 63 10 107.5q10 44.5 28 75.5q27 46 74 64.5q47 18.5 100 18.5q43 0 78 -10q35 -10 59.5 -32q24.5 -22 37.5 -56.5q13 -34.5 13 -83.5q0 -41 -7 -58l-11 -6h-294v-16q0 -65 13 -104q13 -39 34.5 -59.5q21.5 -20.5 49 -27q27.5 -6.5 57.5 -6.5q38 0 75 13q37 13 64 35zM356 332q0 36 -8 60q-8 24 -22 38.5q-14 14.5 -33.5 20q-19.5 5.5 -43.5 5.5q-60 0 -87 -35q-27 -35 -31 -122l209 0q11 0 13.5 7.5q2.5 7.5 2.5 25.5zt0 0zM314 582l-20 -24l-131 80q-15 9 -22.5 15.5q-7.5 6.5 -7.5 19.5q0 5 5 14q5 9 13 17.5q8 8.5 17.5 14.5q9.5 6 17.5 6q9 0 16.5 -4.5q7.5 -4.5 24.5 -27.5z" />
<glyph unicode="&#233;" horiz-adv-x="485" d="M442 65q-20 -22 -44.5 -37q-24.5 -15 -50 -24.5q-25.5 -9.5 -51 -14q-25.5 -4.5 -46.5 -4.5q-48 0 -86 13q-38 13 -65 42.5q-27 29.5 -41.5 77q-14.5 47.5 -14.5 117.5q0 63 10 107.5q10 44.5 28 75.5q27 46 74 64.5q47 18.5 100 18.5q43 0 78 -10q35 -10 59.5 -32q24.5 -22 37.5 -56.5q13 -34.5 13 -83.5q0 -41 -7 -58l-11 -6h-294v-16q0 -65 13 -104q13 -39 34.5 -59.5q21.5 -20.5 49 -27q27.5 -6.5 57.5 -6.5q38 0 75 13q37 13 64 35zM356 332q0 36 -8 60q-8 24 -22 38.5q-14 14.5 -33.5 20q-19.5 5.5 -43.5 5.5q-60 0 -87 -35q-27 -35 -31 -122l209 0q11 0 13.5 7.5q2.5 7.5 2.5 25.5zt0 0zM287 693q17 23 24.5 27.5q7.5 4.5 16.5 4.5q8 0 17.5 -6q9.5 -6 17.5 -14.5q8 -8.5 13 -17.5q5 -9 5 -14q0 -13 -7.5 -19.5q-7.5 -6.5 -22.5 -15.5l-131 -80l-20 24z" />
<glyph unicode="&#234;" horiz-adv-x="485" d="M442 65q-20 -22 -44.5 -37q-24.5 -15 -50 -24.5q-25.5 -9.5 -51 -14q-25.5 -4.5 -46.5 -4.5q-48 0 -86 13q-38 13 -65 42.5q-27 29.5 -41.5 77q-14.5 47.5 -14.5 117.5q0 63 10 107.5q10 44.5 28 75.5q27 46 74 64.5q47 18.5 100 18.5q43 0 78 -10q35 -10 59.5 -32q24.5 -22 37.5 -56.5q13 -34.5 13 -83.5q0 -41 -7 -58l-11 -6h-294v-16q0 -65 13 -104q13 -39 34.5 -59.5q21.5 -20.5 49 -27q27.5 -6.5 57.5 -6.5q38 0 75 13q37 13 64 35zM356 332q0 36 -8 60q-8 24 -22 38.5q-14 14.5 -33.5 20q-19.5 5.5 -43.5 5.5q-60 0 -87 -35q-27 -35 -31 -122l209 0q11 0 13.5 7.5q2.5 7.5 2.5 25.5zt0 0zM390 568l-26 -12l-114 69l-115 -69l-25 12l140 149z" />
<glyph unicode="&#235;" horiz-adv-x="485" d="M442 65q-20 -22 -44.5 -37q-24.5 -15 -50 -24.5q-25.5 -9.5 -51 -14q-25.5 -4.5 -46.5 -4.5q-48 0 -86 13q-38 13 -65 42.5q-27 29.5 -41.5 77q-14.5 47.5 -14.5 117.5q0 63 10 107.5q10 44.5 28 75.5q27 46 74 64.5q47 18.5 100 18.5q43 0 78 -10q35 -10 59.5 -32q24.5 -22 37.5 -56.5q13 -34.5 13 -83.5q0 -41 -7 -58l-11 -6h-294v-16q0 -65 13 -104q13 -39 34.5 -59.5q21.5 -20.5 49 -27q27.5 -6.5 57.5 -6.5q38 0 75 13q37 13 64 35zM356 332q0 36 -8 60q-8 24 -22 38.5q-14 14.5 -33.5 20q-19.5 5.5 -43.5 5.5q-60 0 -87 -35q-27 -35 -31 -122l209 0q11 0 13.5 7.5q2.5 7.5 2.5 25.5zt0 0zM234 633q0 -8 -2 -18q-2 -10 -8 -19q-6 -9 -17 -15q-11 -6 -29 -6q-14 0 -24 5.5q-10 5.5 -16 14q-6 8.5 -8.5 18.5q-2.5 10 -2.5 20q0 8 1.5 17.5q1.5 9.5 7.5 18q6 8.5 17 14.5q11 6 29 6q32 0 42 -17q10 -17 10 -39zt0 0zM389 633q0 -8 -2 -18q-2 -10 -8 -19q-6 -9 -17 -15q-11 -6 -29 -6q-14 0 -24 5.5q-10 5.5 -16 14q-6 8.5 -8.5 18.5q-2.5 10 -2.5 20q0 8 1.5 17.5q1.5 9.5 7.5 18q6 8.5 17 14.5q11 6 29 6q32 0 42 -17t10 -39z" />
<glyph unicode="&#236;" horiz-adv-x="265" d="M239 0h-200v29l21 5q25 6 30.5 16q5.5 10 5.5 33v314q0 15 -1.5 23.5q-1.5 8.5 -6 13q-4.5 4.5 -13 6.5q-8.5 2 -21.5 4l-20 3v29l148 13v-406q0 -24 6 -33.5q6 -9.5 30 -15.5l21 -5zM202 582l-20 -24l-131 80q-15 9 -22.5 15.5q-7.5 6.5 -7.5 19.5q0 5 5 14q5 9 13 17.5q8 8.5 17.5 14.5q9.5 6 17.5 6q9 0 16.5 -4.5q7.5 -4.5 24.5 -27.5z" />
<glyph unicode="&#237;" horiz-adv-x="265" d="M239 0h-200v29l21 5q25 6 30.5 16q5.5 10 5.5 33v314q0 15 -1.5 23.5q-1.5 8.5 -6 13q-4.5 4.5 -13 6.5q-8.5 2 -21.5 4l-20 3v29l148 13v-406q0 -24 6 -33.5q6 -9.5 30 -15.5l21 -5zM164 693q17 23 24.5 27.5q7.5 4.5 16.5 4.5q8 0 17.5 -6q9.5 -6 17.5 -14.5q8 -8.5 13 -17.5q5 -9 5 -14q0 -13 -7.5 -19.5q-7.5 -6.5 -22.5 -15.5l-131 -80l-20 24z" />
<glyph unicode="&#238;" horiz-adv-x="265" d="M239 0h-200v29l21 5q25 6 30.5 16q5.5 10 5.5 33v314q0 15 -1.5 23.5q-1.5 8.5 -6 13q-4.5 4.5 -13 6.5q-8.5 2 -21.5 4l-20 3v29l148 13v-406q0 -24 6 -33.5q6 -9.5 30 -15.5l21 -5zM267 568l-26 -12l-114 69l-115 -69l-25 12l140 149z" />
</font>
</defs>
</svg>
