<?xml version="1.0" encoding="UTF-8" standalone="no"?>
<!DOCTYPE svg PUBLIC "-//W3C//DTD SVG 1.1//EN" "http://www.w3.org/Graphics/SVG/1.1/DTD/svg11.dtd" >
<svg xmlns="http://www.w3.org/2000/svg">
<metadata>
Generated by SVGconv.
Copyright   : Copyright  2011 ParaType Inc., ParaType Ltd. All rights reserved.
Designer    : A.Korolkova
Foundry     : ParaType Ltd
Foundry URL : http://www.paratype.com
</metadata>
<defs>
<font id="CirceSV-ExtraBold" horiz-adv-x="556" >
<font-face units-per-em="1000" ascent="1020" descent="454" >
<font-face-src>
<font-face-name/>
</font-face-src>
</font-face>
<missing-glyph horiz-adv-x="500" />
<glyph unicode="&#13;" horiz-adv-x="200" />
<glyph unicode="&#32;" horiz-adv-x="200" />
<glyph unicode="&#33;" horiz-adv-x="310" d="M75 700h160v-430h-160zM57 96q0 17 7 33.5q7 16.5 20 30q13 13.5 32 22q19 8.5 43 8.5q21 0 38.5 -8.5q17.5 -8.5 29.5 -22q12 -13.5 19 -30q7 -16.5 7 -33.5q0 -20 -7 -38.5q-7 -18.5 -19 -32.5q-12 -14 -29.5 -22.5q-17.5 -8.5 -38.5 -8.5q-24 0 -43 8.5q-19 8.5 -32 22.5q-13 14 -20 32.5t-7 38.5z" />
<glyph unicode="&#34;" horiz-adv-x="450" d="M250 700h150v-260h-150zM50 700h150v-260l-150 0z" />
<glyph unicode="&#35;" horiz-adv-x="744" d="M359 165h-120l-66 -177l-116 40l51 137h-68v130h116l41 110h-157v130h205l66 177l116 -42l-50 -135h118l66 177l116 -40l-51 -137h78v-130h-126l-41 -110h167v-130h-215l-65 -177l-115 41zM287 295h120l40 110l-119 0z" />
<glyph unicode="&#36;" horiz-adv-x="600" d="M367 192q0 26 -21.5 44q-21.5 18 -54 34.5q-32.5 16.5 -70.5 35q-38 18.5 -70.5 45q-32.5 26.5 -54 64.5q-21.5 38 -21.5 95q0 32 11 61.5q11 29.5 31 54.5q20 25 48.5 44q28.5 19 64.5 30l0 90h150v-85q44 -8 78.5 -26q34.5 -18 58.5 -44l-86 -120q-23 22 -45 34.5q-22 12.5 -61 12.5q-43 0 -61.5 -14q-18.5 -14 -18.5 -38q0 -29 21.5 -48q21.5 -19 54 -35q32.5 -16 70.5 -33q38 -17 70.5 -42.5q32.5 -25.5 54 -63q21.5 -37.5 21.5 -94.5q0 -75 -42.5 -127q-42.5 -52 -114.5 -70l0 -97h-150v97q-53 11 -97 37.5q-44 26.5 -63 68.5l91 109q30 -38 71.5 -56q41.5 -18 78.5 -18q32 0 44 14.5t12 39.5z" />
<glyph unicode="&#37;" horiz-adv-x="945" d="M677 712l84 -63l-495 -661l-86 59zM30 526q0 43 15.5 77.5q15.5 34.5 43.5 58.5q28 24 67 37q39 13 85 13q46 0 85 -13q39 -13 67 -37q28 -24 43.5 -58.5q15.5 -34.5 15.5 -77.5q0 -43 -15.5 -77.5q-15.5 -34.5 -43.5 -59q-28 -24.5 -67 -38q-39 -13.5 -85 -13.5q-46 0 -85 13.5q-39 13.5 -67 38q-28 24.5 -43.5 59q-15.5 34.5 -15.5 77.5zt0 0zM170 526q0 -32 20 -50q20 -18 51 -18q32 0 51.5 18q19.5 18 19.5 50q0 31 -19.5 48.5q-19.5 17.5 -51.5 17.5q-32 0 -51.5 -17.5q-19.5 -17.5 -19.5 -48.5zt0 0zM493 176q0 43 15.5 77.5q15.5 34.5 43.5 58.5q28 24 67 37q39 13 85 13q46 0 85 -13q39 -13 67 -37q28 -24 43.5 -58.5q15.5 -34.5 15.5 -77.5q0 -43 -15.5 -77.5q-15.5 -34.5 -43.5 -59q-28 -24.5 -67 -38q-39 -13.5 -85 -13.5q-46 0 -85 13.5q-39 13.5 -67 38q-28 24.5 -43.5 59q-15.5 34.5 -15.5 77.5zt0 0zM633 176q0 -32 20 -50q20 -18 51 -18q32 0 51.5 18q19.5 18 19.5 50q0 31 -19.5 48.5q-19.5 17.5 -51.5 17.5q-32 0 -51.5 -17.5t-19.5 -48.5z" />
<glyph unicode="&#38;" horiz-adv-x="762" d="M491 55q-13 -12 -30 -23.5q-17 -11.5 -40.5 -21.5q-23.5 -10 -54.5 -16q-31 -6 -71 -6q-57 0 -102 15q-45 15 -77 42q-32 27 -49 64q-17 37 -17 81q0 44 11 76.5q11 32.5 30 58.5q19 26 45.5 48q26.5 22 58.5 44q-32 22 -50.5 54q-18.5 32 -18.5 82q0 38 15 67.5q15 29.5 40 50q25 20.5 57 31q32 10.5 66 10.5q34 0 66.5 -10.5q32.5 -10.5 57.5 -31q25 -20.5 40 -50q15 -29.5 15 -67.5q0 -45 -23 -82.5q-23 -37.5 -54 -54.5l101 -135q11 25 24 65q13 40 13 104l149 0q0 -84 -26 -159q-26 -75 -70 -130l125 -161h-186zM300 138q37 0 61.5 9.5q24.5 9.5 39.5 27.5l-108 156q-23 -20 -37.5 -35q-14.5 -15 -22.5 -27.5q-8 -12.5 -10.5 -24q-2.5 -11.5 -2.5 -23.5q0 -16 6 -31q6 -15 16.5 -26.5q10.5 -11.5 25 -18.5q14.5 -7 32.5 -7zt0 0zM266 553q0 -15 10.5 -26.5q10.5 -11.5 27.5 -11.5q18 0 28.5 11.5q10.5 11.5 10.5 26.5q0 17 -11.5 28q-11.5 11 -27.5 11q-17 0 -27.5 -11t-10.5 -28z" />
<glyph unicode="&#39;" horiz-adv-x="250" d="M50 700h150v-260l-150 0z" />
<glyph unicode="&#40;" horiz-adv-x="337" d="M242 -206q-57 49 -95.5 102q-38.5 53 -62.5 107.5q-24 54.5 -34 110.5q-10 56 -10 111q0 55 10 110q10 55 34 109q24 54 63 107q39 53 96 105l93 -82q-36 -37 -63.5 -75.5q-27.5 -38.5 -45.5 -81q-18 -42.5 -27.5 -90q-9.5 -47.5 -9.5 -102.5q0 -55 12 -106q12 -51 32.5 -96q20.5 -45 47 -82q26.5 -37 55.5 -65z" />
<glyph unicode="&#41;" horiz-adv-x="337" d="M0 -124q29 28 55.5 65q26.5 37 47 82q20.5 45 32.5 96q12 51 12 106q0 55 -9.5 102.5q-9.5 47.5 -27.5 90q-18 42.5 -45.5 81q-27.5 38.5 -63.5 75.5l93 82q57 -52 96 -105q39 -53 63 -107q24 -54 34 -109q10 -55 10 -110q0 -55 -10 -111q-10 -56 -34 -110.5q-24 -54.5 -62.5 -107.5q-38.5 -53 -95.5 -102z" />
<glyph unicode="&#42;" horiz-adv-x="516" d="M186 638q0 30 21 51.5q21 21.5 51 21.5q30 0 51.5 -21.5q21.5 -21.5 21.5 -51.5q0 -30 -21.5 -51q-21.5 -21 -51.5 -21q-30 0 -51 21q-21 21 -21 51zt0 0zM184 305q0 30 21 51.5q21 21.5 51 21.5q30 0 51.5 -21.5q21.5 -21.5 21.5 -51.5q0 -30 -21.5 -51q-21.5 -21 -51.5 -21q-30 0 -51 21q-21 21 -21 51zt0 0zM331 557q0 30 21 51.5q21 21.5 51 21.5q30 0 51.5 -21.5q21.5 -21.5 21.5 -51.5q0 -30 -21.5 -51q-21.5 -21 -51.5 -21q-30 0 -51 21q-21 21 -21 51zt0 0zM331 391q0 30 21 51.5q21 21.5 51 21.5q30 0 51.5 -21.5q21.5 -21.5 21.5 -51.5q0 -30 -21.5 -51q-21.5 -21 -51.5 -21q-30 0 -51 21q-21 21 -21 51zt0 0zM40 391q0 30 21 51.5q21 21.5 51 21.5q30 0 51.5 -21.5q21.5 -21.5 21.5 -51.5q0 -30 -21.5 -51q-21.5 -21 -51.5 -21q-30 0 -51 21q-21 21 -21 51zt0 0zM40 557q0 30 21 51.5q21 21.5 51 21.5q30 0 51.5 -21.5q21.5 -21.5 21.5 -51.5q0 -30 -21.5 -51q-21.5 -21 -51.5 -21q-30 0 -51 21t-21 51z" />
<glyph unicode="&#43;" horiz-adv-x="600" d="M63 425h167v172h140v-172h167v-130h-167v-172h-140v172l-167 0z" />
<glyph unicode="&#44;" horiz-adv-x="281" d="M40 81q0 41 24.5 67q24.5 26 72.5 26q50 0 77 -36q27 -36 27 -90q0 -71 -37 -121q-37 -50 -106 -71l-41 69q17 8 30.5 15q13.5 7 27.5 24q9 11 15.5 22.5q6.5 11.5 4.5 20.5q-6 -6 -15 -6.5q-9 -0.5 -16 -0.5q-25 0 -44.5 23t-19.5 58z" />
<glyph unicode="&#45;" horiz-adv-x="364" d="M50 345h264v-140l-264 0z" />
<glyph unicode="&#46;" horiz-adv-x="276" d="M40 96q0 17 7 33.5q7 16.5 20 30q13 13.5 32 22q19 8.5 43 8.5q21 0 38.5 -8.5q17.5 -8.5 29.5 -22q12 -13.5 19 -30q7 -16.5 7 -33.5q0 -20 -7 -38.5q-7 -18.5 -19 -32.5q-12 -14 -29.5 -22.5q-17.5 -8.5 -38.5 -8.5q-24 0 -43 8.5q-19 8.5 -32 22.5q-13 14 -20 32.5t-7 38.5z" />
<glyph unicode="&#47;" horiz-adv-x="382" d="M297 712l115 -43l-326 -877l-116 43z" />
<glyph unicode="&#48;" horiz-adv-x="544" d="M30 350q0 82 15 148q15 66 45 112.5q30 46.5 75.5 72q45.5 25.5 106.5 25.5q61 0 106.5 -25.5q45.5 -25.5 75.5 -72q30 -46.5 45 -112.5q15 -66 15 -148q0 -82 -14.5 -148q-14.5 -66 -44.5 -112.5q-30 -46.5 -75 -72q-45 -25.5 -106 -25.5q-61 0 -107 25.5q-46 25.5 -76.5 72q-30.5 46.5 -45.5 112.5q-15 66 -15 148zt0 0zM190 350q0 -61 6 -102.5q6 -41.5 17 -67q11 -25.5 26.5 -37q15.5 -11.5 34.5 -11.5q21 0 36.5 11q15.5 11 25 36.5q9.5 25.5 14 67q4.5 41.5 4.5 103.5q0 62 -5 103.5q-5 41.5 -15 67q-10 25.5 -25.5 36.5q-15.5 11 -36.5 11q-42 0 -62 -49t-20 -169z" />
<glyph unicode="&#49;" horiz-adv-x="398" d="M200 700h108v-700h-150v487l-70 -49l-78 124z" />
<glyph unicode="&#50;" horiz-adv-x="522" d="M30 120q43 42 90 87.5q47 45.5 86.5 93q39.5 47.5 65.5 95q26 47.5 26 93.5q0 38 -17 53.5q-17 15.5 -47 15.5q-32 0 -49 -21.5q-17 -21.5 -28 -53.5l-125 57q8 37 26 68q18 31 46 53q28 22 65 34.5q37 12.5 83 12.5q51 0 89.5 -15.5q38.5 -15.5 64.5 -42q26 -26.5 39 -60.5q13 -34 13 -71q0 -49 -13.5 -93.5q-13.5 -44.5 -35.5 -83.5q-22 -39 -48.5 -71.5q-26.5 -32.5 -52.5 -58q-26 -25.5 -48.5 -44q-22.5 -18.5 -35.5 -28.5l258 0v-140l-452 0z" />
<glyph unicode="&#51;" horiz-adv-x="529" d="M241 -12q-44 0 -80.5 9.5q-36.5 9.5 -65 25q-28.5 15.5 -50 36.5q-21.5 21 -35.5 45l83 111q26 -30 59.5 -53.5q33.5 -23.5 78.5 -23.5q46 0 67 20.5q21 20.5 21 47.5q0 77 -119 77h-44v150h40q40 0 68 17q28 17 28 53q0 23 -14.5 41q-14.5 18 -49.5 18q-32 0 -62 -13.5q-30 -13.5 -59 -49.5l-82 108q32 52 87 78.5q55 26.5 130 26.5q46 0 84.5 -12.5q38.5 -12.5 66.5 -36q28 -23.5 43.5 -56.5q15.5 -33 15.5 -74q0 -63 -25.5 -101.5q-25.5 -38.5 -78.5 -62.5l0 -3q65 -13 98 -58q33 -45 33 -108q0 -50 -18.5 -89q-18.5 -39 -50.5 -66.5q-32 -27.5 -75.5 -42t-93.5 -14.5z" />
<glyph unicode="&#52;" horiz-adv-x="580" d="M328 150h-318v112l250 438h172l-229 -400h125v150h150v-150h82v-150h-82v-150l-150 0z" />
<glyph unicode="&#53;" horiz-adv-x="512" d="M111 700h346v-150h-214l-14 -89h24q45 0 85 -15.5q40 -15.5 70 -45q30 -29.5 47 -71.5q17 -42 17 -96q0 -59 -19.5 -104.5q-19.5 -45.5 -54 -77q-34.5 -31.5 -81 -47.5q-46.5 -16 -100.5 -16q-28 0 -58 6q-30 6 -57.5 18q-27.5 12 -51.5 29.5q-24 17.5 -40 40.5l84 115q20 -24 56 -41.5q36 -17.5 71 -17.5q41 0 66 24.5q25 24.5 25 63.5q0 43 -33 71.5q-33 28.5 -96 28.5q-36 0 -71 -5.5q-35 -5.5 -49 -12.5z" />
<glyph unicode="&#54;" horiz-adv-x="564" d="M40 248q0 96 33 175q33 79 84 138.5q51 59.5 112.5 97.5q61.5 38 118.5 53l61 -113q-78 -26 -139 -77.5q-61 -51.5 -92 -123.5q23 21 51.5 29.5q28.5 8.5 71.5 8.5q37 0 72 -15.5q35 -15.5 62 -43q27 -27.5 43 -67q16 -39.5 16 -87.5q0 -59 -20.5 -103q-20.5 -44 -54 -73q-33.5 -29 -76 -44q-42.5 -15 -85.5 -15q-59 0 -106.5 20.5q-47.5 20.5 -81 56q-33.5 35.5 -52 82.5q-18.5 47 -18.5 101zt0 0zM200 247q0 -50 25.5 -79.5q25.5 -29.5 73.5 -29.5q40 0 57.5 23.5q17.5 23.5 17.5 50.5q0 36 -21.5 60q-21.5 24 -63.5 24q-32 0 -53.5 -14.5t-35.5 -34.5z" />
<glyph unicode="&#55;" horiz-adv-x="510" d="M20 700h460v-102l-237 -598h-164l222 550l-281 0z" />
<glyph unicode="&#56;" horiz-adv-x="605" d="M310 435q35 0 51.5 21q16.5 21 16.5 44q0 29 -19.5 45.5q-19.5 16.5 -57.5 16.5q-39 0 -56.5 -18.5q-17.5 -18.5 -17.5 -43.5q0 -23 16.5 -44q16.5 -21 53.5 -21zM298 285q-34 0 -61 -18q-27 -18 -27 -56q0 -29 21 -51q21 -22 71 -22q28 0 46.5 6q18.5 6 29 16q10.5 10 14 23.5q3.5 13.5 3.5 27.5q-1 38 -25 56q-24 18 -60 18zM303 -12q-55 0 -101.5 13.5q-46.5 13.5 -80 38.5q-33.5 25 -52.5 60.5q-19 35.5 -19 80.5q0 35 8.5 63.5q8.5 28.5 23.5 50.5q15 22 34.5 38q19.5 16 40.5 25l0 3q-17 9 -33.5 24q-16.5 15 -29 35.5q-12.5 20.5 -20 47q-7.5 26.5 -7.5 59.5q0 41 18.5 75q18.5 34 50 58.5q31.5 24.5 74.5 38q43 13.5 92 13.5q49 0 92 -13.5q43 -13.5 75 -38q32 -24.5 50.5 -58.5q18.5 -34 18.5 -75q0 -51 -26 -96.5q-26 -45.5 -74 -68.5l0 -3q23 -6 44 -19.5q21 -13.5 37.5 -34.5q16.5 -21 26 -49q9.5 -28 9.5 -62q0 -50 -19 -88q-19 -38 -52.5 -64.5q-33.5 -26.5 -79.5 -40t-101 -13.5z" />
<glyph unicode="&#57;" horiz-adv-x="559" d="M519 442q0 -102 -29 -183q-29 -81 -79 -138.5q-50 -57.5 -117 -91q-67 -33.5 -143 -41.5l-49 119q100 22 157 68q57 46 82 117q-23 -21 -50 -29.5q-27 -8.5 -59 -8.5q-43 0 -81.5 16q-38.5 16 -67.5 45q-29 29 -46 69q-17 40 -17 88q0 58 21.5 103q21.5 45 56 75.5q34.5 30.5 77.5 46q43 15.5 86 15.5q58 0 106 -19.5q48 -19.5 81.5 -54.5q33.5 -35 52 -85q18.5 -50 18.5 -111zt0 0zM359 443q0 50 -25.5 84.5q-25.5 34.5 -73.5 34.5q-20 0 -35 -7.5q-15 -7.5 -25 -18.5q-10 -11 -15 -25.5q-5 -14.5 -5 -27.5q0 -36 24 -62.5q24 -26.5 66 -26.5q32 0 53.5 14.5t35.5 34.5z" />
<glyph unicode="&#58;" horiz-adv-x="316" d="M60 368q0 17 7 33.5q7 16.5 20 30q13 13.5 32 22q19 8.5 43 8.5q21 0 38.5 -8.5q17.5 -8.5 29.5 -22q12 -13.5 19 -30q7 -16.5 7 -33.5q0 -20 -7 -38.5q-7 -18.5 -19 -32.5q-12 -14 -29.5 -22.5q-17.5 -8.5 -38.5 -8.5q-24 0 -43 8.5q-19 8.5 -32 22.5q-13 14 -20 32.5q-7 18.5 -7 38.5zt0 0zM60 96q0 17 7 33.5q7 16.5 20 30q13 13.5 32 22q19 8.5 43 8.5q21 0 38.5 -8.5q17.5 -8.5 29.5 -22q12 -13.5 19 -30q7 -16.5 7 -33.5q0 -20 -7 -38.5q-7 -18.5 -19 -32.5q-12 -14 -29.5 -22.5q-17.5 -8.5 -38.5 -8.5q-24 0 -43 8.5q-19 8.5 -32 22.5q-13 14 -20 32.5t-7 38.5z" />
<glyph unicode="&#59;" horiz-adv-x="323" d="M60 368q0 17 7 33.5q7 16.5 20 30q13 13.5 32 22q19 8.5 43 8.5q21 0 38.5 -8.5q17.5 -8.5 29.5 -22q12 -13.5 19 -30q7 -16.5 7 -33.5q0 -20 -7 -38.5q-7 -18.5 -19 -32.5q-12 -14 -29.5 -22.5q-17.5 -8.5 -38.5 -8.5q-24 0 -43 8.5q-19 8.5 -32 22.5q-13 14 -20 32.5q-7 18.5 -7 38.5zt0 0zM62 81q0 41 24.5 67q24.5 26 72.5 26q50 0 77 -36q27 -36 27 -90q0 -71 -37 -121q-37 -50 -106 -71l-41 69q17 8 30.5 15q13.5 7 27.5 24q9 11 15.5 22.5q6.5 11.5 4.5 20.5q-6 -6 -15 -6.5q-9 -0.5 -16 -0.5q-25 0 -44.5 23t-19.5 58z" />
<glyph unicode="&#60;" horiz-adv-x="600" d="M40 330v64l490 274v-162l-284 -144l284 -146l0 -162z" />
<glyph unicode="&#61;" horiz-adv-x="600" d="M63 525h474v-130h-474zM63 325h474v-130l-474 0z" />
<glyph unicode="&#62;" horiz-adv-x="600" d="M70 54v162l284 146l-284 144v162l490 -274l0 -64z" />
<glyph unicode="&#63;" horiz-adv-x="481" d="M300 500q0 24 -19 43q-19 19 -47 19q-38 0 -61 -13q-23 -13 -45 -41l-88 101q27 44 79 73.5q52 29.5 123 29.5q52 0 92.5 -14q40.5 -14 68.5 -38.5q28 -24.5 43 -57q15 -32.5 15 -69.5q0 -49 -13.5 -83q-13.5 -34 -34 -59q-20.5 -25 -43.5 -43.5q-23 -18.5 -42 -35.5q-19 -17 -30.5 -36q-11.5 -19 -8.5 -44l-136 0q-6 41 3 69.5q9 28.5 25 49q16 20.5 37 36q21 15.5 39 31.5q18 16 30.5 35q12.5 19 12.5 47zt0 0zM127 96q0 17 7 33.5q7 16.5 20 30q13 13.5 32 22q19 8.5 43 8.5q21 0 38.5 -8.5q17.5 -8.5 29.5 -22q12 -13.5 19 -30q7 -16.5 7 -33.5q0 -20 -7 -38.5q-7 -18.5 -19 -32.5q-12 -14 -29.5 -22.5q-17.5 -8.5 -38.5 -8.5q-24 0 -43 8.5q-19 8.5 -32 22.5q-13 14 -20 32.5t-7 38.5z" />
<glyph unicode="&#64;" horiz-adv-x="986" d="M569 23q-20 -16 -47.5 -25.5q-27.5 -9.5 -59.5 -9.5q-51 0 -92 17q-41 17 -69.5 48.5q-28.5 31.5 -43.5 75q-15 43.5 -15 96.5q0 49 19 92q19 43 53.5 75.5q34.5 32.5 83 51q48.5 18.5 107.5 18.5q62 0 120 -16.5q58 -16.5 94 -39.5l0 -266h19q21 0 39.5 33q18.5 33 18.5 103q0 49 -19 95q-19 46 -56.5 80.5q-37.5 34.5 -92 55.5q-54.5 21 -125.5 21q-62 0 -119 -19.5q-57 -19.5 -100 -57.5q-43 -38 -68.5 -94.5q-25.5 -56.5 -25.5 -131.5q0 -68 25.5 -124q25.5 -56 68.5 -96q43 -40 99.5 -61.5q56.5 -21.5 119.5 -21.5q57 0 108 12l5 -139q-27 -6 -55.5 -9.5q-28.5 -3.5 -57.5 -3.5q-97 0 -180 32.5q-83 32.5 -143.5 91q-60.5 58.5 -95 140q-34.5 81.5 -34.5 179.5q0 93 34.5 174q34.5 81 95 141q60.5 60 143.5 94q83 34 180 34q91 0 170.5 -27.5q79.5 -27.5 137.5 -78.5q58 -51 91.5 -123.5q33.5 -72.5 33.5 -162.5q0 -51 -14 -99q-14 -48 -41.5 -86q-27.5 -38 -68 -62.5q-40.5 -24.5 -93.5 -28.5l-150 0zM489 128q23 0 44 9.5q21 9.5 36 23.5l0 145q-14 7 -30 11.5q-16 4.5 -35 4.5q-29 0 -48.5 -9q-19.5 -9 -31.5 -23.5q-12 -14.5 -17 -33q-5 -18.5 -5 -38.5q0 -45 25 -67.5t62 -22.5z" />
<glyph unicode="&#65;" horiz-adv-x="725" d="M291 700h143l291 -700h-171l-58 147h-277l-58 -147h-161zM279 297h157l-78 198z" />
<glyph unicode="&#66;" horiz-adv-x="617" d="M90 698q15 1 39 2q24 1 53 2q29 1 60 1.5q31 0.5 60 0.5q63 0 107.5 -13.5q44.5 -13.5 73 -37q28.5 -23.5 41.5 -55.5q13 -32 13 -68q0 -55 -20.5 -92.5q-20.5 -37.5 -59.5 -63.5l0 -2q19 -7 37 -20.5q18 -13.5 32 -33q14 -19.5 22.5 -46q8.5 -26.5 8.5 -60.5q0 -55 -20 -95.5q-20 -40.5 -56 -67.5q-36 -27 -84.5 -40q-48.5 -13 -105.5 -13q-25 0 -54 0.5q-29 0.5 -56.5 1q-27.5 0.5 -51.5 1.5q-24 1 -39 3zM250 283v-131q8 -2 19.5 -4q11.5 -2 34.5 -2q47 0 70 19.5q23 19.5 23 54.5q0 33 -23 48q-23 15 -62 15zM300 554q-15 0 -25.5 -1q-10.5 -1 -24.5 -3l0 -127h53q31 0 52.5 15q21.5 15 21.5 53q0 32 -24 47.5t-53 15.5z" />
<glyph unicode="&#67;" horiz-adv-x="655" d="M635 69q-16 -18 -40 -32.5q-24 -14.5 -54 -25.5q-30 -11 -64 -17q-34 -6 -70 -6q-81 0 -148.5 26q-67.5 26 -116 73.5q-48.5 47.5 -75.5 114q-27 66.5 -27 148.5q0 75 23.5 141q23.5 66 69.5 115q46 49 114.5 77.5q68.5 28.5 158.5 28.5q70 0 126 -21q56 -21 88 -52l-71 -120q-29 17 -61 30q-32 13 -82 13q-41 0 -76.5 -13.5q-35.5 -13.5 -62 -40.5q-26.5 -27 -42 -66.5q-15.5 -39.5 -15.5 -91.5q0 -47 15.5 -85.5q15.5 -38.5 43.5 -67q28 -28.5 67 -44q39 -15.5 86 -15.5q38 0 77.5 12.5q39.5 12.5 74.5 38.5z" />
<glyph unicode="&#68;" horiz-adv-x="744" d="M90 700h14q14 0 41.5 0.5q27.5 0.5 58.5 1q31 0.5 60.5 1q29.5 0.5 46.5 0.5q105 0 179.5 -28q74.5 -28 122 -75.5q47.5 -47.5 69.5 -110.5q22 -63 22 -133q0 -74 -25 -139q-25 -65 -75.5 -113.5q-50.5 -48.5 -125.5 -77q-75 -28.5 -175 -28.5q-14 0 -37 0.5q-23 0.5 -50 0.5q-27 0 -55.5 0.5q-28.5 0.5 -53.5 0.5h-17zM309 553q-13 0 -28.5 -0.5q-15.5 -0.5 -30.5 -2.5l0 -400q16 -2 28.5 -2q12.5 0 29.5 0q104 0 165 54q61 54 61 154q0 48 -17 85q-17 37 -47 62q-30 25 -71 37.5t-90 12.5z" />
<glyph unicode="&#69;" horiz-adv-x="575" d="M90 700h415v-150h-255v-123h225v-150h-225v-127h265v-150l-425 0z" />
<glyph unicode="&#70;" horiz-adv-x="535" d="M90 700h405v-150h-245v-148h215v-150h-215v-252l-160 0z" />
<glyph unicode="&#71;" horiz-adv-x="727" d="M378 399h299v-312q-23 -23 -54.5 -41.5q-31.5 -18.5 -67 -31.5q-35.5 -13 -71.5 -19.5q-36 -6.5 -69 -6.5q-90 0 -160 26q-70 26 -117.5 73.5q-47.5 47.5 -72.5 114q-25 66.5 -25 148.5q0 75 24.5 141q24.5 66 70.5 115q46 49 111.5 77.5q65.5 28.5 148.5 28.5q78 0 132 -19.5q54 -19.5 97 -53.5l-67 -129q-21 23 -61.5 37.5q-40.5 14.5 -81.5 14.5q-43 0 -80.5 -13q-37.5 -13 -65 -39q-27.5 -26 -43 -66q-15.5 -40 -15.5 -94q0 -48 15 -87.5q15 -39.5 42 -67q27 -27.5 65 -42.5q38 -15 85 -15q16 0 33 3.5q17 3.5 32 8.5q15 5 27 11q12 6 18 12l0 76l-149 0z" />
<glyph unicode="&#72;" horiz-adv-x="755" d="M505 282h-255v-282h-160v700h160v-268h255v268h160v-700l-160 0z" />
<glyph unicode="&#73;" horiz-adv-x="360" d="M100 700h160v-700l-160 0z" />
<glyph unicode="&#74;" horiz-adv-x="407" d="M317 171q0 -90 -47.5 -136.5q-47.5 -46.5 -137.5 -46.5q-45 0 -81.5 16q-36.5 16 -50.5 33l52 122q12 -9 27.5 -15q15.5 -6 30.5 -6q21 0 34 15.5q13 15.5 13 46.5v500l160 0z" />
<glyph unicode="&#75;" horiz-adv-x="692" d="M90 700h160v-305l229 305h192l-263 -323l284 -377h-203l-239 333v-333l-160 0z" />
<glyph unicode="&#76;" horiz-adv-x="545" d="M90 700h160v-550h285v-150l-445 0z" />
<glyph unicode="&#77;" horiz-adv-x="912" d="M90 700h161l216 -295l204 295h151v-700h-160v446l-195 -273h-23l-194 270v-443l-160 0z" />
<glyph unicode="&#78;" horiz-adv-x="790" d="M572 0l-332 420v-420h-150v700h128l332 -422v422h150l0 -700z" />
<glyph unicode="&#79;" horiz-adv-x="824" d="M40 350q0 76 27 142q27 66 75.5 115q48.5 49 117 77q68.5 28 152.5 28q80 0 148 -25q68 -25 118 -72q50 -47 78 -114q28 -67 28 -151q0 -80 -28 -146.5q-28 -66.5 -78 -114.5q-50 -48 -118 -74.5q-68 -26.5 -148 -26.5q-80 0 -148 25q-68 25 -118 72q-50 47 -78 114q-28 67 -28 151zt0 0zM210 350q0 -45 16 -84q16 -39 43 -67.5q27 -28.5 64 -44.5q37 -16 79 -16q50 0 87.5 16.5q37.5 16.5 63 45q25.5 28.5 38.5 67.5q13 39 13 83q0 48 -15.5 87q-15.5 39 -43 67q-27.5 28 -64.5 43q-37 15 -79 15q-44 0 -81 -15q-37 -15 -64 -43q-27 -28 -42 -67t-15 -87z" />
<glyph unicode="&#80;" horiz-adv-x="627" d="M90 0v700q15 0 42.5 0.5q27.5 0.5 59 0.5q31.5 0 62 0.5q30.5 0.5 50.5 0.5q80 0 134 -19q54 -19 87 -51.5q33 -32.5 47.5 -74.5q14.5 -42 14.5 -87q0 -47 -17.5 -89.5q-17.5 -42.5 -51 -75q-33.5 -32.5 -81.5 -51.5q-48 -19 -109 -19q-11 0 -35 0.5q-24 0.5 -43 2.5l0 -238zM320 552q-16 0 -30.5 -0.5q-14.5 -0.5 -39.5 -1.5l0 -160q17 -2 36.5 -3.5q19.5 -1.5 36.5 -1.5q16 0 32.5 4q16.5 4 30 13.5q13.5 9.5 22.5 26q9 16.5 9 42.5q0 47 -27 64t-70 17z" />
<glyph unicode="&#81;" horiz-adv-x="824" d="M40 350q0 76 27 142q27 66 75.5 115q48.5 49 117 77q68.5 28 152.5 28q80 0 148 -25q68 -25 118 -72q50 -47 78 -114q28 -67 28 -151q0 -72 -22.5 -132.5q-22.5 -60.5 -64.5 -107.5l95 -110h-185l-22 25q-79 -37 -173 -37q-80 0 -148 25q-68 25 -118 72q-50 47 -78 114q-28 67 -28 151zt0 0zM210 350q0 -45 16 -84q16 -39 43 -67.5q27 -28.5 64 -44.5q37 -16 79 -16q36 0 68 9l-55 64l105 94l58 -68q26 49 26 113q0 48 -15.5 87q-15.5 39 -43 67q-27.5 28 -64.5 43q-37 15 -79 15q-44 0 -81 -15q-37 -15 -64 -43q-27 -28 -42 -67t-15 -87z" />
<glyph unicode="&#82;" horiz-adv-x="673" d="M90 0v700q10 0 30 0q20 0 44.5 0.5q24.5 0.5 51.5 0.5q27 0 50 0.5q23 0.5 40 0.5q17 0 22 0q72 0 121 -17q49 -17 80 -47q31 -30 44.5 -71q13.5 -41 13.5 -89q0 -49 -13 -84q-13 -35 -31.5 -59q-18.5 -24 -39 -38q-20.5 -14 -34.5 -21l204 -276h-194l-170 245h-59v-245zM320 552q-18 0 -31.5 -0.5q-13.5 -0.5 -38.5 -1.5l0 -155h58q46 0 77.5 18.5q31.5 18.5 31.5 62.5q0 15 -4.5 28.5q-4.5 13.5 -15.5 24q-11 10.5 -29.5 17t-47.5 6.5z" />
<glyph unicode="&#83;" horiz-adv-x="557" d="M347 192q0 26 -21.5 44q-21.5 18 -54 34.5q-32.5 16.5 -70.5 35q-38 18.5 -70.5 45q-32.5 26.5 -54 64.5q-21.5 38 -21.5 95q0 40 15.5 77q15.5 37 45 64.5q29.5 27.5 71 44q41.5 16.5 94.5 16.5q68 0 120.5 -21q52.5 -21 85.5 -56l-86 -120q-23 22 -45 34.5q-22 12.5 -61 12.5q-33 0 -51.5 -14q-18.5 -14 -18.5 -38q0 -29 21.5 -48q21.5 -19 54 -35q32.5 -16 70.5 -33q38 -17 70.5 -42.5q32.5 -25.5 54 -63q21.5 -37.5 21.5 -94.5q0 -46 -18.5 -84q-18.5 -38 -51 -65q-32.5 -27 -76 -42q-43.5 -15 -94.5 -15q-35 0 -72 7.5q-37 7.5 -69 22q-32 14.5 -57.5 36q-25.5 21.5 -38.5 49.5l91 109q30 -38 71.5 -56q41.5 -18 78.5 -18q32 0 49 14.5t17 39.5z" />
<glyph unicode="&#84;" horiz-adv-x="600" d="M10 700h580v-150h-210v-550h-160v550l-210 0z" />
<glyph unicode="&#85;" horiz-adv-x="751" d="M671 289q0 -80 -23.5 -137q-23.5 -57 -63 -93.5q-39.5 -36.5 -91.5 -53.5q-52 -17 -108 -17q-68 0 -124 19.5q-56 19.5 -96 58q-40 38.5 -62.5 96q-22.5 57.5 -22.5 134.5v404h160v-370q0 -41 7 -76q7 -35 23.5 -61q16.5 -26 44.5 -40.5q28 -14.5 70 -14.5q36 0 60.5 13q24.5 13 39 36.5q14.5 23.5 20.5 57.5q6 34 6 76v379l160 0z" />
<glyph unicode="&#86;" horiz-adv-x="656" d="M393 0h-123l-280 700h171l176 -462l168 462l161 0z" />
<glyph unicode="&#87;" horiz-adv-x="1000" d="M803 0h-153l-146 450l-144 -450h-153l-207 700h181l118 -442l131 442h161l135 -442l120 442l154 0z" />
<glyph unicode="&#88;" horiz-adv-x="674" d="M441 357l233 -357h-188l-150 235l-148 -235h-188l233 357l-222 343h188l142 -225l136 225l188 0z" />
<glyph unicode="&#89;" horiz-adv-x="654" d="M406 285v-285h-160v285l-246 415h183l150 -265l148 265l173 0z" />
<glyph unicode="&#90;" horiz-adv-x="650" d="M60 700h540v-112l-347 -438h357v-150h-570v112l346 438l-326 0z" />
<glyph unicode="&#91;" horiz-adv-x="380" d="M60 650h300v-140h-150v-570h150v-140l-300 0z" />
<glyph unicode="&#92;" horiz-adv-x="382" d="M412 -165l-116 -43l-326 877l115 43z" />
<glyph unicode="&#93;" horiz-adv-x="380" d="M320 -200h-300v140h150v570h-150v140l300 0z" />
<glyph unicode="&#94;" horiz-adv-x="522" d="M210 708h104l188 -258h-162l-79 110l-79 -110l-162 0z" />
<glyph unicode="&#95;" horiz-adv-x="375" d="M0 -50h375v-150l-375 0z" />
<glyph unicode="&#96;" horiz-adv-x="342" d="M60 647l119 89l103 -170l-89 -63z" />
<glyph unicode="&#97;" horiz-adv-x="465" d="M66 418q27 17 73 30.5q46 13.5 94 13.5q103 0 145 -50q42 -50 42 -141v-271h-130v41q-17 -23 -49 -35q-32 -12 -69 -12q-61 0 -101.5 36.5q-40.5 36.5 -40.5 105.5q0 38 13 66q13 28 35 46.5q22 18.5 51.5 27.5q29.5 9 62.5 9q30 0 53.5 -8.5q23.5 -8.5 34.5 -16.5q2 41 -15 59q-17 18 -47 18q-40 0 -67 -10q-27 -10 -48 -18zM223 119q23 0 36.5 7q13.5 7 20.5 16l0 28q-21 15 -57 15q-19 0 -31 -8.5q-12 -8.5 -12 -25.5q0 -15 12 -23.5t31 -8.5z" />
<glyph unicode="&#98;" horiz-adv-x="547" d="M55 700h150v-262q19 10 43.5 17q24.5 7 55.5 7q50 0 89.5 -17q39.5 -17 67 -48q27.5 -31 42 -73q14.5 -42 14.5 -92q0 -56 -18 -101q-18 -45 -51.5 -76.5q-33.5 -31.5 -82.5 -49q-49 -17.5 -111 -17.5q-29 0 -58 4.5q-29 4.5 -55 11.5q-26 7 -48.5 15.5q-22.5 8.5 -37.5 16.5zM268 322q-20 0 -35.5 -8.5q-15.5 -8.5 -27.5 -20.5l0 -152q11 -6 24.5 -9.5q13.5 -3.5 31.5 -3.5q41 0 68.5 24q27.5 24 27.5 71q0 27 -8 45.5q-8 18.5 -20.5 30.5q-12.5 12 -28.5 17.5t-32 5.5z" />
<glyph unicode="&#99;" horiz-adv-x="485" d="M461 68q-29 -39 -77 -59.5q-48 -20.5 -107 -20.5q-56 0 -102 17q-46 17 -78 48q-32 31 -49.5 75q-17.5 44 -17.5 97q0 49 17 92q17 43 48.5 75.5q31.5 32.5 75.5 51q44 18.5 97 18.5q58 0 105.5 -16q47.5 -16 78.5 -48l-69 -118q-24 24 -47 33q-23 9 -49 9q-18 0 -35 -6q-17 -6 -31 -18.5q-14 -12.5 -22.5 -30.5q-8.5 -18 -8.5 -42q0 -23 9 -41q9 -18 23 -30.5q14 -12.5 31.5 -19q17.5 -6.5 35.5 -6.5q33 0 57.5 14q24.5 14 44.5 36z" />
<glyph unicode="&#100;" horiz-adv-x="557" d="M352 37q-20 -20 -47 -32.5q-27 -12.5 -67 -12.5q-48 0 -86.5 16.5q-38.5 16.5 -65.5 46q-27 29.5 -41.5 71.5q-14.5 42 -14.5 93q0 54 18 98.5q18 44.5 51 76.5q33 32 78.5 50q45.5 18 100.5 18q44 0 74 -14l0 252h150v-700h-150zM269 132q25 0 45.5 9q20.5 9 37.5 24l0 138q-33 19 -67 19q-18 0 -35 -6q-17 -6 -30.5 -18q-13.5 -12 -21.5 -30.5q-8 -18.5 -8 -43.5q0 -23 7 -40q7 -17 18 -28.5q11 -11.5 25.5 -17.5t28.5 -6z" />
<glyph unicode="&#101;" horiz-adv-x="512" d="M449 39q-35 -26 -81 -38.5q-46 -12.5 -94 -12.5q-56 0 -101 17q-45 17 -76.5 48q-31.5 31 -49 75q-17.5 44 -17.5 97q0 49 17.5 92q17.5 43 49 75.5q31.5 32.5 76.5 51q45 18.5 101 18.5q43 0 82.5 -15q39.5 -15 69.5 -43q30 -28 48 -67q18 -39 18 -87q0 -26 -2 -43q-2 -17 -7 -32l-298 0q11 -32 39.5 -47q28.5 -15 65.5 -15q39 0 69.5 10.5q30.5 10.5 48.5 21.5zM269 337q-38 0 -58 -16q-20 -16 -31 -46l162 0q0 23 -18.5 42.5t-54.5 19.5z" />
<glyph unicode="&#102;" horiz-adv-x="320" d="M55 523q0 94 44.5 141.5q44.5 47.5 119.5 47.5q41 0 77 -12q36 -12 54 -32l-50 -114q-9 10 -24.5 14q-15.5 4 -29.5 4q-15 0 -28 -14q-13 -14 -13 -44v-64h95v-140h-95v-310l-150 0z" />
<glyph unicode="&#103;" horiz-adv-x="504" d="M0 -58q0 59 41.5 93.5q41.5 34.5 107.5 48.5q-6 12 -6 25q0 6 1.5 13q1.5 7 5.5 13q-54 21 -82.5 62.5q-28.5 41.5 -28.5 91.5q0 34 13.5 65q13.5 31 39 55q25.5 24 62.5 38.5q37 14.5 84 14.5q34 0 63 -8q29 -8 52 -22l141 28l5 -120l-67 -13q2 -10 3.5 -19q1.5 -9 1.5 -19q0 -32 -12.5 -61.5q-12.5 -29.5 -36.5 -52.5q-24 -23 -58 -37.5q-34 -14.5 -76 -17.5q-1 -4 -1 -11q0 -8 3 -17q46 -2 86.5 -11.5q40.5 -9.5 70.5 -27.5q30 -18 47.5 -46q17.5 -28 17.5 -65q0 -39 -19 -67.5q-19 -28.5 -51.5 -46.5q-32.5 -18 -76 -27q-43.5 -9 -92.5 -9q-49 0 -92.5 8.5q-43.5 8.5 -76 26.5q-32.5 18 -51.5 46.5q-19 28.5 -19 68.5zt0 0zM140 -58q0 -14 25.5 -22q25.5 -8 73.5 -8q48 0 73.5 7.5q25.5 7.5 25.5 22.5q0 14 -23 22.5q-23 8.5 -76 8.5q-52 0 -75.5 -8.5q-23.5 -8.5 -23.5 -22.5zt0 0zM179 289q0 -21 15 -35q15 -14 44 -14q26 0 42.5 12.5q16.5 12.5 16.5 36.5q0 21 -14 37q-14 16 -45 16q-29 0 -44 -16.5t-15 -36.5z" />
<glyph unicode="&#104;" horiz-adv-x="544" d="M55 700h150v-281q20 17 48 28q28 11 63 11q39 0 72.5 -10.5q33.5 -10.5 58 -33.5q24.5 -23 38.5 -60q14 -37 14 -90v-264h-150v245q0 34 -20 53.5q-20 19.5 -52 19.5q-20 0 -38 -6.5q-18 -6.5 -34 -22.5l0 -289l-150 0z" />
<glyph unicode="&#105;" horiz-adv-x="286" d="M68 450h150v-450h-150zM55 605q0 40 27 62.5q27 22.5 64 22.5q16 0 31.5 -6q15.5 -6 27.5 -17q12 -11 19 -26.5q7 -15.5 7 -35.5q0 -22 -7 -39q-7 -17 -19 -28.5q-12 -11.5 -27.5 -17.5q-15.5 -6 -31.5 -6q-37 0 -64 23t-27 68z" />
<glyph unicode="&#106;" horiz-adv-x="281" d="M226 -33q0 -83 -33 -129q-33 -46 -108 -46q-40 0 -73 10q-33 10 -47 24l39 119q12 -7 21 -10q9 -3 23 -3q16 0 22 14q6 14 6 35v469h150zM64 605q0 40 27 62.5q27 22.5 64 22.5q16 0 31.5 -6q15.5 -6 27.5 -17q12 -11 19 -26.5q7 -15.5 7 -35.5q0 -22 -7 -39q-7 -17 -19 -28.5q-12 -11.5 -27.5 -17.5q-15.5 -6 -31.5 -6q-37 0 -64 23t-27 68z" />
<glyph unicode="&#107;" horiz-adv-x="537" d="M55 700h150v-445l123 195h188l-146 -203l167 -247h-192l-140 215v-215l-150 0z" />
<glyph unicode="&#108;" horiz-adv-x="309" d="M55 700h150v-514q0 -31 7 -44.5q7 -13.5 18 -13.5q11 0 19.5 4.5q8.5 4.5 19.5 11.5l30 -114q-22 -18 -54 -30q-32 -12 -78 -12q-53 0 -82.5 33.5q-29.5 33.5 -29.5 107.5z" />
<glyph unicode="&#109;" horiz-adv-x="798" d="M753 0h-150v254q0 29 -12 46.5q-12 17.5 -44 17.5q-23 0 -41.5 -11q-18.5 -11 -26.5 -28l0 -279h-150v255q0 29 -13 46q-13 17 -40 17q-22 0 -39.5 -8q-17.5 -8 -31.5 -28l0 -282h-150v450h150v-42q24 24 58.5 37q34.5 13 74.5 13q52 0 84 -19.5q32 -19.5 44 -46.5q23 29 57 47.5q34 18.5 88 18.5q30 0 56 -8.5q26 -8.5 45 -27.5q19 -19 30 -50.5q11 -31.5 11 -77.5z" />
<glyph unicode="&#110;" horiz-adv-x="544" d="M55 450h150v-35q18 17 47 30q29 13 64 13q39 0 72.5 -10q33.5 -10 58 -32.5q24.5 -22.5 38.5 -58.5q14 -36 14 -89v-268h-150v242q0 39 -20.5 57.5q-20.5 18.5 -53.5 18.5q-20 0 -36.5 -7q-16.5 -7 -33.5 -24l0 -287l-150 0z" />
<glyph unicode="&#111;" horiz-adv-x="560" d="M30 225q0 51 17.5 94q17.5 43 50 75q32.5 32 78.5 50q46 18 104 18q58 0 104 -18q46 -18 78.5 -50q32.5 -32 50 -75q17.5 -43 17.5 -94q0 -51 -17.5 -94q-17.5 -43 -50 -75q-32.5 -32 -78.5 -50q-46 -18 -104 -18q-58 0 -104 18q-46 18 -78.5 50q-32.5 32 -50 75q-17.5 43 -17.5 94zt0 0zM190 225q0 -43 26 -70q26 -27 64 -27q38 0 64 25.5q26 25.5 26 71.5q0 44 -26 70.5q-26 26.5 -64 26.5q-36 0 -63 -25.5t-27 -71.5z" />
<glyph unicode="&#112;" horiz-adv-x="561" d="M55 450h150v-34q19 19 51 32.5q32 13.5 74 13.5q45 0 82.5 -17q37.5 -17 63.5 -48q26 -31 40.5 -73q14.5 -42 14.5 -92q0 -51 -17.5 -95.5q-17.5 -44.5 -49 -77.5q-31.5 -33 -76 -52q-44.5 -19 -99.5 -19q-23 0 -45.5 3.5q-22.5 3.5 -38.5 10.5l0 -202h-150zM283 322q-42 0 -78 -40l0 -137q17 -10 31.5 -13.5q14.5 -3.5 38.5 -3.5q49 0 72.5 29.5q23.5 29.5 23.5 71.5q0 39 -22.5 66t-65.5 27z" />
<glyph unicode="&#113;" horiz-adv-x="562" d="M357 9q-23 -11 -46.5 -16q-23.5 -5 -43.5 -5q-55 0 -99 17q-44 17 -74.5 48q-30.5 31 -47 75q-16.5 44 -16.5 97q0 49 19 92q19 43 53.5 75.5q34.5 32.5 83 51q48.5 18.5 107.5 18.5q62 0 120 -16.5q58 -16.5 94 -39.5l0 -606h-150zM287 128q19 0 37.5 6q18.5 6 32.5 20l0 152q-14 7 -30 11.5q-16 4.5 -35 4.5q-29 0 -48.5 -9q-19.5 -9 -31.5 -23.5q-12 -14.5 -17 -33q-5 -18.5 -5 -38.5q0 -36 26 -63t71 -27z" />
<glyph unicode="&#114;" horiz-adv-x="368" d="M55 450h150v-36q14 20 34.5 32q20.5 12 58.5 12q28 0 43.5 -4.5q15.5 -4.5 26.5 -12.5l-53 -140q-17 10 -28 13.5q-11 3.5 -27 3.5q-23 0 -35 -9q-12 -9 -20 -23l0 -286l-150 0z" />
<glyph unicode="&#115;" horiz-adv-x="459" d="M279 133q0 12 -17.5 19q-17.5 7 -44 13.5q-26.5 6.5 -57.5 15q-31 8.5 -57.5 25q-26.5 16.5 -44 42.5q-17.5 26 -17.5 67q0 36 14 63.5q14 27.5 38 46q24 18.5 56 28q32 9.5 68 9.5q38 0 68 -6q30 -6 53 -15q23 -9 40 -19.5q17 -10.5 28 -20.5l-56 -106q-20 14 -53.5 28q-33.5 14 -70.5 14q-17 0 -26 -6q-9 -6 -9 -14q0 -12 17.5 -18.5q17.5 -6.5 44 -13q26.5 -6.5 57.5 -15q31 -8.5 57.5 -24q26.5 -15.5 44 -41q17.5 -25.5 17.5 -65.5q0 -69 -51.5 -110.5q-51.5 -41.5 -142.5 -41.5q-36 0 -69.5 8.5q-33.5 8.5 -61 21q-27.5 12.5 -47 27q-19.5 14.5 -27.5 26.5l71 98q10 -10 27.5 -20q17.5 -10 38 -18q20.5 -8 41 -13q20.5 -5 37.5 -5q34 0 34 20z" />
<glyph unicode="&#116;" horiz-adv-x="366" d="M45 575h150v-125h125v-140h-125v-132q0 -20 7 -35q7 -15 22 -15q24 0 39.5 8.5q15.5 8.5 27.5 17.5l45 -115q-23 -20 -61.5 -35.5q-38.5 -15.5 -89.5 -15.5q-77 0 -108.5 48.5q-31.5 48.5 -31.5 134.5z" />
<glyph unicode="&#117;" horiz-adv-x="530" d="M475 0h-150v45q-17 -21 -47.5 -39q-30.5 -18 -81.5 -18q-29 0 -56 10.5q-27 10.5 -48 32.5q-21 22 -34 55.5q-13 33.5 -13 80.5v283h150v-251q0 -13 3 -26q3 -13 9.5 -23q6.5 -10 17.5 -16q11 -6 28 -6q19 0 37 9.5q18 9.5 35 31.5l0 281l150 0z" />
<glyph unicode="&#118;" horiz-adv-x="486" d="M307 0h-113l-204 450h178l58 -142q8 -20 16.5 -49q8.5 -29 13.5 -55q5 26 13 55q8 29 16 50l53 141l158 0z" />
<glyph unicode="&#119;" horiz-adv-x="736" d="M597 0h-137l-80 208q-5 12 -7.5 25q-2.5 13 -5.5 26q-4 -30 -14 -53l-80 -206h-129l-144 450h161l55 -206q5 -16 6.5 -29q1.5 -13 3.5 -28q2 14 4 25.5q2 11.5 9 31.5l68 206h134l70 -205q5 -14 8 -29q3 -15 6 -30q2 15 4.5 30.5q2.5 15.5 6.5 30.5l49 203l151 0z" />
<glyph unicode="&#120;" horiz-adv-x="537" d="M377 236l150 -236h-183l-78 142l-83 -142h-173l149 228l-139 222h183l69 -128l72 128l173 0z" />
<glyph unicode="&#121;" horiz-adv-x="516" d="M341 0q-25 -60 -46 -99q-21 -39 -41.5 -61.5q-20.5 -22.5 -42 -31q-21.5 -8.5 -47.5 -8.5q-36 0 -61.5 12.5q-25.5 12.5 -45.5 29.5l48 113q7 -5 18 -10.5q11 -5.5 25 -5.5q15 0 25.5 10q10.5 10 17.5 27l10 24l-201 450h181l77 -206q6 -16 9.5 -31q3.5 -15 7.5 -31q2 15 4 30.5q2 15.5 7 32.5l59 205l171 0z" />
<glyph unicode="&#122;" horiz-adv-x="495" d="M55 450h400v-110l-207 -200h202v-140h-410v110l206 200l-191 0z" />
<glyph unicode="&#123;" horiz-adv-x="390" d="M110 62q0 30 -8.5 49q-8.5 19 -21.5 30q-13 11 -29 15q-16 4 -31 4l0 130q13 0 29 4.5q16 4.5 29.5 17q13.5 12.5 22.5 34q9 21.5 9 54.5v85q0 84 39 124.5q39 40.5 138 40.5h83v-140h-45q-37 0 -51 -15q-14 -15 -14 -63v-92q0 -49 -20.5 -79q-20.5 -30 -54.5 -35q32 -4 53.5 -30q21.5 -26 21.5 -84v-92q0 -44 15 -62q15 -18 56 -18h39v-140h-95q-39 0 -69.5 8q-30.5 8 -52 26.5q-21.5 18.5 -32.5 48.5q-11 30 -11 74z" />
<glyph unicode="&#124;" horiz-adv-x="350" d="M100 700h150v-700l-150 0z" />
<glyph unicode="&#125;" horiz-adv-x="390" d="M280 -43q0 -44 -11 -74q-11 -30 -32.5 -48.5q-21.5 -18.5 -52 -26.5q-30.5 -8 -69.5 -8h-95v140h39q41 0 56 18q15 18 15 62v92q0 58 21.5 84q21.5 26 53.5 30q-34 5 -54.5 35q-20.5 30 -20.5 79v92q0 48 -14 63q-14 15 -51 15h-45v140h83q99 0 138 -40.5q39 -40.5 39 -124.5v-85q0 -33 9 -54.5q9 -21.5 22.5 -34q13.5 -12.5 29 -17q15.5 -4.5 29.5 -4.5l0 -130q-15 0 -31 -4q-16 -4 -29 -15q-13 -11 -21.5 -30q-8.5 -19 -8.5 -49z" />
<glyph unicode="&#126;" horiz-adv-x="600" d="M33 365q32 38 73.5 64q41.5 26 83.5 26q31 0 60.5 -10.5q29.5 -10.5 58 -22.5q28.5 -12 57.5 -22.5q29 -10.5 58 -10.5q23 0 47 14q24 14 38 31l58 -103q-14 -14 -31 -26.5q-17 -12.5 -36 -23q-19 -10.5 -38.5 -16.5q-19.5 -6 -38.5 -6q-30 0 -59 10.5q-29 10.5 -57 22.5q-28 12 -55 22.5q-27 10.5 -52 10.5q-17 0 -32 -6q-15 -6 -28.5 -14.5q-13.5 -8.5 -24 -18q-10.5 -9.5 -18.5 -17.5z" />
<glyph unicode="&#160;" horiz-adv-x="200" />
<glyph unicode="&#161;" horiz-adv-x="310" d="M235 -244h-160v430h160zM253 360q0 -17 -7 -33.5q-7 -16.5 -20 -30q-13 -13.5 -32 -22q-19 -8.5 -43 -8.5q-21 0 -38.5 8.5q-17.5 8.5 -29.5 22q-12 13.5 -19 30q-7 16.5 -7 33.5q0 20 7 38.5q7 18.5 19 32.5q12 14 29.5 22.5q17.5 8.5 38.5 8.5q24 0 43 -8.5q19 -8.5 32 -22.5q13 -14 20 -32.5t7 -38.5z" />
<glyph unicode="&#162;" horiz-adv-x="600" d="M516 68q-42 -58 -121 -73l0 -115h-150v120q-75 23 -117.5 81.5q-42.5 58.5 -42.5 143.5q0 39 11 75q11 36 32 65.5q21 29.5 50.5 51q29.5 21.5 66.5 33.5l0 113h150v-108q34 -7 62.5 -21q28.5 -14 49.5 -36l-69 -118q-24 24 -47 33q-23 9 -49 9q-18 0 -35 -6q-17 -6 -31 -18.5q-14 -12.5 -22.5 -30.5q-8.5 -18 -8.5 -42q0 -23 9 -41q9 -18 23 -30.5q14 -12.5 31.5 -19q17.5 -6.5 35.5 -6.5q33 0 57.5 14q24.5 14 44.5 36z" />
<glyph unicode="&#163;" horiz-adv-x="600" d="M61 375h80q-17 32 -33.5 65q-16.5 33 -16.5 75q0 43 17.5 78.5q17.5 35.5 49 61q31.5 25.5 75 39.5q43.5 14 94.5 14q70 0 118 -22q48 -22 83 -60l-82 -118q-29 26 -54 38q-25 12 -58 12q-32 0 -52.5 -14.5q-20.5 -14.5 -20.5 -40.5q0 -18 6 -33q6 -15 15 -29.5q9 -14.5 19 -30.5q10 -16 17 -35l137 0v-120h-138q-9 -20 -22 -38q-13 -18 -28 -34q38 -11 74 -24q36 -13 73 -13q28 0 52.5 7.5q24.5 7.5 53.5 35.5l65 -117q-32 -35 -77.5 -55.5q-45.5 -20.5 -95.5 -20.5q-29 0 -57.5 8q-28.5 8 -56.5 18q-28 10 -56.5 18q-28.5 8 -57.5 8q-29 0 -54.5 -16.5q-25.5 -16.5 -46.5 -38.5l-59 120q46 57 104 75q13 17 23 33.5q10 16.5 15 33.5l-105 0z" />
<glyph unicode="&#164;" horiz-adv-x="600" d="M66 340q0 62 29 114l-71 72l92 92l73 -74q48 23 111 23q32 0 59.5 -6q27.5 -6 50.5 -17l74 73l92 -92l-71 -71q29 -52 29 -114q0 -60 -28 -113l70 -69l-92 -92l-72 71q-24 -11 -52 -17.5q-28 -6.5 -60 -6.5q-32 0 -60.5 6.5q-28.5 6.5 -51.5 17.5l-72 -72l-92 92l70 70q-14 26 -21 54.5q-7 28.5 -7 58.5zt0 0zM206 340q0 -42 24.5 -69.5q24.5 -27.5 69.5 -27.5q48 0 71 27.5q23 27.5 23 69.5q0 47 -24.5 72q-24.5 25 -69.5 25q-43 0 -68.5 -25.5t-25.5 -71.5z" />
<glyph unicode="&#165;" horiz-adv-x="600" d="M63 405h93l-153 295h183l120 -265l118 265h173l-155 -295h95v-120h-158v-60h158v-120h-158v-105h-160v105h-156v120h156v60l-156 0z" />
<glyph unicode="&#166;" horiz-adv-x="350" d="M100 440v260h150v-260zM250 260v-260h-150l0 260z" />
<glyph unicode="&#167;" horiz-adv-x="524" d="M50 249q0 57 27 102q27 45 83 68q-28 21 -44 56q-16 35 -16 80q0 28 11 54q11 26 33.5 46.5q22.5 20.5 56.5 32.5q34 12 80 12q46 0 85.5 -20.5q39.5 -20.5 65.5 -54.5l-89 -100q-14 16 -27 25.5q-13 9.5 -29 9.5q-14 0 -25.5 -11q-11.5 -11 -11.5 -25q0 -28 14 -49q14 -21 43 -41q42 -6 73.5 -22.5q31.5 -16.5 52 -41.5q20.5 -25 31 -56q10.5 -31 10.5 -65q0 -57 -27.5 -102q-27.5 -45 -83.5 -68q27 -21 43 -55q16 -34 16 -79q0 -28 -11 -54q-11 -26 -33.5 -46.5q-22.5 -20.5 -56.5 -32.5q-34 -12 -80 -12q-46 0 -85.5 20.5q-39.5 20.5 -65.5 54.5l89 100q14 -16 27 -25.5q13 -9.5 29 -9.5q14 0 25.5 11q11.5 11 11.5 25q0 29 -14 49q-14 20 -44 39q-41 6 -72 23q-31 17 -51.5 41.5q-20.5 24.5 -30.5 55.5q-10 31 -10 65zt0 0zM200 249q0 -8 2.5 -18q2.5 -10 9.5 -19q7 -9 19 -15q12 -6 31 -6q20 0 32 6q12 6 19 15q7 9 9 19q2 10 2 18q0 8 -3 18.5q-3 10.5 -10 19.5q-7 9 -19 15q-12 6 -30 6q-18 0 -30 -6q-12 -6 -19 -15q-7 -9 -10 -19t-3 -19z" />
<glyph unicode="&#168;" horiz-adv-x="471" d="M60 589q0 38 24 59.5q24 21.5 58 21.5q29 0 52.5 -21.5q23.5 -21.5 23.5 -59.5q0 -42 -23.5 -64q-23.5 -22 -52.5 -22q-34 0 -58 22q-24 22 -24 64zt0 0zM253 589q0 38 24.5 59.5q24.5 21.5 57.5 21.5q29 0 52.5 -21.5q23.5 -21.5 23.5 -59.5q0 -42 -23.5 -64q-23.5 -22 -52.5 -22q-33 0 -57.5 22t-24.5 64z" />
<glyph unicode="&#169;" horiz-adv-x="1018" d="M70 221q0 93 34 173q34 80 93 139q59 59 139 93q80 34 173 34q93 0 173 -34q80 -34 139 -93q59 -59 93 -139q34 -80 34 -173q0 -93 -34 -173q-34 -80 -93 -139q-59 -59 -139 -93q-80 -34 -173 -34q-93 0 -173 34q-80 34 -139 93q-59 59 -93 139q-34 80 -34 173zt0 0zM200 220q0 -63 23.5 -119q23.5 -56 64.5 -98q41 -42 98 -66.5q57 -24.5 124 -24.5q66 0 122.5 24.5q56.5 24.5 98 66.5q41.5 42 64.5 98q23 56 23 119q0 64 -23 120.5q-23 56.5 -64.5 98.5q-41.5 42 -98 66.5q-56.5 24.5 -122.5 24.5q-67 0 -124 -24.5q-57 -24.5 -98 -66.5q-41 -42 -64.5 -98.5q-23.5 -56.5 -23.5 -120.5zt0 0zM700 68q-29 -39 -77 -59.5q-48 -20.5 -107 -20.5q-56 0 -102 17q-46 17 -78 48q-32 31 -49.5 75q-17.5 44 -17.5 97q0 49 17 92q17 43 48.5 75.5q31.5 32.5 75.5 51q44 18.5 97 18.5q58 0 105.5 -16q47.5 -16 78.5 -48l-69 -118q-24 24 -47 33q-23 9 -49 9q-18 0 -35 -6q-17 -6 -31 -18.5q-14 -12.5 -22.5 -30.5q-8.5 -18 -8.5 -42q0 -23 9 -41q9 -18 23 -30.5q14 -12.5 31.5 -19q17.5 -6.5 35.5 -6.5q33 0 57.5 14q24.5 14 44.5 36z" />
<glyph unicode="&#170;" horiz-adv-x="465" d="M77 620q25 14 62 26q37 12 101 12q29 0 58.5 -8q29.5 -8 53 -25.5q23.5 -17.5 38.5 -44.5q15 -27 15 -65v-225h-130v38q-19 -21 -46 -32.5q-27 -11.5 -78 -11.5q-26 0 -46.5 9q-20.5 9 -34.5 25q-14 16 -22 36.5q-8 20.5 -8 44.5q0 62 34.5 92.5q34.5 30.5 97.5 30.5q31 0 55.5 -4.5q24.5 -4.5 45.5 -12.5q-5 24 -20.5 33.5q-15.5 9.5 -38.5 9.5q-31 0 -53 -5q-22 -5 -33 -11zM220 394q12 0 26 3q14 3 29 11l0 15q-14 4 -27.5 6.5q-13.5 2.5 -28.5 2.5q-24 0 -31.5 -6q-7.5 -6 -7.5 -13q0 -8 7 -13.5t33 -5.5z" />
<glyph unicode="&#171;" horiz-adv-x="592" d="M260 248v4l205 235l97 -87l-129 -150l129 -152l-102 -85zM30 248v4l205 235l97 -87l-129 -150l129 -152l-102 -85z" />
<glyph unicode="&#172;" horiz-adv-x="600" d="M43 425h514v-261h-130v131l-384 0z" />
<glyph unicode="&#173;" horiz-adv-x="364" d="M50 345h264v-140l-264 0z" />
<glyph unicode="&#174;" horiz-adv-x="708" d="M40 498q0 64 24.5 121q24.5 57 67 99.5q42.5 42.5 100.5 67q58 24.5 124 24.5q64 0 121 -24.5q57 -24.5 99.5 -67q42.5 -42.5 67 -99.5q24.5 -57 24.5 -121q0 -66 -24.5 -124q-24.5 -58 -67 -101q-42.5 -43 -99.5 -67.5q-57 -24.5 -121 -24.5q-66 0 -124 24.5q-58 24.5 -100.5 67.5q-42.5 43 -67 101q-24.5 58 -24.5 124zt0 0zM160 496q0 -40 15.5 -75.5q15.5 -35.5 41.5 -61.5q26 -26 61.5 -41.5q35.5 -15.5 75.5 -15.5q40 0 75.5 15.5q35.5 15.5 61.5 41.5q26 26 41.5 61.5q15.5 35.5 15.5 75.5q0 40 -15.5 75.5q-15.5 35.5 -41.5 61.5q-26 26 -61.5 41.5q-35.5 15.5 -75.5 15.5q-40 0 -75.5 -15.5q-35.5 -15.5 -61.5 -41.5q-26 -26 -41.5 -61.5q-15.5 -35.5 -15.5 -75.5zt0 0zM231 360v280h136q61 0 90.5 -26.5q29.5 -26.5 29.5 -71.5q0 -32 -14.5 -53.5q-14.5 -21.5 -31.5 -29.5l43 -99h-114l-23 76h-16v-76zM331 570v-64h19q23 0 30 11q7 11 7 23q0 14 -8.5 22q-8.5 8 -26.5 8z" />
<glyph unicode="&#175;" horiz-adv-x="414" d="M60 640h294v-120l-294 0z" />
<glyph unicode="&#176;" horiz-adv-x="440" d="M40 568q0 39 14 72.5q14 33.5 38.5 58q24.5 24.5 57 38q32.5 13.5 68.5 13.5q37 0 70.5 -12.5q33.5 -12.5 58 -35.5q24.5 -23 39 -55.5q14.5 -32.5 14.5 -71.5q0 -38 -14.5 -72q-14.5 -34 -39 -59q-24.5 -25 -58 -39.5q-33.5 -14.5 -70.5 -14.5q-36 0 -68.5 13.5q-32.5 13.5 -57 37.5q-24.5 24 -38.5 56.5q-14 32.5 -14 70.5zt0 0zM170 570q0 -20 15 -35q15 -15 35 -15q20 0 35 15q15 15 15 35q0 20 -15 35q-15 15 -35 15q-20 0 -35 -15t-15 -35z" />
<glyph unicode="&#177;" horiz-adv-x="600" d="M63 525h166v171h140v-171h168v-130h-168v-83h-140v83h-166zM63 275h474v-130l-474 0z" />
<glyph unicode="&#178;" horiz-adv-x="376" d="M25 444q31 17 61.5 34.5q30.5 17.5 55 33.5q24.5 16 40 31q15.5 15 15.5 28q0 13 -7.5 18q-7.5 5 -18.5 5q-9 0 -15.5 -4.5q-6.5 -4.5 -11 -11.5q-4.5 -7 -7.5 -14q-3 -7 -4 -13l-107 39q9 51 48.5 82.5q39.5 31.5 111.5 31.5q73 0 111.5 -31q38.5 -31 38.5 -83q0 -30 -15 -52q-15 -22 -37 -37q-22 -15 -47 -25q-25 -10 -44 -16l158 0v-110l-326 0z" />
<glyph unicode="&#179;" horiz-adv-x="372" d="M181 343q-56 0 -102 20q-46 20 -69 58l74 70q8 -14 28.5 -28.5q20.5 -14.5 45.5 -14.5q25 0 34.5 5q9.5 5 9.5 13q0 5 -8 10q-8 5 -37 5h-27v90h25q20 0 28 5q8 5 8 13q0 5 -7 9q-7 4 -22 4q-26 0 -46 -11.5q-20 -11.5 -34 -24.5l-61 71q10 13 24.5 25.5q14.5 12.5 34.5 22.5q20 10 47 16q27 6 62 6q61 0 101.5 -24q40.5 -24 40.5 -66q0 -35 -22 -54.5q-22 -19.5 -58 -26.5l0 -1q46 -2 68.5 -25.5q22.5 -23.5 22.5 -55.5q0 -26 -13.5 -47q-13.5 -21 -35.5 -35q-22 -14 -51.5 -21.5t-60.5 -7.5z" />
<glyph unicode="&#180;" horiz-adv-x="340" d="M149 503l-89 63l103 172l117 -89z" />
<glyph unicode="&#181;" horiz-adv-x="540" d="M485 0h-150v45q-17 -21 -47.5 -39q-30.5 -18 -81.5 -18h-1v-188h-150v650h150v-251q0 -13 3 -26q3 -13 9.5 -23q6.5 -10 17.5 -16q11 -6 28 -6q19 0 37 9.5q18 9.5 35 31.5l0 281l150 0z" />
<glyph unicode="&#182;" horiz-adv-x="521" d="M30 481q0 51 18 91.5q18 40.5 49 69q31 28.5 72.5 43.5q41.5 15 89.5 15h242v-140h-94v-532q0 -121 -54.5 -178.5q-54.5 -57.5 -154.5 -57.5q-45 0 -85.5 17q-40.5 17 -61.5 40l59 108q12 -9 32 -17q20 -8 45 -8q40 0 55 29q15 29 15 73v229q-43 0 -83.5 15q-40.5 15 -72.5 43q-32 28 -51.5 68.5t-19.5 91.5z" />
<glyph unicode="&#183;" horiz-adv-x="200" d="M2 306q0 17 7 33.5q7 16.5 20 30q13 13.5 32 22q19 8.5 43 8.5q21 0 38.5 -8.5q17.5 -8.5 29.5 -22q12 -13.5 19 -30q7 -16.5 7 -33.5q0 -20 -7 -38.5q-7 -18.5 -19 -32.5q-12 -14 -29.5 -22.5q-17.5 -8.5 -38.5 -8.5q-24 0 -43 8.5q-19 8.5 -32 22.5q-13 14 -20 32.5t-7 38.5z" />
<glyph unicode="&#184;" horiz-adv-x="404" d="M104 -92q11 -11 29.5 -19.5q18.5 -8.5 38.5 -8.5q9 0 15.5 3q6.5 3 6.5 10q0 17 -25 17h-6v90h75v-26q51 -5 78.5 -27q27.5 -22 27.5 -63q0 -42 -37.5 -68q-37.5 -26 -113.5 -26q-29 0 -50 5q-21 5 -37 12.5q-16 7.5 -27 16q-11 8.5 -19 15.5z" />
<glyph unicode="&#185;" horiz-adv-x="285" d="M131 698h94v-348h-130v200l-38 -20l-47 88z" />
<glyph unicode="&#186;" horiz-adv-x="522" d="M50 472q0 43 15.5 77.5q15.5 34.5 43.5 58.5q28 24 67 37q39 13 85 13q46 0 85 -13q39 -13 67 -37q28 -24 43.5 -58.5q15.5 -34.5 15.5 -77.5q0 -43 -15.5 -77.5q-15.5 -34.5 -43.5 -59q-28 -24.5 -67 -38q-39 -13.5 -85 -13.5q-46 0 -85 13.5q-39 13.5 -67 38q-28 24.5 -43.5 59q-15.5 34.5 -15.5 77.5zt0 0zM190 472q0 -32 20 -50q20 -18 51 -18q32 0 51.5 18q19.5 18 19.5 50q0 31 -19.5 48.5q-19.5 17.5 -51.5 17.5q-32 0 -51.5 -17.5t-19.5 -48.5z" />
<glyph unicode="&#187;" horiz-adv-x="592" d="M362 13l-102 85l129 152l-129 150l97 87l205 -235v-4zM132 13l-102 85l129 152l-129 150l97 87l205 -235l0 -4z" />
<glyph unicode="&#188;" horiz-adv-x="713" d="M131 698h94v-348h-130v200l-38 -20l-47 88zM537 712l84 -63l-495 -661l-86 59zM521 61h-191v87l141 202h123l-134 -189h61v64h120v-64h52v-100h-52v-61l-120 0z" />
<glyph unicode="&#189;" horiz-adv-x="731" d="M131 698h94v-348h-130v200l-38 -20l-47 88zM537 712l84 -63l-495 -661l-86 59zM365 94q31 17 61.5 34.5q30.5 17.5 55 33.5q24.5 16 40 31q15.5 15 15.5 28q0 13 -7.5 18q-7.5 5 -18.5 5q-9 0 -15.5 -4.5q-6.5 -4.5 -11 -11.5q-4.5 -7 -7.5 -14q-3 -7 -4 -13l-107 39q9 51 48.5 82.5q39.5 31.5 111.5 31.5q73 0 111.5 -31q38.5 -31 38.5 -83q0 -30 -15 -52q-15 -22 -37 -37q-22 -15 -47 -25q-25 -10 -44 -16l158 0v-110l-326 0z" />
<glyph unicode="&#190;" horiz-adv-x="783" d="M617 712l84 -63l-495 -661l-86 59zM591 61h-191v87l141 202h123l-134 -189h61v64h120v-64h52v-100h-52v-61h-120zM191 343q-56 0 -102 20q-46 20 -69 58l74 70q8 -14 28.5 -28.5q20.5 -14.5 45.5 -14.5q25 0 34.5 5q9.5 5 9.5 13q0 5 -8 10q-8 5 -37 5h-27v90h25q20 0 28 5q8 5 8 13q0 5 -7 9q-7 4 -22 4q-26 0 -46 -11.5q-20 -11.5 -34 -24.5l-61 71q10 13 24.5 25.5q14.5 12.5 34.5 22.5q20 10 47 16q27 6 62 6q61 0 101.5 -24q40.5 -24 40.5 -66q0 -35 -22 -54.5q-22 -19.5 -58 -26.5l0 -1q46 -2 68.5 -25.5q22.5 -23.5 22.5 -55.5q0 -26 -13.5 -47q-13.5 -21 -35.5 -35q-22 -14 -51.5 -21.5t-60.5 -7.5z" />
<glyph unicode="&#191;" horiz-adv-x="481" d="M181 -44q0 -24 19 -43q19 -19 47 -19q38 0 61 13q23 13 45 41l88 -101q-27 -44 -79 -73.5q-52 -29.5 -123 -29.5q-52 0 -92.5 14q-40.5 14 -68.5 38.5q-28 24.5 -43 57q-15 32.5 -15 69.5q0 49 13.5 83q13.5 34 34 59q20.5 25 43.5 43.5q23 18.5 42 35.5q19 17 30.5 36q11.5 19 8.5 44l136 0q6 -41 -3 -69.5q-9 -28.5 -25 -49q-16 -20.5 -37 -36q-21 -15.5 -39 -31.5q-18 -16 -30.5 -35q-12.5 -19 -12.5 -47zt0 0zM354 360q0 -17 -7 -33.5q-7 -16.5 -20 -30q-13 -13.5 -32 -22q-19 -8.5 -43 -8.5q-21 0 -38.5 8.5q-17.5 8.5 -29.5 22q-12 13.5 -19 30q-7 16.5 -7 33.5q0 20 7 38.5q7 18.5 19 32.5q12 14 29.5 22.5q17.5 8.5 38.5 8.5q24 0 43 -8.5q19 -8.5 32 -22.5q13 -14 20 -32.5t7 -38.5z" />
<glyph unicode="&#192;" horiz-adv-x="725" d="M291 700h143l291 -700h-171l-58 147h-277l-58 -147h-161zM279 297h157l-78 198zM177 806l56 129l234 -118l-41 -89z" />
<glyph unicode="&#193;" horiz-adv-x="725" d="M291 700h143l291 -700h-171l-58 147h-277l-58 -147h-161zM279 297h157l-78 198zM298 728l-41 89l234 118l56 -129z" />
<glyph unicode="&#194;" horiz-adv-x="725" d="M291 700h143l291 -700h-171l-58 147h-277l-58 -147h-161zM279 297h157l-78 198zM357 925h4l184 -117l-58 -85l-128 66l-128 -66l-52 83z" />
<glyph unicode="&#195;" horiz-adv-x="725" d="M291 700h143l291 -700h-171l-58 147h-277l-58 -147h-161zM279 297h157l-78 198zM174 840q23 28 57 45.5q34 17.5 68 17.5q22 0 38.5 -4.5q16.5 -4.5 31 -10.5q14.5 -6 30 -10.5q15.5 -4.5 35.5 -4.5q17 0 38 5q21 5 40 25l38 -94q-41 -66 -126 -66q-19 0 -35 4.5q-16 4.5 -31.5 10.5q-15.5 6 -33 10.5q-17.5 4.5 -38.5 4.5q-33 0 -66 -27z" />
<glyph unicode="&#196;" horiz-adv-x="725" d="M291 700h143l291 -700h-171l-58 147h-277l-58 -147h-161zM279 297h157l-78 198zM152 837q0 37 28.5 57.5q28.5 20.5 69.5 20.5q17 0 33.5 -5.5q16.5 -5.5 29 -15.5q12.5 -10 20.5 -24.5q8 -14.5 8 -32.5q0 -21 -8 -36.5q-8 -15.5 -20.5 -26q-12.5 -10.5 -29 -16q-16.5 -5.5 -33.5 -5.5q-41 0 -69.5 21q-28.5 21 -28.5 63zt0 0zM383 837q0 37 29 57.5q29 20.5 69 20.5q18 0 34 -5.5q16 -5.5 29 -15.5q13 -10 20.5 -24.5q7.5 -14.5 7.5 -32.5q0 -21 -7.5 -36.5q-7.5 -15.5 -20.5 -26q-13 -10.5 -29 -16q-16 -5.5 -34 -5.5q-40 0 -69 21t-29 63z" />
<glyph unicode="&#197;" horiz-adv-x="725" d="M205 809q0 31 12.5 53.5q12.5 22.5 33.5 36.5q21 14 49 21q28 7 60 7q33 0 62.5 -7q29.5 -7 51 -21q21.5 -14 34 -36.5q12.5 -22.5 12.5 -53.5q0 -43 -24 -70q-24 -27 -62 -40l291 -699h-171l-58 147h-277l-58 -147h-161l290 698q-38 13 -61.5 40.5q-23.5 27.5 -23.5 70.5zt0 0zM279 297h157l-78 198zM315 809q0 -21 13.5 -31q13.5 -10 33.5 -10q20 0 34 10q14 10 14 31q0 20 -14 29q-14 9 -34 9q-20 0 -33.5 -9t-13.5 -29z" />
<glyph unicode="&#198;" horiz-adv-x="946" d="M876 550h-255v-123h225v-150h-225v-127h265v-150h-425v147h-215l-101 -147h-185l503 700h413zM350 297h111l0 160z" />
<glyph unicode="&#199;" horiz-adv-x="655" d="M281 -83q11 -11 32.5 -24q21.5 -13 41.5 -13q9 0 15.5 3q6.5 3 6.5 10q0 17 -25 17h-6v82q-69 9 -125.5 38.5q-56.5 29.5 -96.5 76q-40 46.5 -62 108q-22 61.5 -22 135.5q0 75 23.5 141q23.5 66 69.5 115q46 49 114.5 77.5q68.5 28.5 158.5 28.5q70 0 126 -21q56 -21 88 -52l-71 -120q-29 17 -61 30q-32 13 -82 13q-41 0 -76.5 -13.5q-35.5 -13.5 -62 -40.5q-26.5 -27 -42 -66.5q-15.5 -39.5 -15.5 -91.5q0 -47 15.5 -85.5q15.5 -38.5 43.5 -67q28 -28.5 67 -44q39 -15.5 86 -15.5q38 0 77.5 12.5q39.5 12.5 74.5 38.5l61 -120q-30 -34 -88 -56.5q-58 -22.5 -126 -24.5l0 -14q60 -5 88 -27q28 -22 28 -63q0 -42 -37.5 -68q-37.5 -26 -107.5 -26q-35 0 -61 5.5q-26 5.5 -45 14q-19 8.5 -32 17.5q-13 9 -21 16z" />
<glyph unicode="&#200;" horiz-adv-x="575" d="M90 700h415v-150h-255v-123h225v-150h-225v-127h265v-150h-425zM117 806l56 129l234 -118l-41 -89z" />
<glyph unicode="&#201;" horiz-adv-x="575" d="M90 700h415v-150h-255v-123h225v-150h-225v-127h265v-150h-425zM248 728l-41 89l234 118l56 -129z" />
<glyph unicode="&#202;" horiz-adv-x="575" d="M90 700h415v-150h-255v-123h225v-150h-225v-127h265v-150h-425zM293 925h4l184 -117l-58 -85l-128 66l-128 -66l-52 83z" />
<glyph unicode="&#203;" horiz-adv-x="575" d="M90 700h415v-150h-255v-123h225v-150h-225v-127h265v-150h-425zM92 837q0 37 28.5 57.5q28.5 20.5 69.5 20.5q17 0 33.5 -5.5q16.5 -5.5 29 -15.5q12.5 -10 20.5 -24.5q8 -14.5 8 -32.5q0 -21 -8 -36.5q-8 -15.5 -20.5 -26q-12.5 -10.5 -29 -16q-16.5 -5.5 -33.5 -5.5q-41 0 -69.5 21q-28.5 21 -28.5 63zt0 0zM323 837q0 37 29 57.5q29 20.5 69 20.5q18 0 34 -5.5q16 -5.5 29 -15.5q13 -10 20.5 -24.5q7.5 -14.5 7.5 -32.5q0 -21 -7.5 -36.5q-7.5 -15.5 -20.5 -26q-13 -10.5 -29 -16q-16 -5.5 -34 -5.5q-40 0 -69 21t-29 63z" />
<glyph unicode="&#204;" horiz-adv-x="360" d="M100 700h160v-700h-160zM-13 806l56 129l234 -118l-41 -89z" />
<glyph unicode="&#205;" horiz-adv-x="360" d="M100 700h160v-700h-160zM128 728l-41 89l234 118l56 -129z" />
<glyph unicode="&#206;" horiz-adv-x="360" d="M100 700h160v-700h-160zM175 925h4l184 -117l-58 -85l-128 66l-128 -66l-52 83z" />
<glyph unicode="&#207;" horiz-adv-x="360" d="M100 700h160v-700h-160zM-30 837q0 37 28.5 57.5q28.5 20.5 69.5 20.5q17 0 33.5 -5.5q16.5 -5.5 29 -15.5q12.5 -10 20.5 -24.5q8 -14.5 8 -32.5q0 -21 -8 -36.5q-8 -15.5 -20.5 -26q-12.5 -10.5 -29 -16q-16.5 -5.5 -33.5 -5.5q-41 0 -69.5 21q-28.5 21 -28.5 63zt0 0zM201 837q0 37 29 57.5q29 20.5 69 20.5q18 0 34 -5.5q16 -5.5 29 -15.5q13 -10 20.5 -24.5q7.5 -14.5 7.5 -32.5q0 -21 -7.5 -36.5q-7.5 -15.5 -20.5 -26q-13 -10.5 -29 -16q-16 -5.5 -34 -5.5q-40 0 -69 21t-29 63z" />
<glyph unicode="&#208;" horiz-adv-x="744" d="M10 418h80v282h14q14 0 41.5 0.5q27.5 0.5 58.5 1q31 0.5 60.5 1q29.5 0.5 46.5 0.5q105 0 179.5 -28q74.5 -28 122 -75.5q47.5 -47.5 69.5 -110.5q22 -63 22 -133q0 -74 -25 -139q-25 -65 -75.5 -113.5q-50.5 -48.5 -125.5 -77q-75 -28.5 -175 -28.5q-14 0 -37 0.5q-23 0.5 -50 0.5q-27 0 -55.5 0.5q-28.5 0.5 -53.5 0.5h-17v278h-80zM309 553q-13 0 -28.5 -0.5q-15.5 -0.5 -30.5 -2.5l0 -132h164v-140h-164v-128q16 -2 28.5 -2q12.5 0 29.5 0q104 0 165 54q61 54 61 154q0 48 -17 85q-17 37 -47 62q-30 25 -71 37.5t-90 12.5z" />
<glyph unicode="&#209;" horiz-adv-x="790" d="M572 0l-332 420v-420h-150v700h128l332 -422v422h150v-700zM215 840q23 28 57 45.5q34 17.5 68 17.5q22 0 38.5 -4.5q16.5 -4.5 31 -10.5q14.5 -6 30 -10.5q15.5 -4.5 35.5 -4.5q17 0 38 5q21 5 40 25l38 -94q-41 -66 -126 -66q-19 0 -35 4.5q-16 4.5 -31.5 10.5q-15.5 6 -33 10.5q-17.5 4.5 -38.5 4.5q-33 0 -66 -27z" />
<glyph unicode="&#210;" horiz-adv-x="824" d="M40 350q0 76 27 142q27 66 75.5 115q48.5 49 117 77q68.5 28 152.5 28q80 0 148 -25q68 -25 118 -72q50 -47 78 -114q28 -67 28 -151q0 -80 -28 -146.5q-28 -66.5 -78 -114.5q-50 -48 -118 -74.5q-68 -26.5 -148 -26.5q-80 0 -148 25q-68 25 -118 72q-50 47 -78 114q-28 67 -28 151zt0 0zM210 350q0 -45 16 -84q16 -39 43 -67.5q27 -28.5 64 -44.5q37 -16 79 -16q50 0 87.5 16.5q37.5 16.5 63 45q25.5 28.5 38.5 67.5q13 39 13 83q0 48 -15.5 87q-15.5 39 -43 67q-27.5 28 -64.5 43q-37 15 -79 15q-44 0 -81 -15q-37 -15 -64 -43q-27 -28 -42 -67q-15 -39 -15 -87zt0 0zM237 806l56 129l234 -118l-41 -89z" />
<glyph unicode="&#211;" horiz-adv-x="824" d="M40 350q0 76 27 142q27 66 75.5 115q48.5 49 117 77q68.5 28 152.5 28q80 0 148 -25q68 -25 118 -72q50 -47 78 -114q28 -67 28 -151q0 -80 -28 -146.5q-28 -66.5 -78 -114.5q-50 -48 -118 -74.5q-68 -26.5 -148 -26.5q-80 0 -148 25q-68 25 -118 72q-50 47 -78 114q-28 67 -28 151zt0 0zM210 350q0 -45 16 -84q16 -39 43 -67.5q27 -28.5 64 -44.5q37 -16 79 -16q50 0 87.5 16.5q37.5 16.5 63 45q25.5 28.5 38.5 67.5q13 39 13 83q0 48 -15.5 87q-15.5 39 -43 67q-27.5 28 -64.5 43q-37 15 -79 15q-44 0 -81 -15q-37 -15 -64 -43q-27 -28 -42 -67q-15 -39 -15 -87zt0 0zM368 728l-41 89l234 118l56 -129z" />
<glyph unicode="&#212;" horiz-adv-x="824" d="M40 350q0 76 27 142q27 66 75.5 115q48.5 49 117 77q68.5 28 152.5 28q80 0 148 -25q68 -25 118 -72q50 -47 78 -114q28 -67 28 -151q0 -80 -28 -146.5q-28 -66.5 -78 -114.5q-50 -48 -118 -74.5q-68 -26.5 -148 -26.5q-80 0 -148 25q-68 25 -118 72q-50 47 -78 114q-28 67 -28 151zt0 0zM210 350q0 -45 16 -84q16 -39 43 -67.5q27 -28.5 64 -44.5q37 -16 79 -16q50 0 87.5 16.5q37.5 16.5 63 45q25.5 28.5 38.5 67.5q13 39 13 83q0 48 -15.5 87q-15.5 39 -43 67q-27.5 28 -64.5 43q-37 15 -79 15q-44 0 -81 -15q-37 -15 -64 -43q-27 -28 -42 -67q-15 -39 -15 -87zt0 0zM410 925h4l184 -117l-58 -85l-128 66l-128 -66l-52 83z" />
<glyph unicode="&#213;" horiz-adv-x="824" d="M40 350q0 76 27 142q27 66 75.5 115q48.5 49 117 77q68.5 28 152.5 28q80 0 148 -25q68 -25 118 -72q50 -47 78 -114q28 -67 28 -151q0 -80 -28 -146.5q-28 -66.5 -78 -114.5q-50 -48 -118 -74.5q-68 -26.5 -148 -26.5q-80 0 -148 25q-68 25 -118 72q-50 47 -78 114q-28 67 -28 151zt0 0zM210 350q0 -45 16 -84q16 -39 43 -67.5q27 -28.5 64 -44.5q37 -16 79 -16q50 0 87.5 16.5q37.5 16.5 63 45q25.5 28.5 38.5 67.5q13 39 13 83q0 48 -15.5 87q-15.5 39 -43 67q-27.5 28 -64.5 43q-37 15 -79 15q-44 0 -81 -15q-37 -15 -64 -43q-27 -28 -42 -67q-15 -39 -15 -87zt0 0zM217 840q23 28 57 45.5q34 17.5 68 17.5q22 0 38.5 -4.5q16.5 -4.5 31 -10.5q14.5 -6 30 -10.5q15.5 -4.5 35.5 -4.5q17 0 38 5q21 5 40 25l38 -94q-41 -66 -126 -66q-19 0 -35 4.5q-16 4.5 -31.5 10.5q-15.5 6 -33 10.5q-17.5 4.5 -38.5 4.5q-33 0 -66 -27z" />
<glyph unicode="&#214;" horiz-adv-x="824" d="M40 350q0 76 27 142q27 66 75.5 115q48.5 49 117 77q68.5 28 152.5 28q80 0 148 -25q68 -25 118 -72q50 -47 78 -114q28 -67 28 -151q0 -80 -28 -146.5q-28 -66.5 -78 -114.5q-50 -48 -118 -74.5q-68 -26.5 -148 -26.5q-80 0 -148 25q-68 25 -118 72q-50 47 -78 114q-28 67 -28 151zt0 0zM210 350q0 -45 16 -84q16 -39 43 -67.5q27 -28.5 64 -44.5q37 -16 79 -16q50 0 87.5 16.5q37.5 16.5 63 45q25.5 28.5 38.5 67.5q13 39 13 83q0 48 -15.5 87q-15.5 39 -43 67q-27.5 28 -64.5 43q-37 15 -79 15q-44 0 -81 -15q-37 -15 -64 -43q-27 -28 -42 -67q-15 -39 -15 -87zt0 0zM197 837q0 37 28.5 57.5q28.5 20.5 69.5 20.5q17 0 33.5 -5.5q16.5 -5.5 29 -15.5q12.5 -10 20.5 -24.5q8 -14.5 8 -32.5q0 -21 -8 -36.5q-8 -15.5 -20.5 -26q-12.5 -10.5 -29 -16q-16.5 -5.5 -33.5 -5.5q-41 0 -69.5 21q-28.5 21 -28.5 63zt0 0zM428 837q0 37 29 57.5q29 20.5 69 20.5q18 0 34 -5.5q16 -5.5 29 -15.5q13 -10 20.5 -24.5q7.5 -14.5 7.5 -32.5q0 -21 -7.5 -36.5q-7.5 -15.5 -20.5 -26q-13 -10.5 -29 -16q-16 -5.5 -34 -5.5q-40 0 -69 21t-29 63z" />
<glyph unicode="&#215;" horiz-adv-x="600" d="M179 573l121 -121l121 121l92 -92l-121 -121l122 -122l-92 -92l-122 122l-122 -122l-92 92l122 122l-121 121z" />
<glyph unicode="&#216;" horiz-adv-x="824" d="M40 350q0 76 27 142q27 66 75.5 115q48.5 49 117 77q68.5 28 152.5 28q60 0 113 -14.5q53 -14.5 98 -41.5l37 36l86 -88l-31 -31q33 -44 51 -100q18 -56 18 -123q0 -80 -28 -146.5q-28 -66.5 -78 -114.5q-50 -48 -118 -74.5q-68 -26.5 -148 -26.5q-133 0 -228 66l-40 -39l-86 88l40 39q-28 43 -43 94.5q-15 51.5 -15 113.5zt0 0zM614 350q0 57 -23 103l-288 -282q23 -16 50.5 -24.5q27.5 -8.5 58.5 -8.5q50 0 87.5 16.5q37.5 16.5 63 45q25.5 28.5 38.5 67.5q13 39 13 83zt0 0zM210 350q0 -46 15 -83l280 273q-44 22 -93 22q-44 0 -81 -15q-37 -15 -64 -43q-27 -28 -42 -67t-15 -87z" />
<glyph unicode="&#217;" horiz-adv-x="751" d="M671 289q0 -80 -23.5 -137q-23.5 -57 -63 -93.5q-39.5 -36.5 -91.5 -53.5q-52 -17 -108 -17q-68 0 -124 19.5q-56 19.5 -96 58q-40 38.5 -62.5 96q-22.5 57.5 -22.5 134.5v404h160v-370q0 -41 7 -76q7 -35 23.5 -61q16.5 -26 44.5 -40.5q28 -14.5 70 -14.5q36 0 60.5 13q24.5 13 39 36.5q14.5 23.5 20.5 57.5q6 34 6 76v379h160zM187 806l56 129l234 -118l-41 -89z" />
<glyph unicode="&#218;" horiz-adv-x="751" d="M671 289q0 -80 -23.5 -137q-23.5 -57 -63 -93.5q-39.5 -36.5 -91.5 -53.5q-52 -17 -108 -17q-68 0 -124 19.5q-56 19.5 -96 58q-40 38.5 -62.5 96q-22.5 57.5 -22.5 134.5v404h160v-370q0 -41 7 -76q7 -35 23.5 -61q16.5 -26 44.5 -40.5q28 -14.5 70 -14.5q36 0 60.5 13q24.5 13 39 36.5q14.5 23.5 20.5 57.5q6 34 6 76v379h160zM328 728l-41 89l234 118l56 -129z" />
<glyph unicode="&#219;" horiz-adv-x="751" d="M671 289q0 -80 -23.5 -137q-23.5 -57 -63 -93.5q-39.5 -36.5 -91.5 -53.5q-52 -17 -108 -17q-68 0 -124 19.5q-56 19.5 -96 58q-40 38.5 -62.5 96q-22.5 57.5 -22.5 134.5v404h160v-370q0 -41 7 -76q7 -35 23.5 -61q16.5 -26 44.5 -40.5q28 -14.5 70 -14.5q36 0 60.5 13q24.5 13 39 36.5q14.5 23.5 20.5 57.5q6 34 6 76v379h160zM369 925h4l184 -117l-58 -85l-128 66l-128 -66l-52 83z" />
<glyph unicode="&#220;" horiz-adv-x="751" d="M671 289q0 -80 -23.5 -137q-23.5 -57 -63 -93.5q-39.5 -36.5 -91.5 -53.5q-52 -17 -108 -17q-68 0 -124 19.5q-56 19.5 -96 58q-40 38.5 -62.5 96q-22.5 57.5 -22.5 134.5v404h160v-370q0 -41 7 -76q7 -35 23.5 -61q16.5 -26 44.5 -40.5q28 -14.5 70 -14.5q36 0 60.5 13q24.5 13 39 36.5q14.5 23.5 20.5 57.5q6 34 6 76v379h160zM157 837q0 37 28.5 57.5q28.5 20.5 69.5 20.5q17 0 33.5 -5.5q16.5 -5.5 29 -15.5q12.5 -10 20.5 -24.5q8 -14.5 8 -32.5q0 -21 -8 -36.5q-8 -15.5 -20.5 -26q-12.5 -10.5 -29 -16q-16.5 -5.5 -33.5 -5.5q-41 0 -69.5 21q-28.5 21 -28.5 63zt0 0zM388 837q0 37 29 57.5q29 20.5 69 20.5q18 0 34 -5.5q16 -5.5 29 -15.5q13 -10 20.5 -24.5q7.5 -14.5 7.5 -32.5q0 -21 -7.5 -36.5q-7.5 -15.5 -20.5 -26q-13 -10.5 -29 -16q-16 -5.5 -34 -5.5q-40 0 -69 21t-29 63z" />
<glyph unicode="&#221;" horiz-adv-x="654" d="M406 285v-285h-160v285l-246 415h183l150 -265l148 265h173zM278 728l-41 89l234 118l56 -129z" />
<glyph unicode="&#222;" horiz-adv-x="627" d="M90 0v700h160v-100q3 0 10.5 0.5q7.5 0.5 15.5 0.5q8 0 16 0.5q8 0.5 12 0.5q80 0 134 -19q54 -19 87 -51.5q33 -32.5 47.5 -74.5q14.5 -42 14.5 -87q0 -47 -17.5 -89.5q-17.5 -42.5 -51 -75q-33.5 -32.5 -81.5 -51.5q-48 -19 -109 -19q-11 0 -35 0.5q-24 0.5 -43 2.5l0 -138zM306 452q-12 0 -28.5 -1q-16.5 -1 -27.5 -3l0 -158q17 -2 36.5 -3.5q19.5 -1.5 36.5 -1.5q16 0 32.5 4q16.5 4 30 13.5q13.5 9.5 22.5 26q9 16.5 9 42.5q0 23 -8 38.5q-8 15.5 -22.5 25q-14.5 9.5 -35 13.5t-45.5 4z" />
<glyph unicode="&#223;" horiz-adv-x="556" d="M376 167q0 17 -10.5 31q-10.5 14 -26.5 27q-16 13 -34.5 26q-18.5 13 -34.5 29q-16 16 -26.5 36.5q-10.5 20.5 -10.5 47.5q0 41 11 66q11 25 23.5 41.5q12.5 16.5 23.5 30q11 13.5 11 32.5q0 16 -13 27q-13 11 -36 11q-29 0 -41 -22q-12 -22 -12 -68v-482h-150v493q0 116 60.5 167.5q60.5 51.5 164.5 51.5q41 0 75.5 -12q34.5 -12 59 -32q24.5 -20 38.5 -47.5q14 -27.5 14 -57.5q0 -38 -11 -59.5q-11 -21.5 -23.5 -37.5q-12.5 -16 -23.5 -31.5q-11 -15.5 -11 -40.5q0 -22 10.5 -36.5q10.5 -14.5 26.5 -27q16 -12.5 34.5 -26q18.5 -13.5 34.5 -32q16 -18.5 26.5 -45q10.5 -26.5 10.5 -65.5q0 -34 -11.5 -65.5q-11.5 -31.5 -33 -55.5q-21.5 -24 -52 -38.5q-30.5 -14.5 -67.5 -14.5q-52 0 -89 15q-37 15 -60 38l46 115q18 -15 33.5 -21.5q15.5 -6.5 32.5 -6.5q19 0 30 8.5t11 30.5z" />
<glyph unicode="&#224;" horiz-adv-x="465" d="M66 418q27 17 73 30.5q46 13.5 94 13.5q103 0 145 -50q42 -50 42 -141v-271h-130v41q-17 -23 -49 -35q-32 -12 -69 -12q-61 0 -101.5 36.5q-40.5 36.5 -40.5 105.5q0 38 13 66q13 28 35 46.5q22 18.5 51.5 27.5q29.5 9 62.5 9q30 0 53.5 -8.5q23.5 -8.5 34.5 -16.5q2 41 -15 59q-17 18 -47 18q-40 0 -67 -10q-27 -10 -48 -18zM223 119q23 0 36.5 7q13.5 7 20.5 16l0 28q-21 15 -57 15q-19 0 -31 -8.5q-12 -8.5 -12 -25.5q0 -15 12 -23.5q12 -8.5 31 -8.5zt0 0zM111 647l119 89l103 -170l-89 -63z" />
<glyph unicode="&#225;" horiz-adv-x="465" d="M66 418q27 17 73 30.5q46 13.5 94 13.5q103 0 145 -50q42 -50 42 -141v-271h-130v41q-17 -23 -49 -35q-32 -12 -69 -12q-61 0 -101.5 36.5q-40.5 36.5 -40.5 105.5q0 38 13 66q13 28 35 46.5q22 18.5 51.5 27.5q29.5 9 62.5 9q30 0 53.5 -8.5q23.5 -8.5 34.5 -16.5q2 41 -15 59q-17 18 -47 18q-40 0 -67 -10q-27 -10 -48 -18zM223 119q23 0 36.5 7q13.5 7 20.5 16l0 28q-21 15 -57 15q-19 0 -31 -8.5q-12 -8.5 -12 -25.5q0 -15 12 -23.5q12 -8.5 31 -8.5zt0 0zM233 503l-89 63l103 172l117 -89z" />
<glyph unicode="&#226;" horiz-adv-x="465" d="M66 418q27 17 73 30.5q46 13.5 94 13.5q103 0 145 -50q42 -50 42 -141v-271h-130v41q-17 -23 -49 -35q-32 -12 -69 -12q-61 0 -101.5 36.5q-40.5 36.5 -40.5 105.5q0 38 13 66q13 28 35 46.5q22 18.5 51.5 27.5q29.5 9 62.5 9q30 0 53.5 -8.5q23.5 -8.5 34.5 -16.5q2 41 -15 59q-17 18 -47 18q-40 0 -67 -10q-27 -10 -48 -18zM223 119q23 0 36.5 7q13.5 7 20.5 16l0 28q-21 15 -57 15q-19 0 -31 -8.5q-12 -8.5 -12 -25.5q0 -15 12 -23.5q12 -8.5 31 -8.5zt0 0zM399 570l-70 -88l-98 81l-100 -79l-67 87l166 135l4 0z" />
<glyph unicode="&#227;" horiz-adv-x="465" d="M66 418q27 17 73 30.5q46 13.5 94 13.5q103 0 145 -50q42 -50 42 -141v-271h-130v41q-17 -23 -49 -35q-32 -12 -69 -12q-61 0 -101.5 36.5q-40.5 36.5 -40.5 105.5q0 38 13 66q13 28 35 46.5q22 18.5 51.5 27.5q29.5 9 62.5 9q30 0 53.5 -8.5q23.5 -8.5 34.5 -16.5q2 41 -15 59q-17 18 -47 18q-40 0 -67 -10q-27 -10 -48 -18zM223 119q23 0 36.5 7q13.5 7 20.5 16l0 28q-21 15 -57 15q-19 0 -31 -8.5q-12 -8.5 -12 -25.5q0 -15 12 -23.5q12 -8.5 31 -8.5zt0 0zM44 586q29 41 64 59.5q35 18.5 68 18.5q18 0 32.5 -6q14.5 -6 28.5 -13.5q14 -7.5 28 -13.5q14 -6 29 -6q12 0 20.5 2q8.5 2 15.5 5.5q7 3.5 14 8.5q7 5 16 11l49 -75q-27 -32 -60.5 -52q-33.5 -20 -66.5 -20q-17 0 -31 6q-14 6 -28 13.5q-14 7.5 -28.5 13.5q-14.5 6 -31.5 6q-15 0 -31 -9q-16 -9 -28 -16z" />
<glyph unicode="&#228;" horiz-adv-x="465" d="M66 418q27 17 73 30.5q46 13.5 94 13.5q103 0 145 -50q42 -50 42 -141v-271h-130v41q-17 -23 -49 -35q-32 -12 -69 -12q-61 0 -101.5 36.5q-40.5 36.5 -40.5 105.5q0 38 13 66q13 28 35 46.5q22 18.5 51.5 27.5q29.5 9 62.5 9q30 0 53.5 -8.5q23.5 -8.5 34.5 -16.5q2 41 -15 59q-17 18 -47 18q-40 0 -67 -10q-27 -10 -48 -18zM223 119q23 0 36.5 7q13.5 7 20.5 16l0 28q-21 15 -57 15q-19 0 -31 -8.5q-12 -8.5 -12 -25.5q0 -15 12 -23.5q12 -8.5 31 -8.5zt0 0zM67 589q0 38 24 59.5q24 21.5 58 21.5q29 0 52.5 -21.5q23.5 -21.5 23.5 -59.5q0 -42 -23.5 -64q-23.5 -22 -52.5 -22q-34 0 -58 22q-24 22 -24 64zt0 0zM260 589q0 38 24.5 59.5q24.5 21.5 57.5 21.5q29 0 52.5 -21.5q23.5 -21.5 23.5 -59.5q0 -42 -23.5 -64q-23.5 -22 -52.5 -22q-33 0 -57.5 22t-24.5 64z" />
<glyph unicode="&#229;" horiz-adv-x="465" d="M66 418q27 17 73 30.5q46 13.5 94 13.5q103 0 145 -50q42 -50 42 -141v-271h-130v41q-17 -23 -49 -35q-32 -12 -69 -12q-61 0 -101.5 36.5q-40.5 36.5 -40.5 105.5q0 38 13 66q13 28 35 46.5q22 18.5 51.5 27.5q29.5 9 62.5 9q30 0 53.5 -8.5q23.5 -8.5 34.5 -16.5q2 41 -15 59q-17 18 -47 18q-40 0 -67 -10q-27 -10 -48 -18zM223 119q23 0 36.5 7q13.5 7 20.5 16l0 28q-21 15 -57 15q-19 0 -31 -8.5q-12 -8.5 -12 -25.5q0 -15 12 -23.5q12 -8.5 31 -8.5zt0 0zM107 611q0 27 10 50.5q10 23.5 28.5 41q18.5 17.5 43.5 27.5q25 10 55 10q30 0 55.5 -10q25.5 -10 44 -27.5q18.5 -17.5 29 -41q10.5 -23.5 10.5 -50.5q0 -26 -10.5 -49.5q-10.5 -23.5 -29 -40.5q-18.5 -17 -44 -27q-25.5 -10 -55.5 -10q-30 0 -55 10q-25 10 -43.5 27q-18.5 17 -28.5 40.5q-10 23.5 -10 49.5zt0 0zM202 613q0 -20 12 -34.5q12 -14.5 32 -14.5q20 0 31 14.5q11 14.5 11 34.5q0 20 -11 33.5q-11 13.5 -31 13.5q-20 0 -32 -13.5t-12 -33.5z" />
<glyph unicode="&#230;" horiz-adv-x="742" d="M233 462q88 0 132 -38q29 18 63.5 28q34.5 10 75.5 10q43 0 82.5 -15q39.5 -15 69.5 -43q30 -28 48 -67q18 -39 18 -87q0 -26 -2 -43q-2 -17 -7 -32l-293 0v-14q10 -20 36.5 -34q26.5 -14 63.5 -14q39 0 69.5 10.5q30.5 10.5 48.5 21.5l41 -106q-37 -25 -81.5 -38q-44.5 -13 -89.5 -13q-52 0 -93.5 13q-41.5 13 -72.5 37q-48 -34 -84 -41q-36 -7 -60 -7q-84 0 -126 39.5q-42 39.5 -42 114.5q0 64 44.5 102.5q44.5 38.5 117.5 38.5q24 0 50.5 -8.5q26.5 -8.5 37.5 -16.5q2 18 -2 32.5q-4 14.5 -12 24.5q-8 10 -19 15.5q-11 5.5 -23 5.5q-45 0 -72.5 -10.5q-27.5 -10.5 -48.5 -18.5l-37 109q13 8 32 16q19 8 41 14q22 6 46 10q24 4 48 4zt0 0zM419 295q0 -5 0.5 -10q0.5 -5 0.5 -10l152 0q-2 24 -20 43.5q-18 19.5 -58 18.5q-17 0 -39 -9q-22 -9 -36 -33zt0 0zM223 119q14 0 29 6q15 6 26 14l2 31q-11 8 -25.5 11.5q-14.5 3.5 -31.5 3.5q-21 0 -32 -10.5q-11 -10.5 -11 -23.5q0 -10 9.5 -21t33.5 -11z" />
<glyph unicode="&#231;" horiz-adv-x="485" d="M163 -92q11 -11 29.5 -19.5q18.5 -8.5 38.5 -8.5q9 0 15.5 3q6.5 3 6.5 10q0 17 -25 17h-6v83q-89 15 -140.5 76.5q-51.5 61.5 -51.5 155.5q0 49 17 92q17 43 48.5 75.5q31.5 32.5 75.5 51q44 18.5 97 18.5q58 0 105.5 -16q47.5 -16 78.5 -48l-69 -118q-24 24 -47 33q-23 9 -49 9q-18 0 -35 -6q-17 -6 -31 -18.5q-14 -12.5 -22.5 -30.5q-8.5 -18 -8.5 -42q0 -23 9 -41q9 -18 23 -30.5q14 -12.5 31.5 -19q17.5 -6.5 35.5 -6.5q33 0 57.5 14q24.5 14 44.5 36l70 -110q-26 -36 -69 -56q-43 -20 -95 -23l0 -15q51 -5 78.5 -27q27.5 -22 27.5 -63q0 -42 -37.5 -68q-37.5 -26 -113.5 -26q-29 0 -50 5q-21 5 -37 12.5q-16 7.5 -27 16q-11 8.5 -19 15.5z" />
<glyph unicode="&#232;" horiz-adv-x="512" d="M449 39q-35 -26 -81 -38.5q-46 -12.5 -94 -12.5q-56 0 -101 17q-45 17 -76.5 48q-31.5 31 -49 75q-17.5 44 -17.5 97q0 49 17.5 92q17.5 43 49 75.5q31.5 32.5 76.5 51q45 18.5 101 18.5q43 0 82.5 -15q39.5 -15 69.5 -43q30 -28 48 -67q18 -39 18 -87q0 -26 -2 -43q-2 -17 -7 -32l-298 0q11 -32 39.5 -47q28.5 -15 65.5 -15q39 0 69.5 10.5q30.5 10.5 48.5 21.5zM269 337q-38 0 -58 -16q-20 -16 -31 -46l162 0q0 23 -18.5 42.5q-18.5 19.5 -54.5 19.5zt0 0zM156 647l119 89l103 -170l-89 -63z" />
<glyph unicode="&#233;" horiz-adv-x="512" d="M449 39q-35 -26 -81 -38.5q-46 -12.5 -94 -12.5q-56 0 -101 17q-45 17 -76.5 48q-31.5 31 -49 75q-17.5 44 -17.5 97q0 49 17.5 92q17.5 43 49 75.5q31.5 32.5 76.5 51q45 18.5 101 18.5q43 0 82.5 -15q39.5 -15 69.5 -43q30 -28 48 -67q18 -39 18 -87q0 -26 -2 -43q-2 -17 -7 -32l-298 0q11 -32 39.5 -47q28.5 -15 65.5 -15q39 0 69.5 10.5q30.5 10.5 48.5 21.5zM269 337q-38 0 -58 -16q-20 -16 -31 -46l162 0q0 23 -18.5 42.5q-18.5 19.5 -54.5 19.5zt0 0zM278 503l-89 63l103 172l117 -89z" />
<glyph unicode="&#234;" horiz-adv-x="512" d="M449 39q-35 -26 -81 -38.5q-46 -12.5 -94 -12.5q-56 0 -101 17q-45 17 -76.5 48q-31.5 31 -49 75q-17.5 44 -17.5 97q0 49 17.5 92q17.5 43 49 75.5q31.5 32.5 76.5 51q45 18.5 101 18.5q43 0 82.5 -15q39.5 -15 69.5 -43q30 -28 48 -67q18 -39 18 -87q0 -26 -2 -43q-2 -17 -7 -32l-298 0q11 -32 39.5 -47q28.5 -15 65.5 -15q39 0 69.5 10.5q30.5 10.5 48.5 21.5zM269 337q-38 0 -58 -16q-20 -16 -31 -46l162 0q0 23 -18.5 42.5q-18.5 19.5 -54.5 19.5zt0 0zM434 570l-70 -88l-98 81l-100 -79l-67 87l166 135l4 0z" />
<glyph unicode="&#235;" horiz-adv-x="512" d="M449 39q-35 -26 -81 -38.5q-46 -12.5 -94 -12.5q-56 0 -101 17q-45 17 -76.5 48q-31.5 31 -49 75q-17.5 44 -17.5 97q0 49 17.5 92q17.5 43 49 75.5q31.5 32.5 76.5 51q45 18.5 101 18.5q43 0 82.5 -15q39.5 -15 69.5 -43q30 -28 48 -67q18 -39 18 -87q0 -26 -2 -43q-2 -17 -7 -32l-298 0q11 -32 39.5 -47q28.5 -15 65.5 -15q39 0 69.5 10.5q30.5 10.5 48.5 21.5zM269 337q-38 0 -58 -16q-20 -16 -31 -46l162 0q0 23 -18.5 42.5q-18.5 19.5 -54.5 19.5zt0 0zM95 589q0 38 24 59.5q24 21.5 58 21.5q29 0 52.5 -21.5q23.5 -21.5 23.5 -59.5q0 -42 -23.5 -64q-23.5 -22 -52.5 -22q-34 0 -58 22q-24 22 -24 64zt0 0zM288 589q0 38 24.5 59.5q24.5 21.5 57.5 21.5q29 0 52.5 -21.5q23.5 -21.5 23.5 -59.5q0 -42 -23.5 -64q-23.5 -22 -52.5 -22q-33 0 -57.5 22t-24.5 64z" />
<glyph unicode="&#236;" horiz-adv-x="286" d="M68 450h150v-450h-150zM-14 647l119 89l103 -170l-89 -63z" />
<glyph unicode="&#237;" horiz-adv-x="286" d="M68 450h150v-450h-150zM138 503l-89 63l103 172l117 -89z" />
<glyph unicode="&#238;" horiz-adv-x="286" d="M68 450h150v-450h-150zM311 570l-70 -88l-98 81l-100 -79l-67 87l166 135l4 0z" />
<glyph unicode="&#239;" horiz-adv-x="286" d="M68 450h150v-450h-150zM-32 589q0 38 24 59.5q24 21.5 58 21.5q29 0 52.5 -21.5q23.5 -21.5 23.5 -59.5q0 -42 -23.5 -64q-23.5 -22 -52.5 -22q-34 0 -58 22q-24 22 -24 64zt0 0zM161 589q0 38 24.5 59.5q24.5 21.5 57.5 21.5q29 0 52.5 -21.5q23.5 -21.5 23.5 -59.5q0 -42 -23.5 -64q-23.5 -22 -52.5 -22q-33 0 -57.5 22t-24.5 64z" />
<glyph unicode="&#240;" horiz-adv-x="560" d="M139 607l66 20q-17 17 -35 32.5q-18 15.5 -36 30.5l169 22q29 -19 51 -40l100 31l41 -134l-47 -15q41 -70 61.5 -146.5q20.5 -76.5 20.5 -140.5q0 -134 -67 -206.5q-67 -72.5 -183 -72.5q-58 0 -104 18q-46 18 -78.5 50q-32.5 32 -50 75q-17.5 43 -17.5 94q0 51 17.5 94q17.5 43 50 75q32.5 32 78.5 50q46 18 104 18q14 0 29 -3.5q15 -3.5 25 -8.5q-7 16 -15 31q-8 15 -17 29l-121 -37zM190 225q0 -43 26 -70q26 -27 64 -27q45 0 71 38q26 38 19 107q-11 26 -35 37.5q-24 11.5 -55 11.5q-36 0 -63 -25.5t-27 -71.5z" />
<glyph unicode="&#241;" horiz-adv-x="544" d="M55 450h150v-35q18 17 47 30q29 13 64 13q39 0 72.5 -10q33.5 -10 58 -32.5q24.5 -22.5 38.5 -58.5q14 -36 14 -89v-268h-150v242q0 39 -20.5 57.5q-20.5 18.5 -53.5 18.5q-20 0 -36.5 -7q-16.5 -7 -33.5 -24l0 -287h-150zM87 586q29 41 64 59.5q35 18.5 68 18.5q18 0 32.5 -6q14.5 -6 28.5 -13.5q14 -7.5 28 -13.5q14 -6 29 -6q12 0 20.5 2q8.5 2 15.5 5.5q7 3.5 14 8.5q7 5 16 11l49 -75q-27 -32 -60.5 -52q-33.5 -20 -66.5 -20q-17 0 -31 6q-14 6 -28 13.5q-14 7.5 -28.5 13.5q-14.5 6 -31.5 6q-15 0 -31 -9q-16 -9 -28 -16z" />
<glyph unicode="&#242;" horiz-adv-x="560" d="M30 225q0 51 17.5 94q17.5 43 50 75q32.5 32 78.5 50q46 18 104 18q58 0 104 -18q46 -18 78.5 -50q32.5 -32 50 -75q17.5 -43 17.5 -94q0 -51 -17.5 -94q-17.5 -43 -50 -75q-32.5 -32 -78.5 -50q-46 -18 -104 -18q-58 0 -104 18q-46 18 -78.5 50q-32.5 32 -50 75q-17.5 43 -17.5 94zt0 0zM190 225q0 -43 26 -70q26 -27 64 -27q38 0 64 25.5q26 25.5 26 71.5q0 44 -26 70.5q-26 26.5 -64 26.5q-36 0 -63 -25.5q-27 -25.5 -27 -71.5zt0 0zM143 647l119 89l103 -170l-89 -63z" />
<glyph unicode="&#243;" horiz-adv-x="560" d="M30 225q0 51 17.5 94q17.5 43 50 75q32.5 32 78.5 50q46 18 104 18q58 0 104 -18q46 -18 78.5 -50q32.5 -32 50 -75q17.5 -43 17.5 -94q0 -51 -17.5 -94q-17.5 -43 -50 -75q-32.5 -32 -78.5 -50q-46 -18 -104 -18q-58 0 -104 18q-46 18 -78.5 50q-32.5 32 -50 75q-17.5 43 -17.5 94zt0 0zM190 225q0 -43 26 -70q26 -27 64 -27q38 0 64 25.5q26 25.5 26 71.5q0 44 -26 70.5q-26 26.5 -64 26.5q-36 0 -63 -25.5q-27 -25.5 -27 -71.5zt0 0zM285 503l-89 63l103 172l117 -89z" />
<glyph unicode="&#244;" horiz-adv-x="560" d="M30 225q0 51 17.5 94q17.5 43 50 75q32.5 32 78.5 50q46 18 104 18q58 0 104 -18q46 -18 78.5 -50q32.5 -32 50 -75q17.5 -43 17.5 -94q0 -51 -17.5 -94q-17.5 -43 -50 -75q-32.5 -32 -78.5 -50q-46 -18 -104 -18q-58 0 -104 18q-46 18 -78.5 50q-32.5 32 -50 75q-17.5 43 -17.5 94zt0 0zM190 225q0 -43 26 -70q26 -27 64 -27q38 0 64 25.5q26 25.5 26 71.5q0 44 -26 70.5q-26 26.5 -64 26.5q-36 0 -63 -25.5q-27 -25.5 -27 -71.5zt0 0zM450 570l-70 -88l-98 81l-100 -79l-67 87l166 135l4 0z" />
<glyph unicode="&#245;" horiz-adv-x="560" d="M30 225q0 51 17.5 94q17.5 43 50 75q32.5 32 78.5 50q46 18 104 18q58 0 104 -18q46 -18 78.5 -50q32.5 -32 50 -75q17.5 -43 17.5 -94q0 -51 -17.5 -94q-17.5 -43 -50 -75q-32.5 -32 -78.5 -50q-46 -18 -104 -18q-58 0 -104 18q-46 18 -78.5 50q-32.5 32 -50 75q-17.5 43 -17.5 94zt0 0zM190 225q0 -43 26 -70q26 -27 64 -27q38 0 64 25.5q26 25.5 26 71.5q0 44 -26 70.5q-26 26.5 -64 26.5q-36 0 -63 -25.5q-27 -25.5 -27 -71.5zt0 0zM95 586q29 41 64 59.5q35 18.5 68 18.5q18 0 32.5 -6q14.5 -6 28.5 -13.5q14 -7.5 28 -13.5q14 -6 29 -6q12 0 20.5 2q8.5 2 15.5 5.5q7 3.5 14 8.5q7 5 16 11l49 -75q-27 -32 -60.5 -52q-33.5 -20 -66.5 -20q-17 0 -31 6q-14 6 -28 13.5q-14 7.5 -28.5 13.5q-14.5 6 -31.5 6q-15 0 -31 -9q-16 -9 -28 -16z" />
<glyph unicode="&#246;" horiz-adv-x="560" d="M30 225q0 51 17.5 94q17.5 43 50 75q32.5 32 78.5 50q46 18 104 18q58 0 104 -18q46 -18 78.5 -50q32.5 -32 50 -75q17.5 -43 17.5 -94q0 -51 -17.5 -94q-17.5 -43 -50 -75q-32.5 -32 -78.5 -50q-46 -18 -104 -18q-58 0 -104 18q-46 18 -78.5 50q-32.5 32 -50 75q-17.5 43 -17.5 94zt0 0zM190 225q0 -43 26 -70q26 -27 64 -27q38 0 64 25.5q26 25.5 26 71.5q0 44 -26 70.5q-26 26.5 -64 26.5q-36 0 -63 -25.5q-27 -25.5 -27 -71.5zt0 0zM113 589q0 38 24 59.5q24 21.5 58 21.5q29 0 52.5 -21.5q23.5 -21.5 23.5 -59.5q0 -42 -23.5 -64q-23.5 -22 -52.5 -22q-34 0 -58 22q-24 22 -24 64zt0 0zM306 589q0 38 24.5 59.5q24.5 21.5 57.5 21.5q29 0 52.5 -21.5q23.5 -21.5 23.5 -59.5q0 -42 -23.5 -64q-23.5 -22 -52.5 -22q-33 0 -57.5 22t-24.5 64z" />
<glyph unicode="&#247;" horiz-adv-x="600" d="M213 552q0 15 5.5 30q5.5 15 16.5 26.5q11 11.5 27.5 19q16.5 7.5 37.5 7.5q20 0 36 -7.5q16 -7.5 27 -19q11 -11.5 16.5 -26.5q5.5 -15 5.5 -30q0 -34 -22 -61.5q-22 -27.5 -63 -27.5q-43 0 -65 27.5q-22 27.5 -22 61.5zt0 0zM213 174q0 15 5.5 29.5q5.5 14.5 16.5 26.5q11 12 27.5 19.5q16.5 7.5 37.5 7.5q19 0 35 -7.5q16 -7.5 27 -19.5q11 -12 17 -26.5q6 -14.5 6 -29.5q0 -35 -22 -62q-22 -27 -63 -27q-43 0 -65 27q-22 27 -22 62zt0 0zM63 425h474v-130l-474 0z" />
<glyph unicode="&#248;" horiz-adv-x="580" d="M71 91q-41 56 -41 134q0 51 19 94q19 43 53.5 75q34.5 32 82 50q47.5 18 105.5 18q45 0 83.5 -11.5q38.5 -11.5 70.5 -31.5l34 30l53 -62l-26 -23q22 -29 33.5 -64q11.5 -35 11.5 -75q0 -51 -19 -94q-19 -43 -53.5 -75q-34.5 -32 -82 -50q-47.5 -18 -105.5 -18q-94 0 -159 45l-33 -29l-54 63zM390 225q0 16 -5 33l-138 -123q17 -7 43 -7q46 0 73 25.5q27 25.5 27 71.5zt0 0zM190 225q0 -14 3 -27l134 118q-17 6 -37 6q-44 0 -72 -25.5t-28 -71.5z" />
<glyph unicode="&#249;" horiz-adv-x="530" d="M475 0h-150v45q-17 -21 -47.5 -39q-30.5 -18 -81.5 -18q-29 0 -56 10.5q-27 10.5 -48 32.5q-21 22 -34 55.5q-13 33.5 -13 80.5v283h150v-251q0 -13 3 -26q3 -13 9.5 -23q6.5 -10 17.5 -16q11 -6 28 -6q19 0 37 9.5q18 9.5 35 31.5l0 281h150zM123 647l119 89l103 -170l-89 -63z" />
<glyph unicode="&#250;" horiz-adv-x="530" d="M475 0h-150v45q-17 -21 -47.5 -39q-30.5 -18 -81.5 -18q-29 0 -56 10.5q-27 10.5 -48 32.5q-21 22 -34 55.5q-13 33.5 -13 80.5v283h150v-251q0 -13 3 -26q3 -13 9.5 -23q6.5 -10 17.5 -16q11 -6 28 -6q19 0 37 9.5q18 9.5 35 31.5l0 281h150zM275 503l-89 63l103 172l117 -89z" />
<glyph unicode="&#251;" horiz-adv-x="530" d="M475 0h-150v45q-17 -21 -47.5 -39q-30.5 -18 -81.5 -18q-29 0 -56 10.5q-27 10.5 -48 32.5q-21 22 -34 55.5q-13 33.5 -13 80.5v283h150v-251q0 -13 3 -26q3 -13 9.5 -23q6.5 -10 17.5 -16q11 -6 28 -6q19 0 37 9.5q18 9.5 35 31.5l0 281h150zM433 570l-70 -88l-98 81l-100 -79l-67 87l166 135l4 0z" />
<glyph unicode="&#252;" horiz-adv-x="530" d="M475 0h-150v45q-17 -21 -47.5 -39q-30.5 -18 -81.5 -18q-29 0 -56 10.5q-27 10.5 -48 32.5q-21 22 -34 55.5q-13 33.5 -13 80.5v283h150v-251q0 -13 3 -26q3 -13 9.5 -23q6.5 -10 17.5 -16q11 -6 28 -6q19 0 37 9.5q18 9.5 35 31.5l0 281h150zM86 589q0 38 24 59.5q24 21.5 58 21.5q29 0 52.5 -21.5q23.5 -21.5 23.5 -59.5q0 -42 -23.5 -64q-23.5 -22 -52.5 -22q-34 0 -58 22q-24 22 -24 64zt0 0zM279 589q0 38 24.5 59.5q24.5 21.5 57.5 21.5q29 0 52.5 -21.5q23.5 -21.5 23.5 -59.5q0 -42 -23.5 -64q-23.5 -22 -52.5 -22q-33 0 -57.5 22t-24.5 64z" />
<glyph unicode="&#253;" horiz-adv-x="516" d="M341 0q-25 -60 -46 -99q-21 -39 -41.5 -61.5q-20.5 -22.5 -42 -31q-21.5 -8.5 -47.5 -8.5q-36 0 -61.5 12.5q-25.5 12.5 -45.5 29.5l48 113q7 -5 18 -10.5q11 -5.5 25 -5.5q15 0 25.5 10q10.5 10 17.5 27l10 24l-201 450h181l77 -206q6 -16 9.5 -31q3.5 -15 7.5 -31q2 15 4 30.5q2 15.5 7 32.5l59 205h171zM258 503l-89 63l103 172l117 -89z" />
<glyph unicode="&#254;" horiz-adv-x="561" d="M55 700h150v-276q21 16 51.5 27q30.5 11 73.5 11q45 0 82.5 -17q37.5 -17 63.5 -48q26 -31 40.5 -73q14.5 -42 14.5 -92q0 -51 -17.5 -95.5q-17.5 -44.5 -49 -77.5q-31.5 -33 -76 -52q-44.5 -19 -99.5 -19q-23 0 -45.5 3.5q-22.5 3.5 -38.5 10.5l0 -202h-150zM283 322q-42 0 -78 -40l0 -137q17 -10 31.5 -13.5q14.5 -3.5 38.5 -3.5q49 0 72.5 29.5q23.5 29.5 23.5 71.5q0 39 -22.5 66t-65.5 27z" />
<glyph unicode="&#255;" horiz-adv-x="516" d="M341 0q-25 -60 -46 -99q-21 -39 -41.5 -61.5q-20.5 -22.5 -42 -31q-21.5 -8.5 -47.5 -8.5q-36 0 -61.5 12.5q-25.5 12.5 -45.5 29.5l48 113q7 -5 18 -10.5q11 -5.5 25 -5.5q15 0 25.5 10q10.5 10 17.5 27l10 24l-201 450h181l77 -206q6 -16 9.5 -31q3.5 -15 7.5 -31q2 15 4 30.5q2 15.5 7 32.5l59 205h171zM92 589q0 38 24 59.5q24 21.5 58 21.5q29 0 52.5 -21.5q23.5 -21.5 23.5 -59.5q0 -42 -23.5 -64q-23.5 -22 -52.5 -22q-34 0 -58 22q-24 22 -24 64zt0 0zM285 589q0 38 24.5 59.5q24.5 21.5 57.5 21.5q29 0 52.5 -21.5q23.5 -21.5 23.5 -59.5q0 -42 -23.5 -64q-23.5 -22 -52.5 -22q-33 0 -57.5 22t-24.5 64z" />
<glyph unicode="&#256;" horiz-adv-x="725" d="M291 700h143l291 -700h-171l-58 147h-277l-58 -147h-161zM279 297h157l-78 198zM205 870h314v-120l-314 0z" />
<glyph unicode="&#257;" horiz-adv-x="465" d="M66 418q27 17 73 30.5q46 13.5 94 13.5q103 0 145 -50q42 -50 42 -141v-271h-130v41q-17 -23 -49 -35q-32 -12 -69 -12q-61 0 -101.5 36.5q-40.5 36.5 -40.5 105.5q0 38 13 66q13 28 35 46.5q22 18.5 51.5 27.5q29.5 9 62.5 9q30 0 53.5 -8.5q23.5 -8.5 34.5 -16.5q2 41 -15 59q-17 18 -47 18q-40 0 -67 -10q-27 -10 -48 -18zM223 119q23 0 36.5 7q13.5 7 20.5 16l0 28q-21 15 -57 15q-19 0 -31 -8.5q-12 -8.5 -12 -25.5q0 -15 12 -23.5q12 -8.5 31 -8.5zt0 0zM91 640h294v-120l-294 0z" />
<glyph unicode="&#258;" horiz-adv-x="725" d="M291 700h143l291 -700h-171l-58 147h-277l-58 -147h-161zM279 297h157l-78 198zM225 920q10 -10 22.5 -20.5q12.5 -10.5 30 -19.5q17.5 -9 39.5 -14.5q22 -5.5 51 -5.5q50 0 85 18.5q35 18.5 55 41.5l55 -78q-13 -22 -33.5 -42.5q-20.5 -20.5 -46 -36q-25.5 -15.5 -55 -24.5q-29.5 -9 -60.5 -9q-36 0 -68 10q-32 10 -59 26q-27 16 -47.5 36.5q-20.5 20.5 -32.5 40.5z" />
<glyph unicode="&#259;" horiz-adv-x="465" d="M66 418q27 17 73 30.5q46 13.5 94 13.5q103 0 145 -50q42 -50 42 -141v-271h-130v41q-17 -23 -49 -35q-32 -12 -69 -12q-61 0 -101.5 36.5q-40.5 36.5 -40.5 105.5q0 38 13 66q13 28 35 46.5q22 18.5 51.5 27.5q29.5 9 62.5 9q30 0 53.5 -8.5q23.5 -8.5 34.5 -16.5q2 41 -15 59q-17 18 -47 18q-40 0 -67 -10q-27 -10 -48 -18zM223 119q23 0 36.5 7q13.5 7 20.5 16l0 28q-21 15 -57 15q-19 0 -31 -8.5q-12 -8.5 -12 -25.5q0 -15 12 -23.5q12 -8.5 31 -8.5zt0 0zM125 682q16 -17 40.5 -34.5q24.5 -17.5 64.5 -17.5q37 0 66 16q29 16 44 34l51 -72q-11 -16 -25 -33q-14 -17 -34 -31.5q-20 -14.5 -46.5 -24q-26.5 -9.5 -61.5 -9.5q-35 0 -62 10.5q-27 10.5 -47.5 25.5q-20.5 15 -34.5 32q-14 17 -21 29z" />
<glyph unicode="&#260;" horiz-adv-x="725" d="M722 -160q-13 -16 -46.5 -28q-33.5 -12 -73.5 -12q-29 0 -55.5 5.5q-26.5 5.5 -46.5 17q-20 11.5 -31.5 29.5q-11.5 18 -11.5 43q0 38 27.5 64q27.5 26 69.5 41l-58 147h-277l-58 -147h-161l291 700h143l291 -700h-19q-22 0 -40 -5q-18 -5 -31 -13q-13 -8 -20.5 -17.5q-7.5 -9.5 -7.5 -18.5q0 -14 8.5 -20q8.5 -6 21.5 -6q13 0 20 2q7 2 20 8zM279 297h157l-78 198z" />
<glyph unicode="&#261;" horiz-adv-x="465" d="M436 -160q-13 -16 -46.5 -28q-33.5 -12 -73.5 -12q-29 0 -55.5 5.5q-26.5 5.5 -46.5 17q-20 11.5 -31.5 29.5q-11.5 18 -11.5 43q0 44 34 71q34 27 85 41l0 34q-17 -23 -49 -35q-32 -12 -69 -12q-61 0 -101.5 36.5q-40.5 36.5 -40.5 105.5q0 38 13 66q13 28 35 46.5q22 18.5 51.5 27.5q29.5 9 62.5 9q30 0 53.5 -8.5q23.5 -8.5 34.5 -16.5q2 41 -15 59q-17 18 -47 18q-40 0 -67 -10q-27 -10 -48 -18l-37 109q27 17 73 30.5q46 13.5 94 13.5q103 0 145 -50q42 -50 42 -141v-271h-9q-40 -2 -65 -19.5q-25 -17.5 -25 -34.5q0 -14 8.5 -20q8.5 -6 21.5 -6q13 0 20 2q7 2 20 8zM223 119q23 0 36.5 7q13.5 7 20.5 16l0 28q-21 15 -57 15q-19 0 -31 -8.5q-12 -8.5 -12 -25.5q0 -15 12 -23.5t31 -8.5z" />
<glyph unicode="&#262;" horiz-adv-x="655" d="M635 69q-16 -18 -40 -32.5q-24 -14.5 -54 -25.5q-30 -11 -64 -17q-34 -6 -70 -6q-81 0 -148.5 26q-67.5 26 -116 73.5q-48.5 47.5 -75.5 114q-27 66.5 -27 148.5q0 75 23.5 141q23.5 66 69.5 115q46 49 114.5 77.5q68.5 28.5 158.5 28.5q70 0 126 -21q56 -21 88 -52l-71 -120q-29 17 -61 30q-32 13 -82 13q-41 0 -76.5 -13.5q-35.5 -13.5 -62 -40.5q-26.5 -27 -42 -66.5q-15.5 -39.5 -15.5 -91.5q0 -47 15.5 -85.5q15.5 -38.5 43.5 -67q28 -28.5 67 -44q39 -15.5 86 -15.5q38 0 77.5 12.5q39.5 12.5 74.5 38.5zM328 728l-41 89l234 118l56 -129z" />
<glyph unicode="&#263;" horiz-adv-x="485" d="M461 68q-29 -39 -77 -59.5q-48 -20.5 -107 -20.5q-56 0 -102 17q-46 17 -78 48q-32 31 -49.5 75q-17.5 44 -17.5 97q0 49 17 92q17 43 48.5 75.5q31.5 32.5 75.5 51q44 18.5 97 18.5q58 0 105.5 -16q47.5 -16 78.5 -48l-69 -118q-24 24 -47 33q-23 9 -49 9q-18 0 -35 -6q-17 -6 -31 -18.5q-14 -12.5 -22.5 -30.5q-8.5 -18 -8.5 -42q0 -23 9 -41q9 -18 23 -30.5q14 -12.5 31.5 -19q17.5 -6.5 35.5 -6.5q33 0 57.5 14q24.5 14 44.5 36zM268 503l-89 63l103 172l117 -89z" />
<glyph unicode="&#264;" horiz-adv-x="655" d="M635 69q-16 -18 -40 -32.5q-24 -14.5 -54 -25.5q-30 -11 -64 -17q-34 -6 -70 -6q-81 0 -148.5 26q-67.5 26 -116 73.5q-48.5 47.5 -75.5 114q-27 66.5 -27 148.5q0 75 23.5 141q23.5 66 69.5 115q46 49 114.5 77.5q68.5 28.5 158.5 28.5q70 0 126 -21q56 -21 88 -52l-71 -120q-29 17 -61 30q-32 13 -82 13q-41 0 -76.5 -13.5q-35.5 -13.5 -62 -40.5q-26.5 -27 -42 -66.5q-15.5 -39.5 -15.5 -91.5q0 -47 15.5 -85.5q15.5 -38.5 43.5 -67q28 -28.5 67 -44q39 -15.5 86 -15.5q38 0 77.5 12.5q39.5 12.5 74.5 38.5zM380 925h4l184 -117l-58 -85l-128 66l-128 -66l-52 83z" />
<glyph unicode="&#265;" horiz-adv-x="485" d="M461 68q-29 -39 -77 -59.5q-48 -20.5 -107 -20.5q-56 0 -102 17q-46 17 -78 48q-32 31 -49.5 75q-17.5 44 -17.5 97q0 49 17 92q17 43 48.5 75.5q31.5 32.5 75.5 51q44 18.5 97 18.5q58 0 105.5 -16q47.5 -16 78.5 -48l-69 -118q-24 24 -47 33q-23 9 -49 9q-18 0 -35 -6q-17 -6 -31 -18.5q-14 -12.5 -22.5 -30.5q-8.5 -18 -8.5 -42q0 -23 9 -41q9 -18 23 -30.5q14 -12.5 31.5 -19q17.5 -6.5 35.5 -6.5q33 0 57.5 14q24.5 14 44.5 36zM444 570l-70 -88l-98 81l-100 -79l-67 87l166 135l4 0z" />
<glyph unicode="&#266;" horiz-adv-x="655" d="M635 69q-16 -18 -40 -32.5q-24 -14.5 -54 -25.5q-30 -11 -64 -17q-34 -6 -70 -6q-81 0 -148.5 26q-67.5 26 -116 73.5q-48.5 47.5 -75.5 114q-27 66.5 -27 148.5q0 75 23.5 141q23.5 66 69.5 115q46 49 114.5 77.5q68.5 28.5 158.5 28.5q70 0 126 -21q56 -21 88 -52l-71 -120q-29 17 -61 30q-32 13 -82 13q-41 0 -76.5 -13.5q-35.5 -13.5 -62 -40.5q-26.5 -27 -42 -66.5q-15.5 -39.5 -15.5 -91.5q0 -47 15.5 -85.5q15.5 -38.5 43.5 -67q28 -28.5 67 -44q39 -15.5 86 -15.5q38 0 77.5 12.5q39.5 12.5 74.5 38.5zM284 845q0 21 8 37.5q8 16.5 22 28.5q14 12 32.5 18q18.5 6 38.5 6q18 0 35.5 -6q17.5 -6 31 -18q13.5 -12 21.5 -28.5q8 -16.5 8 -37.5q0 -23 -8 -41q-8 -18 -21.5 -30q-13.5 -12 -31 -18.5q-17.5 -6.5 -35.5 -6.5q-41 0 -71 24.5t-30 71.5z" />
<glyph unicode="&#267;" horiz-adv-x="485" d="M461 68q-29 -39 -77 -59.5q-48 -20.5 -107 -20.5q-56 0 -102 17q-46 17 -78 48q-32 31 -49.5 75q-17.5 44 -17.5 97q0 49 17 92q17 43 48.5 75.5q31.5 32.5 75.5 51q44 18.5 97 18.5q58 0 105.5 -16q47.5 -16 78.5 -48l-69 -118q-24 24 -47 33q-23 9 -49 9q-18 0 -35 -6q-17 -6 -31 -18.5q-14 -12.5 -22.5 -30.5q-8.5 -18 -8.5 -42q0 -23 9 -41q9 -18 23 -30.5q14 -12.5 31.5 -19q17.5 -6.5 35.5 -6.5q33 0 57.5 14q24.5 14 44.5 36zM180 605q0 40 27 62.5q27 22.5 64 22.5q16 0 31.5 -6q15.5 -6 27.5 -17q12 -11 19 -26.5q7 -15.5 7 -35.5q0 -22 -7 -39q-7 -17 -19 -28.5q-12 -11.5 -27.5 -17.5q-15.5 -6 -31.5 -6q-37 0 -64 23t-27 68z" />
<glyph unicode="&#268;" horiz-adv-x="655" d="M635 69q-16 -18 -40 -32.5q-24 -14.5 -54 -25.5q-30 -11 -64 -17q-34 -6 -70 -6q-81 0 -148.5 26q-67.5 26 -116 73.5q-48.5 47.5 -75.5 114q-27 66.5 -27 148.5q0 75 23.5 141q23.5 66 69.5 115q46 49 114.5 77.5q68.5 28.5 158.5 28.5q70 0 126 -21q56 -21 88 -52l-71 -120q-29 17 -61 30q-32 13 -82 13q-41 0 -76.5 -13.5q-35.5 -13.5 -62 -40.5q-26.5 -27 -42 -66.5q-15.5 -39.5 -15.5 -91.5q0 -47 15.5 -85.5q15.5 -38.5 43.5 -67q28 -28.5 67 -44q39 -15.5 86 -15.5q38 0 77.5 12.5q39.5 12.5 74.5 38.5zM201 850l58 85l128 -76l128 76l52 -83l-178 -119l-4 0z" />
<glyph unicode="&#269;" horiz-adv-x="485" d="M461 68q-29 -39 -77 -59.5q-48 -20.5 -107 -20.5q-56 0 -102 17q-46 17 -78 48q-32 31 -49.5 75q-17.5 44 -17.5 97q0 49 17 92q17 43 48.5 75.5q31.5 32.5 75.5 51q44 18.5 97 18.5q58 0 105.5 -16q47.5 -16 78.5 -48l-69 -118q-24 24 -47 33q-23 9 -49 9q-18 0 -35 -6q-17 -6 -31 -18.5q-14 -12.5 -22.5 -30.5q-8.5 -18 -8.5 -42q0 -23 9 -41q9 -18 23 -30.5q14 -12.5 31.5 -19q17.5 -6.5 35.5 -6.5q33 0 57.5 14q24.5 14 44.5 36zM96 624l70 88l98 -81l100 79l67 -87l-166 -135l-4 0z" />
<glyph unicode="&#270;" horiz-adv-x="744" d="M90 700h14q14 0 41.5 0.5q27.5 0.5 58.5 1q31 0.5 60.5 1q29.5 0.5 46.5 0.5q105 0 179.5 -28q74.5 -28 122 -75.5q47.5 -47.5 69.5 -110.5q22 -63 22 -133q0 -74 -25 -139q-25 -65 -75.5 -113.5q-50.5 -48.5 -125.5 -77q-75 -28.5 -175 -28.5q-14 0 -37 0.5q-23 0.5 -50 0.5q-27 0 -55.5 0.5q-28.5 0.5 -53.5 0.5h-17zM309 553q-13 0 -28.5 -0.5q-15.5 -0.5 -30.5 -2.5l0 -400q16 -2 28.5 -2q12.5 0 29.5 0q104 0 165 54q61 54 61 154q0 48 -17 85q-17 37 -47 62q-30 25 -71 37.5q-41 12.5 -90 12.5zt0 0zM151 850l58 85l128 -76l128 76l52 -83l-178 -119l-4 0z" />
<glyph unicode="&#271;" horiz-adv-x="557" d="M702 700q3 -8 4 -17.5q1 -9.5 1 -14.5q0 -40 -10.5 -71q-10.5 -31 -26.5 -55q-16 -24 -36.5 -40.5q-20.5 -16.5 -39.5 -27.5l-70 63q20 23 31.5 52q11.5 29 11.5 61q0 16 -3 27q-3 11 -8 23zM352 37q-20 -20 -47 -32.5q-27 -12.5 -67 -12.5q-48 0 -86.5 16.5q-38.5 16.5 -65.5 46q-27 29.5 -41.5 71.5q-14.5 42 -14.5 93q0 54 18 98.5q18 44.5 51 76.5q33 32 78.5 50q45.5 18 100.5 18q44 0 74 -14l0 252h150v-700h-150zM269 132q25 0 45.5 9q20.5 9 37.5 24l0 138q-33 19 -67 19q-18 0 -35 -6q-17 -6 -30.5 -18q-13.5 -12 -21.5 -30.5q-8 -18.5 -8 -43.5q0 -23 7 -40q7 -17 18 -28.5q11 -11.5 25.5 -17.5t28.5 -6z" />
<glyph unicode="&#272;" horiz-adv-x="744" d="M10 418h80v282h14q14 0 41.5 0.5q27.5 0.5 58.5 1q31 0.5 60.5 1q29.5 0.5 46.5 0.5q105 0 179.5 -28q74.5 -28 122 -75.5q47.5 -47.5 69.5 -110.5q22 -63 22 -133q0 -74 -25 -139q-25 -65 -75.5 -113.5q-50.5 -48.5 -125.5 -77q-75 -28.5 -175 -28.5q-14 0 -37 0.5q-23 0.5 -50 0.5q-27 0 -55.5 0.5q-28.5 0.5 -53.5 0.5h-17v278h-80zM309 553q-13 0 -28.5 -0.5q-15.5 -0.5 -30.5 -2.5l0 -132h164v-140h-164v-128q16 -2 28.5 -2q12.5 0 29.5 0q104 0 165 54q61 54 61 154q0 48 -17 85q-17 37 -47 62q-30 25 -71 37.5t-90 12.5z" />
<glyph unicode="&#273;" horiz-adv-x="557" d="M248 627h104v73h150v-73h65v-120h-65v-507h-150v37q-20 -20 -47 -32.5q-27 -12.5 -67 -12.5q-48 0 -86.5 16.5q-38.5 16.5 -65.5 46q-27 29.5 -41.5 71.5q-14.5 42 -14.5 93q0 54 18 98.5q18 44.5 51 76.5q33 32 78.5 50q45.5 18 100.5 18q44 0 74 -14l0 59h-104zM269 132q25 0 45.5 9q20.5 9 37.5 24l0 138q-33 19 -67 19q-18 0 -35 -6q-17 -6 -30.5 -18q-13.5 -12 -21.5 -30.5q-8 -18.5 -8 -43.5q0 -23 7 -40q7 -17 18 -28.5q11 -11.5 25.5 -17.5t28.5 -6z" />
<glyph unicode="&#274;" horiz-adv-x="575" d="M90 700h415v-150h-255v-123h225v-150h-225v-127h265v-150h-425zM140 870h314v-120l-314 0z" />
<glyph unicode="&#275;" horiz-adv-x="512" d="M449 39q-35 -26 -81 -38.5q-46 -12.5 -94 -12.5q-56 0 -101 17q-45 17 -76.5 48q-31.5 31 -49 75q-17.5 44 -17.5 97q0 49 17.5 92q17.5 43 49 75.5q31.5 32.5 76.5 51q45 18.5 101 18.5q43 0 82.5 -15q39.5 -15 69.5 -43q30 -28 48 -67q18 -39 18 -87q0 -26 -2 -43q-2 -17 -7 -32l-298 0q11 -32 39.5 -47q28.5 -15 65.5 -15q39 0 69.5 10.5q30.5 10.5 48.5 21.5zM269 337q-38 0 -58 -16q-20 -16 -31 -46l162 0q0 23 -18.5 42.5q-18.5 19.5 -54.5 19.5zt0 0zM117 640h294v-120l-294 0z" />
<glyph unicode="&#278;" horiz-adv-x="575" d="M90 700h415v-150h-255v-123h225v-150h-225v-127h265v-150h-425zM204 845q0 21 8 37.5q8 16.5 22 28.5q14 12 32.5 18q18.5 6 38.5 6q18 0 35.5 -6q17.5 -6 31 -18q13.5 -12 21.5 -28.5q8 -16.5 8 -37.5q0 -23 -8 -41q-8 -18 -21.5 -30q-13.5 -12 -31 -18.5q-17.5 -6.5 -35.5 -6.5q-41 0 -71 24.5t-30 71.5z" />
<glyph unicode="&#279;" horiz-adv-x="512" d="M449 39q-35 -26 -81 -38.5q-46 -12.5 -94 -12.5q-56 0 -101 17q-45 17 -76.5 48q-31.5 31 -49 75q-17.5 44 -17.5 97q0 49 17.5 92q17.5 43 49 75.5q31.5 32.5 76.5 51q45 18.5 101 18.5q43 0 82.5 -15q39.5 -15 69.5 -43q30 -28 48 -67q18 -39 18 -87q0 -26 -2 -43q-2 -17 -7 -32l-298 0q11 -32 39.5 -47q28.5 -15 65.5 -15q39 0 69.5 10.5q30.5 10.5 48.5 21.5zM269 337q-38 0 -58 -16q-20 -16 -31 -46l162 0q0 23 -18.5 42.5q-18.5 19.5 -54.5 19.5zt0 0zM180 605q0 40 27 62.5q27 22.5 64 22.5q16 0 31.5 -6q15.5 -6 27.5 -17q12 -11 19 -26.5q7 -15.5 7 -35.5q0 -22 -7 -39q-7 -17 -19 -28.5q-12 -11.5 -27.5 -17.5q-15.5 -6 -31.5 -6q-37 0 -64 23t-27 68z" />
<glyph unicode="&#280;" horiz-adv-x="575" d="M90 700h415v-150h-255v-123h225v-150h-225v-127h265v-150q-22 0 -40 -5q-18 -5 -31 -13q-13 -8 -20.5 -17.5q-7.5 -9.5 -7.5 -18.5q0 -14 8.5 -20q8.5 -6 21.5 -6q13 0 20 2q7 2 20 8l45 -90q-13 -16 -46.5 -28q-33.5 -12 -73.5 -12q-29 0 -55.5 5.5q-26.5 5.5 -46.5 17q-20 11.5 -31.5 29.5q-11.5 18 -11.5 43q0 38 27.5 64q27.5 26 69.5 41l-273 0z" />
<glyph unicode="&#281;" horiz-adv-x="512" d="M449 39q-23 -17 -48 -27q-60 -37 -60 -66q0 -14 8.5 -20q8.5 -6 21.5 -6q13 0 20 2q7 2 20 8l45 -90q-13 -16 -46.5 -28q-33.5 -12 -73.5 -12q-29 0 -55.5 5.5q-26.5 5.5 -46.5 17q-20 11.5 -31.5 29.5q-11.5 18 -11.5 43q0 27 21.5 51q21.5 24 59.5 42q-55 0 -100 17.5q-45 17.5 -76.5 48.5q-31.5 31 -48.5 74.5q-17 43.5 -17 96.5q0 49 17.5 92q17.5 43 49 75.5q31.5 32.5 76.5 51q45 18.5 101 18.5q43 0 82.5 -15q39.5 -15 69.5 -43q30 -28 48 -67q18 -39 18 -87q0 -26 -2 -43q-2 -17 -7 -32l-298 0q11 -32 39.5 -47q28.5 -15 65.5 -15q39 0 69.5 10.5q30.5 10.5 48.5 21.5zM269 337q-38 0 -58 -16q-20 -16 -31 -46l162 0q0 23 -18.5 42.5t-54.5 19.5z" />
<glyph unicode="&#282;" horiz-adv-x="575" d="M90 700h415v-150h-255v-123h225v-150h-225v-127h265v-150h-425zM121 850l58 85l128 -76l128 76l52 -83l-178 -119l-4 0z" />
<glyph unicode="&#283;" horiz-adv-x="512" d="M449 39q-35 -26 -81 -38.5q-46 -12.5 -94 -12.5q-56 0 -101 17q-45 17 -76.5 48q-31.5 31 -49 75q-17.5 44 -17.5 97q0 49 17.5 92q17.5 43 49 75.5q31.5 32.5 76.5 51q45 18.5 101 18.5q43 0 82.5 -15q39.5 -15 69.5 -43q30 -28 48 -67q18 -39 18 -87q0 -26 -2 -43q-2 -17 -7 -32l-298 0q11 -32 39.5 -47q28.5 -15 65.5 -15q39 0 69.5 10.5q30.5 10.5 48.5 21.5zM269 337q-38 0 -58 -16q-20 -16 -31 -46l162 0q0 23 -18.5 42.5q-18.5 19.5 -54.5 19.5zt0 0zM106 624l70 88l98 -81l100 79l67 -87l-166 -135l-4 0z" />
<glyph unicode="&#284;" horiz-adv-x="727" d="M378 399h299v-312q-23 -23 -54.5 -41.5q-31.5 -18.5 -67 -31.5q-35.5 -13 -71.5 -19.5q-36 -6.5 -69 -6.5q-90 0 -160 26q-70 26 -117.5 73.5q-47.5 47.5 -72.5 114q-25 66.5 -25 148.5q0 75 24.5 141q24.5 66 70.5 115q46 49 111.5 77.5q65.5 28.5 148.5 28.5q78 0 132 -19.5q54 -19.5 97 -53.5l-67 -129q-21 23 -61.5 37.5q-40.5 14.5 -81.5 14.5q-43 0 -80.5 -13q-37.5 -13 -65 -39q-27.5 -26 -43 -66q-15.5 -40 -15.5 -94q0 -48 15 -87.5q15 -39.5 42 -67q27 -27.5 65 -42.5q38 -15 85 -15q16 0 33 3.5q17 3.5 32 8.5q15 5 27 11q12 6 18 12l0 76h-149zM380 925h4l184 -117l-58 -85l-128 66l-128 -66l-52 83z" />
<glyph unicode="&#285;" horiz-adv-x="504" d="M0 -58q0 59 41.5 93.5q41.5 34.5 107.5 48.5q-6 12 -6 25q0 6 1.5 13q1.5 7 5.5 13q-54 21 -82.5 62.5q-28.5 41.5 -28.5 91.5q0 34 13.5 65q13.5 31 39 55q25.5 24 62.5 38.5q37 14.5 84 14.5q34 0 63 -8q29 -8 52 -22l141 28l5 -120l-67 -13q2 -10 3.5 -19q1.5 -9 1.5 -19q0 -32 -12.5 -61.5q-12.5 -29.5 -36.5 -52.5q-24 -23 -58 -37.5q-34 -14.5 -76 -17.5q-1 -4 -1 -11q0 -8 3 -17q46 -2 86.5 -11.5q40.5 -9.5 70.5 -27.5q30 -18 47.5 -46q17.5 -28 17.5 -65q0 -39 -19 -67.5q-19 -28.5 -51.5 -46.5q-32.5 -18 -76 -27q-43.5 -9 -92.5 -9q-49 0 -92.5 8.5q-43.5 8.5 -76 26.5q-32.5 18 -51.5 46.5q-19 28.5 -19 68.5zt0 0zM140 -58q0 -14 25.5 -22q25.5 -8 73.5 -8q48 0 73.5 7.5q25.5 7.5 25.5 22.5q0 14 -23 22.5q-23 8.5 -76 8.5q-52 0 -75.5 -8.5q-23.5 -8.5 -23.5 -22.5zt0 0zM179 289q0 -21 15 -35q15 -14 44 -14q26 0 42.5 12.5q16.5 12.5 16.5 36.5q0 21 -14 37q-14 16 -45 16q-29 0 -44 -16.5q-15 -16.5 -15 -36.5zt0 0zM412 570l-70 -88l-98 81l-100 -79l-67 87l166 135l4 0z" />
<glyph unicode="&#286;" horiz-adv-x="727" d="M378 399h299v-312q-23 -23 -54.5 -41.5q-31.5 -18.5 -67 -31.5q-35.5 -13 -71.5 -19.5q-36 -6.5 -69 -6.5q-90 0 -160 26q-70 26 -117.5 73.5q-47.5 47.5 -72.5 114q-25 66.5 -25 148.5q0 75 24.5 141q24.5 66 70.5 115q46 49 111.5 77.5q65.5 28.5 148.5 28.5q78 0 132 -19.5q54 -19.5 97 -53.5l-67 -129q-21 23 -61.5 37.5q-40.5 14.5 -81.5 14.5q-43 0 -80.5 -13q-37.5 -13 -65 -39q-27.5 -26 -43 -66q-15.5 -40 -15.5 -94q0 -48 15 -87.5q15 -39.5 42 -67q27 -27.5 65 -42.5q38 -15 85 -15q16 0 33 3.5q17 3.5 32 8.5q15 5 27 11q12 6 18 12l0 76h-149zM267 920q10 -10 22.5 -20.5q12.5 -10.5 30 -19.5q17.5 -9 39.5 -14.5q22 -5.5 51 -5.5q50 0 85 18.5q35 18.5 55 41.5l55 -78q-13 -22 -33.5 -42.5q-20.5 -20.5 -46 -36q-25.5 -15.5 -55 -24.5q-29.5 -9 -60.5 -9q-36 0 -68 10q-32 10 -59 26q-27 16 -47.5 36.5q-20.5 20.5 -32.5 40.5z" />
<glyph unicode="&#287;" horiz-adv-x="504" d="M0 -58q0 59 41.5 93.5q41.5 34.5 107.5 48.5q-6 12 -6 25q0 6 1.5 13q1.5 7 5.5 13q-54 21 -82.5 62.5q-28.5 41.5 -28.5 91.5q0 34 13.5 65q13.5 31 39 55q25.5 24 62.5 38.5q37 14.5 84 14.5q34 0 63 -8q29 -8 52 -22l141 28l5 -120l-67 -13q2 -10 3.5 -19q1.5 -9 1.5 -19q0 -32 -12.5 -61.5q-12.5 -29.5 -36.5 -52.5q-24 -23 -58 -37.5q-34 -14.5 -76 -17.5q-1 -4 -1 -11q0 -8 3 -17q46 -2 86.5 -11.5q40.5 -9.5 70.5 -27.5q30 -18 47.5 -46q17.5 -28 17.5 -65q0 -39 -19 -67.5q-19 -28.5 -51.5 -46.5q-32.5 -18 -76 -27q-43.5 -9 -92.5 -9q-49 0 -92.5 8.5q-43.5 8.5 -76 26.5q-32.5 18 -51.5 46.5q-19 28.5 -19 68.5zt0 0zM140 -58q0 -14 25.5 -22q25.5 -8 73.5 -8q48 0 73.5 7.5q25.5 7.5 25.5 22.5q0 14 -23 22.5q-23 8.5 -76 8.5q-52 0 -75.5 -8.5q-23.5 -8.5 -23.5 -22.5zt0 0zM179 289q0 -21 15 -35q15 -14 44 -14q26 0 42.5 12.5q16.5 12.5 16.5 36.5q0 21 -14 37q-14 16 -45 16q-29 0 -44 -16.5q-15 -16.5 -15 -36.5zt0 0zM138 682q16 -17 40.5 -34.5q24.5 -17.5 64.5 -17.5q37 0 66 16q29 16 44 34l51 -72q-11 -16 -25 -33q-14 -17 -34 -31.5q-20 -14.5 -46.5 -24q-26.5 -9.5 -61.5 -9.5q-35 0 -62 10.5q-27 10.5 -47.5 25.5q-20.5 15 -34.5 32q-14 17 -21 29z" />
<glyph unicode="&#288;" horiz-adv-x="727" d="M378 399h299v-312q-23 -23 -54.5 -41.5q-31.5 -18.5 -67 -31.5q-35.5 -13 -71.5 -19.5q-36 -6.5 -69 -6.5q-90 0 -160 26q-70 26 -117.5 73.5q-47.5 47.5 -72.5 114q-25 66.5 -25 148.5q0 75 24.5 141q24.5 66 70.5 115q46 49 111.5 77.5q65.5 28.5 148.5 28.5q78 0 132 -19.5q54 -19.5 97 -53.5l-67 -129q-21 23 -61.5 37.5q-40.5 14.5 -81.5 14.5q-43 0 -80.5 -13q-37.5 -13 -65 -39q-27.5 -26 -43 -66q-15.5 -40 -15.5 -94q0 -48 15 -87.5q15 -39.5 42 -67q27 -27.5 65 -42.5q38 -15 85 -15q16 0 33 3.5q17 3.5 32 8.5q15 5 27 11q12 6 18 12l0 76h-149zM274 845q0 21 8 37.5q8 16.5 22 28.5q14 12 32.5 18q18.5 6 38.5 6q18 0 35.5 -6q17.5 -6 31 -18q13.5 -12 21.5 -28.5q8 -16.5 8 -37.5q0 -23 -8 -41q-8 -18 -21.5 -30q-13.5 -12 -31 -18.5q-17.5 -6.5 -35.5 -6.5q-41 0 -71 24.5t-30 71.5z" />
<glyph unicode="&#289;" horiz-adv-x="504" d="M0 -58q0 59 41.5 93.5q41.5 34.5 107.5 48.5q-6 12 -6 25q0 6 1.5 13q1.5 7 5.5 13q-54 21 -82.5 62.5q-28.5 41.5 -28.5 91.5q0 34 13.5 65q13.5 31 39 55q25.5 24 62.5 38.5q37 14.5 84 14.5q34 0 63 -8q29 -8 52 -22l141 28l5 -120l-67 -13q2 -10 3.5 -19q1.5 -9 1.5 -19q0 -32 -12.5 -61.5q-12.5 -29.5 -36.5 -52.5q-24 -23 -58 -37.5q-34 -14.5 -76 -17.5q-1 -4 -1 -11q0 -8 3 -17q46 -2 86.5 -11.5q40.5 -9.5 70.5 -27.5q30 -18 47.5 -46q17.5 -28 17.5 -65q0 -39 -19 -67.5q-19 -28.5 -51.5 -46.5q-32.5 -18 -76 -27q-43.5 -9 -92.5 -9q-49 0 -92.5 8.5q-43.5 8.5 -76 26.5q-32.5 18 -51.5 46.5q-19 28.5 -19 68.5zt0 0zM140 -58q0 -14 25.5 -22q25.5 -8 73.5 -8q48 0 73.5 7.5q25.5 7.5 25.5 22.5q0 14 -23 22.5q-23 8.5 -76 8.5q-52 0 -75.5 -8.5q-23.5 -8.5 -23.5 -22.5zt0 0zM179 289q0 -21 15 -35q15 -14 44 -14q26 0 42.5 12.5q16.5 12.5 16.5 36.5q0 21 -14 37q-14 16 -45 16q-29 0 -44 -16.5q-15 -16.5 -15 -36.5zt0 0zM150 605q0 40 27 62.5q27 22.5 64 22.5q16 0 31.5 -6q15.5 -6 27.5 -17q12 -11 19 -26.5q7 -15.5 7 -35.5q0 -22 -7 -39q-7 -17 -19 -28.5q-12 -11.5 -27.5 -17.5q-15.5 -6 -31.5 -6q-37 0 -64 23t-27 68z" />
<glyph unicode="&#290;" horiz-adv-x="727" d="M378 399h299v-312q-23 -23 -54.5 -41.5q-31.5 -18.5 -67 -31.5q-35.5 -13 -71.5 -19.5q-36 -6.5 -69 -6.5q-90 0 -160 26q-70 26 -117.5 73.5q-47.5 47.5 -72.5 114q-25 66.5 -25 148.5q0 75 24.5 141q24.5 66 70.5 115q46 49 111.5 77.5q65.5 28.5 148.5 28.5q78 0 132 -19.5q54 -19.5 97 -53.5l-67 -129q-21 23 -61.5 37.5q-40.5 14.5 -81.5 14.5q-43 0 -80.5 -13q-37.5 -13 -65 -39q-27.5 -26 -43 -66q-15.5 -40 -15.5 -94q0 -48 15 -87.5q15 -39.5 42 -67q27 -27.5 65 -42.5q38 -15 85 -15q16 0 33 3.5q17 3.5 32 8.5q15 5 27 11q12 6 18 12l0 76h-149zM475 -21q4 -5 8.5 -16.5q4.5 -11.5 4.5 -31.5q0 -30 -14 -54q-14 -24 -35.5 -42q-21.5 -18 -47.5 -29q-26 -11 -50 -14l-44 64q26 11 33.5 26q7.5 15 7.5 32q0 21 -12 36z" />
<glyph unicode="&#291;" horiz-adv-x="504" d="M0 -58q0 59 41.5 93.5q41.5 34.5 107.5 48.5q-6 12 -6 25q0 6 1.5 13q1.5 7 5.5 13q-54 21 -82.5 62.5q-28.5 41.5 -28.5 91.5q0 34 13.5 65q13.5 31 39 55q25.5 24 62.5 38.5q37 14.5 84 14.5q34 0 63 -8q29 -8 52 -22l141 28l5 -120l-67 -13q2 -10 3.5 -19q1.5 -9 1.5 -19q0 -32 -12.5 -61.5q-12.5 -29.5 -36.5 -52.5q-24 -23 -58 -37.5q-34 -14.5 -76 -17.5q-1 -4 -1 -11q0 -8 3 -17q46 -2 86.5 -11.5q40.5 -9.5 70.5 -27.5q30 -18 47.5 -46q17.5 -28 17.5 -65q0 -39 -19 -67.5q-19 -28.5 -51.5 -46.5q-32.5 -18 -76 -27q-43.5 -9 -92.5 -9q-49 0 -92.5 8.5q-43.5 8.5 -76 26.5q-32.5 18 -51.5 46.5q-19 28.5 -19 68.5zt0 0zM140 -58q0 -14 25.5 -22q25.5 -8 73.5 -8q48 0 73.5 7.5q25.5 7.5 25.5 22.5q0 14 -23 22.5q-23 8.5 -76 8.5q-52 0 -75.5 -8.5q-23.5 -8.5 -23.5 -22.5zt0 0zM179 289q0 -21 15 -35q15 -14 44 -14q26 0 42.5 12.5q16.5 12.5 16.5 36.5q0 21 -14 37q-14 16 -45 16q-29 0 -44 -16.5q-15 -16.5 -15 -36.5zt0 0zM167 518q-4 5 -8.5 16.5q-4.5 11.5 -4.5 31.5q0 30 14 54q14 24 35.5 42q21.5 18 47.5 29q26 11 50 14l44 -64q-26 -11 -33.5 -26q-7.5 -15 -7.5 -32q0 -21 12 -36z" />
<glyph unicode="&#292;" horiz-adv-x="755" d="M505 282h-255v-282h-160v700h160v-268h255v268h160v-700h-160zM375 925h4l184 -117l-58 -85l-128 66l-128 -66l-52 83z" />
<glyph unicode="&#293;" horiz-adv-x="544" d="M55 700h150v-281q20 17 48 28q28 11 63 11q39 0 72.5 -10.5q33.5 -10.5 58 -33.5q24.5 -23 38.5 -60q14 -37 14 -90v-264h-150v245q0 34 -20 53.5q-20 19.5 -52 19.5q-20 0 -38 -6.5q-18 -6.5 -34 -22.5l0 -289h-150zM145 925h4l184 -117l-58 -85l-128 66l-128 -66l-52 83z" />
<glyph unicode="&#294;" horiz-adv-x="765" d="M20 637h75v63h160v-63h255v63h160v-63h75v-140h-75v-497h-160v282h-255v-282h-160v497h-75zM510 432v65h-255l0 -65z" />
<glyph unicode="&#295;" horiz-adv-x="594" d="M10 630h95v70h150v-70h134v-140h-134v-71q20 17 48 28q28 11 63 11q39 0 72.5 -10.5q33.5 -10.5 58 -33.5q24.5 -23 38.5 -60q14 -37 14 -90v-264h-150v245q0 34 -20 53.5q-20 19.5 -52 19.5q-20 0 -38 -6.5q-18 -6.5 -34 -22.5l0 -289h-150v490l-95 0z" />
<glyph unicode="&#298;" horiz-adv-x="360" d="M100 700h160v-700h-160zM28 870h314v-120l-314 0z" />
<glyph unicode="&#299;" horiz-adv-x="286" d="M68 450h150v-450h-150zM-4 640h294v-120l-294 0z" />
<glyph unicode="&#302;" horiz-adv-x="360" d="M100 700h160v-700q-22 0 -40 -5q-18 -5 -31 -13q-13 -8 -20.5 -17.5q-7.5 -9.5 -7.5 -18.5q0 -14 8.5 -20q8.5 -6 21.5 -6q13 0 20 2q7 2 20 8l45 -90q-13 -16 -46.5 -28q-33.5 -12 -73.5 -12q-29 0 -55.5 5.5q-26.5 5.5 -46.5 17q-20 11.5 -31.5 29.5q-11.5 18 -11.5 43q0 38 27.5 64q27.5 26 69.5 41l-8 0z" />
<glyph unicode="&#303;" horiz-adv-x="286" d="M234 -160q-13 -16 -46.5 -28q-33.5 -12 -73.5 -12q-29 0 -55.5 5.5q-26.5 5.5 -46.5 17q-20 11.5 -31.5 29.5q-11.5 18 -11.5 43q0 39 28 65q28 26 71 40l0 450h150v-450h-9q-40 -2 -65 -19.5q-25 -17.5 -25 -34.5q0 -14 8.5 -20q8.5 -6 21.5 -6q13 0 20 2q7 2 20 8zM51 605q0 40 27 62.5q27 22.5 64 22.5q16 0 31.5 -6q15.5 -6 27.5 -17q12 -11 19 -26.5q7 -15.5 7 -35.5q0 -22 -7 -39q-7 -17 -19 -28.5q-12 -11.5 -27.5 -17.5q-15.5 -6 -31.5 -6q-37 0 -64 23t-27 68z" />
<glyph unicode="&#304;" horiz-adv-x="360" d="M100 700h160v-700h-160zM82 845q0 21 8 37.5q8 16.5 22 28.5q14 12 32.5 18q18.5 6 38.5 6q18 0 35.5 -6q17.5 -6 31 -18q13.5 -12 21.5 -28.5q8 -16.5 8 -37.5q0 -23 -8 -41q-8 -18 -21.5 -30q-13.5 -12 -31 -18.5q-17.5 -6.5 -35.5 -6.5q-41 0 -71 24.5t-30 71.5z" />
<glyph unicode="&#305;" horiz-adv-x="286" d="M68 450h150v-450l-150 0z" />
<glyph unicode="&#308;" horiz-adv-x="407" d="M317 171q0 -90 -47.5 -136.5q-47.5 -46.5 -137.5 -46.5q-45 0 -81.5 16q-36.5 16 -50.5 33l52 122q12 -9 27.5 -15q15.5 -6 30.5 -6q21 0 34 15.5q13 15.5 13 46.5v500h160zM233 925h4l184 -117l-58 -85l-128 66l-128 -66l-52 83z" />
<glyph unicode="&#309;" horiz-adv-x="281" d="M226 -33q0 -83 -33 -129q-33 -46 -108 -46q-40 0 -73 10q-33 10 -47 24l39 119q12 -7 21 -10q9 -3 23 -3q16 0 22 14q6 14 6 35v469h150zM319 570l-70 -88l-98 81l-100 -79l-67 87l166 135l4 0z" />
<glyph unicode="&#310;" horiz-adv-x="692" d="M90 700h160v-305l229 305h192l-263 -323l284 -377h-203l-239 333v-333h-160zM415 -21q4 -5 8.5 -16.5q4.5 -11.5 4.5 -31.5q0 -30 -14 -54q-14 -24 -35.5 -42q-21.5 -18 -47.5 -29q-26 -11 -50 -14l-44 64q26 11 33.5 26q7.5 15 7.5 32q0 21 -12 36z" />
<glyph unicode="&#311;" horiz-adv-x="537" d="M55 700h150v-445l123 195h188l-146 -203l167 -247h-192l-140 215v-215h-150zM322 -21q4 -5 8.5 -16.5q4.5 -11.5 4.5 -31.5q0 -30 -14 -54q-14 -24 -35.5 -42q-21.5 -18 -47.5 -29q-26 -11 -50 -14l-44 64q26 11 33.5 26q7.5 15 7.5 32q0 21 -12 36z" />
<glyph unicode="&#313;" horiz-adv-x="545" d="M90 700h160v-550h285v-150h-445zM218 728l-41 89l234 118l56 -129z" />
<glyph unicode="&#314;" horiz-adv-x="309" d="M55 700h150v-514q0 -31 7 -44.5q7 -13.5 18 -13.5q11 0 19.5 4.5q8.5 4.5 19.5 11.5l30 -114q-22 -18 -54 -30q-32 -12 -78 -12q-53 0 -82.5 33.5q-29.5 33.5 -29.5 107.5zM113 728l-41 89l234 118l56 -129z" />
<glyph unicode="&#315;" horiz-adv-x="545" d="M90 700h160v-550h285v-150h-445zM375 -21q4 -5 8.5 -16.5q4.5 -11.5 4.5 -31.5q0 -30 -14 -54q-14 -24 -35.5 -42q-21.5 -18 -47.5 -29q-26 -11 -50 -14l-44 64q26 11 33.5 26q7.5 15 7.5 32q0 21 -12 36z" />
<glyph unicode="&#316;" horiz-adv-x="309" d="M55 700h150v-514q0 -31 7 -44.5q7 -13.5 18 -13.5q11 0 19.5 4.5q8.5 4.5 19.5 11.5l30 -114q-22 -18 -54 -30q-32 -12 -78 -12q-53 0 -82.5 33.5q-29.5 33.5 -29.5 107.5zM250 -21q4 -5 8.5 -16.5q4.5 -11.5 4.5 -31.5q0 -30 -14 -54q-14 -24 -35.5 -42q-21.5 -18 -47.5 -29q-26 -11 -50 -14l-44 64q26 11 33.5 26q7.5 15 7.5 32q0 21 -12 36z" />
<glyph unicode="&#317;" horiz-adv-x="545" d="M502 700q3 -8 4 -17.5q1 -9.5 1 -14.5q0 -40 -10.5 -71q-10.5 -31 -26.5 -55q-16 -24 -36.5 -40.5q-20.5 -16.5 -39.5 -27.5l-70 63q20 23 31.5 52q11.5 29 11.5 61q0 16 -3 27q-3 11 -8 23zM90 700h160v-550h285v-150l-445 0z" />
<glyph unicode="&#318;" horiz-adv-x="309" d="M412 700q3 -8 4 -17.5q1 -9.5 1 -14.5q0 -40 -10.5 -71q-10.5 -31 -26.5 -55q-16 -24 -36.5 -40.5q-20.5 -16.5 -39.5 -27.5l-70 63q20 23 31.5 52q11.5 29 11.5 61q0 16 -3 27q-3 11 -8 23zM55 700h150v-514q0 -31 7 -44.5q7 -13.5 18 -13.5q11 0 19.5 4.5q8.5 4.5 19.5 11.5l30 -114q-22 -18 -54 -30q-32 -12 -78 -12q-53 0 -82.5 33.5q-29.5 33.5 -29.5 107.5z" />
<glyph unicode="&#319;" horiz-adv-x="545" d="M90 700h160v-550h285v-150h-445zM344 376q0 17 7 33.5q7 16.5 20 30q13 13.5 32 22q19 8.5 43 8.5q21 0 38.5 -8.5q17.5 -8.5 29.5 -22q12 -13.5 19 -30q7 -16.5 7 -33.5q0 -20 -7 -38.5q-7 -18.5 -19 -32.5q-12 -14 -29.5 -22.5q-17.5 -8.5 -38.5 -8.5q-24 0 -43 8.5q-19 8.5 -32 22.5q-13 14 -20 32.5t-7 38.5z" />
<glyph unicode="&#320;" horiz-adv-x="377" d="M55 700h150v-514q0 -31 7 -44.5q7 -13.5 18 -13.5q11 0 19.5 4.5q8.5 4.5 19.5 11.5l30 -114q-22 -18 -54 -30q-32 -12 -78 -12q-53 0 -82.5 33.5q-29.5 33.5 -29.5 107.5zM231 350q0 40 27 62.5q27 22.5 64 22.5q16 0 31.5 -6q15.5 -6 27.5 -17q12 -11 19 -26.5q7 -15.5 7 -35.5q0 -22 -7 -39q-7 -17 -19 -28.5q-12 -11.5 -27.5 -17.5q-15.5 -6 -31.5 -6q-37 0 -64 23t-27 68z" />
<glyph unicode="&#321;" horiz-adv-x="555" d="M20 343l80 35v322h160v-251l149 66v-153l-149 -67v-145h285v-150h-445v224l-80 -35z" />
<glyph unicode="&#322;" horiz-adv-x="339" d="M10 336l65 28v336h150v-270l84 37v-153l-84 -37v-91q0 -31 7 -44.5q7 -13.5 18 -13.5q11 0 19.5 4.5q8.5 4.5 19.5 11.5l30 -114q-22 -18 -54 -30q-32 -12 -78 -12q-53 0 -82.5 33.5q-29.5 33.5 -29.5 107.5v81l-65 -28z" />
<glyph unicode="&#323;" horiz-adv-x="790" d="M572 0l-332 420v-420h-150v700h128l332 -422v422h150v-700zM348 728l-41 89l234 118l56 -129z" />
<glyph unicode="&#324;" horiz-adv-x="544" d="M55 450h150v-35q18 17 47 30q29 13 64 13q39 0 72.5 -10q33.5 -10 58 -32.5q24.5 -22.5 38.5 -58.5q14 -36 14 -89v-268h-150v242q0 39 -20.5 57.5q-20.5 18.5 -53.5 18.5q-20 0 -36.5 -7q-16.5 -7 -33.5 -24l0 -287h-150zM287 503l-89 63l103 172l117 -89z" />
</font>
</defs>
</svg>
