<?xml version="1.0" encoding="UTF-8" standalone="no"?>
<!DOCTYPE svg PUBLIC "-//W3C//DTD SVG 1.1//EN" "http://www.w3.org/Graphics/SVG/1.1/DTD/svg11.dtd" >
<svg xmlns="http://www.w3.org/2000/svg">
<metadata>
Generated by SVGconv.
Copyright   : Copyright  2011 ParaType Inc., ParaType Ltd. All rights reserved.
Designer    : A.Korolkova
Foundry     : ParaType Ltd
Foundry URL : http://www.paratype.com
</metadata>
<defs>
<font id="CirceSV-Italic" horiz-adv-x="538" >
<font-face units-per-em="1000" ascent="1020" descent="454" >
<font-face-src>
<font-face-name/>
</font-face-src>
</font-face>
<missing-glyph horiz-adv-x="500" />
<glyph unicode="&#13;" horiz-adv-x="225" />
<glyph unicode="&#32;" horiz-adv-x="225" />
<glyph unicode="&#33;" horiz-adv-x="310" d="M235 700h85l-85 -485h-85zM110 54q0 20 15.5 36.5q15.5 16.5 41.5 16.5q23 0 38 -16.5q15 -16.5 15 -36.5q0 -23 -15 -40q-15 -17 -38 -17q-26 0 -41.5 17t-15.5 40z" />
<glyph unicode="&#34;" horiz-adv-x="415" d="M373 700h80l-39 -223h-80zM208 700h80l-39 -223l-80 0z" />
<glyph unicode="&#35;" horiz-adv-x="704" d="M384 195h-184l-76 -205l-63 22l68 183h-89v70h115l63 170h-178v70h204l76 205l63 -23l-68 -182h184l76 205l63 -22l-68 -183h94v-70h-120l-63 -170h183v-70h-209l-76 -205l-62 22zM226 265h184l63 170l-184 0z" />
<glyph unicode="&#36;" horiz-adv-x="592" d="M464 195q0 36 -21 59q-21 23 -53 41q-32 18 -69 34q-37 16 -69 38q-32 22 -53 52.5q-21 30.5 -21 78.5q0 39 15 74q15 35 42.5 62.5q27.5 27.5 66 46.5q38.5 19 85.5 26l15 83h80l-15 -82q48 -6 85 -24.5q37 -18.5 58 -46.5l-58 -64q-23 28 -54.5 42.5q-31.5 14.5 -77.5 14.5q-71 0 -111 -33q-40 -33 -40 -87q0 -36 21 -58.5q21 -22.5 53 -39.5q32 -17 69 -32.5q37 -15.5 69 -36.5q32 -21 53 -52.5q21 -31.5 21 -79.5q0 -44 -16.5 -81q-16.5 -37 -45.5 -65q-29 -28 -68 -46.5q-39 -18.5 -84 -24.5l-16 -94h-80l16 92q-29 3 -56 11.5q-27 8.5 -49.5 22q-22.5 13.5 -39 31q-16.5 17.5 -23.5 38.5l59 58q12 -20 30 -35.5q18 -15.5 39.5 -26q21.5 -10.5 44.5 -16q23 -5.5 45 -5.5q30 0 58 8.5q28 8.5 49 24q21 15.5 33.5 39t12.5 53.5z" />
<glyph unicode="&#37;" horiz-adv-x="877" d="M50 529q0 39 13.5 71.5q13.5 32.5 37 55.5q23.5 23 55 36q31.5 13 67.5 13q36 0 68 -12q32 -12 56 -34.5q24 -22.5 37.5 -54.5q13.5 -32 13.5 -71q0 -39 -14 -71.5q-14 -32.5 -38 -56q-24 -23.5 -56 -37q-32 -13.5 -68 -13.5q-36 0 -67 12.5q-31 12.5 -54.5 35.5q-23.5 23 -37 55q-13.5 32 -13.5 71zt0 0zM120 530q0 -48 30 -78q30 -30 74 -30q48 0 76 29q28 29 28 80q0 47 -30.5 77q-30.5 30 -73.5 30q-48 0 -76 -30.5q-28 -30.5 -28 -77.5zt0 0zM483 171q0 39 13.5 71.5q13.5 32.5 37 55.5q23.5 23 55 36q31.5 13 67.5 13q36 0 68 -12q32 -12 56 -34.5q24 -22.5 38 -54.5q14 -32 14 -71q0 -39 -14 -71.5q-14 -32.5 -38 -56q-24 -23.5 -56 -37q-32 -13.5 -68 -13.5q-36 0 -67.5 12.5q-31.5 12.5 -55 35.5q-23.5 23 -37 55q-13.5 32 -13.5 71zt0 0zM553 172q0 -48 30 -78q30 -30 74 -30q48 0 76.5 29q28.5 29 28.5 80q0 23 -8.5 42.5q-8.5 19.5 -22.5 34q-14 14.5 -33 22.5q-19 8 -40 8q-49 0 -77 -30.5q-28 -30.5 -28 -77.5zt0 0zM673 710l46 -34l-513 -686l-47 33z" />
<glyph unicode="&#38;" horiz-adv-x="744" d="M541 95q-46 -44 -107.5 -74.5q-61.5 -30.5 -139.5 -30.5q-45 0 -80.5 13q-35.5 13 -61 36.5q-25.5 23.5 -39 56.5q-13.5 33 -13.5 74q0 46 19.5 84.5q19.5 38.5 51 71q31.5 32.5 71 59.5q39.5 27 78.5 51q-10 9 -24 23q-14 14 -27.5 32.5q-13.5 18.5 -23 40q-9.5 21.5 -9.5 45.5q0 28 12.5 52.5q12.5 24.5 35.5 42.5q23 18 55.5 28q32.5 10 73.5 10q31 0 57.5 -9q26.5 -9 46 -25q19.5 -16 30.5 -39q11 -23 11 -51q0 -53 -29 -89.5q-29 -36.5 -99 -74.5l125 -209q34 45 60.5 105q26.5 60 39.5 132l79 0q-14 -84 -51 -162.5q-37 -78.5 -90 -138.5l91 -149h-85zM310 70q33 0 62 8.5q29 8.5 54 21.5q25 13 44 29q19 16 33 30l-139 231q-39 -30 -71.5 -54q-32.5 -24 -55 -49q-22.5 -25 -35 -52.5q-12.5 -27.5 -12.5 -63.5q0 -41 32 -71q32 -30 88 -30zt0 0zM316 573q0 -18 7 -33q7 -15 17.5 -27.5q10.5 -12.5 22.5 -22.5q12 -10 23 -17q12 5 27.5 13q15.5 8 30 20q14.5 12 24.5 27.5q10 15.5 10 36.5q0 34 -19 54.5q-19 20.5 -49 20.5q-44 0 -69 -20.5t-25 -51.5z" />
<glyph unicode="&#39;" horiz-adv-x="250" d="M208 700h80l-39 -223l-80 0z" />
<glyph unicode="&#40;" horiz-adv-x="293" d="M212 -206q-37 37 -63.5 80q-26.5 43 -44 87.5q-17.5 44.5 -26 90q-8.5 45.5 -8.5 88.5q0 61 12.5 124q12.5 63 44.5 127.5q32 64.5 88 130.5q56 66 143 134l43 -51q-72 -59 -120 -114.5q-48 -55.5 -77 -111q-29 -55.5 -41 -112q-12 -56.5 -12 -116.5q0 -88 28.5 -171q28.5 -83 84.5 -142z" />
<glyph unicode="&#41;" horiz-adv-x="293" d="M-29 -152q117 90 183.5 205q66.5 115 66.5 253q0 82 -25 159.5q-25 77.5 -85 146.5l54 44q37 -40 63 -83q26 -43 42.5 -87.5q16.5 -44.5 24 -89.5q7.5 -45 7.5 -88q0 -60 -13 -124q-13 -64 -46 -129.5q-33 -65.5 -88.5 -131.5q-55.5 -66 -140.5 -129z" />
<glyph unicode="&#42;" horiz-adv-x="479" d="M189 657q0 21 15.5 36.5q15.5 15.5 35.5 15.5q23 0 38 -15.5q15 -15.5 15 -36.5q0 -22 -15 -36.5q-15 -14.5 -38 -14.5q-20 0 -35.5 14.5q-15.5 14.5 -15.5 36.5zt0 0zM187 375q0 23 16 38.5q16 15.5 36 15.5q21 0 37 -15.5q16 -15.5 16 -38.5q0 -20 -16 -36q-16 -16 -37 -16q-20 0 -36 16q-16 16 -16 36zt0 0zM305 584q0 22 14.5 37.5q14.5 15.5 35.5 15.5q22 0 37.5 -15.5q15.5 -15.5 15.5 -37.5q0 -21 -15.5 -36.5q-15.5 -15.5 -37.5 -15.5q-21 0 -35.5 15.5q-14.5 15.5 -14.5 36.5zt0 0zM305 451q0 22 14.5 37q14.5 15 35.5 15q22 0 37.5 -15q15.5 -15 15.5 -37q0 -22 -15.5 -37.5q-15.5 -15.5 -37.5 -15.5q-21 0 -35.5 15.5q-14.5 15.5 -14.5 37.5zt0 0zM71 451q0 22 15 37q15 15 36 15q22 0 37 -15q15 -15 15 -37q0 -22 -15 -37.5q-15 -15.5 -37 -15.5q-21 0 -36 15.5q-15 15.5 -15 37.5zt0 0zM71 584q0 22 15 37.5q15 15.5 36 15.5q22 0 37 -15.5q15 -15.5 15 -37.5q0 -21 -15 -36.5q-15 -15.5 -37 -15.5q-21 0 -36 15.5t-15 36.5z" />
<glyph unicode="&#43;" horiz-adv-x="592" d="M69 395h188v191h75v-191h191v-70h-191v-193h-75v193l-188 0z" />
<glyph unicode="&#44;" horiz-adv-x="223" d="M61 45q0 24 16.5 39q16.5 15 42.5 15q33 0 49.5 -23q16.5 -23 16.5 -58q0 -29 -10.5 -55.5q-10.5 -26.5 -29.5 -47.5q-19 -21 -44 -37q-25 -16 -55 -24l-15 38q15 5 30 16q15 11 27 25.5q12 14.5 19.5 32.5q7.5 18 7.5 36q-4 -2 -12 -2q-22 0 -32.5 13.5t-10.5 31.5z" />
<glyph unicode="&#45;" horiz-adv-x="389" d="M113 310h239v-75l-239 0z" />
<glyph unicode="&#46;" horiz-adv-x="210" d="M65 54q0 20 15.5 36.5q15.5 16.5 41.5 16.5q23 0 38 -16.5q15 -16.5 15 -36.5q0 -23 -15 -40q-15 -17 -38 -17q-26 0 -41.5 17t-15.5 40z" />
<glyph unicode="&#47;" horiz-adv-x="335" d="M303 710l62 -23l-332 -895l-63 23z" />
<glyph unicode="&#48;" horiz-adv-x="564" d="M104 245q0 94 17.5 178q17.5 84 53 147.5q35.5 63.5 89 100.5q53.5 37 125.5 37q53 0 90 -18.5q37 -18.5 60 -52q23 -33.5 33.5 -80q10.5 -46.5 10.5 -101.5q0 -85 -15 -168q-15 -83 -47.5 -149q-32.5 -66 -83.5 -106.5q-51 -40.5 -123 -40.5q-58 0 -98 18.5q-40 18.5 -65 52q-25 33.5 -36 80q-11 46.5 -11 102.5zt0 0zM189 247q0 -85 28.5 -132.5q28.5 -47.5 98.5 -47.5q31 0 63.5 20.5q32.5 20.5 59 66.5q26.5 46 43.5 121q17 75 17 183q0 83 -26.5 129q-26.5 46 -90.5 46q-42 0 -73 -21q-31 -21 -52.5 -54.5q-21.5 -33.5 -34.5 -76q-13 -42.5 -20.5 -85.5q-7.5 -43 -10 -82.5t-2.5 -66.5z" />
<glyph unicode="&#49;" horiz-adv-x="379" d="M327 704h56l-124 -704h-80l103 583l-110 -68l-36 59z" />
<glyph unicode="&#50;" horiz-adv-x="527" d="M56 65q66 52 135.5 111q69.5 59 127.5 120q58 61 95 121.5q37 60.5 37 117.5q0 46 -27 69.5q-27 23.5 -76 23.5q-18 0 -38.5 -7q-20.5 -7 -39 -21q-18.5 -14 -34.5 -35q-16 -21 -26 -49l-65 32q13 39 35.5 69q22.5 30 51 50q28.5 20 61.5 30.5q33 10.5 68 10.5q89 0 133.5 -44.5q44.5 -44.5 44.5 -113.5q0 -48 -22.5 -98.5q-22.5 -50.5 -58 -99q-35.5 -48.5 -79 -93q-43.5 -44.5 -84.5 -81q-41 -36.5 -75.5 -63.5q-34.5 -27 -51.5 -40l317 0l-13 -75l-427 0z" />
<glyph unicode="&#51;" horiz-adv-x="532" d="M264 -10q-88 0 -142 36.5q-54 36.5 -75 95.5l70 36q15 -40 52.5 -64q37.5 -24 86.5 -24q41 0 71.5 11.5q30.5 11.5 50.5 31.5q20 20 30 46q10 26 10 56q0 48 -34.5 75.5q-34.5 27.5 -100.5 27.5h-43l14 80h36q36 0 65 10.5q29 10.5 50 28.5q21 18 32 42.5q11 24.5 11 53.5q0 42 -26.5 69.5q-26.5 27.5 -82.5 27.5q-42 0 -75 -20.5q-33 -20.5 -54 -51.5l-58 45q34 54 91.5 80.5q57.5 26.5 119.5 26.5q38 0 70 -10.5q32 -10.5 55 -30q23 -19.5 36 -47.5q13 -28 13 -64q0 -63 -36.5 -115.5q-36.5 -52.5 -105.5 -77.5l-1 -3q53 -14 81.5 -51.5q28.5 -37.5 28.5 -89.5q0 -52 -18 -94.5q-18 -42.5 -50 -73q-32 -30.5 -76 -47t-96 -16.5z" />
<glyph unicode="&#52;" horiz-adv-x="550" d="M374 175h-323l10 57l373 468h97l-356 -445h213l34 195h80l-34 -195h97l-14 -80h-97l-31 -175l-80 0z" />
<glyph unicode="&#53;" horiz-adv-x="516" d="M267 700h316l-15 -80h-246l-59 -189q12 3 27 5q15 2 30 2q38 0 72 -12.5q34 -12.5 59.5 -36q25.5 -23.5 40.5 -57q15 -33.5 15 -74.5q0 -65 -20.5 -115q-20.5 -50 -55.5 -84q-35 -34 -83 -51.5q-48 -17.5 -102 -17.5q-29 0 -57.5 6.5q-28.5 6.5 -55 19.5q-26.5 13 -49 32.5q-22.5 19.5 -38.5 45.5l58 52q27 -41 68 -58.5q41 -17.5 78 -17.5q40 0 72 13q32 13 53.5 36q21.5 23 33 54q11.5 31 11.5 67q0 54 -34 90q-34 36 -112 36q-32 0 -63.5 -5.5q-31.5 -5.5 -50.5 -12.5z" />
<glyph unicode="&#54;" horiz-adv-x="554" d="M89 214q0 97 38.5 181.5q38.5 84.5 100 149.5q61.5 65 137.5 108q76 43 150 57l20 -67q-48 -12 -99.5 -37q-51.5 -25 -98.5 -64q-47 -39 -86 -92q-39 -53 -62 -121q29 49 75 75.5q46 26.5 102 26.5q37 0 71 -13q34 -13 59 -37q25 -24 40 -57.5q15 -33.5 15 -74.5q0 -58 -19 -106q-19 -48 -52 -82q-33 -34 -77 -52.5q-44 -18.5 -94 -18.5q-53 0 -94 17q-41 17 -69 47q-28 30 -42.5 71q-14.5 41 -14.5 89zt0 0zM179 248q-6 -36 -0.5 -68q5.5 -32 22 -56.5q16.5 -24.5 43 -39q26.5 -14.5 60.5 -14.5q39 0 69 13.5q30 13.5 50 36.5q20 23 30.5 53q10.5 30 10.5 64q0 51 -33.5 85q-33.5 34 -90.5 34q-29 0 -54.5 -9q-25.5 -9 -46.5 -24q-21 -15 -36.5 -34.5t-23.5 -40.5z" />
<glyph unicode="&#55;" horiz-adv-x="485" d="M153 700h420l-9 -52l-372 -648h-94l358 620l-317 0z" />
<glyph unicode="&#56;" horiz-adv-x="595" d="M390 400q25 0 47.5 9q22.5 9 40 25.5q17.5 16.5 28 39.5q10.5 23 10.5 51q0 48 -33 76.5q-33 28.5 -87 28.5q-28 0 -52.5 -9.5q-24.5 -9.5 -43 -26q-18.5 -16.5 -29 -38.5q-10.5 -22 -10.5 -48q0 -22 7.5 -41.5q7.5 -19.5 22.5 -34.5q15 -15 37.5 -23.5q22.5 -8.5 51.5 -8.5zM337 320q-36 0 -64.5 -10.5q-28.5 -10.5 -48.5 -28.5q-20 -18 -30.5 -42.5q-10.5 -24.5 -10.5 -52.5q0 -54 35.5 -85q35.5 -31 102.5 -31q41 0 71.5 11.5q30.5 11.5 50.5 30.5q20 19 29.5 44.5q9.5 25.5 9.5 53.5q0 27 -10 47.5q-10 20.5 -28 34.5q-18 14 -42.5 21q-24.5 7 -52.5 7zM321 -10q-52 0 -94 13q-42 13 -71.5 37q-29.5 24 -45.5 57q-16 33 -16 72q0 36 10.5 68q10.5 32 32.5 58.5q22 26.5 54.5 45q32.5 18.5 76.5 26.5l1 3q-17 8 -33 20.5q-16 12.5 -29.5 30q-13.5 17.5 -21.5 41q-8 23.5 -8 53.5q0 41 18.5 76.5q18.5 35.5 51 62q32.5 26.5 75.5 41.5q43 15 92 15q91 0 140.5 -43q49.5 -43 49.5 -114q0 -30 -7 -59q-7 -29 -23.5 -55q-16.5 -26 -42.5 -46q-26 -20 -65 -32l-1 -3q46 -16 73.5 -53.5q27.5 -37.5 27.5 -88.5q0 -53 -17.5 -95q-17.5 -42 -49.5 -71q-32 -29 -77 -44.5t-101 -15.5z" />
<glyph unicode="&#57;" horiz-adv-x="551" d="M586 464q0 -106 -32.5 -190.5q-32.5 -84.5 -90.5 -145q-58 -60.5 -138 -96q-80 -35.5 -175 -42.5l-18 71q66 6 125.5 26q59.5 20 108 58q48.5 38 82.5 95q34 57 48 135q-11 -22 -29.5 -41q-18.5 -19 -42 -33.5q-23.5 -14.5 -51 -23q-27.5 -8.5 -57.5 -8.5q-42 0 -77.5 14q-35.5 14 -61.5 40q-26 26 -40.5 63q-14.5 37 -14.5 83q0 52 18.5 96q18.5 44 50.5 76q32 32 76 50.5q44 18.5 94 18.5q51 0 92.5 -16.5q41.5 -16.5 71 -48q29.5 -31.5 45.5 -77.5q16 -46 16 -104zt0 0zM495 447q6 36 -1 69q-7 33 -25 58.5q-18 25.5 -46 40.5q-28 15 -62 15q-35 0 -63 -12q-28 -12 -47.5 -32q-19.5 -20 -30.5 -46.5q-11 -26.5 -11 -55.5q0 -63 37 -101.5q37 -38.5 103 -38.5q48 0 85.5 25.5t60.5 77.5z" />
<glyph unicode="&#58;" horiz-adv-x="320" d="M169 406q0 20 15.5 36.5q15.5 16.5 41.5 16.5q23 0 38 -16.5q15 -16.5 15 -36.5q0 -23 -15 -40q-15 -17 -38 -17q-26 0 -41.5 17q-15.5 17 -15.5 40zt0 0zM107 54q0 20 15.5 36.5q15.5 16.5 41.5 16.5q23 0 38 -16.5q15 -16.5 15 -36.5q0 -23 -15 -40q-15 -17 -38 -17q-26 0 -41.5 17t-15.5 40z" />
<glyph unicode="&#59;" horiz-adv-x="324" d="M164 406q0 20 15.5 36.5q15.5 16.5 41.5 16.5q23 0 38 -16.5q15 -16.5 15 -36.5q0 -23 -15 -40q-15 -17 -38 -17q-26 0 -41.5 17q-15.5 17 -15.5 40zt0 0zM100 45q0 24 16.5 39q16.5 15 42.5 15q33 0 49.5 -23q16.5 -23 16.5 -58q0 -29 -10.5 -55.5q-10.5 -26.5 -29.5 -47.5q-19 -21 -44 -37q-25 -16 -55 -24l-15 38q15 5 30 16q15 11 27 25.5q12 14.5 19.5 32.5q7.5 18 7.5 36q-4 -2 -12 -2q-22 0 -32.5 13.5t-10.5 31.5z" />
<glyph unicode="&#60;" horiz-adv-x="592" d="M57 345v34l440 264v-87l-329 -194l329 -196l0 -87z" />
<glyph unicode="&#61;" horiz-adv-x="592" d="M69 485h454v-70h-454zM69 305h454v-70l-454 0z" />
<glyph unicode="&#62;" horiz-adv-x="592" d="M95 79v87l329 196l-329 194v87l439 -264l0 -34z" />
<glyph unicode="&#63;" horiz-adv-x="441" d="M470 535q0 20 -5 37.5q-5 17.5 -17 30q-12 12.5 -32 20q-20 7.5 -49 7.5q-42 0 -77.5 -19.5q-35.5 -19.5 -67.5 -55.5l-48 54q35 44 85.5 72.5q50.5 28.5 125.5 28.5q43 0 75 -12.5q32 -12.5 53 -34.5q21 -22 31.5 -50.5q10.5 -28.5 10.5 -61.5q0 -46 -18.5 -82q-18.5 -36 -46.5 -65.5q-28 -29.5 -60.5 -54q-32.5 -24.5 -61 -47.5q-28.5 -23 -47.5 -47q-19 -24 -21 -53l-66 0q-1 40 16 71q17 31 43 56.5q26 25.5 57 48.5q31 23 57.5 47q26.5 24 44.5 50.5q18 26.5 18 59.5zt0 0zM147 54q0 20 15.5 36.5q15.5 16.5 41.5 16.5q23 0 38 -16.5q15 -16.5 15 -36.5q0 -23 -15 -40q-15 -17 -38 -17q-26 0 -41.5 17t-15.5 40z" />
<glyph unicode="&#64;" horiz-adv-x="1020" d="M528 -138q39 0 76.5 5.5q37.5 5.5 63.5 16.5l14 -69q-27 -11 -71 -19.5q-44 -8.5 -89 -8.5q-95 0 -173 30q-78 30 -134 84.5q-56 54.5 -86.5 131.5q-30.5 77 -30.5 171q0 99 36 183.5q36 84.5 99.5 145.5q63.5 61 150 95.5q86.5 34.5 188.5 34.5q92 0 168.5 -26.5q76.5 -26.5 131.5 -74q55 -47.5 85.5 -113q30.5 -65.5 30.5 -144.5q0 -64 -17.5 -119.5q-17.5 -55.5 -52 -97q-34.5 -41.5 -87 -65q-52.5 -23.5 -122.5 -23.5h-24h-13q-22 0 -34 6q-12 6 -17 16.5q-5 10.5 -4.5 25q0.5 14.5 3.5 31.5l14 79q-17 -28 -38.5 -57.5q-21.5 -29.5 -47.5 -54q-26 -24.5 -56.5 -40.5q-30.5 -16 -65.5 -16q-59 0 -87 44.5q-28 44.5 -28 113.5q0 66 23 123q23 57 63.5 99q40.5 42 94.5 66q54 24 116 24q52 0 89.5 -10q37.5 -10 58.5 -21l-59 -354h15q96 0 148.5 59.5q52.5 59.5 52.5 164.5q0 61 -23 114q-23 53 -67.5 92q-44.5 39 -108 61q-63.5 22 -144.5 22q-83 0 -155 -26.5q-72 -26.5 -126 -76q-54 -49.5 -85 -120.5q-31 -71 -31 -159q0 -86 28.5 -150q28.5 -64 77 -107.5q48.5 -43.5 113 -65q64.5 -21.5 136.5 -21.5zt0 0zM673 376q-17 6 -31 7.5q-14 1.5 -30 1.5q-49 0 -89.5 -17.5q-40.5 -17.5 -69 -48q-28.5 -30.5 -44 -71.5q-15.5 -41 -15.5 -88q0 -43 17 -69q17 -26 52 -26q25 0 55.5 24.5q30.5 24.5 59 60.5q28.5 36 50 76q21.5 40 29.5 70z" />
<glyph unicode="&#65;" horiz-adv-x="705" d="M440 704h73l177 -704h-86l-53 212h-319l-126 -212h-91zM280 292h252l-73 299z" />
<glyph unicode="&#66;" horiz-adv-x="617" d="M228 699q15 0 37.5 1q22.5 1 49 1.5q26.5 0.5 54.5 1q28 0.5 52 0.5q54 0 92 -11q38 -11 61.5 -31.5q23.5 -20.5 34 -49.5q10.5 -29 10.5 -64q0 -69 -39 -117q-39 -48 -101 -67l-1 -2q49 -13 78 -46.5q29 -33.5 29 -84.5q0 -60 -22.5 -104q-22.5 -44 -62.5 -72.5q-40 -28.5 -93.5 -42.5q-53.5 -14 -114.5 -14q-23 0 -49.5 0.5q-26.5 0.5 -52 1q-25.5 0.5 -48 1q-22.5 0.5 -37.5 1.5zM246 319l-42 -238q17 -2 47 -3q30 -1 60 -1q89 0 136.5 36.5q47.5 36.5 47.5 102.5q0 103 -136 103zM405 623q-28 0 -57.5 -1q-29.5 -1 -48.5 -2l-40 -226h112q31 0 59.5 9q28.5 9 50.5 26.5q22 17.5 35 43q13 25.5 13 58.5q0 92 -124 92z" />
<glyph unicode="&#67;" horiz-adv-x="656" d="M665 59q-21 -18 -48.5 -31q-27.5 -13 -57.5 -21.5q-30 -8.5 -61 -12.5q-31 -4 -58 -4q-79 0 -141 25.5q-62 25.5 -105 69.5q-43 44 -66 103.5q-23 59.5 -23 128.5q0 85 31.5 157q31.5 72 86.5 124.5q55 52.5 130 82q75 29.5 162 29.5q75 0 129 -17.5q54 -17.5 83 -43.5l-44 -61q-32 20 -73 31q-41 11 -89 11q-69 0 -128 -22.5q-59 -22.5 -102.5 -63q-43.5 -40.5 -68.5 -96q-25 -55.5 -25 -121.5q0 -54 17.5 -100.5q17.5 -46.5 51 -81.5q33.5 -35 81 -55q47.5 -20 107.5 -20q47 0 92 12q45 12 87 41z" />
<glyph unicode="&#68;" horiz-adv-x="739" d="M228 700h12q17 0 39.5 0.5q22.5 0.5 46.5 1q24 0.5 48.5 1q24.5 0.5 45.5 0.5q91 0 155.5 -23q64.5 -23 105 -63q40.5 -40 59.5 -94q19 -54 19 -115q0 -86 -31 -160.5q-31 -74.5 -91 -130q-60 -55.5 -147.5 -87.5q-87.5 -32 -201.5 -32q-35 0 -81 1q-46 1 -91 1h-11zM404 623q-32 0 -55.5 -1q-23.5 -1 -49.5 -2l-95 -540q35 -1 63.5 -1.5q28.5 -0.5 37.5 -0.5q85 0 152.5 22.5q67.5 22.5 114 65q46.5 42.5 71 103.5q24.5 61 24.5 137q0 105 -64.5 161t-198.5 56z" />
<glyph unicode="&#69;" horiz-adv-x="575" d="M228 700h395l-14 -80h-310l-40 -226h280l-14 -80h-280l-41 -234h320l-14 -80l-405 0z" />
<glyph unicode="&#70;" horiz-adv-x="540" d="M228 700h395l-14 -80h-310l-43 -248h280l-15 -80h-280l-51 -292l-85 0z" />
<glyph unicode="&#71;" horiz-adv-x="727" d="M461 356h269l-48 -269q-19 -21 -47.5 -39q-28.5 -18 -62 -31q-33.5 -13 -69.5 -20q-36 -7 -70 -7q-78 0 -139 25q-61 25 -103 68.5q-42 43.5 -64.5 102.5q-22.5 59 -22.5 127q0 83 29.5 155.5q29.5 72.5 83 126q53.5 53.5 127 84.5q73.5 31 160.5 31q77 0 131.5 -19.5q54.5 -19.5 91.5 -53.5l-49 -63q-23 22 -70 39q-47 17 -111 17q-63 0 -118 -22q-55 -22 -95.5 -62.5q-40.5 -40.5 -64 -96.5q-23.5 -56 -23.5 -123q0 -58 17 -105.5q17 -47.5 48 -81q31 -33.5 75 -51.5q44 -18 97 -18q57 0 101.5 16q44.5 16 76.5 43l24 147l-189 0z" />
<glyph unicode="&#72;" horiz-adv-x="765" d="M631 317h-385l-56 -317h-85l123 700h85l-53 -303h385l53 303h85l-123 -700l-85 0z" />
<glyph unicode="&#73;" horiz-adv-x="335" d="M248 700h85l-123 -700l-85 0z" />
<glyph unicode="&#74;" horiz-adv-x="374" d="M297 159q-14 -79 -58 -124q-44 -45 -125 -45q-35 0 -61.5 11.5q-26.5 11.5 -37.5 25.5l40 65q11 -9 27.5 -15.5q16.5 -6.5 35.5 -6.5q46 0 67.5 29q21.5 29 29.5 74l93 527l84 0z" />
<glyph unicode="&#75;" horiz-adv-x="653" d="M369 358l258 -358h-103l-253 365l356 335h113zM228 700h85l-123 -700l-85 0z" />
<glyph unicode="&#76;" horiz-adv-x="550" d="M228 700h85l-109 -620h345l-14 -80l-430 0z" />
<glyph unicode="&#77;" horiz-adv-x="892" d="M228 700h74l200 -359l315 359h93l-123 -700h-85l100 566l-310 -348h-13l-190 345l-99 -563l-85 0z" />
<glyph unicode="&#78;" horiz-adv-x="795" d="M622 0l-339 563l-98 -563h-80l123 700h68l338 -562l99 562h80l-123 -700z" />
<glyph unicode="&#79;" horiz-adv-x="814" d="M105 315q0 81 28 153q28 72 80.5 125.5q52.5 53.5 126.5 85q74 31.5 166 31.5q71 0 131 -22q60 -22 103.5 -63q43.5 -41 67.5 -99q24 -58 24 -130q0 -89 -28.5 -163.5q-28.5 -74.5 -79.5 -128.5q-51 -54 -122 -84q-71 -30 -156 -30q-84 0 -148 25.5q-64 25.5 -107 69.5q-43 44 -64.5 103q-21.5 59 -21.5 127zt0 0zM197 320q0 -61 20 -107.5q20 -46.5 54.5 -78q34.5 -31.5 80 -48q45.5 -16.5 97.5 -16.5q61 0 114 22q53 22 92.5 62.5q39.5 40.5 62 99q22.5 58.5 22.5 132.5q0 55 -17.5 100q-17.5 45 -49 77q-31.5 32 -76.5 49.5q-45 17.5 -100 17.5q-59 0 -113.5 -21q-54.5 -21 -96 -61q-41.5 -40 -66 -97.5t-24.5 -130.5z" />
<glyph unicode="&#80;" horiz-adv-x="597" d="M105 0l123 700q15 0 39 0.5q24 0.5 51 0.5q27 0 52 0.5q25 0.5 42 0.5q64 0 107 -15q43 -15 69.5 -39.5q26.5 -24.5 37.5 -57q11 -32.5 11 -67.5q0 -54 -19 -101.5q-19 -47.5 -56.5 -82q-37.5 -34.5 -92.5 -54.5q-55 -20 -127 -20q-21 0 -50 1q-29 1 -55 3l-47 -269zM406 622q-21 0 -51.5 -0.5q-30.5 -0.5 -55.5 -1.5l-47 -270q25 -2 50 -3.5q25 -1.5 51 -1.5q88 0 140.5 45q52.5 45 52.5 121q0 51 -34 81t-106 30z" />
<glyph unicode="&#81;" horiz-adv-x="814" d="M105 315q0 81 28 153q28 72 80.5 125.5q52.5 53.5 126.5 85q74 31.5 166 31.5q71 0 131 -22q60 -22 103.5 -63q43.5 -41 67.5 -99q24 -58 24 -130q0 -92 -29.5 -167.5q-29.5 -75.5 -83.5 -129.5l67 -99h-96l-34 48q-45 -28 -97.5 -43q-52.5 -15 -112.5 -15q-84 0 -148 25.5q-64 25.5 -107 69.5q-43 44 -64.5 103q-21.5 59 -21.5 127zt0 0zM631 230l39 -59q33 41 51.5 94.5q18.5 53.5 18.5 120.5q0 55 -17.5 100q-17.5 45 -49 77q-31.5 32 -76.5 49.5q-45 17.5 -100 17.5q-59 0 -113.5 -21q-54.5 -21 -96 -61q-41.5 -40 -66 -97.5q-24.5 -57.5 -24.5 -130.5q0 -61 20 -107.5q20 -46.5 54.5 -78q34.5 -31.5 80 -48q45.5 -16.5 97.5 -16.5q91 0 160 46l-43 63z" />
<glyph unicode="&#82;" horiz-adv-x="643" d="M105 0l123 700q15 0 43.5 0.5q28.5 0.5 58.5 0.5q30 0 54.5 0.5q24.5 0.5 32.5 0.5q61 0 102.5 -13q41.5 -13 67 -36q25.5 -23 36.5 -53.5q11 -30.5 11 -65.5q0 -51 -16 -91q-16 -40 -42.5 -70q-26.5 -30 -61.5 -49.5q-35 -19.5 -72 -27.5l181 -296h-104l-166 280h-114l-49 -280zM398 622q-17 0 -45.5 -0.5q-28.5 -0.5 -53.5 -1.5l-46 -260h83q46 0 84 10.5q38 10.5 65 31q27 20.5 42 49.5q15 29 15 66q0 22 -7.5 41q-7.5 19 -24.5 33.5q-17 14.5 -44.5 22.5t-67.5 8z" />
<glyph unicode="&#83;" horiz-adv-x="549" d="M443 188q0 37 -21 62.5q-21 25.5 -53 45q-32 19.5 -69 38q-37 18.5 -69 42q-32 23.5 -53 56.5q-21 33 -21 83q0 37 15 72q15 35 45.5 62.5q30.5 27.5 76.5 44q46 16.5 109 16.5q56 0 105 -20.5q49 -20.5 76 -52.5l-53 -62q-23 21 -57 38q-34 17 -80 17q-73 0 -109.5 -31.5q-36.5 -31.5 -36.5 -73.5q0 -37 21 -61q21 -24 53 -43q32 -19 69 -37q37 -18 69 -42q32 -24 53 -58q21 -34 21 -86q0 -45 -16.5 -83.5q-16.5 -38.5 -47 -66q-30.5 -27.5 -73.5 -43q-43 -15.5 -96 -15.5q-44 0 -80.5 9q-36.5 9 -65 25q-28.5 16 -49 36q-20.5 20 -32.5 43l55 56q26 -40 70.5 -64.5q44.5 -24.5 99.5 -24.5q29 0 55.5 8q26.5 8 46 23q19.5 15 31 37t11.5 50z" />
<glyph unicode="&#84;" horiz-adv-x="595" d="M133 700h575l-14 -80h-245l-109 -620h-85l109 620l-245 0z" />
<glyph unicode="&#85;" horiz-adv-x="751" d="M708 292q-14 -80 -42 -137q-28 -57 -68.5 -93.5q-40.5 -36.5 -94 -53.5q-53.5 -17 -119.5 -17q-56 0 -101.5 15q-45.5 15 -77.5 45.5q-32 30.5 -49 75.5q-17 45 -15 105q1 16 2.5 32.5q1.5 16.5 4.5 34.5l71 401h87l-70 -385q-4 -20 -5.5 -37q-1.5 -17 -1.5 -34q-2 -90 41.5 -131.5q43.5 -41.5 127.5 -41.5q186 0 228 238l69 391l85 0z" />
<glyph unicode="&#86;" horiz-adv-x="656" d="M362 -4h-63l-171 704h86l136 -576l333 576l91 0z" />
<glyph unicode="&#87;" horiz-adv-x="970" d="M758 0h-78l-93 563l-287 -563h-78l-89 700h91l65 -557l279 557h84l87 -557l256 557l88 0z" />
<glyph unicode="&#88;" horiz-adv-x="664" d="M450 356l194 -356h-94l-161 293l-262 -293h-107l320 356l-186 344h96l154 -283l249 283l105 0z" />
<glyph unicode="&#89;" horiz-adv-x="604" d="M395 300l-52 -300h-85l52 300l-177 400h91l140 -320l253 320l100 0z" />
<glyph unicode="&#90;" horiz-adv-x="635" d="M183 700h525l-10 -57l-522 -563h433l-14 -80h-555l10 57l520 563l-401 0z" />
<glyph unicode="&#91;" horiz-adv-x="320" d="M175 650h250l-13 -75h-170l-124 -700h170l-13 -75l-250 0z" />
<glyph unicode="&#92;" horiz-adv-x="335" d="M365 -185l-63 -23l-332 895l62 23z" />
<glyph unicode="&#93;" horiz-adv-x="320" d="M225 -200h-250l13 75h170l124 700h-170l13 75l250 0z" />
<glyph unicode="&#94;" horiz-adv-x="492" d="M220 708h54l178 -258h-87l-119 176l-119 -176l-87 0z" />
<glyph unicode="&#95;" horiz-adv-x="312" d="M0 -120h312v-80l-312 0z" />
<glyph unicode="&#96;" horiz-adv-x="290" d="M60 673l63 48l107 -156l-49 -34z" />
<glyph unicode="&#97;" horiz-adv-x="508" d="M216 65q25 0 55.5 24.5q30.5 24.5 59 60.5q28.5 36 50 76q21.5 40 29.5 70l16 80q-18 6 -31.5 7.5q-13.5 1.5 -29.5 1.5q-49 0 -89.5 -17.5q-40.5 -17.5 -69 -48q-28.5 -30.5 -44 -71.5q-15.5 -41 -15.5 -88q0 -43 17 -69q17 -26 52 -26zt0 0zM359 0l28 158q-17 -28 -38.5 -57.5q-21.5 -29.5 -47.5 -54q-26 -24.5 -56.5 -40.5q-30.5 -16 -65.5 -16q-59 0 -87 44.5q-28 44.5 -28 113.5q0 66 23 123q23 57 63.5 99q40.5 42 94.5 66q54 24 116 24q52 0 89 -10q37 -10 58 -21l-70 -429z" />
<glyph unicode="&#98;" horiz-adv-x="516" d="M181 300q17 27 40.5 55.5q23.5 28.5 51 51.5q27.5 23 59 38q31.5 15 65.5 15q59 0 87 -44.5q28 -44.5 28 -113.5q0 -66 -22.5 -123q-22.5 -57 -61.5 -99q-39 -42 -92 -66q-53 -24 -115 -24q-57 0 -99.5 12.5q-42.5 12.5 -61.5 30.5l114 659h77zM142 81q12 -8 36 -12q24 -4 47 -4q46 0 84 17.5q38 17.5 65 48q27 30.5 41.5 71.5q14.5 41 14.5 88q0 43 -17 69q-17 26 -52 26q-24 0 -54.5 -22q-30.5 -22 -60 -55q-29.5 -33 -54 -71q-24.5 -38 -35.5 -69z" />
<glyph unicode="&#99;" horiz-adv-x="435" d="M416 73q-32 -34 -79.5 -58.5q-47.5 -24.5 -101.5 -24.5q-47 0 -79.5 15.5q-32.5 15.5 -53 40q-20.5 24.5 -29.5 55.5q-9 31 -9 62q0 57 18 111q18 54 52 95q34 41 83.5 66q49.5 25 113.5 25q36 0 66.5 -6q30.5 -6 49.5 -19l-27 -67q-16 6 -44 11.5q-28 5.5 -53 5.5q-41 0 -73.5 -17q-32.5 -17 -55 -45q-22.5 -28 -34.5 -65q-12 -37 -12 -77q0 -51 25.5 -83.5q25.5 -32.5 76.5 -32.5q19 0 37 5.5q18 5.5 34.5 14q16.5 8.5 31.5 18q15 9.5 27 18.5z" />
<glyph unicode="&#100;" horiz-adv-x="519" d="M353 460q24 0 46 -3.5q22 -3.5 41 -8.5l43 252h76l-49 -291l-69 -409h-76l26 155q-17 -27 -39.5 -56.5q-22.5 -29.5 -50 -53.5q-27.5 -24 -59 -39.5q-31.5 -15.5 -64.5 -15.5q-57 0 -85.5 44.5q-28.5 44.5 -28.5 113.5q0 66 23 123q23 57 62 99q39 42 91.5 66q52.5 24 112.5 24zt0 0zM350 385q-45 0 -82.5 -17.5q-37.5 -17.5 -65.5 -48q-28 -30.5 -43.5 -71.5q-15.5 -41 -15.5 -88q0 -43 18.5 -69q18.5 -26 52.5 -26q24 0 55 24.5q31 24.5 61 59.5q30 35 53 75q23 40 31 70l12 73q-13 8 -34.5 13t-41.5 5z" />
<glyph unicode="&#101;" horiz-adv-x="465" d="M433 73q-33 -34 -84 -58.5q-51 -24.5 -105 -24.5q-47 0 -80.5 15.5q-33.5 15.5 -56 40q-22.5 24.5 -33 55.5q-10.5 31 -10.5 62q0 57 18.5 111q18.5 54 53.5 95q35 41 86 66q51 25 116 25q39 0 65 -9q26 -9 42 -24.5q16 -15.5 22.5 -35.5q6.5 -20 6.5 -42q0 -36 -18.5 -65.5q-18.5 -29.5 -57.5 -51.5q-39 -22 -100.5 -35.5q-61.5 -13.5 -149.5 -17.5q0 -58 30.5 -86q30.5 -28 80.5 -28q19 0 38.5 5.5q19.5 5.5 37.5 14q18 8.5 33.5 18q15.5 9.5 27.5 18.5zM328 385q-33 0 -61 -11.5q-28 -11.5 -50.5 -32q-22.5 -20.5 -38.5 -47.5q-16 -27 -24 -58q67 5 112.5 14.5q45.5 9.5 72.5 22.5q27 13 38.5 29.5q11.5 16.5 11.5 34.5q1 24 -15.5 36t-45.5 12z" />
<glyph unicode="&#102;" horiz-adv-x="282" d="M154 523q17 94 64.5 140.5q47.5 46.5 119.5 46.5q38 0 67.5 -7q29.5 -7 43.5 -24l-40 -65q-24 21 -71 21q-42 0 -69.5 -29q-27.5 -29 -38.5 -92l-10 -64h113l-13 -75h-114l-70 -408q-14 -83 -53.5 -129q-39.5 -46 -111.5 -46q-31 0 -55.5 9q-24.5 9 -35.5 20l33 64q11 -8 23.5 -13q12.5 -5 29.5 -5q42 0 64 28q22 28 30 78z" />
<glyph unicode="&#103;" horiz-adv-x="474" d="M204 101q0 -6 1 -12q1 -6 4 -10q7 1 13 1q6 0 13 0q43 0 79 -7.5q36 -7.5 62.5 -23.5q26.5 -16 41 -39.5q14.5 -23.5 14.5 -55.5q0 -41 -19 -71q-19 -30 -52.5 -50.5q-33.5 -20.5 -78.5 -30.5q-45 -10 -96 -10q-43 0 -79.5 7.5q-36.5 7.5 -62.5 23q-26 15.5 -41 38.5q-15 23 -15 55q0 35 14 61.5q14 26.5 37 45q23 18.5 52 30.5q29 12 60 18q-3 6 -4 13q-1 7 -1 14q0 30 21 51q-37 17 -56.5 49.5q-19.5 32.5 -19.5 72.5q0 37 14.5 71.5q14.5 34.5 41 60.5q26.5 26 65 41.5q38.5 15.5 86.5 15.5q63 0 104 -33l132 32l-9 -65l-86 -21q5 -11 7.5 -26q2.5 -15 2.5 -29q0 -40 -16 -74q-16 -34 -43.5 -58.5q-27.5 -24.5 -65.5 -38.5q-38 -14 -82 -14q-7 0 -14 0.5q-7 0.5 -14 1.5q-4 -6 -7 -13.5q-3 -7.5 -3 -20.5zt0 0zM196 -143q73 0 118 22q45 22 45 65q0 33 -35.5 52q-35.5 19 -100.5 19q-75 0 -118.5 -23.5q-43.5 -23.5 -43.5 -64.5q0 -34 36.5 -52q36.5 -18 98.5 -18zt0 0zM164 280q0 -36 23 -59q23 -23 68 -23q25 0 47 8q22 8 38.5 23q16.5 15 26 35.5q9.5 20.5 9.5 45.5q0 36 -23 60.5q-23 24.5 -66 24.5q-27 0 -49.5 -9q-22.5 -9 -39 -25q-16.5 -16 -25.5 -36.5t-9 -44.5z" />
<glyph unicode="&#104;" horiz-adv-x="513" d="M381 385q-28 0 -62 -24q-34 -24 -65.5 -58.5q-31.5 -34.5 -56 -73.5q-24.5 -39 -33.5 -70l-27 -159h-77l118 700h77l-69 -406q17 27 41 56.5q24 29.5 52.5 54q28.5 24.5 61 40q32.5 15.5 67.5 15.5q24 0 41.5 -8q17.5 -8 28 -22q10.5 -14 15.5 -32q5 -18 5 -37q0 -22 -3 -45.5q-3 -23.5 -9 -55.5l-50 -260h-76l48 245q1 9 3.5 20.5q2.5 11.5 4 24q1.5 12.5 2.5 24.5q1 12 1 21q-1 21 -8 35.5t-30 14.5z" />
<glyph unicode="&#105;" horiz-adv-x="237" d="M145 450h77l-76 -450h-77zM165 619q0 22 14.5 35q14.5 13 35.5 13q18 0 32.5 -13q14.5 -13 14.5 -35q0 -25 -14.5 -38.5q-14.5 -13.5 -32.5 -13.5q-21 0 -35.5 13.5t-14.5 38.5z" />
<glyph unicode="&#106;" horiz-adv-x="230" d="M140 -33q-14 -83 -53.5 -129q-39.5 -46 -111.5 -46q-31 0 -55.5 9q-24.5 9 -35.5 20l32 64q11 -8 24 -13q13 -5 30 -5q42 0 64 28q22 28 30 78l81 477h77zM163 619q0 22 14.5 35q14.5 13 35.5 13q18 0 32.5 -13q14.5 -13 14.5 -35q0 -25 -14.5 -38.5q-14.5 -13.5 -32.5 -13.5q-21 0 -35.5 13.5t-14.5 38.5z" />
<glyph unicode="&#107;" horiz-adv-x="460" d="M283 233l170 -233h-100l-161 235l212 215h101zM178 700h77l-118 -700l-77 0z" />
<glyph unicode="&#108;" horiz-adv-x="264" d="M182 700h77l-103 -569q-3 -17 -3 -29q0 -35 34 -35q17 0 34 6.5q17 6.5 30 14.5l10 -66q-18 -10 -45 -20q-27 -10 -57 -10q-41 0 -62.5 22.5q-21.5 22.5 -21.5 69.5q0 17 1.5 29.5q1.5 12.5 3.5 23.5z" />
<glyph unicode="&#109;" horiz-adv-x="742" d="M136 450h77l-26 -154q13 27 32 56q19 29 43 53q24 24 54 39.5q30 15.5 66 15.5q41 0 60.5 -24q19.5 -24 19.5 -62q0 -18 -1 -34q-1 -16 -3 -32q14 27 32.5 54q18.5 27 42 48.5q23.5 21.5 52 35.5q28.5 14 62.5 14q41 0 60.5 -24q19.5 -24 19.5 -62q0 -32 -3 -57q-3 -25 -9 -57l-52 -260h-80l50 245q4 17 8.5 44.5q4.5 27.5 3.5 45.5q-1 21 -8.5 35.5q-7.5 14.5 -31.5 14.5q-29 0 -57.5 -26q-28.5 -26 -53 -63.5q-24.5 -37.5 -42.5 -79.5q-18 -42 -26 -74l-28 -142h-80l50 245q4 17 8.5 44.5q4.5 27.5 3.5 45.5q-1 21 -8.5 35.5q-7.5 14.5 -31.5 14.5q-30 0 -60 -28.5q-30 -28.5 -55 -68.5q-25 -40 -42.5 -84q-17.5 -44 -23.5 -74l-22 -130l-77 0z" />
<glyph unicode="&#110;" horiz-adv-x="513" d="M213 450l-27 -156q17 27 41 56.5q24 29.5 52.5 54q28.5 24.5 61 40q32.5 15.5 67.5 15.5q24 0 41.5 -8q17.5 -8 28 -22q10.5 -14 15.5 -32q5 -18 5 -37q0 -22 -3 -45.5q-3 -23.5 -9 -55.5l-50 -260h-76l48 245q1 9 3.5 20.5q2.5 11.5 4 24q1.5 12.5 2.5 24.5q1 12 1 21q-1 21 -8 35.5q-7 14.5 -30 14.5q-28 0 -62 -24q-34 -24 -65.5 -58.5q-31.5 -34.5 -56 -73.5q-24.5 -39 -33.5 -70l-27 -159h-77l76 450z" />
<glyph unicode="&#111;" horiz-adv-x="504" d="M247 -10q-41 0 -74.5 13q-33.5 13 -57.5 37.5q-24 24.5 -37.5 59q-13.5 34.5 -13.5 77.5q0 55 18 106q18 51 52 90.5q34 39.5 82.5 63q48.5 23.5 109.5 23.5q79 0 126.5 -47q47.5 -47 47.5 -135q0 -63 -18 -115.5q-18 -52.5 -51.5 -91q-33.5 -38.5 -80 -60q-46.5 -21.5 -103.5 -21.5zt0 0zM260 65q37 0 66.5 15q29.5 15 49.5 41.5q20 26.5 31 63q11 36.5 11 79.5q0 60 -27 90.5q-27 30.5 -77 30.5q-35 0 -65.5 -13.5q-30.5 -13.5 -53 -38.5q-22.5 -25 -35.5 -61.5q-13 -36.5 -13 -82.5q0 -62 32 -93t81 -31z" />
<glyph unicode="&#112;" horiz-adv-x="515" d="M24 -200l41 241l69 409h77l-26 -154q16 27 39 56q23 29 50.5 53q27.5 24 58.5 39.5q31 15.5 64 15.5q57 0 85.5 -44.5q28.5 -44.5 28.5 -113.5q0 -66 -23 -123q-23 -57 -62 -99q-39 -42 -91.5 -66q-52.5 -24 -112.5 -24q-24 0 -46 3.5q-22 3.5 -41 8.5l-34 -202zM149 83q13 -8 34.5 -13q21.5 -5 41.5 -5q45 0 82.5 17.5q37.5 17.5 65.5 48q28 30.5 43.5 71.5q15.5 41 15.5 88q0 43 -18.5 69q-18.5 26 -52.5 26q-15 0 -34.5 -11q-19.5 -11 -39.5 -29q-20 -18 -40 -41.5q-20 -23.5 -37 -48.5q-17 -25 -29.5 -50q-12.5 -25 -18.5 -45z" />
<glyph unicode="&#113;" horiz-adv-x="516" d="M396 158q-17 -28 -39.5 -57.5q-22.5 -29.5 -50.5 -54q-28 -24.5 -60 -40.5q-32 -16 -67 -16q-59 0 -87 44.5q-28 44.5 -28 113.5q0 66 23 123q23 57 63.5 99q40.5 42 94.5 66q54 24 116 24q52 0 91 -13q39 -13 60 -32l-104 -615h-77zM216 65q25 0 57 24.5q32 24.5 62 60.5q30 36 53 76q23 40 31 70l9 73q-13 7 -32 11.5q-19 4.5 -38 4.5q-47 0 -85.5 -17.5q-38.5 -17.5 -66.5 -48q-28 -30.5 -43.5 -71.5q-15.5 -41 -15.5 -88q0 -43 17 -69t52 -26z" />
<glyph unicode="&#114;" horiz-adv-x="333" d="M213 450l-20 -118q13 24 31 47q18 23 39.5 41q21.5 18 46.5 29q25 11 54 11q26 0 41 -10l-40 -74q-7 4 -14 6.5q-7 2.5 -19 2.5q-26 0 -51.5 -21q-25.5 -21 -48 -52.5q-22.5 -31.5 -40 -68q-17.5 -36.5 -26.5 -67.5l-29 -176h-77l76 450z" />
<glyph unicode="&#115;" horiz-adv-x="379" d="M267 122q0 22 -13 37q-13 15 -32 28q-19 13 -42 25q-23 12 -42 28q-19 16 -32 37.5q-13 21.5 -13 53.5q0 54 41.5 91.5q41.5 37.5 120.5 37.5q54 0 87.5 -10q33.5 -10 48.5 -21l-36 -59q-22 11 -47 15.5q-25 4.5 -49 4.5q-45 0 -63.5 -16q-18.5 -16 -18.5 -39q0 -19 13 -32.5q13 -13.5 32 -25.5q19 -12 42 -24.5q23 -12.5 42 -30q19 -17.5 32 -42q13 -24.5 13 -59.5q0 -31 -13 -55.5q-13 -24.5 -35.5 -41q-22.5 -16.5 -53.5 -25.5q-31 -9 -67 -9q-54 0 -93 12q-39 12 -59 29l40 60q25 -17 54 -24q29 -7 53 -7q47 0 68.5 16.5t21.5 45.5z" />
<glyph unicode="&#116;" horiz-adv-x="323" d="M150 575h77l-22 -125h158l-12 -75h-157l-40 -196q-3 -14 -4 -25.5q-1 -11.5 -1 -22.5q0 -35 14 -49.5q14 -14.5 42 -14.5q21 0 43.5 10q22.5 10 35.5 19l20 -66q-20 -15 -53.5 -26.5q-33.5 -11.5 -69.5 -11.5q-56 0 -83 30.5q-27 30.5 -28 87.5q0 14 1 29q1 15 4 32z" />
<glyph unicode="&#117;" horiz-adv-x="494" d="M181 65q28 0 62 24.5q34 24.5 65 60.5q31 36 54 76q23 40 30 70l26 154h77l-77 -450h-77l27 157q-17 -28 -39.5 -57.5q-22.5 -29.5 -49.5 -54q-27 -24.5 -59 -40q-32 -15.5 -66 -15.5q-24 0 -41.5 8q-17.5 8 -28 22q-10.5 14 -15.5 31.5q-5 17.5 -5 37.5q0 22 2.5 45.5q2.5 23.5 9.5 55.5l55 260h77l-54 -245q-2 -8 -4 -20q-2 -12 -3.5 -24.5q-1.5 -12.5 -2.5 -24.5q-1 -12 -1 -21q0 -21 7.5 -35.5t30.5 -14.5z" />
<glyph unicode="&#118;" horiz-adv-x="411" d="M447 450q-7 -68 -30.5 -136q-23.5 -68 -55.5 -128q-32 -60 -70 -109.5q-38 -49.5 -75 -80.5l-56 0q-11 64 -21.5 117q-10.5 53 -21.5 104.5q-11 51.5 -25 107.5q-14 56 -32 125l83 0q12 -48 23.5 -98q11.5 -50 21.5 -96.5q10 -46.5 17 -88q7 -41.5 9 -71.5q32 40 57.5 85.5q25.5 45.5 44.5 91.5q19 46 30 91q11 45 13 86l88 0z" />
<glyph unicode="&#119;" horiz-adv-x="642" d="M678 450q-7 -68 -29 -136q-22 -68 -53 -128q-31 -60 -67.5 -109.5q-36.5 -49.5 -73.5 -80.5l-56 0q-8 72 -15.5 129q-7.5 57 -18.5 109q-31 -76 -72 -138q-41 -62 -85 -100l-56 0q-8 59 -16.5 111q-8.5 52 -19 105.5q-10.5 53.5 -24.5 111q-14 57.5 -32 126.5l83 0q12 -48 22.5 -98q10.5 -50 18.5 -96.5q8 -46.5 14 -88q6 -41.5 8 -71.5q49 63 80.5 134q31.5 71 45.5 140q-5 20 -11.5 39.5q-6.5 19.5 -13.5 40.5l36 0h47q10 -39 18 -78q17 -79 29 -153q12 -74 16 -123q32 40 56.5 85.5q24.5 45.5 41.5 91.5q17 46 27 91q10 45 12 86z" />
<glyph unicode="&#120;" horiz-adv-x="437" d="M300 233l125 -233h-86l-89 173l-153 -173h-97l202 229l-117 221h88l81 -166l142 166l96 0z" />
<glyph unicode="&#121;" horiz-adv-x="419" d="M73 -126q16 0 33 10.5q17 10.5 33 28q16 17.5 30.5 39q14.5 21.5 26.5 44.5q-4 35 -17.5 89q-13.5 54 -34 116q-20.5 62 -44.5 127q-24 65 -49 122l84 0q12 -26 29.5 -73q17.5 -47 34.5 -99.5q17 -52.5 32 -103q15 -50.5 22 -84.5q15 30 33 75q18 45 35 95q17 50 30.5 99.5q13.5 49.5 19.5 90.5l85 0q-44 -147 -90.5 -267q-46.5 -120 -95 -205q-48.5 -85 -98 -131.5q-49.5 -46.5 -98.5 -46.5q-29 0 -48 8q-19 8 -34 20l36 61q10 -5 20.5 -10t24.5 -5z" />
<glyph unicode="&#122;" horiz-adv-x="410" d="M110 450h336l-9 -56l-297 -319h238l-12 -75h-346l10 56l294 319l-226 0z" />
<glyph unicode="&#123;" horiz-adv-x="335" d="M127 92q5 30 0 49q-5 19 -16.5 30q-11.5 11 -26.5 15q-15 4 -30 4l12 70q13 0 30 4.5q17 4.5 32.5 17q15.5 12.5 28.5 34q13 21.5 19 54.5l24 139q12 69 48.5 105q36.5 36 114.5 36h67l-13 -75h-48q-43 0 -64 -21q-21 -21 -30 -72l-25 -142q-8 -49 -34 -79q-26 -30 -61 -35q31 -4 48 -30q17 -26 7 -84l-25 -145q-9 -50 7 -71q16 -21 59 -21h42l-13 -75h-71q-65 0 -94 31q-29 31 -16 104z" />
<glyph unicode="&#124;" horiz-adv-x="330" d="M125 700h80v-700l-80 0z" />
<glyph unicode="&#125;" horiz-adv-x="335" d="M214 -65q-13 -73 -53 -104q-40 -31 -106 -31h-70l13 75h42q43 0 66.5 21q23.5 21 32.5 71l26 145q11 58 37 84q26 26 58 30q-33 5 -48 35q-15 30 -7 79l25 142q9 51 -4.5 72q-13.5 21 -55.5 21h-48l13 75h67q77 0 101 -36.5q24 -36.5 12 -104.5l-24 -139q-6 -33 -1 -54.5q5 -21.5 16.5 -34q11.5 -12.5 26 -17q14.5 -4.5 28.5 -4.5l-12 -70q-15 0 -32 -4q-17 -4 -32 -15q-15 -11 -27 -30q-12 -19 -17 -49z" />
<glyph unicode="&#126;" horiz-adv-x="592" d="M50 358q32 34 67 53q35 19 69 19q31 0 60 -11q29 -11 57.5 -24.5q28.5 -13.5 57 -24.5q28.5 -11 57.5 -11q23 0 47 12.5q24 12.5 44 32.5l32 -55q-29 -27 -60.5 -43.5q-31.5 -16.5 -63.5 -16.5q-30 0 -59 11q-29 11 -57 24.5q-28 13.5 -56 24.5q-28 11 -55 11q-29 0 -55.5 -16q-26.5 -16 -48.5 -37z" />
<glyph unicode="&#161;" horiz-adv-x="310" d="M155 -243h-85l85 485h85zM280 403q0 -20 -15.5 -36.5q-15.5 -16.5 -41.5 -16.5q-23 0 -38 16.5q-15 16.5 -15 36.5q0 23 15 40q15 17 38 17q26 0 41.5 -17t15.5 -40z" />
<glyph unicode="&#162;" horiz-adv-x="592" d="M514 65q-30 -32 -70.5 -50q-40.5 -18 -85.5 -23l-19 -112h-80l20 114q-73 12 -114 63q-41 51 -41 127q0 52 18.5 98q18.5 46 50.5 82.5q32 36.5 75 60.5q43 24 92 32l20 109h80l-19 -108q82 -9 124 -57l-49 -63q-23 26 -54 36.5q-31 10.5 -66 10.5q-34 0 -67 -13.5q-33 -13.5 -59.5 -38.5q-26.5 -25 -42.5 -59q-16 -34 -16 -75q0 -63 38 -98.5q38 -35.5 98 -35.5q41 0 77 16q36 16 63 42z" />
<glyph unicode="&#163;" horiz-adv-x="592" d="M135 340h79q-8 30 -17.5 62q-9.5 32 -9.5 74q0 48 19 90q19 42 53 73.5q34 31.5 80.5 50q46.5 18.5 101.5 18.5q63 0 107.5 -20.5q44.5 -20.5 70.5 -55.5l-56 -62q-51 58 -134 58q-33 0 -60.5 -11.5q-27.5 -11.5 -48 -31.5q-20.5 -20 -32 -47q-11.5 -27 -11.5 -58q0 -21 3.5 -38.5q3.5 -17.5 8.5 -34q5 -16.5 10 -33q5 -16.5 8 -34.5l162 0l-11 -65h-150l-2 -9q-9 -45 -31 -79q-22 -34 -47 -60q26 -3 51 -11q25 -8 49 -17q24 -9 48.5 -16q24.5 -7 50.5 -7q28 0 55 9q27 9 62 37l25 -62q-38 -32 -79 -48q-41 -16 -80 -16q-29 0 -56 8q-27 8 -53 18q-26 10 -53 18q-27 8 -56 8q-29 0 -59.5 -14.5q-30.5 -14.5 -61.5 -40.5l-23 63q46 42 95 60q26 28 46.5 61q20.5 33 28.5 74q1 6 2 12q1 6 2 12l-98 0z" />
<glyph unicode="&#164;" horiz-adv-x="592" d="M69 345q0 76 41 135l-83 85l50 50l83 -85q27 20 61 31q34 11 75 11q41 0 74.5 -11q33.5 -11 60.5 -30l88 87l50 -50l-88 -87q20 -29 31 -64q11 -35 11 -72q0 -76 -42 -135l85 -85l-49 -49l-85 84q-27 -20 -61 -31q-34 -11 -75 -11q-42 0 -75.5 11q-33.5 11 -60.5 31l-88 -88l-49 49l87 89q-20 29 -30.5 63.5q-10.5 34.5 -10.5 71.5zt0 0zM144 345q0 -32 10.5 -60.5q10.5 -28.5 30 -50q19.5 -21.5 47.5 -34q28 -12.5 64 -12.5q37 0 65 12.5q28 12.5 47.5 34q19.5 21.5 29.5 50q10 28.5 10 60.5q0 33 -10.5 61.5q-10.5 28.5 -30 50q-19.5 21.5 -47.5 33.5q-28 12 -64 12q-35 0 -63.5 -12.5q-28.5 -12.5 -48 -33.5q-19.5 -21 -30 -49.5t-10.5 -61.5z" />
<glyph unicode="&#165;" horiz-adv-x="592" d="M132 364h146l-135 336h98l124 -320l239 320h93l-258 -336h147l-11 -65h-185l-19 -105h185l-11 -65h-185l-23 -129h-85l23 129h-184l11 65h184l19 105l-184 0z" />
<glyph unicode="&#166;" horiz-adv-x="330" d="M125 440v260h80v-260zM205 260v-260h-80l0 260z" />
<glyph unicode="&#167;" horiz-adv-x="524" d="M106 220q0 36 11.5 68.5q11.5 32.5 33.5 59.5q22 27 52.5 46.5q30.5 19.5 68.5 29.5q-26 16 -43.5 45q-17.5 29 -17.5 68q0 33 13.5 62.5q13.5 29.5 38 52q24.5 22.5 59 35.5q34.5 13 77.5 13q51 0 80.5 -20.5q29.5 -20.5 43.5 -44.5l-58 -54q-11 16 -27 30q-16 14 -50 14q-19 0 -37 -7.5q-18 -7.5 -31.5 -20.5q-13.5 -13 -22 -30.5q-8.5 -17.5 -8.5 -37.5q0 -34 20 -57.5q20 -23.5 49 -39.5q36 -3 63.5 -15.5q27.5 -12.5 46 -33q18.5 -20.5 28.5 -47.5q10 -27 10 -58q0 -36 -12 -69q-12 -33 -34 -60q-22 -27 -53 -46.5q-31 -19.5 -69 -28.5q26 -16 43.5 -45q17.5 -29 17.5 -67q0 -33 -13.5 -62q-13.5 -29 -38 -51.5q-24.5 -22.5 -59 -35.5q-34.5 -13 -77.5 -13q-51 0 -81 20q-30 20 -44 45l58 54q6 -8 12 -16q6 -8 15 -14q9 -6 21.5 -10q12.5 -4 29.5 -4q19 0 37 7.5q18 7.5 31.5 20q13.5 12.5 22 30q8.5 17.5 8.5 37.5q0 35 -21 58q-21 23 -50 39q-70 7 -107 49.5q-37 42.5 -37 103.5zt0 0zM187 233q0 -40 26.5 -68.5q26.5 -28.5 72.5 -28.5q30 0 55 10.5q25 10.5 44 28.5q19 18 29.5 41.5q10.5 23.5 10.5 48.5q0 40 -26.5 69q-26.5 29 -72.5 29q-29 0 -54.5 -10.5q-25.5 -10.5 -44 -28.5q-18.5 -18 -29.5 -41.5t-11 -49.5z" />
<glyph unicode="&#168;" horiz-adv-x="415" d="M60 610q0 21 14.5 33.5q14.5 12.5 34.5 12.5q17 0 31.5 -12.5q14.5 -12.5 14.5 -33.5q0 -24 -14.5 -37q-14.5 -13 -31.5 -13q-20 0 -34.5 13q-14.5 13 -14.5 37zt0 0zM265 610q0 21 15 33.5q15 12.5 35 12.5q17 0 31.5 -12.5q14.5 -12.5 14.5 -33.5q0 -24 -14.5 -37q-14.5 -13 -31.5 -13q-20 0 -35 13t-15 37z" />
<glyph unicode="&#169;" horiz-adv-x="1018" d="M75 221q0 91 33 170q33 79 91.5 137.5q58.5 58.5 137.5 92.5q79 34 172 34q93 0 172 -34q79 -34 137.5 -92.5q58.5 -58.5 91.5 -137.5q33 -79 33 -170q0 -91 -33 -170q-33 -79 -91.5 -137.5q-58.5 -58.5 -137.5 -92.5q-79 -34 -172 -34q-93 0 -172 34q-79 34 -137.5 92.5q-58.5 58.5 -91.5 137.5q-33 79 -33 170zt0 0zM145 220q0 -75 27.5 -141q27.5 -66 76 -115.5q48.5 -49.5 115 -78q66.5 -28.5 145.5 -28.5q78 0 145 28.5q67 28.5 115.5 78q48.5 49.5 76 115.5q27.5 66 27.5 141q0 75 -27.5 141.5q-27.5 66.5 -76 116q-48.5 49.5 -115.5 78.5q-67 29 -145 29q-79 0 -145.5 -29q-66.5 -29 -115 -78.5q-48.5 -49.5 -76 -116q-27.5 -66.5 -27.5 -141.5zt0 0zM690 65q-29 -37 -75 -56q-46 -19 -98 -19q-54 0 -98 16.5q-44 16.5 -76 47.5q-32 31 -49.5 74.5q-17.5 43.5 -17.5 96.5q0 49 17 92q17 43 47.5 74.5q30.5 31.5 72 50q41.5 18.5 91.5 18.5q54 0 99.5 -13.5q45.5 -13.5 77.5 -45.5l-37 -63q-29 26 -61.5 36.5q-32.5 10.5 -67.5 10.5q-30 0 -58 -11.5q-28 -11.5 -49.5 -32.5q-21.5 -21 -34 -50.5q-12.5 -29.5 -12.5 -65.5q0 -37 13 -66.5q13 -29.5 35 -50.5q22 -21 51.5 -32q29.5 -11 62.5 -11q41 0 73.5 16q32.5 16 55.5 42z" />
<glyph unicode="&#170;" horiz-adv-x="425" d="M193 620q25 16 59 27q34 11 78 11q29 0 53.5 -8q24.5 -8 40.5 -24q16 -16 23 -40q7 -24 1 -57l-36 -204h-70l8 47q-20 -21 -51 -36q-31 -15 -82 -15q-45 0 -69.5 25.5q-24.5 25.5 -24.5 62.5q0 57 40 90q40 33 107 33q66 0 104 -25l1 5q9 45 -10 65.5q-19 20.5 -59 20.5q-28 0 -49.5 -6.5q-21.5 -6.5 -41.5 -18.5zM262 380q29 0 53 11q24 11 43 25l8 46q-16 8 -38 14q-22 6 -44 6q-35 0 -59.5 -15.5q-24.5 -15.5 -24.5 -42.5q0 -20 16.5 -32t45.5 -12z" />
<glyph unicode="&#171;" horiz-adv-x="530" d="M279 248l1 4l226 216l44 -46l-179 -172l117 -173l-62 -47zM89 248l1 4l226 216l44 -46l-179 -172l117 -173l-62 -47z" />
<glyph unicode="&#172;" horiz-adv-x="592" d="M59 395h474v-201h-70v131l-404 0z" />
<glyph unicode="&#174;" horiz-adv-x="618" d="M50 497q0 53 20 100q20 47 55.5 82q35.5 35 83 55.5q47.5 20.5 101.5 20.5q53 0 100 -20.5q47 -20.5 82 -55.5q35 -35 55.5 -82q20.5 -47 20.5 -100q0 -54 -20.5 -102q-20.5 -48 -55.5 -83q-35 -35 -82 -55.5q-47 -20.5 -100 -20.5q-54 0 -101.5 20.5q-47.5 20.5 -83 55.5q-35.5 35 -55.5 83q-20 48 -20 102zt0 0zM115 496q0 -40 15.5 -75.5q15.5 -35.5 41.5 -61.5q26 -26 61.5 -41.5q35.5 -15.5 75.5 -15.5q40 0 75.5 15.5q35.5 15.5 61.5 41.5q26 26 41.5 61.5q15.5 35.5 15.5 75.5q0 40 -15.5 75.5q-15.5 35.5 -41.5 61.5q-26 26 -61.5 41.5q-35.5 15.5 -75.5 15.5q-40 0 -75.5 -15.5q-35.5 -15.5 -61.5 -41.5q-26 -26 -41.5 -61.5q-15.5 -35.5 -15.5 -75.5zt0 0zM211 360v280h98q59 0 83.5 -25q24.5 -25 24.5 -62q0 -29 -17 -51q-17 -22 -43 -30l74 -112h-65l-63 101h-37v-101zM266 600v-99h39q24 0 40.5 14q16.5 14 16.5 37q0 22 -15.5 35q-15.5 13 -44.5 13z" />
<glyph unicode="&#175;" horiz-adv-x="384" d="M60 645h264v-65l-264 0z" />
<glyph unicode="&#176;" horiz-adv-x="410" d="M50 569q0 33 12 61.5q12 28.5 33 49.5q21 21 49 33q28 12 60 12q32 0 60.5 -11.5q28.5 -11.5 49.5 -31.5q21 -20 33.5 -48.5q12.5 -28.5 12.5 -61.5q0 -33 -12.5 -61.5q-12.5 -28.5 -33.5 -49.5q-21 -21 -49.5 -33.5q-28.5 -12.5 -60.5 -12.5q-32 0 -60 12q-28 12 -49 32.5q-21 20.5 -33 48.5q-12 28 -12 61zt0 0zM120 570q0 -35 25 -60q25 -25 60 -25q17 0 32.5 6.5q15.5 6.5 27 18q11.5 11.5 18.5 27q7 15.5 7 33.5q0 35 -25 60q-25 25 -60 25q-18 0 -33.5 -7q-15.5 -7 -27 -18.5q-11.5 -11.5 -18 -27t-6.5 -32.5z" />
<glyph unicode="&#177;" horiz-adv-x="592" d="M69 480h188v191h75v-191h191v-70h-191v-123h-75v123h-188zM69 235h454v-70l-454 0z" />
<glyph unicode="&#178;" horiz-adv-x="349" d="M106 401q31 19 70.5 42q39.5 23 74 48.5q34.5 25.5 58 52.5q23.5 27 23.5 54q0 20 -13 33q-13 13 -39 13q-24 0 -47.5 -16q-23.5 -16 -31.5 -42l-56 21q16 46 57.5 71.5q41.5 25.5 94.5 25.5q57 0 84 -26q27 -26 27 -64q0 -39 -25.5 -72.5q-25.5 -33.5 -59.5 -59.5q-34 -26 -69 -44.5q-35 -18.5 -54 -27.5l192 0l-11 -60l-284 0z" />
<glyph unicode="&#179;" horiz-adv-x="350" d="M230 344q-46 0 -82 17q-36 17 -50 53l48 38q8 -23 31.5 -36.5q23.5 -13.5 51.5 -13.5q42 0 64.5 17.5q22.5 17.5 22.5 41.5q0 18 -16 29.5q-16 11.5 -47 11.5h-34l8 50h30q29 0 50.5 16.5q21.5 16.5 21.5 40.5q0 18 -15 28.5q-15 10.5 -41 10.5q-34 0 -58 -14q-24 -14 -39 -31l-27 38q20 27 57 45.5q37 18.5 91 18.5q51 0 80.5 -20.5q29.5 -20.5 29.5 -55.5q0 -35 -24 -60q-24 -25 -66 -36l0 -1q37 -3 55 -24q18 -21 18 -47q0 -27 -13 -48.5q-13 -21.5 -35.5 -36.5q-22.5 -15 -51.5 -23.5t-60 -8.5z" />
<glyph unicode="&#180;" horiz-adv-x="288" d="M108 531l-48 34l106 157l62 -48z" />
<glyph unicode="&#181;" horiz-adv-x="545" d="M472 0h-80l12 64q-29 -29 -73.5 -51.5q-44.5 -22.5 -98.5 -22.5q-49 0 -83 20l-37 -210h-80l115 650h80l-44 -250q-11 -64 9.5 -99.5q20.5 -35.5 82.5 -35.5q39 0 77 20q38 20 64 47l56 318l80 0z" />
<glyph unicode="&#182;" horiz-adv-x="461" d="M45 481q0 51 15.5 91.5q15.5 40.5 44 69q28.5 28.5 67.5 43.5q39 15 87 15h172v-75h-94v-638q0 -94 -39 -144.5q-39 -50.5 -126 -50.5q-35 0 -66 12q-31 12 -48 29l33 58q12 -9 32 -16.5q20 -7.5 43 -7.5q28 0 46 9.5q18 9.5 28 26.5q10 17 13.5 39q3.5 22 3.5 48v273q-43 0 -81.5 15q-38.5 15 -67.5 43q-29 28 -46 68.5t-17 91.5z" />
<glyph unicode="&#183;" horiz-adv-x="225" d="M57 299q0 20 15.5 36.5q15.5 16.5 41.5 16.5q23 0 38 -16.5q15 -16.5 15 -36.5q0 -23 -15 -40q-15 -17 -38 -17q-26 0 -41.5 17t-15.5 40z" />
<glyph unicode="&#184;" horiz-adv-x="351" d="M84 -132q15 -10 34 -16.5q19 -6.5 37 -6.5q24 0 40 9.5q16 9.5 16 26.5q0 18 -13 28.5q-13 10.5 -45 10.5h-6v80h43v-43q51 -3 76 -24q25 -21 25 -56q0 -36 -32.5 -59q-32.5 -23 -93.5 -23q-38 0 -62.5 11q-24.5 11 -42.5 23z" />
<glyph unicode="&#185;" horiz-adv-x="252" d="M251 701h50l-62 -351h-70l47 269l-64 -37l-19 48z" />
<glyph unicode="&#186;" horiz-adv-x="476" d="M138 463q0 43 17.5 78.5q17.5 35.5 47 61.5q29.5 26 68.5 40.5q39 14.5 83 14.5q71 0 113.5 -39q42.5 -39 42.5 -104q0 -43 -17 -79q-17 -36 -46.5 -62q-29.5 -26 -69 -40.5q-39.5 -14.5 -83.5 -14.5q-70 0 -113 39.5q-43 39.5 -43 104.5zt0 0zM214 473q0 -41 27 -65q27 -24 65 -24q25 0 48 9q23 9 41 24.5q18 15.5 28.5 38q10.5 22.5 10.5 49.5q0 40 -26 64q-26 24 -65 24q-25 0 -48 -9q-23 -9 -41 -24.5q-18 -15.5 -29 -37.5t-11 -49z" />
<glyph unicode="&#187;" horiz-adv-x="530" d="M306 30l-46 47l178 173l-118 172l60 46l150 -216l-1 -4zM116 30l-46 47l178 173l-118 172l60 46l150 -216l-1 -4z" />
<glyph unicode="&#188;" horiz-adv-x="673" d="M261 701h50l-62 -351h-70l47 269l-64 -37l-19 48zM543 79h-194l8 46l208 225h67l-201 -216h122l16 91h65l-16 -91h59l-10 -55h-59l-14 -79h-65zM625 710l46 -34l-513 -686l-47 33z" />
<glyph unicode="&#189;" horiz-adv-x="689" d="M261 701h50l-62 -351h-70l47 269l-64 -37l-19 48zM374 51q31 19 70.5 42q39.5 23 74 48.5q34.5 25.5 58 52.5q23.5 27 23.5 54q0 20 -13 33q-13 13 -39 13q-24 0 -47.5 -16q-23.5 -16 -31.5 -42l-56 21q16 46 57.5 71.5q41.5 25.5 94.5 25.5q57 0 84 -26q27 -26 27 -64q0 -39 -25.5 -72.5q-25.5 -33.5 -59.5 -59.5q-34 -26 -69.5 -44.5q-35.5 -18.5 -54.5 -27.5l192 0l-10 -60h-284zM605 710l46 -34l-513 -686l-47 33z" />
<glyph unicode="&#190;" horiz-adv-x="723" d="M593 79h-194l8 46l208 225h67l-201 -216h122l16 91h65l-16 -91h59l-10 -55h-59l-14 -79h-65zM235 344q-46 0 -82 17q-36 17 -50 53l48 38q8 -23 31.5 -36.5q23.5 -13.5 51.5 -13.5q42 0 64.5 17.5q22.5 17.5 22.5 41.5q0 18 -16 29.5q-16 11.5 -47 11.5h-34l8 50h30q29 0 50.5 16.5q21.5 16.5 21.5 40.5q0 18 -15 28.5q-15 10.5 -41 10.5q-34 0 -58 -14q-24 -14 -39 -31l-27 38q20 27 57 45.5q37 18.5 91 18.5q51 0 80.5 -20.5q29.5 -20.5 29.5 -55.5q0 -35 -24 -60q-24 -25 -66 -36l0 -1q37 -3 55 -24q18 -21 18 -47q0 -27 -13 -48.5q-13 -21.5 -35.5 -36.5q-22.5 -15 -51.5 -23.5q-29 -8.5 -60 -8.5zt0 0zM685 710l46 -34l-513 -686l-47 33z" />
<glyph unicode="&#191;" horiz-adv-x="441" d="M104 -78q0 -20 5 -37.5q5 -17.5 17 -30q12 -12.5 32 -20q20 -7.5 49 -7.5q42 0 77.5 19.5q35.5 19.5 67.5 55.5l48 -54q-35 -44 -85.5 -72.5q-50.5 -28.5 -125.5 -28.5q-43 0 -75 12.5q-32 12.5 -53 34.5q-21 22 -31.5 50.5q-10.5 28.5 -10.5 61.5q0 46 18.5 82q18.5 36 46.5 65.5q28 29.5 60.5 54q32.5 24.5 61 47.5q28.5 23 47.5 47q19 24 21 53l66 0q1 -40 -16 -71q-17 -31 -43 -56.5q-26 -25.5 -57 -48.5q-31 -23 -57.5 -47q-26.5 -24 -44.5 -50.5q-18 -26.5 -18 -59.5zt0 0zM427 403q0 -20 -15.5 -36.5q-15.5 -16.5 -41.5 -16.5q-23 0 -38 16.5q-15 16.5 -15 36.5q0 23 15 40q15 17 38 17q26 0 41.5 -17t15.5 -40z" />
<glyph unicode="&#192;" horiz-adv-x="705" d="M440 704h73l177 -704h-86l-53 212h-319l-126 -212h-91zM280 292h252l-73 299zM337 819l42 68l177 -104l-32 -48z" />
<glyph unicode="&#193;" horiz-adv-x="705" d="M440 704h73l177 -704h-86l-53 212h-319l-126 -212h-91zM280 292h252l-73 299zM452 735l-23 48l195 104l30 -68z" />
<glyph unicode="&#194;" horiz-adv-x="705" d="M440 704h73l177 -704h-86l-53 212h-319l-126 -212h-91zM280 292h252l-73 299zM503 882h4l156 -103l-41 -46l-130 76l-157 -76l-21 45z" />
<glyph unicode="&#195;" horiz-adv-x="705" d="M440 704h73l177 -704h-86l-53 212h-319l-126 -212h-91zM280 292h252l-73 299zM320 811q21 23 47.5 35q26.5 12 52.5 12q22 0 41 -6.5q19 -6.5 36.5 -14q17.5 -7.5 35 -13.5q17.5 -6 37.5 -6q17 0 36.5 6q19.5 6 38.5 26l22 -50q-21 -28 -46.5 -40q-25.5 -12 -55.5 -12q-20 0 -38.5 6q-18.5 6 -37 13.5q-18.5 7.5 -37.5 14q-19 6.5 -40 6.5q-33 0 -66 -27z" />
<glyph unicode="&#196;" horiz-adv-x="705" d="M440 704h73l177 -704h-86l-53 212h-319l-126 -212h-91zM280 292h252l-73 299zM325 813q0 21 16 33q16 12 39 12q20 0 36 -12q16 -12 16 -33q0 -23 -16 -35.5q-16 -12.5 -36 -12.5q-23 0 -39 12.5q-16 12.5 -16 35.5zt0 0zM557 813q0 21 16.5 33q16.5 12 39.5 12q20 0 35.5 -11.5q15.5 -11.5 15.5 -33.5q0 -23 -15.5 -35.5q-15.5 -12.5 -35.5 -12.5q-23 0 -39.5 12.5t-16.5 35.5z" />
<glyph unicode="&#197;" horiz-adv-x="705" d="M365 777q0 29 11.5 50q11.5 21 31.5 34.5q20 13.5 45.5 20q25.5 6.5 54.5 6.5q48 0 79 -19.5q31 -19.5 31 -61.5q0 -45 -29 -73q-29 -28 -74 -38l175 -696h-91l-53 212h-319l-126 -212h-86l420 696q-32 7 -51 27.5q-19 20.5 -19 53.5zt0 0zM275 292h252l-73 299zM426 783q0 -23 15.5 -34.5q15.5 -11.5 40.5 -11.5q30 0 53 16q23 16 23 47q0 23 -16.5 33q-16.5 10 -40.5 10q-32 0 -53.5 -14t-21.5 -46z" />
<glyph unicode="&#198;" horiz-adv-x="956" d="M990 620h-310l-40 -226h280l-14 -80h-280l-41 -234h320l-14 -80h-405l38 216h-250l-190 -216h-99l626 700h393zM344 296h194l49 275z" />
<glyph unicode="&#199;" horiz-adv-x="656" d="M280 -127q14 -11 32.5 -19.5q18.5 -8.5 36.5 -8.5q26 0 44.5 11q18.5 11 18.5 32q0 14 -12 23q-12 9 -40 9h-6l13 72q-61 5 -109.5 28q-48.5 23 -82.5 61q-34 38 -52 90q-18 52 -18 115q0 86 30.5 163q30.5 77 86 135q55.5 58 132.5 92q77 34 171 34q68 0 118.5 -18q50.5 -18 82.5 -50l-51 -64q-30 26 -69 39q-39 13 -94 13q-65 0 -122.5 -25q-57.5 -25 -100 -69q-42.5 -44 -67.5 -104q-25 -60 -25 -131q0 -52 16 -94.5q16 -42.5 45.5 -73q29.5 -30.5 72 -47q42.5 -16.5 95.5 -16.5q51 0 99.5 16.5q48.5 16.5 90.5 45.5l22 -64q-41 -35 -102.5 -55.5q-61.5 -20.5 -125.5 -22.5l-6 -33q49 -3 71 -20.5q22 -17.5 22 -46.5q0 -42 -37.5 -68.5q-37.5 -26.5 -101.5 -26.5q-45 0 -70 12q-25 12 -41 24z" />
<glyph unicode="&#200;" horiz-adv-x="575" d="M228 700h395l-14 -80h-310l-40 -226h280l-14 -80h-280l-41 -234h320l-14 -80h-405zM302 819l42 68l177 -104l-32 -48z" />
<glyph unicode="&#201;" horiz-adv-x="575" d="M228 700h395l-14 -80h-310l-40 -226h280l-14 -80h-280l-41 -234h320l-14 -80h-405zM392 735l-23 48l195 104l30 -68z" />
<glyph unicode="&#202;" horiz-adv-x="575" d="M228 700h395l-14 -80h-310l-40 -226h280l-14 -80h-280l-41 -234h320l-14 -80h-405zM455 882h4l156 -103l-41 -46l-130 76l-157 -76l-21 45z" />
<glyph unicode="&#203;" horiz-adv-x="575" d="M228 700h395l-14 -80h-310l-40 -226h280l-14 -80h-280l-41 -234h320l-14 -80h-405zM279 813q0 21 16 33q16 12 39 12q20 0 36 -12q16 -12 16 -33q0 -23 -16 -35.5q-16 -12.5 -36 -12.5q-23 0 -39 12.5q-16 12.5 -16 35.5zt0 0zM511 813q0 21 16.5 33q16.5 12 39.5 12q20 0 35.5 -11.5q15.5 -11.5 15.5 -33.5q0 -23 -15.5 -35.5q-15.5 -12.5 -35.5 -12.5q-23 0 -39.5 12.5t-16.5 35.5z" />
<glyph unicode="&#204;" horiz-adv-x="335" d="M248 700h85l-123 -700h-85zM142 819l42 68l177 -104l-32 -48z" />
<glyph unicode="&#205;" horiz-adv-x="335" d="M248 700h85l-123 -700h-85zM277 735l-23 48l195 104l30 -68z" />
<glyph unicode="&#206;" horiz-adv-x="335" d="M248 700h85l-123 -700h-85zM319 882h4l156 -103l-41 -46l-130 76l-157 -76l-21 45z" />
<glyph unicode="&#207;" horiz-adv-x="335" d="M248 700h85l-123 -700h-85zM141 813q0 21 16 33q16 12 39 12q20 0 36 -12q16 -12 16 -33q0 -23 -16 -35.5q-16 -12.5 -36 -12.5q-23 0 -39 12.5q-16 12.5 -16 35.5zt0 0zM373 813q0 21 16.5 33q16.5 12 39.5 12q20 0 35.5 -11.5q15.5 -11.5 15.5 -33.5q0 -23 -15.5 -35.5q-15.5 -12.5 -35.5 -12.5q-23 0 -39.5 12.5t-16.5 35.5z" />
<glyph unicode="&#208;" horiz-adv-x="754" d="M79 391h110l55 309h12q17 0 39 0.5q22 0.5 46 1q24 0.5 48.5 1q24.5 0.5 45.5 0.5q91 0 155.5 -23q64.5 -23 105 -62q40.5 -39 59.5 -91q19 -52 19 -110q0 -83 -31 -159q-31 -76 -91 -133.5q-60 -57.5 -147.5 -92q-87.5 -34.5 -201.5 -34.5q-35 0 -81 1q-46 1 -91 1h-11l56 316h-110zM419 623q-32 0 -55 -1q-23 -1 -49 -2l-41 -229h188l-13 -75h-188l-42 -236q35 -1 63.5 -1.5q28.5 -0.5 37.5 -0.5q85 0 152.5 25.5q67.5 25.5 114.5 69.5q47 44 71.5 103q24.5 59 24.5 127q0 48 -16 88.5q-16 40.5 -49 69.5q-33 29 -82.5 45.5t-116.5 16.5z" />
<glyph unicode="&#209;" horiz-adv-x="795" d="M622 0l-339 563l-98 -563h-80l123 700h68l338 -562l99 562h80l-123 -700zM372 811q21 23 47.5 35q26.5 12 52.5 12q22 0 41 -6.5q19 -6.5 36.5 -14q17.5 -7.5 35 -13.5q17.5 -6 37.5 -6q17 0 36.5 6q19.5 6 38.5 26l22 -50q-21 -28 -46.5 -40q-25.5 -12 -55.5 -12q-20 0 -38.5 6q-18.5 6 -37 13.5q-18.5 7.5 -37.5 14q-19 6.5 -40 6.5q-33 0 -66 -27z" />
<glyph unicode="&#210;" horiz-adv-x="814" d="M105 315q0 81 28 153q28 72 80.5 125.5q52.5 53.5 126.5 85q74 31.5 166 31.5q71 0 131 -22q60 -22 103.5 -63q43.5 -41 67.5 -99q24 -58 24 -130q0 -89 -28.5 -163.5q-28.5 -74.5 -79.5 -128.5q-51 -54 -122 -84q-71 -30 -156 -30q-84 0 -148 25.5q-64 25.5 -107 69.5q-43 44 -64.5 103q-21.5 59 -21.5 127zt0 0zM197 320q0 -61 20 -107.5q20 -46.5 54.5 -78q34.5 -31.5 80 -48q45.5 -16.5 97.5 -16.5q61 0 114 22q53 22 92.5 62.5q39.5 40.5 62 99q22.5 58.5 22.5 132.5q0 55 -17.5 100q-17.5 45 -49 77q-31.5 32 -76.5 49.5q-45 17.5 -100 17.5q-59 0 -113.5 -21q-54.5 -21 -96 -61q-41.5 -40 -66 -97.5q-24.5 -57.5 -24.5 -130.5zt0 0zM422 819l42 68l177 -104l-32 -48z" />
<glyph unicode="&#211;" horiz-adv-x="814" d="M105 315q0 81 28 153q28 72 80.5 125.5q52.5 53.5 126.5 85q74 31.5 166 31.5q71 0 131 -22q60 -22 103.5 -63q43.5 -41 67.5 -99q24 -58 24 -130q0 -89 -28.5 -163.5q-28.5 -74.5 -79.5 -128.5q-51 -54 -122 -84q-71 -30 -156 -30q-84 0 -148 25.5q-64 25.5 -107 69.5q-43 44 -64.5 103q-21.5 59 -21.5 127zt0 0zM197 320q0 -61 20 -107.5q20 -46.5 54.5 -78q34.5 -31.5 80 -48q45.5 -16.5 97.5 -16.5q61 0 114 22q53 22 92.5 62.5q39.5 40.5 62 99q22.5 58.5 22.5 132.5q0 55 -17.5 100q-17.5 45 -49 77q-31.5 32 -76.5 49.5q-45 17.5 -100 17.5q-59 0 -113.5 -21q-54.5 -21 -96 -61q-41.5 -40 -66 -97.5q-24.5 -57.5 -24.5 -130.5zt0 0zM502 735l-23 48l195 104l30 -68z" />
<glyph unicode="&#212;" horiz-adv-x="814" d="M105 315q0 81 28 153q28 72 80.5 125.5q52.5 53.5 126.5 85q74 31.5 166 31.5q71 0 131 -22q60 -22 103.5 -63q43.5 -41 67.5 -99q24 -58 24 -130q0 -89 -28.5 -163.5q-28.5 -74.5 -79.5 -128.5q-51 -54 -122 -84q-71 -30 -156 -30q-84 0 -148 25.5q-64 25.5 -107 69.5q-43 44 -64.5 103q-21.5 59 -21.5 127zt0 0zM197 320q0 -61 20 -107.5q20 -46.5 54.5 -78q34.5 -31.5 80 -48q45.5 -16.5 97.5 -16.5q61 0 114 22q53 22 92.5 62.5q39.5 40.5 62 99q22.5 58.5 22.5 132.5q0 55 -17.5 100q-17.5 45 -49 77q-31.5 32 -76.5 49.5q-45 17.5 -100 17.5q-59 0 -113.5 -21q-54.5 -21 -96 -61q-41.5 -40 -66 -97.5q-24.5 -57.5 -24.5 -130.5zt0 0zM562 882h4l156 -103l-41 -46l-130 76l-157 -76l-21 45z" />
<glyph unicode="&#213;" horiz-adv-x="814" d="M105 315q0 81 28 153q28 72 80.5 125.5q52.5 53.5 126.5 85q74 31.5 166 31.5q71 0 131 -22q60 -22 103.5 -63q43.5 -41 67.5 -99q24 -58 24 -130q0 -89 -28.5 -163.5q-28.5 -74.5 -79.5 -128.5q-51 -54 -122 -84q-71 -30 -156 -30q-84 0 -148 25.5q-64 25.5 -107 69.5q-43 44 -64.5 103q-21.5 59 -21.5 127zt0 0zM197 320q0 -61 20 -107.5q20 -46.5 54.5 -78q34.5 -31.5 80 -48q45.5 -16.5 97.5 -16.5q61 0 114 22q53 22 92.5 62.5q39.5 40.5 62 99q22.5 58.5 22.5 132.5q0 55 -17.5 100q-17.5 45 -49 77q-31.5 32 -76.5 49.5q-45 17.5 -100 17.5q-59 0 -113.5 -21q-54.5 -21 -96 -61q-41.5 -40 -66 -97.5q-24.5 -57.5 -24.5 -130.5zt0 0zM374 811q21 23 47.5 35q26.5 12 52.5 12q22 0 41 -6.5q19 -6.5 36.5 -14q17.5 -7.5 35 -13.5q17.5 -6 37.5 -6q17 0 36.5 6q19.5 6 38.5 26l22 -50q-21 -28 -46.5 -40q-25.5 -12 -55.5 -12q-20 0 -38.5 6q-18.5 6 -37 13.5q-18.5 7.5 -37.5 14q-19 6.5 -40 6.5q-33 0 -66 -27z" />
<glyph unicode="&#214;" horiz-adv-x="814" d="M105 315q0 81 28 153q28 72 80.5 125.5q52.5 53.5 126.5 85q74 31.5 166 31.5q71 0 131 -22q60 -22 103.5 -63q43.5 -41 67.5 -99q24 -58 24 -130q0 -89 -28.5 -163.5q-28.5 -74.5 -79.5 -128.5q-51 -54 -122 -84q-71 -30 -156 -30q-84 0 -148 25.5q-64 25.5 -107 69.5q-43 44 -64.5 103q-21.5 59 -21.5 127zt0 0zM197 320q0 -61 20 -107.5q20 -46.5 54.5 -78q34.5 -31.5 80 -48q45.5 -16.5 97.5 -16.5q61 0 114 22q53 22 92.5 62.5q39.5 40.5 62 99q22.5 58.5 22.5 132.5q0 55 -17.5 100q-17.5 45 -49 77q-31.5 32 -76.5 49.5q-45 17.5 -100 17.5q-59 0 -113.5 -21q-54.5 -21 -96 -61q-41.5 -40 -66 -97.5q-24.5 -57.5 -24.5 -130.5zt0 0zM379 813q0 21 16 33q16 12 39 12q20 0 36 -12q16 -12 16 -33q0 -23 -16 -35.5q-16 -12.5 -36 -12.5q-23 0 -39 12.5q-16 12.5 -16 35.5zt0 0zM611 813q0 21 16.5 33q16.5 12 39.5 12q20 0 35.5 -11.5q15.5 -11.5 15.5 -33.5q0 -23 -15.5 -35.5q-15.5 -12.5 -35.5 -12.5q-23 0 -39.5 12.5t-16.5 35.5z" />
<glyph unicode="&#215;" horiz-adv-x="592" d="M161 545l135 -136l135 136l49 -50l-135 -135l137 -136l-50 -50l-136 136l-137 -136l-49 50l136 136l-135 135z" />
<glyph unicode="&#216;" horiz-adv-x="814" d="M105 290q0 87 34 163.5q34 76.5 92 133.5q58 57 136 90q78 33 165 33q68 0 123 -21q55 -21 94 -59l52 43l37 -47l-50 -42q22 -34 33 -79.5q11 -45.5 11 -95.5q0 -89 -34.5 -165.5q-34.5 -76.5 -93.5 -133q-59 -56.5 -136.5 -88.5q-77.5 -32 -162.5 -32q-71 0 -128 22.5q-57 22.5 -96 64.5l-53 -44l-39 48l54 45q-18 32 -28 75.5q-10 43.5 -10 88.5zt0 0zM741 395q0 35 -7 68q-7 33 -21 58l-460 -383q30 -32 72 -50q42 -18 94 -18q68 0 127 26q59 26 102.5 70q43.5 44 68 103.5q24.5 59.5 24.5 125.5zt0 0zM197 305q0 -31 5.5 -62q5.5 -31 16.5 -54l458 381q-29 29 -69.5 44.5q-40.5 15.5 -89.5 15.5q-64 0 -122 -25q-58 -25 -102.5 -68.5q-44.5 -43.5 -70.5 -103t-26 -128.5z" />
<glyph unicode="&#217;" horiz-adv-x="751" d="M708 292q-14 -80 -42 -137q-28 -57 -68.5 -93.5q-40.5 -36.5 -94 -53.5q-53.5 -17 -119.5 -17q-56 0 -101.5 15q-45.5 15 -77.5 45.5q-32 30.5 -49 75.5q-17 45 -15 105q1 16 2.5 32.5q1.5 16.5 4.5 34.5l71 401h87l-70 -385q-4 -20 -5.5 -37q-1.5 -17 -1.5 -34q-2 -90 41.5 -131.5q43.5 -41.5 127.5 -41.5q186 0 228 238l69 391h85zM377 819l42 68l177 -104l-32 -48z" />
<glyph unicode="&#218;" horiz-adv-x="751" d="M708 292q-14 -80 -42 -137q-28 -57 -68.5 -93.5q-40.5 -36.5 -94 -53.5q-53.5 -17 -119.5 -17q-56 0 -101.5 15q-45.5 15 -77.5 45.5q-32 30.5 -49 75.5q-17 45 -15 105q1 16 2.5 32.5q1.5 16.5 4.5 34.5l71 401h87l-70 -385q-4 -20 -5.5 -37q-1.5 -17 -1.5 -34q-2 -90 41.5 -131.5q43.5 -41.5 127.5 -41.5q186 0 228 238l69 391h85zM467 735l-23 48l195 104l30 -68z" />
<glyph unicode="&#219;" horiz-adv-x="751" d="M708 292q-14 -80 -42 -137q-28 -57 -68.5 -93.5q-40.5 -36.5 -94 -53.5q-53.5 -17 -119.5 -17q-56 0 -101.5 15q-45.5 15 -77.5 45.5q-32 30.5 -49 75.5q-17 45 -15 105q1 16 2.5 32.5q1.5 16.5 4.5 34.5l71 401h87l-70 -385q-4 -20 -5.5 -37q-1.5 -17 -1.5 -34q-2 -90 41.5 -131.5q43.5 -41.5 127.5 -41.5q186 0 228 238l69 391h85zM526 882h4l156 -103l-41 -46l-130 76l-157 -76l-21 45z" />
<glyph unicode="&#220;" horiz-adv-x="751" d="M708 292q-14 -80 -42 -137q-28 -57 -68.5 -93.5q-40.5 -36.5 -94 -53.5q-53.5 -17 -119.5 -17q-56 0 -101.5 15q-45.5 15 -77.5 45.5q-32 30.5 -49 75.5q-17 45 -15 105q1 16 2.5 32.5q1.5 16.5 4.5 34.5l71 401h87l-70 -385q-4 -20 -5.5 -37q-1.5 -17 -1.5 -34q-2 -90 41.5 -131.5q43.5 -41.5 127.5 -41.5q186 0 228 238l69 391h85zM344 813q0 21 16 33q16 12 39 12q20 0 36 -12q16 -12 16 -33q0 -23 -16 -35.5q-16 -12.5 -36 -12.5q-23 0 -39 12.5q-16 12.5 -16 35.5zt0 0zM576 813q0 21 16.5 33q16.5 12 39.5 12q20 0 35.5 -11.5q15.5 -11.5 15.5 -33.5q0 -23 -15.5 -35.5q-15.5 -12.5 -35.5 -12.5q-23 0 -39.5 12.5t-16.5 35.5z" />
<glyph unicode="&#221;" horiz-adv-x="604" d="M395 300l-52 -300h-85l52 300l-177 400h91l140 -320l253 320h100zM397 735l-23 48l195 104l30 -68z" />
<glyph unicode="&#222;" horiz-adv-x="597" d="M105 0l123 700h85l-18 -105q9 0 22.5 0.5q13.5 0.5 28 0.5q14.5 0 27 0.5q12.5 0.5 20.5 0.5q64 0 107 -15q43 -15 69.5 -39.5q26.5 -24.5 37.5 -57q11 -32.5 11 -67.5q0 -49 -19 -95.5q-19 -46.5 -56 -82.5q-37 -36 -92.5 -58q-55.5 -22 -127.5 -22q-21 0 -49.5 1q-28.5 1 -54.5 3l-29 -164zM380 517q-10 0 -23.5 -0.5q-13.5 -0.5 -27.5 -1q-14 -0.5 -26.5 -1q-12.5 -0.5 -21.5 -0.5l-48 -269q26 -2 50.5 -3.5q24.5 -1.5 50.5 -1.5q44 0 79.5 11.5q35.5 11.5 61 33.5q25.5 22 39 52q13.5 30 13.5 68q0 51 -35.5 81.5t-111.5 30.5z" />
<glyph unicode="&#223;" horiz-adv-x="524" d="M432 167q0 23 -10.5 40q-10.5 17 -25.5 32q-15 15 -33.5 28.5q-18.5 13.5 -33.5 29q-15 15.5 -25.5 33.5q-10.5 18 -10.5 43q0 30 9 50.5q9 20.5 23 36q14 15.5 30 28q16 12.5 30 25.5q14 13 23 28q9 15 9 36q0 26 -19.5 42q-19.5 16 -48.5 16q-48 0 -75.5 -32.5q-27.5 -32.5 -40.5 -104.5l-84 -500h-77l86 510q18 106 73.5 154q55.5 48 141.5 48q57 0 92.5 -31.5q35.5 -31.5 35.5 -79.5q0 -30 -9 -51q-9 -21 -23 -36.5q-14 -15.5 -30 -27.5q-16 -12 -30 -25.5q-14 -13.5 -23 -29q-9 -15.5 -9 -38.5q0 -21 10 -36.5q10 -15.5 25.5 -29q15.5 -13.5 33.5 -27q18 -13.5 33.5 -30q15.5 -16.5 25.5 -38.5q10 -22 10 -53q0 -38 -14.5 -72q-14.5 -34 -38.5 -59.5q-24 -25.5 -56.5 -40.5q-32.5 -15 -68.5 -15q-50 0 -81.5 20q-31.5 20 -45.5 45l37 61q11 -19 31.5 -35q20.5 -16 52.5 -16q19 0 37 7q18 7 32 20.5q14 13.5 23 32t9 42.5z" />
<glyph unicode="&#224;" horiz-adv-x="508" d="M225 65q26 0 58 24.5q32 24.5 61.5 60.5q29.5 36 52 76q22.5 40 30.5 70l17 80q-19 6 -33 7.5q-14 1.5 -31 1.5q-51 0 -93 -17.5q-42 -17.5 -72 -48q-30 -30.5 -46 -71.5q-16 -41 -16 -88q0 -43 18 -69q18 -26 54 -26zt0 0zM374 0l29 158q-18 -28 -40 -57.5q-22 -29.5 -49.5 -54q-27.5 -24.5 -59 -40.5q-31.5 -16 -68.5 -16q-61 0 -90 44.5q-29 44.5 -29 113.5q0 66 24 123q24 57 66 99q42 42 98 66q56 24 121 24q54 0 92.5 -10q38.5 -10 60.5 -21l-73 -429zM268 673l63 48l107 -156l-49 -34z" />
<glyph unicode="&#225;" horiz-adv-x="508" d="M225 65q26 0 58 24.5q32 24.5 61.5 60.5q29.5 36 52 76q22.5 40 30.5 70l17 80q-19 6 -33 7.5q-14 1.5 -31 1.5q-51 0 -93 -17.5q-42 -17.5 -72 -48q-30 -30.5 -46 -71.5q-16 -41 -16 -88q0 -43 18 -69q18 -26 54 -26zt0 0zM374 0l29 158q-18 -28 -40 -57.5q-22 -29.5 -49.5 -54q-27.5 -24.5 -59 -40.5q-31.5 -16 -68.5 -16q-61 0 -90 44.5q-29 44.5 -29 113.5q0 66 24 123q24 57 66 99q42 42 98 66q56 24 121 24q54 0 92.5 -10q38.5 -10 60.5 -21l-73 -429zM353 531l-48 34l106 157l62 -48z" />
<glyph unicode="&#226;" horiz-adv-x="508" d="M225 65q26 0 58 24.5q32 24.5 61.5 60.5q29.5 36 52 76q22.5 40 30.5 70l17 80q-19 6 -33 7.5q-14 1.5 -31 1.5q-51 0 -93 -17.5q-42 -17.5 -72 -48q-30 -30.5 -46 -71.5q-16 -41 -16 -88q0 -43 18 -69q18 -26 54 -26zt0 0zM374 0l29 158q-18 -28 -40 -57.5q-22 -29.5 -49.5 -54q-27.5 -24.5 -59 -40.5q-31.5 -16 -68.5 -16q-61 0 -90 44.5q-29 44.5 -29 113.5q0 66 24 123q24 57 66 99q42 42 98 66q56 24 121 24q54 0 92.5 -10q38.5 -10 60.5 -21l-73 -429zM501 574l-46 -48l-88 91l-120 -90l-30 47l164 133l4 0z" />
<glyph unicode="&#227;" horiz-adv-x="508" d="M225 65q26 0 58 24.5q32 24.5 61.5 60.5q29.5 36 52 76q22.5 40 30.5 70l17 80q-19 6 -33 7.5q-14 1.5 -31 1.5q-51 0 -93 -17.5q-42 -17.5 -72 -48q-30 -30.5 -46 -71.5q-16 -41 -16 -88q0 -43 18 -69q18 -26 54 -26zt0 0zM374 0l29 158q-18 -28 -40 -57.5q-22 -29.5 -49.5 -54q-27.5 -24.5 -59 -40.5q-31.5 -16 -68.5 -16q-61 0 -90 44.5q-29 44.5 -29 113.5q0 66 24 123q24 57 66 99q42 42 98 66q56 24 121 24q54 0 92.5 -10q38.5 -10 60.5 -21l-73 -429zM201 594q29 32 57 46q28 14 53 14q18 0 32 -7q14 -7 27 -15q13 -8 26 -15q13 -7 28 -7q20 0 34.5 8.5q14.5 8.5 36.5 26.5l28 -41q-56 -59 -106 -59q-17 0 -30.5 7q-13.5 7 -26.5 15q-13 8 -26.5 15q-13.5 7 -30.5 7q-15 0 -32.5 -9q-17.5 -9 -36.5 -23z" />
<glyph unicode="&#228;" horiz-adv-x="508" d="M225 65q26 0 58 24.5q32 24.5 61.5 60.5q29.5 36 52 76q22.5 40 30.5 70l17 80q-19 6 -33 7.5q-14 1.5 -31 1.5q-51 0 -93 -17.5q-42 -17.5 -72 -48q-30 -30.5 -46 -71.5q-16 -41 -16 -88q0 -43 18 -69q18 -26 54 -26zt0 0zM374 0l29 158q-18 -28 -40 -57.5q-22 -29.5 -49.5 -54q-27.5 -24.5 -59 -40.5q-31.5 -16 -68.5 -16q-61 0 -90 44.5q-29 44.5 -29 113.5q0 66 24 123q24 57 66 99q42 42 98 66q56 24 121 24q54 0 92.5 -10q38.5 -10 60.5 -21l-73 -429zM219 610q0 21 14.5 33.5q14.5 12.5 34.5 12.5q17 0 31.5 -12.5q14.5 -12.5 14.5 -33.5q0 -24 -14.5 -37q-14.5 -13 -31.5 -13q-20 0 -34.5 13q-14.5 13 -14.5 37zt0 0zM424 610q0 21 15 33.5q15 12.5 35 12.5q17 0 31.5 -12.5q14.5 -12.5 14.5 -33.5q0 -24 -14.5 -37q-14.5 -13 -31.5 -13q-20 0 -35 13t-15 37z" />
<glyph unicode="&#229;" horiz-adv-x="508" d="M225 65q26 0 58 24.5q32 24.5 61.5 60.5q29.5 36 52 76q22.5 40 30.5 70l17 80q-19 6 -33 7.5q-14 1.5 -31 1.5q-51 0 -93 -17.5q-42 -17.5 -72 -48q-30 -30.5 -46 -71.5q-16 -41 -16 -88q0 -43 18 -69q18 -26 54 -26zt0 0zM374 0l29 158q-18 -28 -40 -57.5q-22 -29.5 -49.5 -54q-27.5 -24.5 -59 -40.5q-31.5 -16 -68.5 -16q-61 0 -90 44.5q-29 44.5 -29 113.5q0 66 24 123q24 57 66 99q42 42 98 66q56 24 121 24q54 0 92.5 -10q38.5 -10 60.5 -21l-73 -429zM253 613q0 23 8.5 43q8.5 20 24 35q15.5 15 36.5 24q21 9 45 9q25 0 46 -9q21 -9 36.5 -24q15.5 -15 24.5 -35q9 -20 9 -43q0 -23 -9 -43q-9 -20 -24.5 -35q-15.5 -15 -36.5 -23.5q-21 -8.5 -46 -8.5q-24 0 -45 8.5q-21 8.5 -36.5 23.5q-15.5 15 -24 35q-8.5 20 -8.5 43zt0 0zM305 614q0 -28 18 -47q18 -19 45 -19q27 0 45 19q18 19 18 47q0 27 -18 46q-18 19 -45 19q-27 0 -45 -19t-18 -46z" />
<glyph unicode="&#230;" horiz-adv-x="744" d="M294 460q51 0 81.5 -15q30.5 -15 44.5 -44q33 27 74.5 43q41.5 16 91.5 16q37 0 68 -12.5q31 -12.5 53.5 -35q22.5 -22.5 35 -54.5q12.5 -32 12.5 -71q0 -17 -5 -41q-5 -24 -13 -46l-321 0l-11 -62q14 -35 45.5 -54q31.5 -19 82.5 -19q42 0 79 13.5q37 13.5 61 33.5l13 -63q-37 -30 -82.5 -44.5q-45.5 -14.5 -88.5 -14.5q-56 0 -97 18.5q-41 18.5 -66 51.5q-47 -38 -87.5 -52.5q-40.5 -14.5 -80.5 -14.5q-61 0 -93.5 30q-32.5 30 -32.5 84q0 40 15 71.5q15 31.5 41 53q26 21.5 60.5 32.5q34.5 11 73.5 11q12 0 26.5 -1q14.5 -1 28.5 -3q14 -2 26 -4.5q12 -2.5 20 -5.5q14 60 -1.5 92q-15.5 32 -71.5 32q-40 0 -68 -9.5q-28 -9.5 -56 -23.5l-10 67q32 19 71.5 30q39.5 11 80.5 11zt0 0zM426 265h247q7 56 -20.5 88q-27.5 32 -84.5 32q-40 0 -74.5 -18q-34.5 -18 -60.5 -51q-1 -9 -2 -19q-1 -10 -3 -21zM209 68q43 0 70 17.5q27 17.5 46 37.5l13 73q-23 7 -42.5 10.5q-19.5 3.5 -47.5 3.5q-19 0 -38 -5q-19 -5 -34.5 -15.5q-15.5 -10.5 -25 -26q-9.5 -15.5 -9.5 -37.5q0 -28 19 -43t49 -15z" />
<glyph unicode="&#231;" horiz-adv-x="488" d="M160 -132q13 -10 31 -16.5q18 -6.5 36 -6.5q26 0 44.5 11q18.5 11 18.5 32q0 14 -12 23q-12 9 -40 9h-6l12 72q-78 9 -122.5 60.5q-44.5 51.5 -44.5 131.5q0 57 22 107q22 50 59.5 87.5q37.5 37.5 87 59.5q49.5 22 105.5 22q54 0 97.5 -13.5q43.5 -13.5 69.5 -45.5l-49 -63q-23 26 -54 36.5q-31 10.5 -66 10.5q-34 0 -67 -13.5q-33 -13.5 -59.5 -38.5q-26.5 -25 -42.5 -59q-16 -34 -16 -75q0 -63 38 -98.5q38 -35.5 98 -35.5q41 0 77 16q36 16 63 42l27 -58q-34 -36 -81.5 -54.5q-47.5 -18.5 -98.5 -20.5l-6 -33q89 -6 89 -67q0 -42 -37.5 -68.5q-37.5 -26.5 -104.5 -26.5q-38 0 -60.5 11q-22.5 11 -38.5 23z" />
<glyph unicode="&#232;" horiz-adv-x="465" d="M451 73q-34 -34 -87.5 -58.5q-53.5 -24.5 -109.5 -24.5q-49 0 -84 15.5q-35 15.5 -58 40q-23 24.5 -34 55.5q-11 31 -11 62q0 57 19 111q19 54 55.5 95q36.5 41 89.5 66q53 25 121 25q41 0 68 -9q27 -9 43.5 -24.5q16.5 -15.5 23.5 -35.5q7 -20 7 -42q0 -36 -19.5 -65.5q-19.5 -29.5 -60 -51.5q-40.5 -22 -104.5 -35.5q-64 -13.5 -156 -17.5q0 -58 32 -86q32 -28 84 -28q20 0 40 5.5q20 5.5 39 14q19 8.5 35 18q16 9.5 29 18.5zM342 385q-35 0 -64 -11.5q-29 -11.5 -52.5 -32q-23.5 -20.5 -40 -47.5q-16.5 -27 -25.5 -58q70 5 117.5 14.5q47.5 9.5 75.5 22.5q28 13 40 29.5q12 16.5 12 34.5q1 24 -16 36q-17 12 -47 12zt0 0zM271 673l63 48l107 -156l-49 -34z" />
<glyph unicode="&#233;" horiz-adv-x="465" d="M451 73q-34 -34 -87.5 -58.5q-53.5 -24.5 -109.5 -24.5q-49 0 -84 15.5q-35 15.5 -58 40q-23 24.5 -34 55.5q-11 31 -11 62q0 57 19 111q19 54 55.5 95q36.5 41 89.5 66q53 25 121 25q41 0 68 -9q27 -9 43.5 -24.5q16.5 -15.5 23.5 -35.5q7 -20 7 -42q0 -36 -19.5 -65.5q-19.5 -29.5 -60 -51.5q-40.5 -22 -104.5 -35.5q-64 -13.5 -156 -17.5q0 -58 32 -86q32 -28 84 -28q20 0 40 5.5q20 5.5 39 14q19 8.5 35 18q16 9.5 29 18.5zM342 385q-35 0 -64 -11.5q-29 -11.5 -52.5 -32q-23.5 -20.5 -40 -47.5q-16.5 -27 -25.5 -58q70 5 117.5 14.5q47.5 9.5 75.5 22.5q28 13 40 29.5q12 16.5 12 34.5q1 24 -16 36q-17 12 -47 12zt0 0zM376 531l-48 34l106 157l62 -48z" />
<glyph unicode="&#234;" horiz-adv-x="465" d="M451 73q-34 -34 -87.5 -58.5q-53.5 -24.5 -109.5 -24.5q-49 0 -84 15.5q-35 15.5 -58 40q-23 24.5 -34 55.5q-11 31 -11 62q0 57 19 111q19 54 55.5 95q36.5 41 89.5 66q53 25 121 25q41 0 68 -9q27 -9 43.5 -24.5q16.5 -15.5 23.5 -35.5q7 -20 7 -42q0 -36 -19.5 -65.5q-19.5 -29.5 -60 -51.5q-40.5 -22 -104.5 -35.5q-64 -13.5 -156 -17.5q0 -58 32 -86q32 -28 84 -28q20 0 40 5.5q20 5.5 39 14q19 8.5 35 18q16 9.5 29 18.5zM342 385q-35 0 -64 -11.5q-29 -11.5 -52.5 -32q-23.5 -20.5 -40 -47.5q-16.5 -27 -25.5 -58q70 5 117.5 14.5q47.5 9.5 75.5 22.5q28 13 40 29.5q12 16.5 12 34.5q1 24 -16 36q-17 12 -47 12zt0 0zM509 574l-46 -48l-88 91l-120 -90l-30 47l164 133l4 0z" />
<glyph unicode="&#235;" horiz-adv-x="465" d="M451 73q-34 -34 -87.5 -58.5q-53.5 -24.5 -109.5 -24.5q-49 0 -84 15.5q-35 15.5 -58 40q-23 24.5 -34 55.5q-11 31 -11 62q0 57 19 111q19 54 55.5 95q36.5 41 89.5 66q53 25 121 25q41 0 68 -9q27 -9 43.5 -24.5q16.5 -15.5 23.5 -35.5q7 -20 7 -42q0 -36 -19.5 -65.5q-19.5 -29.5 -60 -51.5q-40.5 -22 -104.5 -35.5q-64 -13.5 -156 -17.5q0 -58 32 -86q32 -28 84 -28q20 0 40 5.5q20 5.5 39 14q19 8.5 35 18q16 9.5 29 18.5zM342 385q-35 0 -64 -11.5q-29 -11.5 -52.5 -32q-23.5 -20.5 -40 -47.5q-16.5 -27 -25.5 -58q70 5 117.5 14.5q47.5 9.5 75.5 22.5q28 13 40 29.5q12 16.5 12 34.5q1 24 -16 36q-17 12 -47 12zt0 0zM223 610q0 21 14.5 33.5q14.5 12.5 34.5 12.5q17 0 31.5 -12.5q14.5 -12.5 14.5 -33.5q0 -24 -14.5 -37q-14.5 -13 -31.5 -13q-20 0 -34.5 13q-14.5 13 -14.5 37zt0 0zM428 610q0 21 15 33.5q15 12.5 35 12.5q17 0 31.5 -12.5q14.5 -12.5 14.5 -33.5q0 -24 -14.5 -37q-14.5 -13 -31.5 -13q-20 0 -35 13t-15 37z" />
<glyph unicode="&#236;" horiz-adv-x="237" d="M151 450h80l-79 -450h-80zM94 673l63 48l107 -156l-49 -34z" />
<glyph unicode="&#237;" horiz-adv-x="237" d="M151 450h80l-79 -450h-80zM214 531l-48 34l106 157l62 -48z" />
<glyph unicode="&#238;" horiz-adv-x="237" d="M151 450h80l-79 -450h-80zM356 574l-46 -48l-88 91l-120 -90l-30 47l164 133l4 0z" />
<glyph unicode="&#239;" horiz-adv-x="237" d="M151 450h80l-79 -450h-80zM60 610q0 21 14.5 33.5q14.5 12.5 34.5 12.5q17 0 31.5 -12.5q14.5 -12.5 14.5 -33.5q0 -24 -14.5 -37q-14.5 -13 -31.5 -13q-20 0 -34.5 13q-14.5 13 -14.5 37zt0 0zM265 610q0 21 15 33.5q15 12.5 35 12.5q17 0 31.5 -12.5q14.5 -12.5 14.5 -33.5q0 -24 -14.5 -37q-14.5 -13 -31.5 -13q-20 0 -35 13t-15 37z" />
<glyph unicode="&#240;" horiz-adv-x="542" d="M264 583l99 40q-39 43 -87 72l90 15q40 -25 71 -57l108 45l10 -71l-74 -30q18 -27 31 -60q13 -33 22 -68q9 -35 13.5 -71q4.5 -36 4.5 -70q0 -78 -21.5 -141q-21.5 -63 -59.5 -106.5q-38 -43.5 -90 -67q-52 -23.5 -112 -23.5q-46 0 -82 14.5q-36 14.5 -61 41q-25 26.5 -38.5 62.5q-13.5 36 -13.5 79q0 57 21 107q21 50 57.5 86.5q36.5 36.5 86.5 58q50 21.5 109 21.5q42 0 72.5 -21.5q30.5 -21.5 44.5 -57.5q-3 52 -18 98.5q-15 46.5 -41 86.5l-131 -54zM156 198q0 -59 34 -96q34 -37 91 -37q69 0 119.5 53q50.5 53 63.5 147q-1 23 -9.5 44.5q-8.5 21.5 -25 38.5q-16.5 17 -40 27q-23.5 10 -54.5 10q-36 0 -68 -14q-32 -14 -57 -39q-25 -25 -39.5 -59.5t-14.5 -74.5z" />
<glyph unicode="&#241;" horiz-adv-x="513" d="M222 450l-28 -156q17 27 42 56.5q25 29.5 55 54q30 24.5 64 40q34 15.5 70 15.5q25 0 43 -8q18 -8 29 -22q11 -14 16.5 -32q5.5 -18 5.5 -37q0 -22 -3 -45.5q-3 -23.5 -10 -55.5l-52 -260h-79l50 245q1 9 3.5 20.5q2.5 11.5 4 24q1.5 12.5 2.5 24.5q1 12 1 21q-1 21 -8 35.5q-7 14.5 -31 14.5q-29 0 -64.5 -24q-35.5 -24 -68.5 -58.5q-33 -34.5 -58.5 -73.5q-25.5 -39 -34.5 -70l-28 -159h-80l79 450zM208 594q29 32 57 46q28 14 53 14q18 0 32 -7q14 -7 27 -15q13 -8 26 -15q13 -7 28 -7q20 0 34.5 8.5q14.5 8.5 36.5 26.5l28 -41q-56 -59 -106 -59q-17 0 -30.5 7q-13.5 7 -26.5 15q-13 8 -26.5 15q-13.5 7 -30.5 7q-15 0 -32.5 -9q-17.5 -9 -36.5 -23z" />
<glyph unicode="&#242;" horiz-adv-x="504" d="M257 -10q-42 0 -77 13q-35 13 -60 37.5q-25 24.5 -39 59q-14 34.5 -14 77.5q0 55 18.5 106q18.5 51 54 90.5q35.5 39.5 86 63q50.5 23.5 114.5 23.5q82 0 131.5 -47q49.5 -47 49.5 -135q0 -63 -19 -115.5q-19 -52.5 -53.5 -91q-34.5 -38.5 -83 -60q-48.5 -21.5 -108.5 -21.5zt0 0zM271 65q38 0 69 15q31 15 52 41.5q21 26.5 32 63q11 36.5 11 79.5q0 60 -28 90.5q-28 30.5 -80 30.5q-36 0 -68 -13.5q-32 -13.5 -55.5 -38.5q-23.5 -25 -37 -61.5q-13.5 -36.5 -13.5 -82.5q0 -62 33.5 -93q33.5 -31 84.5 -31zt0 0zM256 673l63 48l107 -156l-49 -34z" />
<glyph unicode="&#243;" horiz-adv-x="504" d="M257 -10q-42 0 -77 13q-35 13 -60 37.5q-25 24.5 -39 59q-14 34.5 -14 77.5q0 55 18.5 106q18.5 51 54 90.5q35.5 39.5 86 63q50.5 23.5 114.5 23.5q82 0 131.5 -47q49.5 -47 49.5 -135q0 -63 -19 -115.5q-19 -52.5 -53.5 -91q-34.5 -38.5 -83 -60q-48.5 -21.5 -108.5 -21.5zt0 0zM271 65q38 0 69 15q31 15 52 41.5q21 26.5 32 63q11 36.5 11 79.5q0 60 -28 90.5q-28 30.5 -80 30.5q-36 0 -68 -13.5q-32 -13.5 -55.5 -38.5q-23.5 -25 -37 -61.5q-13.5 -36.5 -13.5 -82.5q0 -62 33.5 -93q33.5 -31 84.5 -31zt0 0zM361 531l-48 34l106 157l62 -48z" />
<glyph unicode="&#244;" horiz-adv-x="504" d="M257 -10q-42 0 -77 13q-35 13 -60 37.5q-25 24.5 -39 59q-14 34.5 -14 77.5q0 55 18.5 106q18.5 51 54 90.5q35.5 39.5 86 63q50.5 23.5 114.5 23.5q82 0 131.5 -47q49.5 -47 49.5 -135q0 -63 -19 -115.5q-19 -52.5 -53.5 -91q-34.5 -38.5 -83 -60q-48.5 -21.5 -108.5 -21.5zt0 0zM271 65q38 0 69 15q31 15 52 41.5q21 26.5 32 63q11 36.5 11 79.5q0 60 -28 90.5q-28 30.5 -80 30.5q-36 0 -68 -13.5q-32 -13.5 -55.5 -38.5q-23.5 -25 -37 -61.5q-13.5 -36.5 -13.5 -82.5q0 -62 33.5 -93q33.5 -31 84.5 -31zt0 0zM503 574l-46 -48l-88 91l-120 -90l-30 47l164 133l4 0z" />
<glyph unicode="&#245;" horiz-adv-x="504" d="M257 -10q-42 0 -77 13q-35 13 -60 37.5q-25 24.5 -39 59q-14 34.5 -14 77.5q0 55 18.5 106q18.5 51 54 90.5q35.5 39.5 86 63q50.5 23.5 114.5 23.5q82 0 131.5 -47q49.5 -47 49.5 -135q0 -63 -19 -115.5q-19 -52.5 -53.5 -91q-34.5 -38.5 -83 -60q-48.5 -21.5 -108.5 -21.5zt0 0zM271 65q38 0 69 15q31 15 52 41.5q21 26.5 32 63q11 36.5 11 79.5q0 60 -28 90.5q-28 30.5 -80 30.5q-36 0 -68 -13.5q-32 -13.5 -55.5 -38.5q-23.5 -25 -37 -61.5q-13.5 -36.5 -13.5 -82.5q0 -62 33.5 -93q33.5 -31 84.5 -31zt0 0zM203 594q29 32 57 46q28 14 53 14q18 0 32 -7q14 -7 27 -15q13 -8 26 -15q13 -7 28 -7q20 0 34.5 8.5q14.5 8.5 36.5 26.5l28 -41q-56 -59 -106 -59q-17 0 -30.5 7q-13.5 7 -26.5 15q-13 8 -26.5 15q-13.5 7 -30.5 7q-15 0 -32.5 -9q-17.5 -9 -36.5 -23z" />
<glyph unicode="&#246;" horiz-adv-x="504" d="M257 -10q-42 0 -77 13q-35 13 -60 37.5q-25 24.5 -39 59q-14 34.5 -14 77.5q0 55 18.5 106q18.5 51 54 90.5q35.5 39.5 86 63q50.5 23.5 114.5 23.5q82 0 131.5 -47q49.5 -47 49.5 -135q0 -63 -19 -115.5q-19 -52.5 -53.5 -91q-34.5 -38.5 -83 -60q-48.5 -21.5 -108.5 -21.5zt0 0zM271 65q38 0 69 15q31 15 52 41.5q21 26.5 32 63q11 36.5 11 79.5q0 60 -28 90.5q-28 30.5 -80 30.5q-36 0 -68 -13.5q-32 -13.5 -55.5 -38.5q-23.5 -25 -37 -61.5q-13.5 -36.5 -13.5 -82.5q0 -62 33.5 -93q33.5 -31 84.5 -31zt0 0zM224 610q0 21 14.5 33.5q14.5 12.5 34.5 12.5q17 0 31.5 -12.5q14.5 -12.5 14.5 -33.5q0 -24 -14.5 -37q-14.5 -13 -31.5 -13q-20 0 -34.5 13q-14.5 13 -14.5 37zt0 0zM429 610q0 21 15 33.5q15 12.5 35 12.5q17 0 31.5 -12.5q14.5 -12.5 14.5 -33.5q0 -24 -14.5 -37q-14.5 -13 -31.5 -13q-20 0 -35 13t-15 37z" />
<glyph unicode="&#247;" horiz-adv-x="592" d="M246 564q0 17 13 32.5q13 15.5 37 15.5q23 0 36 -15.5q13 -15.5 13 -32.5q0 -20 -13 -35.5q-13 -15.5 -36 -15.5q-24 0 -37 15.5q-13 15.5 -13 35.5zt0 0zM246 157q0 17 13 32q13 15 37 15q22 0 35.5 -15q13.5 -15 13.5 -32q0 -20 -13 -35.5q-13 -15.5 -36 -15.5q-24 0 -37 15.5q-13 15.5 -13 35.5zt0 0zM69 395h454v-70l-454 0z" />
<glyph unicode="&#248;" horiz-adv-x="542" d="M74 186q0 57 21 107q21 50 58 87q37 37 87 58.5q50 21.5 108 21.5q45 0 79.5 -13q34.5 -13 59.5 -36l52 44l34 -49l-51 -43q11 -20 16 -46.5q5 -26.5 5 -54.5q0 -57 -21 -106.5q-21 -49.5 -57.5 -86q-36.5 -36.5 -87 -58q-50.5 -21.5 -108.5 -21.5q-42 0 -75 11.5q-33 11.5 -58 31.5l-55 -47l-35 51l51 44q-11 21 -17 48.5q-6 27.5 -6 56.5zt0 0zM156 196q0 -15 2.5 -30.5q2.5 -15.5 7.5 -26.5l255 216q-35 30 -85 30q-36 0 -68.5 -14q-32.5 -14 -57 -39q-24.5 -25 -39.5 -60q-15 -35 -15 -76zt0 0zM460 251q0 14 -1.5 28q-1.5 14 -4.5 25l-251 -214q31 -25 78 -25q37 0 69.5 14q32.5 14 57 38.5q24.5 24.5 38.5 58.5t14 75z" />
<glyph unicode="&#249;" horiz-adv-x="494" d="M189 65q29 0 64.5 24.5q35.5 24.5 67.5 60.5q32 36 56 76q24 40 31 70l27 154h81l-81 -450h-80l28 157q-17 -28 -40.5 -57.5q-23.5 -29.5 -51.5 -54q-28 -24.5 -61.5 -40q-33.5 -15.5 -69.5 -15.5q-25 0 -43 8q-18 8 -29 22q-11 14 -16 31.5q-5 17.5 -5 37.5q0 22 2.5 45.5q2.5 23.5 9.5 55.5l57 260h81l-57 -245q-2 -8 -4 -20q-2 -12 -3.5 -24.5q-1.5 -12.5 -2.5 -24.5q-1 -12 -1 -21q0 -21 8 -35.5q8 -14.5 32 -14.5zt0 0zM232 673l63 48l107 -156l-49 -34z" />
<glyph unicode="&#250;" horiz-adv-x="494" d="M189 65q29 0 64.5 24.5q35.5 24.5 67.5 60.5q32 36 56 76q24 40 31 70l27 154h81l-81 -450h-80l28 157q-17 -28 -40.5 -57.5q-23.5 -29.5 -51.5 -54q-28 -24.5 -61.5 -40q-33.5 -15.5 -69.5 -15.5q-25 0 -43 8q-18 8 -29 22q-11 14 -16 31.5q-5 17.5 -5 37.5q0 22 2.5 45.5q2.5 23.5 9.5 55.5l57 260h81l-57 -245q-2 -8 -4 -20q-2 -12 -3.5 -24.5q-1.5 -12.5 -2.5 -24.5q-1 -12 -1 -21q0 -21 8 -35.5q8 -14.5 32 -14.5zt0 0zM342 531l-48 34l106 157l62 -48z" />
<glyph unicode="&#251;" horiz-adv-x="494" d="M189 65q29 0 64.5 24.5q35.5 24.5 67.5 60.5q32 36 56 76q24 40 31 70l27 154h81l-81 -450h-80l28 157q-17 -28 -40.5 -57.5q-23.5 -29.5 -51.5 -54q-28 -24.5 -61.5 -40q-33.5 -15.5 -69.5 -15.5q-25 0 -43 8q-18 8 -29 22q-11 14 -16 31.5q-5 17.5 -5 37.5q0 22 2.5 45.5q2.5 23.5 9.5 55.5l57 260h81l-57 -245q-2 -8 -4 -20q-2 -12 -3.5 -24.5q-1.5 -12.5 -2.5 -24.5q-1 -12 -1 -21q0 -21 8 -35.5q8 -14.5 32 -14.5zt0 0zM478 574l-46 -48l-88 91l-120 -90l-30 47l164 133l4 0z" />
<glyph unicode="&#252;" horiz-adv-x="494" d="M189 65q29 0 64.5 24.5q35.5 24.5 67.5 60.5q32 36 56 76q24 40 31 70l27 154h81l-81 -450h-80l28 157q-17 -28 -40.5 -57.5q-23.5 -29.5 -51.5 -54q-28 -24.5 -61.5 -40q-33.5 -15.5 -69.5 -15.5q-25 0 -43 8q-18 8 -29 22q-11 14 -16 31.5q-5 17.5 -5 37.5q0 22 2.5 45.5q2.5 23.5 9.5 55.5l57 260h81l-57 -245q-2 -8 -4 -20q-2 -12 -3.5 -24.5q-1.5 -12.5 -2.5 -24.5q-1 -12 -1 -21q0 -21 8 -35.5q8 -14.5 32 -14.5zt0 0zM197 610q0 21 14.5 33.5q14.5 12.5 34.5 12.5q17 0 31.5 -12.5q14.5 -12.5 14.5 -33.5q0 -24 -14.5 -37q-14.5 -13 -31.5 -13q-20 0 -34.5 13q-14.5 13 -14.5 37zt0 0zM402 610q0 21 15 33.5q15 12.5 35 12.5q17 0 31.5 -12.5q14.5 -12.5 14.5 -33.5q0 -24 -14.5 -37q-14.5 -13 -31.5 -13q-20 0 -35 13t-15 37z" />
<glyph unicode="&#253;" horiz-adv-x="419" d="M76 -126q17 0 34.5 10.5q17.5 10.5 34 28q16.5 17.5 32 39q15.5 21.5 27.5 44.5q-4 35 -18 89q-14 54 -35.5 116q-21.5 62 -46.5 127q-25 65 -51 122l88 0q12 -26 30.5 -73q18.5 -47 36 -99.5q17.5 -52.5 33 -103q15.5 -50.5 23.5 -84.5q15 30 34 75q19 45 36.5 95q17.5 50 31.5 99.5q14 49.5 20 90.5l89 0q-46 -147 -94.5 -267q-48.5 -120 -99 -205q-50.5 -85 -102 -131.5q-51.5 -46.5 -102.5 -46.5q-30 0 -50 8q-20 8 -35 20l37 61q11 -5 21.5 -10q10.5 -5 25.5 -5zt0 0zM286 531l-48 34l106 157l62 -48z" />
<glyph unicode="&#254;" horiz-adv-x="533" d="M188 700h77l-51 -298q29 25 70 41.5q41 16.5 87 16.5q39 0 70 -13.5q31 -13.5 52.5 -38q21.5 -24.5 32.5 -58.5q11 -34 11 -75q0 -59 -20.5 -111q-20.5 -52 -57 -90.5q-36.5 -38.5 -86 -61q-49.5 -22.5 -106.5 -22.5q-35 0 -66 7.5q-31 7.5 -51 23.5l-38 -221h-76zM336 385q-38 0 -74.5 -18q-36.5 -18 -60.5 -44l-38 -223q26 -20 52 -27.5q26 -7.5 58 -7.5q39 0 72 15q33 15 57 41q24 26 37.5 61.5q13.5 35.5 13.5 76.5q0 56 -29.5 91t-87.5 35z" />
<glyph unicode="&#255;" horiz-adv-x="419" d="M76 -126q17 0 34.5 10.5q17.5 10.5 34 28q16.5 17.5 32 39q15.5 21.5 27.5 44.5q-4 35 -18 89q-14 54 -35.5 116q-21.5 62 -46.5 127q-25 65 -51 122l88 0q12 -26 30.5 -73q18.5 -47 36 -99.5q17.5 -52.5 33 -103q15.5 -50.5 23.5 -84.5q15 30 34 75q19 45 36.5 95q17.5 50 31.5 99.5q14 49.5 20 90.5l89 0q-46 -147 -94.5 -267q-48.5 -120 -99 -205q-50.5 -85 -102 -131.5q-51.5 -46.5 -102.5 -46.5q-30 0 -50 8q-20 8 -35 20l37 61q11 -5 21.5 -10q10.5 -5 25.5 -5zt0 0zM130 610q0 21 14.5 33.5q14.5 12.5 34.5 12.5q17 0 31.5 -12.5q14.5 -12.5 14.5 -33.5q0 -24 -14.5 -37q-14.5 -13 -31.5 -13q-20 0 -34.5 13q-14.5 13 -14.5 37zt0 0zM335 610q0 21 15 33.5q15 12.5 35 12.5q17 0 31.5 -12.5q14.5 -12.5 14.5 -33.5q0 -24 -14.5 -37q-14.5 -13 -31.5 -13q-20 0 -35 13t-15 37z" />
<glyph unicode="&#256;" horiz-adv-x="705" d="M440 704h73l177 -704h-86l-53 212h-319l-126 -212h-91zM280 292h252l-73 299zM341 835h304v-65l-304 0z" />
<glyph unicode="&#257;" horiz-adv-x="508" d="M225 65q26 0 58 24.5q32 24.5 61.5 60.5q29.5 36 52 76q22.5 40 30.5 70l17 80q-19 6 -33 7.5q-14 1.5 -31 1.5q-51 0 -93 -17.5q-42 -17.5 -72 -48q-30 -30.5 -46 -71.5q-16 -41 -16 -88q0 -43 18 -69q18 -26 54 -26zt0 0zM374 0l29 158q-18 -28 -40 -57.5q-22 -29.5 -49.5 -54q-27.5 -24.5 -59 -40.5q-31.5 -16 -68.5 -16q-61 0 -90 44.5q-29 44.5 -29 113.5q0 66 24 123q24 57 66 99q42 42 98 66q56 24 121 24q54 0 92.5 -10q38.5 -10 60.5 -21l-73 -429zM237 645h264v-65l-264 0z" />
<glyph unicode="&#258;" horiz-adv-x="705" d="M440 704h73l177 -704h-86l-53 212h-319l-126 -212h-91zM280 292h252l-73 299zM368 880q7 -10 18 -21.5q11 -11.5 26.5 -21q15.5 -9.5 37 -16q21.5 -6.5 50.5 -6.5q50 0 88.5 20.5q38.5 20.5 62.5 44.5l24 -42q-15 -18 -35 -35q-20 -17 -44 -29.5q-24 -12.5 -51.5 -20.5q-27.5 -8 -56.5 -8q-33 0 -60.5 9q-27.5 9 -48 23q-20.5 14 -34 30q-13.5 16 -20.5 31z" />
<glyph unicode="&#259;" horiz-adv-x="508" d="M225 65q26 0 58 24.5q32 24.5 61.5 60.5q29.5 36 52 76q22.5 40 30.5 70l17 80q-19 6 -33 7.5q-14 1.5 -31 1.5q-51 0 -93 -17.5q-42 -17.5 -72 -48q-30 -30.5 -46 -71.5q-16 -41 -16 -88q0 -43 18 -69q18 -26 54 -26zt0 0zM374 0l29 158q-18 -28 -40 -57.5q-22 -29.5 -49.5 -54q-27.5 -24.5 -59 -40.5q-31.5 -16 -68.5 -16q-61 0 -90 44.5q-29 44.5 -29 113.5q0 66 24 123q24 57 66 99q42 42 98 66q56 24 121 24q54 0 92.5 -10q38.5 -10 60.5 -21l-73 -429zM265 681q6 -9 14.5 -19.5q8.5 -10.5 20.5 -20q12 -9.5 28.5 -15.5q16.5 -6 39.5 -6q39 0 71.5 19q32.5 19 54.5 41l22 -39q-13 -15 -29 -30q-16 -15 -36 -27.5q-20 -12.5 -44 -20.5q-24 -8 -53 -8q-31 0 -54 9.5q-23 9.5 -39 22.5q-16 13 -25.5 27.5q-9.5 14.5 -14.5 25.5z" />
<glyph unicode="&#260;" horiz-adv-x="705" d="M654 -175q-14 -11 -39 -18q-25 -7 -51 -7q-20 0 -39.5 4q-19.5 4 -34.5 13q-15 9 -24.5 24q-9.5 15 -9.5 37q0 25 11.5 46q11.5 21 31 37q19.5 16 45 27q25.5 11 53.5 18l-51 206h-319l-126 -212h-86l425 704h73l177 -704h-19q-24 0 -47.5 -7.5q-23.5 -7.5 -41.5 -20q-18 -12.5 -29 -29q-11 -16.5 -11 -34.5q0 -13 5 -21.5q5 -8.5 12.5 -13.5q7.5 -5 16.5 -7q9 -2 17 -2q11 0 21.5 1.5q10.5 1.5 24.5 7.5zM275 292h252l-73 299z" />
<glyph unicode="&#261;" horiz-adv-x="460" d="M376 -175q-15 -11 -40 -18q-25 -7 -51 -7q-20 0 -39 4q-19 4 -34 13q-15 9 -24.5 24q-9.5 15 -9.5 37q0 26 12 47q12 21 32 37q20 16 46 27q26 11 55 18l9 51q-25 -26 -62.5 -45.5q-37.5 -19.5 -93.5 -19.5q-54 0 -85 30q-31 30 -31 83q0 40 15.5 71.5q15.5 31.5 42.5 53.5q27 22 63 33q36 11 77 11q26 0 56.5 -6q30.5 -6 50.5 -23q6 31 7 57.5q1 26.5 -6.5 45q-7.5 18.5 -26 29q-18.5 10.5 -51.5 10.5q-42 0 -71 -9.5q-29 -9.5 -59 -23.5l-10 64q34 19 75 30q41 11 83 11q48 0 79 -12.5q31 -12.5 47 -36q16 -23.5 19 -57.5q3 -34 -5 -78l-49 -276q-25 0 -49 -7q-24 -7 -43 -19.5q-19 -12.5 -30.5 -29q-11.5 -16.5 -11.5 -35.5q0 -13 5 -21.5q5 -8.5 13 -13.5q8 -5 17 -7q9 -2 17 -2q11 0 21 1.5q10 1.5 24 7.5zM217 65q45 0 75.5 19q30.5 19 50.5 39l10 57q-36 30 -95 30q-20 0 -40 -5q-20 -5 -35.5 -15.5q-15.5 -10.5 -25.5 -27q-10 -16.5 -10 -38.5q0 -27 17.5 -43t52.5 -16z" />
<glyph unicode="&#262;" horiz-adv-x="656" d="M665 59q-21 -18 -48.5 -31q-27.5 -13 -57.5 -21.5q-30 -8.5 -61 -12.5q-31 -4 -58 -4q-79 0 -141 25.5q-62 25.5 -105 69.5q-43 44 -66 103.5q-23 59.5 -23 128.5q0 85 31.5 157q31.5 72 86.5 124.5q55 52.5 130 82q75 29.5 162 29.5q75 0 129 -17.5q54 -17.5 83 -43.5l-44 -61q-32 20 -73 31q-41 11 -89 11q-69 0 -128 -22.5q-59 -22.5 -102.5 -63q-43.5 -40.5 -68.5 -96q-25 -55.5 -25 -121.5q0 -54 17.5 -100.5q17.5 -46.5 51 -81.5q33.5 -35 81 -55q47.5 -20 107.5 -20q47 0 92 12q45 12 87 41zM477 735l-23 48l195 104l30 -68z" />
<glyph unicode="&#263;" horiz-adv-x="435" d="M433 73q-33 -34 -82.5 -58.5q-49.5 -24.5 -105.5 -24.5q-49 0 -83 15.5q-34 15.5 -55.5 40q-21.5 24.5 -30.5 55.5q-9 31 -9 62q0 57 18.5 111q18.5 54 54 95q35.5 41 87 66q51.5 25 118.5 25q37 0 69 -6q32 -6 52 -19l-28 -67q-17 6 -46 11.5q-29 5.5 -56 5.5q-42 0 -76 -17q-34 -17 -57.5 -45q-23.5 -28 -36 -65q-12.5 -37 -12.5 -77q0 -51 26.5 -83.5q26.5 -32.5 79.5 -32.5q20 0 39 5.5q19 5.5 36 14q17 8.5 32.5 18q15.5 9.5 28.5 18.5zM361 531l-48 34l106 157l62 -48z" />
<glyph unicode="&#264;" horiz-adv-x="656" d="M665 59q-21 -18 -48.5 -31q-27.5 -13 -57.5 -21.5q-30 -8.5 -61 -12.5q-31 -4 -58 -4q-79 0 -141 25.5q-62 25.5 -105 69.5q-43 44 -66 103.5q-23 59.5 -23 128.5q0 85 31.5 157q31.5 72 86.5 124.5q55 52.5 130 82q75 29.5 162 29.5q75 0 129 -17.5q54 -17.5 83 -43.5l-44 -61q-32 20 -73 31q-41 11 -89 11q-69 0 -128 -22.5q-59 -22.5 -102.5 -63q-43.5 -40.5 -68.5 -96q-25 -55.5 -25 -121.5q0 -54 17.5 -100.5q17.5 -46.5 51 -81.5q33.5 -35 81 -55q47.5 -20 107.5 -20q47 0 92 12q45 12 87 41zM542 882h4l156 -103l-41 -46l-130 76l-157 -76l-21 45z" />
<glyph unicode="&#265;" horiz-adv-x="435" d="M433 73q-33 -34 -82.5 -58.5q-49.5 -24.5 -105.5 -24.5q-49 0 -83 15.5q-34 15.5 -55.5 40q-21.5 24.5 -30.5 55.5q-9 31 -9 62q0 57 18.5 111q18.5 54 54 95q35.5 41 87 66q51.5 25 118.5 25q37 0 69 -6q32 -6 52 -19l-28 -67q-17 6 -46 11.5q-29 5.5 -56 5.5q-42 0 -76 -17q-34 -17 -57.5 -45q-23.5 -28 -36 -65q-12.5 -37 -12.5 -77q0 -51 26.5 -83.5q26.5 -32.5 79.5 -32.5q20 0 39 5.5q19 5.5 36 14q17 8.5 32.5 18q15.5 9.5 28.5 18.5zM509 574l-46 -48l-88 91l-120 -90l-30 47l164 133l4 0z" />
<glyph unicode="&#266;" horiz-adv-x="656" d="M665 59q-21 -18 -48.5 -31q-27.5 -13 -57.5 -21.5q-30 -8.5 -61 -12.5q-31 -4 -58 -4q-79 0 -141 25.5q-62 25.5 -105 69.5q-43 44 -66 103.5q-23 59.5 -23 128.5q0 85 31.5 157q31.5 72 86.5 124.5q55 52.5 130 82q75 29.5 162 29.5q75 0 129 -17.5q54 -17.5 83 -43.5l-44 -61q-32 20 -73 31q-41 11 -89 11q-69 0 -128 -22.5q-59 -22.5 -102.5 -63q-43.5 -40.5 -68.5 -96q-25 -55.5 -25 -121.5q0 -54 17.5 -100.5q17.5 -46.5 51 -81.5q33.5 -35 81 -55q47.5 -20 107.5 -20q47 0 92 12q45 12 87 41zM469 817q0 24 17 37.5q17 13.5 40 13.5q21 0 37.5 -13.5q16.5 -13.5 16.5 -37.5q0 -26 -16.5 -40q-16.5 -14 -37.5 -14q-23 0 -40 14t-17 40z" />
<glyph unicode="&#267;" horiz-adv-x="435" d="M433 73q-33 -34 -82.5 -58.5q-49.5 -24.5 -105.5 -24.5q-49 0 -83 15.5q-34 15.5 -55.5 40q-21.5 24.5 -30.5 55.5q-9 31 -9 62q0 57 18.5 111q18.5 54 54 95q35.5 41 87 66q51.5 25 118.5 25q37 0 69 -6q32 -6 52 -19l-28 -67q-17 6 -46 11.5q-29 5.5 -56 5.5q-42 0 -76 -17q-34 -17 -57.5 -45q-23.5 -28 -36 -65q-12.5 -37 -12.5 -77q0 -51 26.5 -83.5q26.5 -32.5 79.5 -32.5q20 0 39 5.5q19 5.5 36 14q17 8.5 32.5 18q15.5 9.5 28.5 18.5zM325 619q0 22 15.5 35q15.5 13 36.5 13q19 0 34 -13q15 -13 15 -35q0 -25 -15 -38.5q-15 -13.5 -34 -13.5q-21 0 -36.5 13.5t-15.5 38.5z" />
<glyph unicode="&#268;" horiz-adv-x="656" d="M665 59q-21 -18 -48.5 -31q-27.5 -13 -57.5 -21.5q-30 -8.5 -61 -12.5q-31 -4 -58 -4q-79 0 -141 25.5q-62 25.5 -105 69.5q-43 44 -66 103.5q-23 59.5 -23 128.5q0 85 31.5 157q31.5 72 86.5 124.5q55 52.5 130 82q75 29.5 162 29.5q75 0 129 -17.5q54 -17.5 83 -43.5l-44 -61q-32 20 -73 31q-41 11 -89 11q-69 0 -128 -22.5q-59 -22.5 -102.5 -63q-43.5 -40.5 -68.5 -96q-25 -55.5 -25 -121.5q0 -54 17.5 -100.5q17.5 -46.5 51 -81.5q33.5 -35 81 -55q47.5 -20 107.5 -20q47 0 92 12q45 12 87 41zM363 841l41 46l130 -81l157 81l22 -45l-189 -104l-4 0z" />
<glyph unicode="&#269;" horiz-adv-x="435" d="M433 73q-33 -34 -82.5 -58.5q-49.5 -24.5 -105.5 -24.5q-49 0 -83 15.5q-34 15.5 -55.5 40q-21.5 24.5 -30.5 55.5q-9 31 -9 62q0 57 18.5 111q18.5 54 54 95q35.5 41 87 66q51.5 25 118.5 25q37 0 69 -6q32 -6 52 -19l-28 -67q-17 6 -46 11.5q-29 5.5 -56 5.5q-42 0 -76 -17q-34 -17 -57.5 -45q-23.5 -28 -36 -65q-12.5 -37 -12.5 -77q0 -51 26.5 -83.5q26.5 -32.5 79.5 -32.5q20 0 39 5.5q19 5.5 36 14q17 8.5 32.5 18q15.5 9.5 28.5 18.5zM240 662l47 48l86 -103l122 102l29 -47l-163 -133l-4 0z" />
<glyph unicode="&#270;" horiz-adv-x="739" d="M228 700h12q17 0 39.5 0.5q22.5 0.5 46.5 1q24 0.5 48.5 1q24.5 0.5 45.5 0.5q91 0 155.5 -23q64.5 -23 105 -63q40.5 -40 59.5 -94q19 -54 19 -115q0 -86 -31 -160.5q-31 -74.5 -91 -130q-60 -55.5 -147.5 -87.5q-87.5 -32 -201.5 -32q-35 0 -81 1q-46 1 -91 1h-11zM404 623q-32 0 -55.5 -1q-23.5 -1 -49.5 -2l-95 -540q35 -1 63.5 -1.5q28.5 -0.5 37.5 -0.5q85 0 152.5 22.5q67.5 22.5 114 65q46.5 42.5 71 103.5q24.5 61 24.5 137q0 105 -64.5 161q-64.5 56 -198.5 56zt0 0zM308 841l41 46l130 -81l157 81l22 -45l-189 -104l-4 0z" />
<glyph unicode="&#271;" horiz-adv-x="554" d="M773 700q1 -5 1.5 -11.5q0.5 -6.5 0.5 -12.5q0 -31 -10.5 -57q-10.5 -26 -27 -47.5q-16.5 -21.5 -36.5 -37q-20 -15.5 -40 -25.5l-30 35q29 22 48.5 55.5q19.5 33.5 19.5 70.5q0 8 -1 16q-1 8 -3 14zM375 460q25 0 48 -3.5q23 -3.5 43 -8.5l44 252h80l-51 -291l-72 -409h-80l27 155q-17 -27 -40.5 -56.5q-23.5 -29.5 -52 -53.5q-28.5 -24 -61.5 -39.5q-33 -15.5 -67 -15.5q-59 0 -89 44.5q-30 44.5 -30 113.5q0 66 24 123q24 57 65 99q41 42 95.5 66q54.5 24 116.5 24zt0 0zM372 385q-47 0 -86.5 -17.5q-39.5 -17.5 -68 -48q-28.5 -30.5 -45 -71.5q-16.5 -41 -16.5 -88q0 -43 19.5 -69q19.5 -26 54.5 -26q16 0 36.5 11.5q20.5 11.5 42 30q21.5 18.5 42.5 42.5q21 24 39 49.5q18 25.5 31 50.5q13 25 18 45l12 73q-13 8 -36 13t-43 5z" />
<glyph unicode="&#272;" horiz-adv-x="754" d="M79 391h110l55 309h12q17 0 39 0.5q22 0.5 46 1q24 0.5 48.5 1q24.5 0.5 45.5 0.5q91 0 155.5 -23q64.5 -23 105 -62q40.5 -39 59.5 -91q19 -52 19 -110q0 -83 -31 -159q-31 -76 -91 -133.5q-60 -57.5 -147.5 -92q-87.5 -34.5 -201.5 -34.5q-35 0 -81 1q-46 1 -91 1h-11l56 316h-110zM419 623q-32 0 -55 -1q-23 -1 -49 -2l-41 -229h188l-13 -75h-188l-42 -236q35 -1 63.5 -1.5q28.5 -0.5 37.5 -0.5q85 0 152.5 25.5q67.5 25.5 114.5 69.5q47 44 71.5 103q24.5 59 24.5 127q0 48 -16 88.5q-16 40.5 -49 69.5q-33 29 -82.5 45.5t-116.5 16.5z" />
<glyph unicode="&#273;" horiz-adv-x="531" d="M336 599h151l17 101h77l-17 -101h88l-11 -65h-88l-90 -534h-77l10 57q-29 -27 -67 -46q-38 -19 -82 -19q-83 0 -128.5 50.5q-45.5 50.5 -45.5 135.5q0 62 22.5 113.5q22.5 51.5 61 89q38.5 37.5 89.5 58.5q51 21 108 21q35 0 59.5 -7.5q24.5 -7.5 44.5 -24.5l18 106h-151zM275 67q37 0 72.5 18.5q35.5 18.5 59.5 41.5l37 223q-45 35 -99 35q-36 0 -70 -13.5q-34 -13.5 -60.5 -38q-26.5 -24.5 -42.5 -60q-16 -35.5 -16 -79.5q0 -60 32.5 -93.5t86.5 -33.5z" />
<glyph unicode="&#274;" horiz-adv-x="575" d="M228 700h395l-14 -80h-310l-40 -226h280l-14 -80h-280l-41 -234h320l-14 -80h-405zM291 835h304v-65l-304 0z" />
<glyph unicode="&#275;" horiz-adv-x="465" d="M451 73q-34 -34 -87.5 -58.5q-53.5 -24.5 -109.5 -24.5q-49 0 -84 15.5q-35 15.5 -58 40q-23 24.5 -34 55.5q-11 31 -11 62q0 57 19 111q19 54 55.5 95q36.5 41 89.5 66q53 25 121 25q41 0 68 -9q27 -9 43.5 -24.5q16.5 -15.5 23.5 -35.5q7 -20 7 -42q0 -36 -19.5 -65.5q-19.5 -29.5 -60 -51.5q-40.5 -22 -104.5 -35.5q-64 -13.5 -156 -17.5q0 -58 32 -86q32 -28 84 -28q20 0 40 5.5q20 5.5 39 14q19 8.5 35 18q16 9.5 29 18.5zM342 385q-35 0 -64 -11.5q-29 -11.5 -52.5 -32q-23.5 -20.5 -40 -47.5q-16.5 -27 -25.5 -58q70 5 117.5 14.5q47.5 9.5 75.5 22.5q28 13 40 29.5q12 16.5 12 34.5q1 24 -16 36q-17 12 -47 12zt0 0zM236 645h264v-65l-264 0z" />
<glyph unicode="&#278;" horiz-adv-x="575" d="M228 700h395l-14 -80h-310l-40 -226h280l-14 -80h-280l-41 -234h320l-14 -80h-405zM394 817q0 24 17 37.5q17 13.5 40 13.5q21 0 37.5 -13.5q16.5 -13.5 16.5 -37.5q0 -26 -16.5 -40q-16.5 -14 -37.5 -14q-23 0 -40 14t-17 40z" />
<glyph unicode="&#279;" horiz-adv-x="465" d="M451 73q-34 -34 -87.5 -58.5q-53.5 -24.5 -109.5 -24.5q-49 0 -84 15.5q-35 15.5 -58 40q-23 24.5 -34 55.5q-11 31 -11 62q0 57 19 111q19 54 55.5 95q36.5 41 89.5 66q53 25 121 25q41 0 68 -9q27 -9 43.5 -24.5q16.5 -15.5 23.5 -35.5q7 -20 7 -42q0 -36 -19.5 -65.5q-19.5 -29.5 -60 -51.5q-40.5 -22 -104.5 -35.5q-64 -13.5 -156 -17.5q0 -58 32 -86q32 -28 84 -28q20 0 40 5.5q20 5.5 39 14q19 8.5 35 18q16 9.5 29 18.5zM342 385q-35 0 -64 -11.5q-29 -11.5 -52.5 -32q-23.5 -20.5 -40 -47.5q-16.5 -27 -25.5 -58q70 5 117.5 14.5q47.5 9.5 75.5 22.5q28 13 40 29.5q12 16.5 12 34.5q1 24 -16 36q-17 12 -47 12zt0 0zM321 619q0 22 15.5 35q15.5 13 36.5 13q19 0 34 -13q15 -13 15 -35q0 -25 -15 -38.5q-15 -13.5 -34 -13.5q-21 0 -36.5 13.5t-15.5 38.5z" />
<glyph unicode="&#280;" horiz-adv-x="575" d="M228 700h395l-14 -80h-310l-40 -226h280l-14 -80h-280l-41 -234h320l-14 -80h-5q-24 0 -47.5 -7.5q-23.5 -7.5 -41.5 -20q-18 -12.5 -29 -29q-11 -16.5 -11 -34.5q0 -13 5 -21.5q5 -8.5 12.5 -13.5q7.5 -5 16.5 -7q9 -2 17 -2q11 0 21.5 1.5q10.5 1.5 24.5 7.5l15 -49q-14 -11 -39 -18q-25 -7 -51 -7q-20 0 -39.5 4q-19.5 4 -34.5 13q-15 9 -24.5 24q-9.5 15 -9.5 37q0 23 9.5 42q9.5 19 25.5 34q16 15 38 26.5q22 11.5 46 19.5l-304 0z" />
<glyph unicode="&#281;" horiz-adv-x="520" d="M461 49q-39 -30 -82 -43q-37 -22 -60.5 -45.5q-23.5 -23.5 -23.5 -51.5q0 -13 5.5 -21.5q5.5 -8.5 13.5 -13.5q8 -5 17 -7q9 -2 17 -2q11 0 21.5 1.5q10.5 1.5 24.5 7.5l15 -49q-14 -11 -39 -18q-25 -7 -51 -7q-20 0 -39.5 4q-19.5 4 -35 13q-15.5 9 -25 24q-9.5 15 -9.5 37q0 36 24.5 63.5q24.5 27.5 66.5 49.5q-5 0 -10 -0.5q-5 -0.5 -10 -0.5q-97 0 -150.5 53q-53.5 53 -53.5 141q0 55 19.5 105.5q19.5 50.5 56 88q36.5 37.5 88 60q51.5 22.5 114.5 22.5q39 0 71 -12.5q32 -12.5 55.5 -35q23.5 -22.5 36.5 -54.5q13 -32 13 -71q0 -17 -5 -41q-5 -24 -13 -46l-346 0q-6 -64 30.5 -99.5q36.5 -35.5 102.5 -35.5q44 0 82.5 13.5q38.5 13.5 64.5 33.5zM338 385q-62 0 -105 -34q-43 -34 -59 -86l273 0q7 56 -21.5 88t-87.5 32z" />
<glyph unicode="&#282;" horiz-adv-x="575" d="M228 700h395l-14 -80h-310l-40 -226h280l-14 -80h-280l-41 -234h320l-14 -80h-405zM283 841l41 46l130 -81l157 81l22 -45l-189 -104l-4 0z" />
<glyph unicode="&#283;" horiz-adv-x="465" d="M451 73q-34 -34 -87.5 -58.5q-53.5 -24.5 -109.5 -24.5q-49 0 -84 15.5q-35 15.5 -58 40q-23 24.5 -34 55.5q-11 31 -11 62q0 57 19 111q19 54 55.5 95q36.5 41 89.5 66q53 25 121 25q41 0 68 -9q27 -9 43.5 -24.5q16.5 -15.5 23.5 -35.5q7 -20 7 -42q0 -36 -19.5 -65.5q-19.5 -29.5 -60 -51.5q-40.5 -22 -104.5 -35.5q-64 -13.5 -156 -17.5q0 -58 32 -86q32 -28 84 -28q20 0 40 5.5q20 5.5 39 14q19 8.5 35 18q16 9.5 29 18.5zM342 385q-35 0 -64 -11.5q-29 -11.5 -52.5 -32q-23.5 -20.5 -40 -47.5q-16.5 -27 -25.5 -58q70 5 117.5 14.5q47.5 9.5 75.5 22.5q28 13 40 29.5q12 16.5 12 34.5q1 24 -16 36q-17 12 -47 12zt0 0zM245 662l47 48l86 -103l122 102l29 -47l-163 -133l-4 0z" />
<glyph unicode="&#284;" horiz-adv-x="727" d="M461 356h269l-48 -269q-19 -21 -47.5 -39q-28.5 -18 -62 -31q-33.5 -13 -69.5 -20q-36 -7 -70 -7q-78 0 -139 25q-61 25 -103 68.5q-42 43.5 -64.5 102.5q-22.5 59 -22.5 127q0 83 29.5 155.5q29.5 72.5 83 126q53.5 53.5 127 84.5q73.5 31 160.5 31q77 0 131.5 -19.5q54.5 -19.5 91.5 -53.5l-49 -63q-23 22 -70 39q-47 17 -111 17q-63 0 -118 -22q-55 -22 -95.5 -62.5q-40.5 -40.5 -64 -96.5q-23.5 -56 -23.5 -123q0 -58 17 -105.5q17 -47.5 48 -81q31 -33.5 75 -51.5q44 -18 97 -18q57 0 101.5 16q44.5 16 76.5 43l24 147h-189zM542 882h4l156 -103l-41 -46l-130 76l-157 -76l-21 45z" />
<glyph unicode="&#285;" horiz-adv-x="474" d="M213 101q0 -6 1 -12q1 -6 4 -10q7 1 13.5 1q6.5 0 13.5 0q45 0 82.5 -7.5q37.5 -7.5 65 -23.5q27.5 -16 42.5 -39.5q15 -23.5 15 -55.5q0 -41 -20 -71q-20 -30 -54.5 -50.5q-34.5 -20.5 -81.5 -30.5q-47 -10 -100 -10q-45 0 -83 7.5q-38 7.5 -65 23q-27 15.5 -43 38.5q-16 23 -16 55q0 35 15 61.5q15 26.5 39 45q24 18.5 54 30.5q30 12 62 18q-3 6 -4 13q-1 7 -1 14q0 30 22 51q-39 17 -59 49.5q-20 32.5 -20 72.5q0 37 15 71.5q15 34.5 42.5 60.5q27.5 26 67.5 41.5q40 15.5 90 15.5q66 0 109 -33l137 32l-9 -65l-90 -21q6 -11 8.5 -26q2.5 -15 2.5 -29q0 -40 -17 -74q-17 -34 -45.5 -58.5q-28.5 -24.5 -68 -38.5q-39.5 -14 -85.5 -14q-7 0 -14.5 0.5q-7.5 0.5 -14.5 1.5q-4 -6 -7 -13.5q-3 -7.5 -3 -20.5zt0 0zM204 -143q76 0 123 22q47 22 47 65q0 33 -37 52q-37 19 -105 19q-78 0 -123 -23.5q-45 -23.5 -45 -64.5q0 -34 38 -52q38 -18 102 -18zt0 0zM171 280q0 -36 24 -59q24 -23 71 -23q26 0 49 8q23 8 40 23q17 15 27 35.5q10 20.5 10 45.5q0 36 -24 60.5q-24 24.5 -69 24.5q-28 0 -51.5 -9q-23.5 -9 -40.5 -25q-17 -16 -26.5 -36.5q-9.5 -20.5 -9.5 -44.5zt0 0zM477 574l-46 -48l-88 91l-120 -90l-30 47l164 133l4 0z" />
<glyph unicode="&#286;" horiz-adv-x="727" d="M461 356h269l-48 -269q-19 -21 -47.5 -39q-28.5 -18 -62 -31q-33.5 -13 -69.5 -20q-36 -7 -70 -7q-78 0 -139 25q-61 25 -103 68.5q-42 43.5 -64.5 102.5q-22.5 59 -22.5 127q0 83 29.5 155.5q29.5 72.5 83 126q53.5 53.5 127 84.5q73.5 31 160.5 31q77 0 131.5 -19.5q54.5 -19.5 91.5 -53.5l-49 -63q-23 22 -70 39q-47 17 -111 17q-63 0 -118 -22q-55 -22 -95.5 -62.5q-40.5 -40.5 -64 -96.5q-23.5 -56 -23.5 -123q0 -58 17 -105.5q17 -47.5 48 -81q31 -33.5 75 -51.5q44 -18 97 -18q57 0 101.5 16q44.5 16 76.5 43l24 147h-189zM417 880q7 -10 18 -21.5q11 -11.5 26.5 -21q15.5 -9.5 37 -16q21.5 -6.5 50.5 -6.5q50 0 88.5 20.5q38.5 20.5 62.5 44.5l24 -42q-15 -18 -35 -35q-20 -17 -44 -29.5q-24 -12.5 -51.5 -20.5q-27.5 -8 -56.5 -8q-33 0 -60.5 9q-27.5 9 -48 23q-20.5 14 -34 30q-13.5 16 -20.5 31z" />
<glyph unicode="&#287;" horiz-adv-x="474" d="M213 101q0 -6 1 -12q1 -6 4 -10q7 1 13.5 1q6.5 0 13.5 0q45 0 82.5 -7.5q37.5 -7.5 65 -23.5q27.5 -16 42.5 -39.5q15 -23.5 15 -55.5q0 -41 -20 -71q-20 -30 -54.5 -50.5q-34.5 -20.5 -81.5 -30.5q-47 -10 -100 -10q-45 0 -83 7.5q-38 7.5 -65 23q-27 15.5 -43 38.5q-16 23 -16 55q0 35 15 61.5q15 26.5 39 45q24 18.5 54 30.5q30 12 62 18q-3 6 -4 13q-1 7 -1 14q0 30 22 51q-39 17 -59 49.5q-20 32.5 -20 72.5q0 37 15 71.5q15 34.5 42.5 60.5q27.5 26 67.5 41.5q40 15.5 90 15.5q66 0 109 -33l137 32l-9 -65l-90 -21q6 -11 8.5 -26q2.5 -15 2.5 -29q0 -40 -17 -74q-17 -34 -45.5 -58.5q-28.5 -24.5 -68 -38.5q-39.5 -14 -85.5 -14q-7 0 -14.5 0.5q-7.5 0.5 -14.5 1.5q-4 -6 -7 -13.5q-3 -7.5 -3 -20.5zt0 0zM204 -143q76 0 123 22q47 22 47 65q0 33 -37 52q-37 19 -105 19q-78 0 -123 -23.5q-45 -23.5 -45 -64.5q0 -34 38 -52q38 -18 102 -18zt0 0zM171 280q0 -36 24 -59q24 -23 71 -23q26 0 49 8q23 8 40 23q17 15 27 35.5q10 20.5 10 45.5q0 36 -24 60.5q-24 24.5 -69 24.5q-28 0 -51.5 -9q-23.5 -9 -40.5 -25q-17 -16 -26.5 -36.5q-9.5 -20.5 -9.5 -44.5zt0 0zM241 681q6 -9 14.5 -19.5q8.5 -10.5 20.5 -20q12 -9.5 28.5 -15.5q16.5 -6 39.5 -6q39 0 71.5 19q32.5 19 54.5 41l22 -39q-13 -15 -29 -30q-16 -15 -36 -27.5q-20 -12.5 -44 -20.5q-24 -8 -53 -8q-31 0 -54 9.5q-23 9.5 -39 22.5q-16 13 -25.5 27.5q-9.5 14.5 -14.5 25.5z" />
<glyph unicode="&#288;" horiz-adv-x="727" d="M461 356h269l-48 -269q-19 -21 -47.5 -39q-28.5 -18 -62 -31q-33.5 -13 -69.5 -20q-36 -7 -70 -7q-78 0 -139 25q-61 25 -103 68.5q-42 43.5 -64.5 102.5q-22.5 59 -22.5 127q0 83 29.5 155.5q29.5 72.5 83 126q53.5 53.5 127 84.5q73.5 31 160.5 31q77 0 131.5 -19.5q54.5 -19.5 91.5 -53.5l-49 -63q-23 22 -70 39q-47 17 -111 17q-63 0 -118 -22q-55 -22 -95.5 -62.5q-40.5 -40.5 -64 -96.5q-23.5 -56 -23.5 -123q0 -58 17 -105.5q17 -47.5 48 -81q31 -33.5 75 -51.5q44 -18 97 -18q57 0 101.5 16q44.5 16 76.5 43l24 147h-189zM469 817q0 24 17 37.5q17 13.5 40 13.5q21 0 37.5 -13.5q16.5 -13.5 16.5 -37.5q0 -26 -16.5 -40q-16.5 -14 -37.5 -14q-23 0 -40 14t-17 40z" />
<glyph unicode="&#289;" horiz-adv-x="474" d="M213 101q0 -6 1 -12q1 -6 4 -10q7 1 13.5 1q6.5 0 13.5 0q45 0 82.5 -7.5q37.5 -7.5 65 -23.5q27.5 -16 42.5 -39.5q15 -23.5 15 -55.5q0 -41 -20 -71q-20 -30 -54.5 -50.5q-34.5 -20.5 -81.5 -30.5q-47 -10 -100 -10q-45 0 -83 7.5q-38 7.5 -65 23q-27 15.5 -43 38.5q-16 23 -16 55q0 35 15 61.5q15 26.5 39 45q24 18.5 54 30.5q30 12 62 18q-3 6 -4 13q-1 7 -1 14q0 30 22 51q-39 17 -59 49.5q-20 32.5 -20 72.5q0 37 15 71.5q15 34.5 42.5 60.5q27.5 26 67.5 41.5q40 15.5 90 15.5q66 0 109 -33l137 32l-9 -65l-90 -21q6 -11 8.5 -26q2.5 -15 2.5 -29q0 -40 -17 -74q-17 -34 -45.5 -58.5q-28.5 -24.5 -68 -38.5q-39.5 -14 -85.5 -14q-7 0 -14.5 0.5q-7.5 0.5 -14.5 1.5q-4 -6 -7 -13.5q-3 -7.5 -3 -20.5zt0 0zM204 -143q76 0 123 22q47 22 47 65q0 33 -37 52q-37 19 -105 19q-78 0 -123 -23.5q-45 -23.5 -45 -64.5q0 -34 38 -52q38 -18 102 -18zt0 0zM171 280q0 -36 24 -59q24 -23 71 -23q26 0 49 8q23 8 40 23q17 15 27 35.5q10 20.5 10 45.5q0 36 -24 60.5q-24 24.5 -69 24.5q-28 0 -51.5 -9q-23.5 -9 -40.5 -25q-17 -16 -26.5 -36.5q-9.5 -20.5 -9.5 -44.5zt0 0zM270 619q0 22 15.5 35q15.5 13 36.5 13q19 0 34 -13q15 -13 15 -35q0 -25 -15 -38.5q-15 -13.5 -34 -13.5q-21 0 -36.5 13.5t-15.5 38.5z" />
<glyph unicode="&#290;" horiz-adv-x="727" d="M461 356h269l-48 -269q-19 -21 -47.5 -39q-28.5 -18 -62 -31q-33.5 -13 -69.5 -20q-36 -7 -70 -7q-78 0 -139 25q-61 25 -103 68.5q-42 43.5 -64.5 102.5q-22.5 59 -22.5 127q0 83 29.5 155.5q29.5 72.5 83 126q53.5 53.5 127 84.5q73.5 31 160.5 31q77 0 131.5 -19.5q54.5 -19.5 91.5 -53.5l-49 -63q-23 22 -70 39q-47 17 -111 17q-63 0 -118 -22q-55 -22 -95.5 -62.5q-40.5 -40.5 -64 -96.5q-23.5 -56 -23.5 -123q0 -58 17 -105.5q17 -47.5 48 -81q31 -33.5 75 -51.5q44 -18 97 -18q57 0 101.5 16q44.5 16 76.5 43l24 147h-189zM418 -46q9 -2 15 -12q6 -10 6 -26q0 -26 -11 -46q-11 -20 -28.5 -35q-17.5 -15 -39.5 -25q-22 -10 -44 -14l-17 36q33 12 45.5 30q12.5 18 12.5 41q0 24 -18 32z" />
<glyph unicode="&#291;" horiz-adv-x="474" d="M213 101q0 -6 1 -12q1 -6 4 -10q7 1 13.5 1q6.5 0 13.5 0q45 0 82.5 -7.5q37.5 -7.5 65 -23.5q27.5 -16 42.5 -39.5q15 -23.5 15 -55.5q0 -41 -20 -71q-20 -30 -54.5 -50.5q-34.5 -20.5 -81.5 -30.5q-47 -10 -100 -10q-45 0 -83 7.5q-38 7.5 -65 23q-27 15.5 -43 38.5q-16 23 -16 55q0 35 15 61.5q15 26.5 39 45q24 18.5 54 30.5q30 12 62 18q-3 6 -4 13q-1 7 -1 14q0 30 22 51q-39 17 -59 49.5q-20 32.5 -20 72.5q0 37 15 71.5q15 34.5 42.5 60.5q27.5 26 67.5 41.5q40 15.5 90 15.5q66 0 109 -33l137 32l-9 -65l-90 -21q6 -11 8.5 -26q2.5 -15 2.5 -29q0 -40 -17 -74q-17 -34 -45.5 -58.5q-28.5 -24.5 -68 -38.5q-39.5 -14 -85.5 -14q-7 0 -14.5 0.5q-7.5 0.5 -14.5 1.5q-4 -6 -7 -13.5q-3 -7.5 -3 -20.5zt0 0zM204 -143q76 0 123 22q47 22 47 65q0 33 -37 52q-37 19 -105 19q-78 0 -123 -23.5q-45 -23.5 -45 -64.5q0 -34 38 -52q38 -18 102 -18zt0 0zM171 280q0 -36 24 -59q24 -23 71 -23q26 0 49 8q23 8 40 23q17 15 27 35.5q10 20.5 10 45.5q0 36 -24 60.5q-24 24.5 -69 24.5q-28 0 -51.5 -9q-23.5 -9 -40.5 -25q-17 -16 -26.5 -36.5q-9.5 -20.5 -9.5 -44.5zt0 0zM308 543q-9 2 -15 12q-6 10 -6 26q0 26 11 46q11 20 28.5 35q17.5 15 39.5 25q22 10 44 14l17 -36q-33 -12 -45.5 -30q-12.5 -18 -12.5 -41q0 -24 18 -32z" />
<glyph unicode="&#292;" horiz-adv-x="765" d="M631 317h-385l-56 -317h-85l123 700h85l-53 -303h385l53 303h85l-123 -700h-85zM535 882h4l156 -103l-41 -46l-130 76l-157 -76l-21 45z" />
<glyph unicode="&#293;" horiz-adv-x="513" d="M397 385q-29 0 -64.5 -24q-35.5 -24 -68.5 -58.5q-33 -34.5 -58.5 -73.5q-25.5 -39 -34.5 -70l-28 -159h-80l122 700h81l-72 -406q17 27 42 56.5q25 29.5 55 54q30 24.5 64 40q34 15.5 70 15.5q25 0 43 -8q18 -8 29 -22q11 -14 16.5 -32q5.5 -18 5.5 -37q0 -22 -3 -45.5q-3 -23.5 -10 -55.5l-52 -260h-79l50 245q1 9 3.5 20.5q2.5 11.5 4 24q1.5 12.5 2.5 24.5q1 12 1 21q-1 21 -8 35.5q-7 14.5 -31 14.5zt0 0zM300 882h4l156 -103l-41 -46l-130 76l-157 -76l-21 45z" />
<glyph unicode="&#294;" horiz-adv-x="775" d="M129 589h85l19 111h85l-19 -111h385l19 111h85l-19 -111h85l-13 -75h-85l-91 -514h-85l56 317h-385l-56 -317h-85l91 514h-85zM650 397l21 117h-385l-21 -117z" />
<glyph unicode="&#295;" horiz-adv-x="551" d="M82 595h112l18 105h77l-18 -105h155l-12 -75h-156l-21 -122q29 26 69.5 43q40.5 17 82.5 17q84 0 124 -47q40 -47 22 -153l-43 -258h-78l42 247q23 136 -98 136q-36 0 -72.5 -16.5q-36.5 -16.5 -59.5 -40.5l-56 -326h-77l88 520l-112 0z" />
<glyph unicode="&#298;" horiz-adv-x="335" d="M248 700h85l-123 -700h-85zM159 835h304v-65l-304 0z" />
</font>
</defs>
</svg>
