<?xml version="1.0" encoding="UTF-8" standalone="no"?>
<!DOCTYPE svg PUBLIC "-//W3C//DTD SVG 1.1//EN" "http://www.w3.org/Graphics/SVG/1.1/DTD/svg11.dtd" >
<svg xmlns="http://www.w3.org/2000/svg">
<metadata>
Generated by SVGconv.
Copyright   : Copyright  2011 ParaType Inc., ParaType Ltd. All rights reserved.
Designer    : A.Korolkova
Foundry     : ParaType Ltd
Foundry URL : http://www.paratype.com
</metadata>
<defs>
<font id="CirceSV" horiz-adv-x="542" >
<font-face units-per-em="1000" ascent="1020" descent="454" >
<font-face-src>
<font-face-name/>
</font-face-src>
</font-face>
<missing-glyph horiz-adv-x="500" />
<glyph unicode="&#13;" horiz-adv-x="225" />
<glyph unicode="&#32;" horiz-adv-x="225" />
<glyph unicode="&#33;" horiz-adv-x="310" d="M112 700h85v-485h-85zM99 54q0 20 15.5 36.5q15.5 16.5 42.5 16.5q23 0 38 -16.5q15 -16.5 15 -36.5q0 -23 -15 -40q-15 -17 -38 -17q-27 0 -42.5 17t-15.5 40z" />
<glyph unicode="&#34;" horiz-adv-x="415" d="M250 700h80v-223h-80zM85 700h80v-223l-80 0z" />
<glyph unicode="&#35;" horiz-adv-x="704" d="M384 195h-184l-76 -205l-63 22l68 183h-89v70h115l63 170h-178v70h204l76 205l63 -23l-68 -182h184l76 205l63 -22l-68 -183h94v-70h-120l-63 -170h183v-70h-209l-76 -205l-62 22zM226 265h184l63 170l-184 0z" />
<glyph unicode="&#36;" horiz-adv-x="592" d="M430 179q0 43 -25.5 69q-25.5 26 -63.5 45.5q-38 19.5 -82 36.5q-44 17 -82 41.5q-38 24.5 -63.5 61q-25.5 36.5 -25.5 94.5q0 34 12 64q12 30 34.5 54q22.5 24 54.5 40q32 16 73 22l0 83h80v-82q49 -6 89 -24.5q40 -18.5 66 -46.5l-46 -64q-28 28 -62 42.5q-34 14.5 -80 14.5q-63 0 -97 -28q-34 -28 -34 -75q0 -43 25.5 -69q25.5 -26 63.5 -44.5q38 -18.5 82 -35q44 -16.5 82 -40.5q38 -24 63.5 -61q25.5 -37 25.5 -97q0 -38 -13 -69.5q-13 -31.5 -37 -55.5q-24 -24 -56.5 -39.5q-32.5 -15.5 -71.5 -21.5l0 -94h-80v92q-29 3 -57.5 11.5q-28.5 8.5 -53 22q-24.5 13.5 -44.5 31q-20 17.5 -31 38.5l49 58q15 -20 36 -35.5q21 -15.5 44 -26q23 -10.5 47 -16q24 -5.5 46 -5.5q27 0 51 7q24 7 42 21q18 14 28.5 34t10.5 47z" />
<glyph unicode="&#37;" horiz-adv-x="877" d="M673 710l46 -34l-513 -686l-47 33zM45 537q0 38 14 69q14 31 38.5 53.5q24.5 22.5 58 34.5q33.5 12 72.5 12q39 0 72.5 -12q33.5 -12 58 -34.5q24.5 -22.5 38.5 -53.5q14 -31 14 -69q0 -38 -14 -69q-14 -31 -38.5 -53.5q-24.5 -22.5 -58 -35q-33.5 -12.5 -72.5 -12.5q-39 0 -72.5 12.5q-33.5 12.5 -58 35q-24.5 22.5 -38.5 53.5q-14 31 -14 69zt0 0zM120 537q0 -24 9 -43.5q9 -19.5 24 -33q15 -13.5 34.5 -21q19.5 -7.5 40.5 -7.5q22 0 41.5 7.5q19.5 7.5 34.5 21q15 13.5 23.5 33q8.5 19.5 8.5 43.5q0 24 -8.5 43q-8.5 19 -23.5 32.5q-15 13.5 -34.5 21q-19.5 7.5 -41.5 7.5q-45 0 -76.5 -28q-31.5 -28 -31.5 -76zt0 0zM466 164q0 38 14 69q14 31 38.5 53.5q24.5 22.5 58 34.5q33.5 12 72.5 12q39 0 72.5 -12q33.5 -12 58 -34.5q24.5 -22.5 38.5 -53.5q14 -31 14 -69q0 -38 -14 -69q-14 -31 -38.5 -53.5q-24.5 -22.5 -58 -35q-33.5 -12.5 -72.5 -12.5q-39 0 -72.5 12.5q-33.5 12.5 -58 35q-24.5 22.5 -38.5 53.5q-14 31 -14 69zt0 0zM541 164q0 -24 9 -43.5q9 -19.5 24 -33q15 -13.5 34.5 -21q19.5 -7.5 40.5 -7.5q22 0 41.5 7.5q19.5 7.5 34.5 21q15 13.5 23.5 33q8.5 19.5 8.5 43.5q0 24 -8.5 43q-8.5 19 -23.5 32.5q-15 13.5 -34.5 21q-19.5 7.5 -41.5 7.5q-45 0 -76.5 -28t-31.5 -76z" />
<glyph unicode="&#38;" horiz-adv-x="744" d="M511 92q-33 -43 -85 -72.5q-52 -29.5 -130 -29.5q-50 0 -91.5 15q-41.5 15 -71.5 41.5q-30 26.5 -46.5 63q-16.5 36.5 -16.5 80.5q0 44 14.5 79.5q14.5 35.5 37.5 65q23 29.5 53 53.5q30 24 61 45q-41 14 -67 47.5q-26 33.5 -26 84.5q0 33 12.5 59.5q12.5 26.5 34 45.5q21.5 19 49.5 29.5q28 10.5 58 10.5q31 0 59 -10.5q28 -10.5 49.5 -29.5q21.5 -19 34 -45.5q12.5 -26.5 12.5 -59.5q0 -24 -8 -46.5q-8 -22.5 -22.5 -40.5q-14.5 -18 -33.5 -30q-19 -12 -40 -16l170 -219q26 45 42 105q16 60 16 132l79 0q0 -84 -23 -162.5q-23 -78.5 -65 -138.5l117 -149h-100zM298 70q57 0 97.5 23.5q40.5 23.5 66.5 62.5l-175 230q-55 -41 -91 -84q-36 -43 -36 -96q0 -30 11 -55q11 -25 30 -43q19 -18 44 -28q25 -10 53 -10zt0 0zM218 565q0 -32 23 -55.5q23 -23.5 56 -23.5q34 0 57 23.5q23 23.5 23 55.5q0 33 -23.5 56.5q-23.5 23.5 -56.5 23.5q-33 0 -56 -23t-23 -57z" />
<glyph unicode="&#39;" horiz-adv-x="250" d="M85 700h80v-223l-80 0z" />
<glyph unicode="&#40;" horiz-adv-x="293" d="M242 -206q-57 49 -95.5 102q-38.5 53 -62.5 107.5q-24 54.5 -34 110.5q-10 56 -10 111q0 55 10 110q10 55 34 109q24 54 63 107q39 53 96 105l50 -44q-93 -89 -133 -183q-40 -94 -40 -204q0 -111 44.5 -211.5q44.5 -100.5 128.5 -175.5z" />
<glyph unicode="&#41;" horiz-adv-x="293" d="M0 -162q84 75 128.5 175.5q44.5 100.5 44.5 211.5q0 110 -40 204q-40 94 -133 183l50 44q57 -52 96 -105q39 -53 63 -107q24 -54 34 -109q10 -55 10 -110q0 -55 -10 -111q-10 -56 -34 -110.5q-24 -54.5 -62.5 -107.5q-38.5 -53 -95.5 -102z" />
<glyph unicode="&#42;" horiz-adv-x="479" d="M189 657q0 21 15.5 36.5q15.5 15.5 35.5 15.5q23 0 38 -15.5q15 -15.5 15 -36.5q0 -22 -15 -36.5q-15 -14.5 -38 -14.5q-20 0 -35.5 14.5q-15.5 14.5 -15.5 36.5zt0 0zM187 375q0 23 16 38.5q16 15.5 36 15.5q21 0 37 -15.5q16 -15.5 16 -38.5q0 -20 -16 -36q-16 -16 -37 -16q-20 0 -36 16q-16 16 -16 36zt0 0zM305 584q0 22 14.5 37.5q14.5 15.5 35.5 15.5q22 0 37.5 -15.5q15.5 -15.5 15.5 -37.5q0 -21 -15.5 -36.5q-15.5 -15.5 -37.5 -15.5q-21 0 -35.5 15.5q-14.5 15.5 -14.5 36.5zt0 0zM305 448q0 22 14.5 37q14.5 15 35.5 15q22 0 37.5 -15q15.5 -15 15.5 -37q0 -22 -15.5 -37.5q-15.5 -15.5 -37.5 -15.5q-21 0 -35.5 15.5q-14.5 15.5 -14.5 37.5zt0 0zM71 448q0 22 15 37q15 15 36 15q22 0 37 -15q15 -15 15 -37q0 -22 -15 -37.5q-15 -15.5 -37 -15.5q-21 0 -36 15.5q-15 15.5 -15 37.5zt0 0zM71 584q0 22 15 37.5q15 15.5 36 15.5q22 0 37 -15.5q15 -15.5 15 -37.5q0 -21 -15 -36.5q-15 -15.5 -37 -15.5q-21 0 -36 15.5t-15 36.5z" />
<glyph unicode="&#43;" horiz-adv-x="592" d="M69 395h188v192h75v-192h191v-70h-191v-192h-75v192l-188 0z" />
<glyph unicode="&#44;" horiz-adv-x="223" d="M54 46q0 23 14.5 38q14.5 15 42.5 15q32 0 52 -26q20 -26 20 -71q0 -57 -30.5 -95.5q-30.5 -38.5 -79.5 -52.5l-22 38q20 7 38.5 23q18.5 16 25.5 44q5 20 4 31.5q-1 11.5 -5 18.5q-4 -6 -10 -7.5q-6 -1.5 -12 -1.5q-15 0 -26.5 13t-11.5 33z" />
<glyph unicode="&#45;" horiz-adv-x="389" d="M75 310h239v-75l-239 0z" />
<glyph unicode="&#46;" horiz-adv-x="210" d="M50 54q0 20 15.5 36.5q15.5 16.5 41.5 16.5q23 0 38 -16.5q15 -16.5 15 -36.5q0 -23 -15 -40q-15 -17 -38 -17q-26 0 -41.5 17t-15.5 40z" />
<glyph unicode="&#47;" horiz-adv-x="335" d="M303 710l62 -23l-332 -895l-63 23z" />
<glyph unicode="&#48;" horiz-adv-x="564" d="M55 350q0 79 13 144.5q13 65.5 41 113q28 47.5 71 74q43 26.5 102 26.5q59 0 102 -26.5q43 -26.5 70.5 -74q27.5 -47.5 41 -113q13.5 -65.5 13.5 -144.5q0 -79 -13 -145q-13 -66 -40.5 -113q-27.5 -47 -70 -73.5q-42.5 -26.5 -101.5 -26.5q-59 0 -102.5 26.5q-43.5 26.5 -71.5 73.5q-28 47 -41.5 113q-13.5 66 -13.5 145zt0 0zM140 350q0 -136 34.5 -209.5q34.5 -73.5 109.5 -73.5q76 0 108 73.5q32 73.5 32 209.5q0 136 -33 209.5q-33 73.5 -109 73.5q-77 0 -109.5 -74.5t-32.5 -208.5z" />
<glyph unicode="&#49;" horiz-adv-x="379" d="M203 704h56v-704h-80v589l-102 -80l-42 65z" />
<glyph unicode="&#50;" horiz-adv-x="527" d="M45 65q43 42 97 96.5q54 54.5 102 114.5q48 60 81 121.5q33 61.5 33 117.5q0 47 -28.5 80q-28.5 33 -85.5 33q-42 0 -78 -27.5q-36 -27.5 -47 -84.5l-68 28q6 39 24.5 69.5q18.5 30.5 45 51.5q26.5 21 60 32q33.5 11 70.5 11q49 0 85 -15.5q36 -15.5 60 -40.5q24 -25 35.5 -56.5q11.5 -31.5 11.5 -64.5q0 -49 -18 -98.5q-18 -49.5 -46 -96q-28 -46.5 -62 -88.5q-34 -42 -67 -76.5q-33 -34.5 -60 -59.5q-27 -25 -41 -37l323 0v-75l-427 0z" />
<glyph unicode="&#51;" horiz-adv-x="532" d="M247 -10q-73 0 -129 30.5q-56 30.5 -83 89.5l46 57q26 -49 70 -73q44 -24 93 -24q66 0 102 36q36 36 36 90q0 57 -40 89.5q-40 32.5 -103 32.5h-55v80h50q23 0 45 9q22 9 39 24.5q17 15.5 27 38q10 22.5 10 49.5q0 52 -30 81.5q-30 29.5 -84 29.5q-52 0 -86.5 -23q-34.5 -23 -57.5 -64l-45 55q24 54 75 83q51 29 120 29q88 0 140.5 -47q52.5 -47 52.5 -130q0 -57 -27.5 -101q-27.5 -44 -81.5 -67l0 -3q33 -5 58 -20.5q25 -15.5 42.5 -38.5q17.5 -23 26.5 -51q9 -28 9 -59q0 -47 -17 -84.5q-17 -37.5 -46.5 -64q-29.5 -26.5 -69.5 -40.5t-87 -14z" />
<glyph unicode="&#52;" horiz-adv-x="550" d="M343 175h-323v57l290 468h92l-277 -445h218v195h80v-195h97v-80h-97v-175l-80 0z" />
<glyph unicode="&#53;" horiz-adv-x="516" d="M143 700h316v-80h-246l-26 -189q11 3 26 5q15 2 30 2q48 0 88.5 -15q40.5 -15 70 -43.5q29.5 -28.5 46 -68.5q16.5 -40 16.5 -90q0 -54 -18 -97q-18 -43 -49.5 -73q-31.5 -30 -73 -45.5q-41.5 -15.5 -87.5 -15.5q-28 0 -57 6.5q-29 6.5 -56 19.5q-27 13 -49.5 33q-22.5 20 -38.5 47l46 59q26 -42 70 -63.5q44 -21.5 87 -21.5q30 0 56 11q26 11 44.5 30.5q18.5 19.5 29.5 47q11 27.5 11 59.5q0 31 -12 58.5q-12 27.5 -34 47q-22 19.5 -53.5 31q-31.5 11.5 -70.5 11.5q-32 0 -62.5 -5.5q-30.5 -5.5 -47.5 -12.5z" />
<glyph unicode="&#54;" horiz-adv-x="554" d="M50 248q0 96 31.5 175.5q31.5 79.5 81 138.5q49.5 59 109.5 96.5q60 37.5 118 51.5l33 -61q-47 -12 -92 -38q-45 -26 -82.5 -65q-37.5 -39 -65 -91q-27.5 -52 -39.5 -117q21 40 61.5 66.5q40.5 26.5 103.5 26.5q43 0 79.5 -15.5q36.5 -15.5 63.5 -44q27 -28.5 42 -68q15 -39.5 15 -87.5q0 -52 -18.5 -93.5q-18.5 -41.5 -48.5 -71q-30 -29.5 -69 -45.5q-39 -16 -80 -16q-59 0 -104 21q-45 21 -76 56q-31 35 -47 82q-16 47 -16 99zt0 0zM135 248q0 -36 10 -68q10 -32 29.5 -56.5q19.5 -24.5 49 -39q29.5 -14.5 68.5 -14.5q29 0 53 11.5q24 11.5 41.5 30.5q17.5 19 27.5 44.5q10 25.5 10 53.5q0 30 -9 57q-9 27 -27 46.5q-18 19.5 -44.5 31q-26.5 11.5 -61.5 11.5q-31 0 -55.5 -10q-24.5 -10 -43 -25.5q-18.5 -15.5 -30.5 -35t-18 -37.5z" />
<glyph unicode="&#55;" horiz-adv-x="485" d="M30 700h420v-52l-258 -648h-88l249 620l-323 0z" />
<glyph unicode="&#56;" horiz-adv-x="595" d="M311 400q22 0 42.5 9q20.5 9 36 24.5q15.5 15.5 24.5 36.5q9 21 9 45q0 27 -10.5 48.5q-10.5 21.5 -27.5 36.5q-17 15 -40.5 22.5q-23.5 7.5 -48.5 7.5q-52 0 -88 -31q-36 -31 -36 -84q0 -24 9 -45q9 -21 25 -36.5q16 -15.5 36 -24.5q20 -9 43 -9zM288 320q-28 0 -53 -9q-25 -9 -44 -25.5q-19 -16.5 -30 -39.5q-11 -23 -11 -50q0 -27 11 -50.5q11 -23.5 30.5 -40q19.5 -16.5 46.5 -26q27 -9.5 59 -9.5q68 0 108 34.5q40 34.5 40 91.5q0 30 -11 53q-11 23 -29.5 38.5q-18.5 15.5 -43 24q-24.5 8.5 -51.5 8.5zM298 -10q-47 0 -89.5 13q-42.5 13 -74.5 38q-32 25 -50.5 60q-18.5 35 -18.5 80q0 66 36.5 113q36.5 47 95.5 64l0 3q-23 8 -43 24q-20 16 -35 37.5q-15 21.5 -23.5 48.5q-8.5 27 -8.5 56q0 41 16.5 75q16.5 34 45 58q28.5 24 66.5 37q38 13 82 13q43 0 81.5 -13q38.5 -13 67.5 -37q29 -24 45.5 -58q16.5 -34 16.5 -75q0 -51 -30.5 -97.5q-30.5 -46.5 -84.5 -67.5l0 -3q29 -5 54 -19.5q25 -14.5 43.5 -36.5q18.5 -22 29 -51.5q10.5 -29.5 10.5 -64.5q0 -47 -18.5 -83.5q-18.5 -36.5 -50 -62q-31.5 -25.5 -74 -38.5t-89.5 -13z" />
<glyph unicode="&#57;" horiz-adv-x="551" d="M501 447q0 -99 -27 -179.5q-27 -80.5 -74 -139q-47 -58.5 -111 -94q-64 -35.5 -138 -44.5l-27 63q118 23 192 100.5q74 77.5 91 202.5q-21 -39 -61 -63q-40 -24 -97 -24q-46 0 -84.5 16.5q-38.5 16.5 -66 45.5q-27.5 29 -43 68.5q-15.5 39.5 -15.5 84.5q0 52 19.5 93.5q19.5 41.5 51 71q31.5 29.5 71.5 45.5q40 16 81 16q58 0 102.5 -20q44.5 -20 74.5 -55.5q30 -35.5 45.5 -83.5q15.5 -48 15.5 -104zt0 0zM416 447q0 36 -9 69q-9 33 -27.5 58.5q-18.5 25.5 -47.5 40.5q-29 15 -68 15q-29 0 -54.5 -11.5q-25.5 -11.5 -44 -30.5q-18.5 -19 -29.5 -44.5q-11 -25.5 -11 -53.5q0 -29 9.5 -55q9.5 -26 27.5 -46.5q18 -20.5 45 -32.5q27 -12 62 -12q31 0 55.5 9q24.5 9 43 23.5q18.5 14.5 30.5 33t18 37.5z" />
<glyph unicode="&#58;" horiz-adv-x="320" d="M105 406q0 20 15.5 36.5q15.5 16.5 41.5 16.5q23 0 38 -16.5q15 -16.5 15 -36.5q0 -23 -15 -40q-15 -17 -38 -17q-26 0 -41.5 17q-15.5 17 -15.5 40zt0 0zM105 54q0 20 15.5 36.5q15.5 16.5 41.5 16.5q23 0 38 -16.5q15 -16.5 15 -36.5q0 -23 -15 -40q-15 -17 -38 -17q-26 0 -41.5 17t-15.5 40z" />
<glyph unicode="&#59;" horiz-adv-x="324" d="M105 406q0 20 15.5 36.5q15.5 16.5 41.5 16.5q23 0 38 -16.5q15 -16.5 15 -36.5q0 -23 -15 -40q-15 -17 -38 -17q-26 0 -41.5 17q-15.5 17 -15.5 40zt0 0zM105 46q0 23 14.5 38q14.5 15 42.5 15q32 0 52 -26q20 -26 20 -71q0 -57 -30.5 -95.5q-30.5 -38.5 -79.5 -52.5l-22 38q20 7 38.5 23q18.5 16 25.5 44q5 20 4 31.5q-1 11.5 -5 18.5q-4 -6 -10 -7.5q-6 -1.5 -12 -1.5q-15 0 -26.5 13t-11.5 33z" />
<glyph unicode="&#60;" horiz-adv-x="592" d="M57 345v34l440 264v-87l-329 -194l329 -196l0 -87z" />
<glyph unicode="&#61;" horiz-adv-x="592" d="M69 485h454v-70h-454zM69 305h454v-70l-454 0z" />
<glyph unicode="&#62;" horiz-adv-x="592" d="M95 79v87l329 196l-329 194v87l439 -264l0 -34z" />
<glyph unicode="&#63;" horiz-adv-x="466" d="M350 520q0 23 -9 43q-9 20 -25.5 35q-16.5 15 -38.5 23.5q-22 8.5 -49 8.5q-45 0 -79.5 -19q-34.5 -19 -60.5 -55l-48 53q27 44 78 72.5q51 28.5 115 28.5q48 0 86 -14q38 -14 64 -37.5q26 -23.5 39.5 -55q13.5 -31.5 13.5 -66.5q0 -50 -16 -83q-16 -33 -40 -57.5q-24 -24.5 -50.5 -43.5q-26.5 -19 -48 -39.5q-21.5 -20.5 -33 -46.5q-11.5 -26 -4.5 -64l-72 0q-9 45 0.5 76.5q9.5 31.5 29.5 54q20 22.5 45.5 40q25.5 17.5 48.5 37.5q23 20 38.5 45.5q15.5 25.5 15.5 63.5zt0 0zM152 54q0 20 15.5 36.5q15.5 16.5 42.5 16.5q23 0 38 -16.5q15 -16.5 15 -36.5q0 -23 -15 -40q-15 -17 -38 -17q-27 0 -42.5 17t-15.5 40z" />
<glyph unicode="&#64;" horiz-adv-x="1006" d="M628 47q-24 -24 -60.5 -40.5q-36.5 -16.5 -78.5 -16.5q-51 0 -92 16.5q-41 16.5 -70.5 47.5q-29.5 31 -45 74.5q-15.5 43.5 -15.5 96.5q0 49 19 92q19 43 52.5 74.5q33.5 31.5 80 50q46.5 18.5 101.5 18.5q54 0 104 -14.5q50 -14.5 85 -36.5l0 -334h21q31 0 56.5 15q25.5 15 43.5 41q18 26 27.5 62q9.5 36 9.5 77q0 67 -25.5 125q-25.5 58 -71.5 101q-46 43 -111.5 67.5q-65.5 24.5 -144.5 24.5q-79 0 -147 -26.5q-68 -26.5 -118.5 -74q-50.5 -47.5 -79 -114.5q-28.5 -67 -28.5 -148q0 -78 28.5 -144.5q28.5 -66.5 79 -115q50.5 -48.5 118.5 -76q68 -27.5 147 -27.5q57 0 108 12l5 -74q-27 -6 -55.5 -9.5q-28.5 -3.5 -57.5 -3.5q-97 0 -179 33.5q-82 33.5 -142 92q-60 58.5 -93.5 138.5q-33.5 80 -33.5 174q0 91 33.5 171q33.5 80 93.5 139.5q60 59.5 142 93.5q82 34 179 34q91 0 169.5 -28.5q78.5 -28.5 136 -80q57.5 -51.5 90 -124q32.5 -72.5 32.5 -159.5q0 -51 -14.5 -99.5q-14.5 -48.5 -43 -87q-28.5 -38.5 -72 -61.5q-43.5 -23 -100.5 -23h-83zM502 65q39 0 73 18.5q34 18.5 53 40.5l0 232q-26 15 -54 22q-28 7 -56 7q-38 0 -69 -13q-31 -13 -52.5 -35.5q-21.5 -22.5 -33.5 -52q-12 -29.5 -12 -63.5q0 -74 42 -115t109 -41z" />
<glyph unicode="&#65;" horiz-adv-x="705" d="M316 704h73l301 -704h-91l-90 212h-319l-89 -212h-86zM224 292h252l-126 299z" />
<glyph unicode="&#66;" horiz-adv-x="617" d="M105 699q15 0 37.5 1q22.5 1 48.5 1.5q26 0.5 54 1q28 0.5 52 0.5q63 0 106 -13.5q43 -13.5 69.5 -36.5q26.5 -23 38 -55q11.5 -32 11.5 -68q0 -66 -34.5 -105.5q-34.5 -39.5 -85.5 -56.5l0 -2q66 -11 105.5 -52.5q39.5 -41.5 39.5 -113.5q0 -53 -19.5 -91.5q-19.5 -38.5 -53.5 -63.5q-34 -25 -80.5 -36.5q-46.5 -11.5 -100.5 -11.5q-23 0 -49.5 0.5q-26.5 0.5 -52 1q-25.5 0.5 -48.5 1q-23 0.5 -38 1.5zM190 319v-238q17 -2 47.5 -3q30.5 -1 60.5 -1q78 0 121 31.5q43 31.5 43 96.5q0 56 -41.5 85q-41.5 29 -117.5 29zM295 623q-28 0 -57 -1q-29 -1 -48 -2l0 -226h112q28 0 52.5 7.5q24.5 7.5 43 22.5q18.5 15 29 36.5q10.5 21.5 10.5 50.5q0 112 -142 112z" />
<glyph unicode="&#67;" horiz-adv-x="656" d="M626 68q-18 -18 -42.5 -32.5q-24.5 -14.5 -53 -24.5q-28.5 -10 -60.5 -15.5q-32 -5.5 -65 -5.5q-79 0 -144 25.5q-65 25.5 -112 72.5q-47 47 -73 113.5q-26 66.5 -26 148.5q0 75 23.5 141q23.5 66 68.5 114.5q45 48.5 110 76.5q65 28 147 28q68 0 121.5 -18q53.5 -18 91.5 -50l-39 -64q-35 26 -76.5 39q-41.5 13 -96.5 13q-57 0 -105 -20.5q-48 -20.5 -82.5 -57.5q-34.5 -37 -53.5 -88.5q-19 -51.5 -19 -113.5q0 -63 20 -114.5q20 -51.5 56 -88q36 -36.5 86 -57q50 -20.5 111 -20.5q51 0 97 16.5q46 16.5 82 45.5z" />
<glyph unicode="&#68;" horiz-adv-x="739" d="M105 700h12q17 0 39 0.5q22 0.5 46 1q24 0.5 48.5 1q24.5 0.5 45.5 0.5q105 0 179.5 -28q74.5 -28 122 -75.5q47.5 -47.5 69.5 -109.5q22 -62 22 -131q0 -75 -25 -140.5q-25 -65.5 -75.5 -114.5q-50.5 -49 -125.5 -77.5q-75 -28.5 -175 -28.5q-35 0 -81 1q-46 1 -91 1h-11zM294 623q-32 0 -55 -1q-23 -1 -49 -2l0 -540q35 -1 63.5 -1.5q28.5 -0.5 37.5 -0.5q75 0 132.5 21q57.5 21 96.5 58.5q39 37.5 59 89q20 51.5 20 112.5q0 57 -19 105.5q-19 48.5 -57.5 83.5q-38.5 35 -95.5 55t-133 20z" />
<glyph unicode="&#69;" horiz-adv-x="575" d="M105 700h395v-80h-310v-226h280v-80h-280v-234h320v-80l-405 0z" />
<glyph unicode="&#70;" horiz-adv-x="540" d="M105 700h395v-80h-310v-248h280v-80h-280v-292l-85 0z" />
<glyph unicode="&#71;" horiz-adv-x="727" d="M398 356h269v-269q-23 -23 -54.5 -41q-31.5 -18 -67 -30.5q-35.5 -12.5 -71.5 -19q-36 -6.5 -69 -6.5q-82 0 -147.5 25.5q-65.5 25.5 -111.5 72.5q-46 47 -71 113.5q-25 66.5 -25 148.5q0 75 24.5 141q24.5 66 69.5 114.5q45 48.5 108.5 76.5q63.5 28 141.5 28q72 0 124.5 -17q52.5 -17 95.5 -51l-37 -68q-31 28 -76.5 42q-45.5 14 -96.5 14q-59 0 -107.5 -20q-48.5 -20 -83 -56.5q-34.5 -36.5 -54 -88.5q-19.5 -52 -19.5 -115q0 -64 19.5 -115.5q19.5 -51.5 54.5 -88q35 -36.5 84 -56.5q49 -20 109 -20q25 0 51 4.5q26 4.5 50 13q24 8.5 44.5 19.5q20.5 11 34.5 25l0 144l-189 0z" />
<glyph unicode="&#72;" horiz-adv-x="765" d="M575 317h-385v-317h-85v700h85v-303h385v303h85v-700l-85 0z" />
<glyph unicode="&#73;" horiz-adv-x="335" d="M125 700h85v-700l-85 0z" />
<glyph unicode="&#74;" horiz-adv-x="374" d="M269 159q0 -79 -36 -124q-36 -45 -117 -45q-35 0 -63.5 11.5q-28.5 11.5 -42.5 25.5l29 65q12 -9 29.5 -15.5q17.5 -6.5 36.5 -6.5q46 0 62.5 29q16.5 29 16.5 74v527l85 0z" />
<glyph unicode="&#75;" horiz-adv-x="653" d="M305 371l328 -371h-109l-317 365l307 335h103zM105 700h85v-700l-85 0z" />
<glyph unicode="&#76;" horiz-adv-x="550" d="M105 700h85v-620h345v-80l-430 0z" />
<glyph unicode="&#77;" horiz-adv-x="892" d="M105 700h86l263 -359l252 359h81v-700h-85v566l-248 -348h-13l-251 345v-563l-85 0z" />
<glyph unicode="&#78;" horiz-adv-x="795" d="M622 0l-437 550v-550h-80v700h68l437 -552v552h80l0 -700z" />
<glyph unicode="&#79;" horiz-adv-x="814" d="M50 350q0 76 26.5 142q26.5 66 74 114.5q47.5 48.5 113 76q65.5 27.5 143.5 27.5q76 0 141.5 -26.5q65.5 -26.5 113.5 -74q48 -47.5 75 -113.5q27 -66 27 -146q0 -78 -27 -144q-27 -66 -75 -114q-48 -48 -113.5 -75q-65.5 -27 -141.5 -27q-76 0 -141.5 26.5q-65.5 26.5 -113.5 74q-48 47.5 -75 113.5q-27 66 -27 146zt0 0zM140 350q0 -60 20.5 -111q20.5 -51 56.5 -88.5q36 -37.5 85 -59q49 -21.5 105 -21.5q60 0 109 21.5q49 21.5 84.5 59q35.5 37.5 54.5 89q19 51.5 19 110.5q0 61 -20.5 112.5q-20.5 51.5 -56.5 88.5q-36 37 -85 58q-49 21 -105 21q-57 0 -106 -21q-49 -21 -84.5 -58q-35.5 -37 -56 -88.5t-20.5 -112.5z" />
<glyph unicode="&#80;" horiz-adv-x="597" d="M105 0v700q15 0 39 0.5q24 0.5 50.5 0.5q26.5 0 51.5 0.5q25 0.5 42 0.5q75 0 125 -18.5q50 -18.5 79.5 -49q29.5 -30.5 42 -69.5q12.5 -39 12.5 -80q0 -43 -15.5 -82.5q-15.5 -39.5 -46.5 -70q-31 -30.5 -78.5 -49q-47.5 -18.5 -111.5 -18.5q-21 0 -50 1q-29 1 -55 3l0 -269zM296 622q-21 0 -51 -0.5q-30 -0.5 -55 -1.5l0 -270q26 -2 51 -3.5q25 -1.5 51 -1.5q78 0 121.5 37.5q43.5 37.5 43.5 103.5q0 63 -38.5 99.5t-122.5 36.5z" />
<glyph unicode="&#81;" horiz-adv-x="814" d="M50 350q0 76 26.5 142q26.5 66 74 114.5q47.5 48.5 113 76q65.5 27.5 143.5 27.5q76 0 141.5 -26.5q65.5 -26.5 113.5 -74q48 -47.5 75 -113.5q27 -66 27 -146q0 -79 -28 -145.5q-28 -66.5 -77 -114.5l77 -90h-100l-37 43q-42 -26 -90 -39.5q-48 -13.5 -102 -13.5q-76 0 -141.5 26.5q-65.5 26.5 -113.5 74q-48 47.5 -75 113.5q-27 66 -27 146zt0 0zM140 350q0 -60 20.5 -111q20.5 -51 56.5 -88.5q36 -37.5 85 -59q49 -21.5 105 -21.5q39 0 74 9.5q35 9.5 64 26.5l-61 73l56 51l64 -75q33 38 51.5 87.5q18.5 49.5 18.5 107.5q0 61 -20.5 112.5q-20.5 51.5 -56.5 88.5q-36 37 -85 58q-49 21 -105 21q-57 0 -106 -21q-49 -21 -84.5 -58q-35.5 -37 -56 -88.5t-20.5 -112.5z" />
<glyph unicode="&#82;" horiz-adv-x="643" d="M105 0v700q15 0 43 0.5q28 0.5 58 0.5q30 0 54.5 0.5q24.5 0.5 32.5 0.5q72 0 119.5 -16.5q47.5 -16.5 76.5 -45q29 -28.5 41 -66.5q12 -38 12 -80q0 -41 -13 -74q-13 -33 -34 -58q-21 -25 -48.5 -42q-27.5 -17 -56.5 -24l233 -296h-104l-215 280h-114v-280zM288 622q-17 0 -45 -0.5q-28 -0.5 -53 -1.5l0 -260h103q30 0 59 9q29 9 51 26.5q22 17.5 35.5 42q13.5 24.5 13.5 55.5q0 27 -8 50.5q-8 23.5 -27.5 41q-19.5 17.5 -51 27.5t-77.5 10z" />
<glyph unicode="&#83;" horiz-adv-x="549" d="M409 179q0 43 -25.5 69q-25.5 26 -63.5 45.5q-38 19.5 -82 36.5q-44 17 -82 41.5q-38 24.5 -63.5 61q-25.5 36.5 -25.5 94.5q0 38 14.5 71.5q14.5 33.5 41.5 58q27 24.5 66 39q39 14.5 89 14.5q61 0 112 -20q51 -20 81 -53l-46 -64q-28 28 -62 42.5q-34 14.5 -80 14.5q-59 0 -92.5 -28q-33.5 -28 -33.5 -75q0 -43 25.5 -69q25.5 -26 63.5 -44.5q38 -18.5 82 -35q44 -16.5 82 -40.5q38 -24 63.5 -61q25.5 -37 25.5 -97q0 -43 -18 -78q-18 -35 -48.5 -60q-30.5 -25 -72 -38.5q-41.5 -13.5 -89.5 -13.5q-32 0 -66 7q-34 7 -64 20.5q-30 13.5 -54 33q-24 19.5 -37 44.5l49 58q15 -20 36 -35.5q21 -15.5 44 -26q23 -10.5 47 -16q24 -5.5 46 -5.5q27 0 52 7q25 7 44 21q19 14 30 34t11 47z" />
<glyph unicode="&#84;" horiz-adv-x="595" d="M10 700h575v-80h-245v-620h-85v620l-245 0z" />
<glyph unicode="&#85;" horiz-adv-x="751" d="M656 292q0 -80 -22 -137q-22 -57 -59.5 -93.5q-37.5 -36.5 -86.5 -53.5q-49 -17 -103 -17q-63 0 -116 19.5q-53 19.5 -92 58q-39 38.5 -60.5 96q-21.5 57.5 -21.5 134.5v401h85v-385q0 -115 53 -179.5q53 -64.5 152 -64.5q87 0 136.5 59q49.5 59 49.5 179v391l85 0z" />
<glyph unicode="&#86;" horiz-adv-x="656" d="M363 -4h-63l-295 704h91l238 -576l231 576l86 0z" />
<glyph unicode="&#87;" horiz-adv-x="970" d="M758 0h-78l-192 563l-188 -563h-78l-212 700h96l163 -557l181 557h82l186 -557l159 557l83 0z" />
<glyph unicode="&#88;" horiz-adv-x="664" d="M387 356l257 -356h-101l-212 291l-211 -291h-100l257 356l-246 344h100l203 -280l200 280l101 0z" />
<glyph unicode="&#89;" horiz-adv-x="604" d="M343 300v-300h-85v300l-248 400h98l196 -320l197 320l93 0z" />
<glyph unicode="&#90;" horiz-adv-x="635" d="M60 700h525v-57l-430 -563h440v-80h-555v57l428 563l-408 0z" />
<glyph unicode="&#91;" horiz-adv-x="320" d="M60 650h250v-75h-170v-700h170v-75l-250 0z" />
<glyph unicode="&#92;" horiz-adv-x="335" d="M365 -185l-63 -23l-332 895l62 23z" />
<glyph unicode="&#93;" horiz-adv-x="320" d="M260 -200h-250v75h170v700h-170v75l250 0z" />
<glyph unicode="&#94;" horiz-adv-x="492" d="M220 708h54l178 -258h-87l-119 176l-119 -176l-87 0z" />
<glyph unicode="&#95;" horiz-adv-x="312" d="M0 -120h312v-80l-312 0z" />
<glyph unicode="&#96;" horiz-adv-x="290" d="M60 673l63 48l107 -156l-49 -34z" />
<glyph unicode="&#97;" horiz-adv-x="460" d="M75 419q30 19 69 30q39 11 81 11q96 0 134.5 -48q38.5 -48 38.5 -136v-276h-76v58q-20 -26 -54 -45.5q-34 -19.5 -90 -19.5q-62 0 -100 36.5q-38 36.5 -38 102.5q0 34 13 61q13 27 35.5 45q22.5 18 54 27.5q31.5 9.5 67.5 9.5q26 0 57.5 -6q31.5 -6 54.5 -23q0 31 -3.5 57.5q-3.5 26.5 -14 45q-10.5 18.5 -31 29q-20.5 10.5 -53.5 10.5q-42 0 -69.5 -9.5q-27.5 -9.5 -54.5 -23.5zM206 65q44 0 71.5 19q27.5 19 44.5 39l0 57q-42 30 -101 30q-18 0 -35.5 -4.5q-17.5 -4.5 -31 -13.5q-13.5 -9 -21.5 -23q-8 -14 -8 -33q0 -32 21 -51.5t60 -19.5z" />
<glyph unicode="&#98;" horiz-adv-x="549" d="M72 700h80v-293q24 22 61.5 37.5q37.5 15.5 78.5 15.5q50 0 90 -17q40 -17 67.5 -47q27.5 -30 42 -72q14.5 -42 14.5 -92q0 -56 -18 -100.5q-18 -44.5 -50.5 -76q-32.5 -31.5 -78.5 -48.5q-46 -17 -103 -17q-54 0 -103 14.5q-49 14.5 -81 37.5zM274 385q-39 0 -72 -18.5q-33 -18.5 -50 -39.5l0 -231q27 -18 53 -24.5q26 -6.5 55 -6.5q34 0 63.5 11q29.5 11 51 31.5q21.5 20.5 34 50.5q12.5 30 12.5 68q0 76 -40.5 117.5t-106.5 41.5z" />
<glyph unicode="&#99;" horiz-adv-x="488" d="M456 65q-29 -37 -75 -56q-46 -19 -98 -19q-54 0 -98 16.5q-44 16.5 -76 47.5q-32 31 -49.5 74.5q-17.5 43.5 -17.5 96.5q0 49 17 92q17 43 47.5 74.5q30.5 31.5 72 50q41.5 18.5 91.5 18.5q54 0 99.5 -13.5q45.5 -13.5 77.5 -45.5l-37 -63q-29 26 -61.5 36.5q-32.5 10.5 -67.5 10.5q-30 0 -58 -11.5q-28 -11.5 -49.5 -32.5q-21.5 -21 -34 -50.5q-12.5 -29.5 -12.5 -65.5q0 -37 13 -66.5q13 -29.5 35 -50.5q22 -21 51.5 -32q29.5 -11 62.5 -11q41 0 73.5 16q32.5 16 55.5 42z" />
<glyph unicode="&#100;" horiz-adv-x="554" d="M402 57q-25 -27 -61 -46q-36 -19 -82 -19q-50 0 -90 16.5q-40 16.5 -68 46.5q-28 30 -43.5 72.5q-15.5 42.5 -15.5 94.5q0 52 18.5 96q18.5 44 51.5 75.5q33 31.5 78 49q45 17.5 98 17.5q36 0 63.5 -7.5q27.5 -7.5 50.5 -24.5l0 272h80v-700h-80zM274 67q39 0 73 18.5q34 18.5 55 41.5l0 223q-55 35 -111 35q-33 0 -63 -11q-30 -11 -52.5 -32q-22.5 -21 -35.5 -51q-13 -30 -13 -67q0 -37 11 -66q11 -29 31 -49.5q20 -20.5 46.5 -31t58.5 -10.5z" />
<glyph unicode="&#101;" horiz-adv-x="520" d="M452 49q-33 -30 -78.5 -44.5q-45.5 -14.5 -90.5 -14.5q-55 0 -99.5 16.5q-44.5 16.5 -76 47.5q-31.5 31 -48.5 74.5q-17 43.5 -17 96.5q0 49 15.5 92q15.5 43 45 74.5q29.5 31.5 72.5 50q43 18.5 99 18.5q43 0 81.5 -15q38.5 -15 66.5 -42q28 -27 44.5 -65q16.5 -38 16.5 -84q0 -31 -5 -54l-346 0q5 -64 48 -99.5q43 -35.5 109 -35.5q44 0 80 13.5q36 13.5 58 33.5zM270 385q-62 0 -99 -34q-37 -34 -44 -86l273 0q-3 56 -37 88t-93 32z" />
<glyph unicode="&#102;" horiz-adv-x="330" d="M82 523q0 94 41.5 140.5q41.5 46.5 116.5 46.5q41 0 72 -11.5q31 -11.5 48 -28.5l-28 -61q-14 12 -33.5 19q-19.5 7 -45.5 7q-43 0 -67 -29q-24 -29 -24 -92v-64h150v-75h-150v-375l-80 0z" />
<glyph unicode="&#103;" horiz-adv-x="494" d="M10 -65q0 55 39.5 89q39.5 34 104.5 48q-6 8 -8.5 17.5q-2.5 9.5 -2.5 19.5q0 23 12 38q-48 20 -74.5 59q-26.5 39 -26.5 89q0 34 13 64q13 30 37 52.5q24 22.5 58 35.5q34 13 76 13q33 0 62 -8.5q29 -8.5 52 -24.5l132 32l2 -65l-85 -21q21 -35 21 -78q0 -34 -13 -63.5q-13 -29.5 -37 -51.5q-24 -22 -58 -34.5q-34 -12.5 -76 -12.5q-8 0 -15 0q-7 0 -15 1q-3 -6 -4 -12.5q-1 -6.5 -1 -12.5q0 -18 9 -30q7 0 13.5 0.5q6.5 0.5 13.5 0.5q49 0 91 -9q42 -9 72.5 -27q30.5 -18 48 -45q17.5 -27 17.5 -64q0 -36 -17.5 -63q-17.5 -27 -48 -44.5q-30.5 -17.5 -72.5 -26.5q-42 -9 -91 -9q-49 0 -91 8.5q-42 8.5 -72.5 26q-30.5 17.5 -48 44.5q-17.5 27 -17.5 64zt0 0zM85 -65q0 -38 42 -58q42 -20 112 -20q70 0 112 20q42 20 42 58q0 38 -41 59q-41 21 -113 21q-72 0 -113 -21q-41 -21 -41 -59zt0 0zM129 295q0 -42 29.5 -69.5q29.5 -27.5 79.5 -27.5q48 0 78.5 26.5q30.5 26.5 30.5 70.5q0 42 -29 71q-29 29 -80 29q-50 0 -79.5 -29t-29.5 -71z" />
<glyph unicode="&#104;" horiz-adv-x="549" d="M72 700h80v-302q25 26 64.5 43q39.5 17 82.5 17q88 0 137.5 -47q49.5 -47 49.5 -153v-258h-80v247q0 136 -126 136q-38 0 -72.5 -16.5q-34.5 -16.5 -55.5 -40.5l0 -326l-80 0z" />
<glyph unicode="&#105;" horiz-adv-x="268" d="M94 450h80v-450h-80zM84 619q0 22 15.5 35q15.5 13 36.5 13q19 0 34 -13q15 -13 15 -35q0 -25 -15 -38.5q-15 -13.5 -34 -13.5q-21 0 -36.5 13.5t-15.5 38.5z" />
<glyph unicode="&#106;" horiz-adv-x="266" d="M178 -33q0 -83 -33 -129q-33 -46 -108 -46q-32 0 -59 9q-27 9 -41 20l23 64q12 -8 26.5 -13q14.5 -5 32.5 -5q43 0 61 28q18 28 18 78v477h80zM87 619q0 22 15.5 35q15.5 13 36.5 13q19 0 34 -13q15 -13 15 -35q0 -25 -15 -38.5q-15 -13.5 -34 -13.5q-21 0 -36.5 13.5t-15.5 38.5z" />
<glyph unicode="&#107;" horiz-adv-x="491" d="M266 241l215 -241h-109l-203 235l186 215h102zM72 700h80v-700l-80 0z" />
<glyph unicode="&#108;" horiz-adv-x="290" d="M72 700h80v-544q0 -46 12 -67.5q12 -21.5 41 -21.5q17 0 31.5 6q14.5 6 25.5 14l18 -61q-18 -14 -44.5 -24q-26.5 -10 -61.5 -10q-102 0 -102 128z" />
<glyph unicode="&#109;" horiz-adv-x="803" d="M740 0h-80v273q0 110 -97 110q-41 0 -71.5 -18.5q-30.5 -18.5 -46.5 -46.5q1 -6 1 -15q0 -9 0 -17v-286h-80v290q0 42 -24 67.5q-24 25.5 -72 25.5q-39 0 -70 -18q-31 -18 -48 -43l0 -322h-80v450h80v-57q25 29 65 47q40 18 84 18q53 0 88 -21.5q35 -21.5 48 -56.5q24 35 65.5 56.5q41.5 21.5 92.5 21.5q31 0 57.5 -8q26.5 -8 46 -27q19.5 -19 30.5 -50.5q11 -31.5 11 -77.5z" />
<glyph unicode="&#110;" horiz-adv-x="549" d="M72 450h80v-55q23 26 62.5 44.5q39.5 18.5 84.5 18.5q88 0 137.5 -46q49.5 -46 49.5 -152v-260h-80v245q0 71 -32 104.5q-32 33.5 -95 33.5q-38 0 -71.5 -16.5q-33.5 -16.5 -55.5 -41.5l0 -325l-80 0z" />
<glyph unicode="&#111;" horiz-adv-x="565" d="M42 225q0 51 17 94q17 43 48.5 74.5q31.5 31.5 76 49q44.5 17.5 98.5 17.5q54 0 98 -17.5q44 -17.5 75.5 -49q31.5 -31.5 49 -74.5q17.5 -43 17.5 -94q0 -51 -17.5 -94q-17.5 -43 -49 -74.5q-31.5 -31.5 -75.5 -49q-44 -17.5 -98 -17.5q-54 0 -98.5 17.5q-44.5 17.5 -76 49q-31.5 31.5 -48.5 74.5q-17 43 -17 94zt0 0zM127 225q0 -35 11.5 -64.5q11.5 -29.5 32 -50.5q20.5 -21 49 -33q28.5 -12 62.5 -12q34 0 62.5 11.5q28.5 11.5 49 32.5q20.5 21 32 50.5q11.5 29.5 11.5 65.5q0 35 -11.5 64.5q-11.5 29.5 -32 50.5q-20.5 21 -49 33q-28.5 12 -62.5 12q-33 0 -61.5 -11.5q-28.5 -11.5 -49 -32.5q-20.5 -21 -32.5 -50.5t-12 -65.5z" />
<glyph unicode="&#112;" horiz-adv-x="556" d="M72 450h80v-53q23 27 64.5 45q41.5 18 88.5 18q48 0 86.5 -17q38.5 -17 65.5 -47q27 -30 41.5 -72q14.5 -42 14.5 -92q0 -51 -16.5 -95.5q-16.5 -44.5 -47.5 -77q-31 -32.5 -74 -51q-43 -18.5 -96 -18.5q-36 0 -69.5 7.5q-33.5 7.5 -57.5 23.5l0 -221h-80zM282 385q-40 0 -74.5 -18q-34.5 -18 -55.5 -44l0 -223q30 -20 59 -27.5q29 -7.5 61 -7.5q36 0 65 12.5q29 12.5 49 34q20 21.5 31 51.5q11 30 11 66q0 34 -9.5 62.5q-9.5 28.5 -28.5 49.5q-19 21 -46 32.5t-62 11.5z" />
<glyph unicode="&#113;" horiz-adv-x="557" d="M404 36q-27 -21 -62 -33.5q-35 -12.5 -69 -12.5q-53 0 -95.5 16.5q-42.5 16.5 -72.5 47.5q-30 31 -46.5 74.5q-16.5 43.5 -16.5 96.5q0 49 19 92q19 43 52.5 74.5q33.5 31.5 80 50q46.5 18.5 101.5 18.5q54 0 104 -14.5q50 -14.5 85 -36.5l0 -609h-80zM283 65q36 0 69.5 16q33.5 16 51.5 38l0 237q-26 15 -54 22q-28 7 -56 7q-38 0 -69 -13q-31 -13 -52.5 -35.5q-21.5 -22.5 -33.5 -52q-12 -29.5 -12 -63.5q0 -35 11 -63.5q11 -28.5 31.5 -49q20.5 -20.5 49.5 -32t64 -11.5z" />
<glyph unicode="&#114;" horiz-adv-x="340" d="M72 450h80v-53q17 26 43.5 43.5q26.5 17.5 69.5 17.5q28 0 43.5 -4.5q15.5 -4.5 26.5 -12.5l-28 -75q-17 10 -29 13.5q-12 3.5 -32 3.5q-39 0 -60 -19.5q-21 -19.5 -34 -44.5l0 -319l-80 0z" />
<glyph unicode="&#115;" horiz-adv-x="430" d="M300 122q0 23 -18 36q-18 13 -45 22.5q-27 9.5 -58.5 19q-31.5 9.5 -58.5 25.5q-27 16 -45 41.5q-18 25.5 -18 66.5q0 60 43 93.5q43 33.5 110 33.5q56 0 95.5 -16.5q39.5 -16.5 59.5 -36.5l-38 -61q-20 18 -49 31q-29 13 -64 13q-34 0 -53 -16.5q-19 -16.5 -19 -39.5q0 -24 18 -37.5q18 -13.5 45 -23.5q27 -10 58.5 -19.5q31.5 -9.5 58.5 -24.5q27 -15 45 -39.5q18 -24.5 18 -63.5q0 -36 -14.5 -61.5q-14.5 -25.5 -38.5 -42q-24 -16.5 -55.5 -24.5q-31.5 -8 -65.5 -8q-27 0 -53.5 6.5q-26.5 6.5 -49 16.5q-22.5 10 -39 22.5q-16.5 12.5 -24.5 24.5l45 57q10 -11 25 -21.5q15 -10.5 33 -18.5q18 -8 36.5 -12.5q18.5 -4.5 35.5 -4.5q32 0 56 15.5t24 46.5z" />
<glyph unicode="&#116;" horiz-adv-x="353" d="M62 575h80v-125h165v-75h-165v-196q0 -54 18.5 -83q18.5 -29 61.5 -29q23 0 41 8q18 8 30 17l25 -62q-18 -15 -47.5 -26.5q-29.5 -11.5 -67.5 -11.5q-76 0 -108.5 46q-32.5 46 -32.5 133z" />
<glyph unicode="&#117;" horiz-adv-x="540" d="M467 0h-80v64q-23 -29 -64 -51.5q-41 -22.5 -95 -22.5q-75 0 -120.5 46.5q-45.5 46.5 -45.5 145.5v268h80v-250q0 -64 27 -99.5q27 -35.5 89 -35.5q39 0 73.5 20q34.5 20 55.5 47l0 318l80 0z" />
<glyph unicode="&#118;" horiz-adv-x="476" d="M272 -4h-58l-209 454h94l109 -243q10 -22 20 -48.5q10 -26.5 18 -51.5q8 25 17.5 52q9.5 27 19.5 50l103 241l85 0z" />
<glyph unicode="&#119;" horiz-adv-x="706" d="M552 -4h-70l-112 293q-5 14 -9 27.5q-4 13.5 -8 27.5q-5 -16 -9 -30q-4 -14 -10 -28l-109 -290h-66l-149 454h86l88 -284q5 -17 8.5 -32q3.5 -15 8.5 -31q5 15 8.5 29.5q3.5 14.5 10.5 33.5l102 284h69l103 -283q6 -16 11 -32q5 -16 10 -33q7 34 18 69l82 279l81 0z" />
<glyph unicode="&#120;" horiz-adv-x="507" d="M311 233l171 -233h-98l-132 182l-134 -182h-93l170 229l-160 221h98l122 -170l124 170l93 0z" />
<glyph unicode="&#121;" horiz-adv-x="491" d="M301 0q-25 -60 -46 -99q-21 -39 -41 -61.5q-20 -22.5 -40.5 -31q-20.5 -8.5 -44.5 -8.5q-26 0 -46.5 8q-20.5 8 -38.5 20l26 61q11 -5 23.5 -10q12.5 -5 26.5 -5q29 0 51 24q22 24 45 78l10 24l-216 450h96l132 -286q8 -17 14 -34q6 -17 13 -34q9 33 21 69l104 285l91 0z" />
<glyph unicode="&#122;" horiz-adv-x="485" d="M60 450h380v-56l-282 -319h277v-75h-390v56l281 319l-266 0z" />
<glyph unicode="&#123;" horiz-adv-x="335" d="M110 92q0 30 -8.5 49q-8.5 19 -21.5 30q-13 11 -29 15q-16 4 -31 4l0 70q13 0 29 4.5q16 4.5 29.5 17q13.5 12.5 22.5 34q9 21.5 9 54.5v139q0 69 30 105q30 36 108 36h67v-75h-48q-43 0 -60 -21q-17 -21 -17 -72v-142q0 -49 -20.5 -79q-20.5 -30 -54.5 -35q32 -4 53.5 -30q21.5 -26 21.5 -84v-145q0 -50 20 -71q20 -21 63 -21h42v-75h-71q-65 0 -99.5 31q-34.5 31 -34.5 104z" />
<glyph unicode="&#124;" horiz-adv-x="330" d="M125 700h80v-700l-80 0z" />
<glyph unicode="&#125;" horiz-adv-x="335" d="M225 -65q0 -73 -34.5 -104q-34.5 -31 -100.5 -31h-70v75h42q43 0 63 21q20 21 20 71v145q0 58 21.5 84q21.5 26 53.5 30q-34 5 -54.5 35q-20.5 30 -20.5 79v142q0 51 -17.5 72q-17.5 21 -59.5 21h-48v75h67q77 0 107.5 -36.5q30.5 -36.5 30.5 -104.5v-139q0 -33 9 -54.5q9 -21.5 22.5 -34q13.5 -12.5 29 -17q15.5 -4.5 29.5 -4.5l0 -70q-15 0 -31 -4q-16 -4 -29 -15q-13 -11 -21.5 -30q-8.5 -19 -8.5 -49z" />
<glyph unicode="&#126;" horiz-adv-x="592" d="M50 358q32 34 67 53q35 19 69 19q31 0 60 -11q29 -11 57.5 -24.5q28.5 -13.5 57 -24.5q28.5 -11 57.5 -11q23 0 47 12.5q24 12.5 44 32.5l32 -55q-29 -27 -60.5 -43.5q-31.5 -16.5 -63.5 -16.5q-30 0 -59 11q-29 11 -57 24.5q-28 13.5 -56 24.5q-28 11 -55 11q-29 0 -55.5 -16q-26.5 -16 -48.5 -37z" />
<glyph unicode="&#160;" horiz-adv-x="225" />
<glyph unicode="&#161;" horiz-adv-x="310" d="M198 -243h-85v485h85zM211 403q0 -20 -15.5 -36.5q-15.5 -16.5 -42.5 -16.5q-23 0 -38 16.5q-15 16.5 -15 36.5q0 23 15 40q15 17 38 17q27 0 42.5 -17t15.5 -40z" />
<glyph unicode="&#162;" horiz-adv-x="592" d="M503 65q-25 -32 -62 -50q-37 -18 -81 -23l0 -112h-80v114q-44 7 -79 26.5q-35 19.5 -60 49.5q-25 30 -38.5 69q-13.5 39 -13.5 86q0 44 14 83.5q14 39.5 39 70q25 30.5 60.5 51q35.5 20.5 77.5 27.5l0 109h80v-108q41 -5 74.5 -18.5q33.5 -13.5 59.5 -38.5l-37 -63q-29 26 -61.5 36.5q-32.5 10.5 -67.5 10.5q-30 0 -58 -11.5q-28 -11.5 -49.5 -32.5q-21.5 -21 -34 -50.5q-12.5 -29.5 -12.5 -65.5q0 -37 13 -66.5q13 -29.5 35 -50.5q22 -21 51.5 -32q29.5 -11 62.5 -11q41 0 73.5 16q32.5 16 55.5 42z" />
<glyph unicode="&#163;" horiz-adv-x="592" d="M75 340h79q-8 19 -17.5 37.5q-9.5 18.5 -17.5 39q-8 20.5 -13.5 44q-5.5 23.5 -5.5 53.5q0 39 15 74.5q15 35.5 43.5 62q28.5 26.5 68 42q39.5 15.5 89.5 15.5q63 0 111 -20.5q48 -20.5 80 -55.5l-45 -62q-61 58 -144 58q-29 0 -53 -9.5q-24 -9.5 -40.5 -26q-16.5 -16.5 -25.5 -38q-9 -21.5 -9 -45.5q0 -28 6 -49.5q6 -21.5 15 -41q9 -19.5 18.5 -38q9.5 -18.5 17.5 -40.5l162 0v-65h-150v-9q0 -45 -17 -79q-17 -34 -37 -60q27 -3 53 -11q26 -8 52 -17q26 -9 51.5 -16q25.5 -7 51.5 -7q28 0 54 9q26 9 55 37l36 -62q-32 -32 -70 -48q-38 -16 -77 -16q-29 0 -57.5 8q-28.5 8 -56.5 18q-28 10 -56.5 18q-28.5 8 -57.5 8q-29 0 -57 -14.5q-28 -14.5 -54 -40.5l-34 63q20 22 41 36.5q21 14.5 43 23.5q22 28 37 61q15 33 15 74q0 6 0 12q0 6 -1 12l-98 0z" />
<glyph unicode="&#164;" horiz-adv-x="592" d="M69 345q0 76 41 135l-83 85l50 50l83 -85q27 20 61 31q34 11 75 11q41 0 74.5 -11q33.5 -11 60.5 -30l88 87l50 -50l-88 -87q20 -29 31 -64q11 -35 11 -72q0 -76 -42 -135l85 -85l-49 -49l-85 84q-27 -20 -61 -31q-34 -11 -75 -11q-42 0 -75.5 11q-33.5 11 -60.5 31l-88 -88l-49 49l87 89q-20 29 -30.5 63.5q-10.5 34.5 -10.5 71.5zt0 0zM144 345q0 -32 10.5 -60.5q10.5 -28.5 30 -50q19.5 -21.5 47.5 -34q28 -12.5 64 -12.5q37 0 65 12.5q28 12.5 47.5 34q19.5 21.5 29.5 50q10 28.5 10 60.5q0 33 -10.5 61.5q-10.5 28.5 -30 50q-19.5 21.5 -47.5 33.5q-28 12 -64 12q-35 0 -63.5 -12.5q-28.5 -12.5 -48 -33.5q-19.5 -21 -30 -49.5t-10.5 -61.5z" />
<glyph unicode="&#165;" horiz-adv-x="592" d="M68 364h146l-195 336h98l181 -320l182 320h93l-198 -336h147v-65h-185v-105h185v-65h-185v-129h-85v129h-184v65h184v105l-184 0z" />
<glyph unicode="&#166;" horiz-adv-x="330" d="M125 440v260h80v-260zM205 260v-260h-80l0 260z" />
<glyph unicode="&#167;" horiz-adv-x="524" d="M65 249q0 63 34.5 110.5q34.5 47.5 97.5 64.5q-34 19 -58 53q-24 34 -24 82q0 29 11 55q11 26 31.5 45q20.5 19 50.5 30q30 11 68 11q51 0 83.5 -20.5q32.5 -20.5 51.5 -44.5l-48 -54q-14 16 -32.5 30q-18.5 14 -52.5 14q-35 0 -59 -23.5q-24 -23.5 -24 -57.5q0 -41 25.5 -67.5q25.5 -26.5 61.5 -44.5q41 -3 74 -18q33 -15 56 -39.5q23 -24.5 35 -56.5q12 -32 12 -69q0 -63 -35.5 -110.5q-35.5 -47.5 -98.5 -64.5q33 -19 57.5 -52q24.5 -33 24.5 -81q0 -29 -11 -55q-11 -26 -31.5 -45q-20.5 -19 -50.5 -30q-30 -11 -68 -11q-51 0 -84 20q-33 20 -52 45l48 54q7 -8 15 -16q8 -8 18 -14q10 -6 23 -10q13 -4 30 -4q35 0 59 23.5q24 23.5 24 57.5q0 41 -26 67q-26 26 -63 44q-41 4 -73 19.5q-32 15.5 -54 39.5q-22 24 -34 55.5q-12 31.5 -12 67.5zt0 0zM145 249q0 -23 8.5 -43.5q8.5 -20.5 24 -36q15.5 -15.5 37 -24.5q21.5 -9 47.5 -9q27 0 48.5 9q21.5 9 36.5 24.5q15 15.5 23.5 36q8.5 20.5 8.5 43.5q0 23 -8.5 43.5q-8.5 20.5 -24 36.5q-15.5 16 -37 25q-21.5 9 -47.5 9q-26 0 -47.5 -9q-21.5 -9 -37 -24.5q-15.5 -15.5 -24 -36.5t-8.5 -44z" />
<glyph unicode="&#168;" horiz-adv-x="415" d="M60 610q0 21 13.5 33.5q13.5 12.5 33.5 12.5q17 0 30.5 -12.5q13.5 -12.5 14.5 -33.5q-1 -24 -14.5 -37q-13.5 -13 -30.5 -13q-20 0 -33.5 13q-13.5 13 -13.5 37zt0 0zM263 610q0 21 14 33.5q14 12.5 34 12.5q17 0 30.5 -12.5q13.5 -12.5 13.5 -33.5q0 -24 -13.5 -37q-13.5 -13 -30.5 -13q-20 0 -34 13t-14 37z" />
<glyph unicode="&#169;" horiz-adv-x="1018" d="M75 221q0 91 33 170q33 79 91.5 137.5q58.5 58.5 137.5 92.5q79 34 172 34q93 0 172 -34q79 -34 137.5 -92.5q58.5 -58.5 91.5 -137.5q33 -79 33 -170q0 -91 -33 -170q-33 -79 -91.5 -137.5q-58.5 -58.5 -137.5 -92.5q-79 -34 -172 -34q-93 0 -172 34q-79 34 -137.5 92.5q-58.5 58.5 -91.5 137.5q-33 79 -33 170zt0 0zM145 220q0 -75 27.5 -141q27.5 -66 76 -115.5q48.5 -49.5 115 -78q66.5 -28.5 145.5 -28.5q78 0 145 28.5q67 28.5 115.5 78q48.5 49.5 76 115.5q27.5 66 27.5 141q0 75 -27.5 141.5q-27.5 66.5 -76 116q-48.5 49.5 -115.5 78.5q-67 29 -145 29q-79 0 -145.5 -29q-66.5 -29 -115 -78.5q-48.5 -49.5 -76 -116q-27.5 -66.5 -27.5 -141.5zt0 0zM690 65q-29 -37 -75 -56q-46 -19 -98 -19q-54 0 -98 16.5q-44 16.5 -76 47.5q-32 31 -49.5 74.5q-17.5 43.5 -17.5 96.5q0 49 17 92q17 43 47.5 74.5q30.5 31.5 72 50q41.5 18.5 91.5 18.5q54 0 99.5 -13.5q45.5 -13.5 77.5 -45.5l-37 -63q-29 26 -61.5 36.5q-32.5 10.5 -67.5 10.5q-30 0 -58 -11.5q-28 -11.5 -49.5 -32.5q-21.5 -21 -34 -50.5q-12.5 -29.5 -12.5 -65.5q0 -37 13 -66.5q13 -29.5 35 -50.5q22 -21 51.5 -32q29.5 -11 62.5 -11q41 0 73.5 16q32.5 16 55.5 42z" />
<glyph unicode="&#170;" horiz-adv-x="425" d="M84 620q22 16 54 27q32 11 76 11q29 0 55 -8q26 -8 45 -24q19 -16 30 -40q11 -24 11 -57v-204h-70v47q-17 -21 -45.5 -36q-28.5 -15 -78.5 -15q-51 0 -81 30.5q-30 30.5 -30 72.5q0 53 33.5 80.5q33.5 27.5 92.5 27.5q66 0 109 -25l0 5q0 45 -22 65.5q-22 20.5 -62 20.5q-28 0 -49 -6.5q-21 -6.5 -38 -18.5zM195 380q29 0 51 11q22 11 39 25l0 46q-17 8 -40.5 14q-23.5 6 -45.5 6q-32 0 -53 -13.5q-21 -13.5 -21 -37.5q0 -23 19 -37t51 -14z" />
<glyph unicode="&#171;" horiz-adv-x="530" d="M235 248v4l188 216l52 -46l-148 -172l147 -173l-54 -47zM45 248v4l188 216l52 -46l-148 -172l147 -173l-54 -47z" />
<glyph unicode="&#172;" horiz-adv-x="592" d="M59 395h474v-201h-70v131l-404 0z" />
<glyph unicode="&#173;" horiz-adv-x="389" d="M75 310h239v-75l-239 0z" />
<glyph unicode="&#174;" horiz-adv-x="618" d="M50 497q0 53 20 100q20 47 55.5 82q35.5 35 83 55.5q47.5 20.5 101.5 20.5q53 0 100 -20.5q47 -20.5 82 -55.5q35 -35 55.5 -82q20.5 -47 20.5 -100q0 -54 -20.5 -102q-20.5 -48 -55.5 -83q-35 -35 -82 -55.5q-47 -20.5 -100 -20.5q-54 0 -101.5 20.5q-47.5 20.5 -83 55.5q-35.5 35 -55.5 83q-20 48 -20 102zt0 0zM115 496q0 -40 15.5 -75.5q15.5 -35.5 41.5 -61.5q26 -26 61.5 -41.5q35.5 -15.5 75.5 -15.5q40 0 75.5 15.5q35.5 15.5 61.5 41.5q26 26 41.5 61.5q15.5 35.5 15.5 75.5q0 40 -15.5 75.5q-15.5 35.5 -41.5 61.5q-26 26 -61.5 41.5q-35.5 15.5 -75.5 15.5q-40 0 -75.5 -15.5q-35.5 -15.5 -61.5 -41.5q-26 -26 -41.5 -61.5q-15.5 -35.5 -15.5 -75.5zt0 0zM211 360v280h98q59 0 83.5 -25q24.5 -25 24.5 -62q0 -29 -17 -51q-17 -22 -43 -30l74 -112h-65l-63 101h-37v-101zM266 600v-99h39q24 0 40.5 14q16.5 14 16.5 37q0 22 -15.5 35q-15.5 13 -44.5 13z" />
<glyph unicode="&#175;" horiz-adv-x="384" d="M60 645h264v-65l-264 0z" />
<glyph unicode="&#176;" horiz-adv-x="410" d="M50 569q0 33 12 61.5q12 28.5 33 49.5q21 21 49 33q28 12 60 12q32 0 60.5 -11.5q28.5 -11.5 49.5 -31.5q21 -20 33.5 -48.5q12.5 -28.5 12.5 -61.5q0 -33 -12.5 -61.5q-12.5 -28.5 -33.5 -49.5q-21 -21 -49.5 -33.5q-28.5 -12.5 -60.5 -12.5q-32 0 -60 12q-28 12 -49 32.5q-21 20.5 -33 48.5q-12 28 -12 61zt0 0zM120 570q0 -35 25 -60q25 -25 60 -25q17 0 32.5 6.5q15.5 6.5 27 18q11.5 11.5 18.5 27q7 15.5 7 33.5q0 35 -25 60q-25 25 -60 25q-18 0 -33.5 -7q-15.5 -7 -27 -18.5q-11.5 -11.5 -18 -27t-6.5 -32.5z" />
<glyph unicode="&#177;" horiz-adv-x="592" d="M69 480h188v191h75v-191h191v-70h-191v-123h-75v123h-188zM69 235h454v-70l-454 0z" />
<glyph unicode="&#178;" horiz-adv-x="349" d="M35 401q27 18 60.5 40q33.5 22 62.5 46.5q29 24.5 49 50.5q20 26 20 51q0 23 -15.5 39q-15.5 16 -45.5 16q-24 0 -44.5 -16q-20.5 -16 -24.5 -42l-59 21q8 46 45 71.5q37 25.5 90 25.5q65 0 96.5 -31q31.5 -31 31.5 -76q0 -35 -21 -65.5q-21 -30.5 -49.5 -54.5q-28.5 -24 -57.5 -41.5q-29 -17.5 -46 -25.5l192 0v-60l-284 0z" />
<glyph unicode="&#179;" horiz-adv-x="350" d="M169 344q-46 0 -85 17q-39 17 -59 53l41 38q12 -23 38 -36.5q26 -13.5 54 -13.5q38 0 57.5 15q19.5 15 19.5 38q0 20 -18 33.5q-18 13.5 -53 13.5h-34v50h30q26 0 44 14.5q18 14.5 18 36.5q0 21 -17 33q-17 12 -46 12q-34 0 -55.5 -14q-21.5 -14 -33.5 -31l-34 38q15 27 49 45.5q34 18.5 88 18.5q56 0 90 -23q34 -23 34 -65q0 -31 -19.5 -53q-19.5 -22 -54.5 -31l0 -1q43 -3 65 -27.5q22 -24.5 22 -55.5q0 -24 -11 -43.5q-11 -19.5 -30.5 -33q-19.5 -13.5 -45 -21t-54.5 -7.5z" />
<glyph unicode="&#180;" horiz-adv-x="288" d="M108 531l-48 34l106 157l62 -48z" />
<glyph unicode="&#181;" horiz-adv-x="545" d="M472 0h-80v64q-23 -29 -64 -51.5q-41 -22.5 -95 -22.5q-49 0 -86 20l0 -210h-80v650h80v-250q0 -64 27 -99.5q27 -35.5 89 -35.5q39 0 73.5 20q34.5 20 55.5 47l0 318l80 0z" />
<glyph unicode="&#182;" horiz-adv-x="461" d="M45 481q0 51 15.5 91.5q15.5 40.5 44 69q28.5 28.5 67.5 43.5q39 15 87 15h172v-75h-94v-638q0 -94 -39 -144.5q-39 -50.5 -126 -50.5q-35 0 -66 12q-31 12 -48 29l33 58q12 -9 32 -16.5q20 -7.5 43 -7.5q28 0 46 9.5q18 9.5 28 26.5q10 17 13.5 39q3.5 22 3.5 48v273q-43 0 -81.5 15q-38.5 15 -67.5 43q-29 28 -46 68.5t-17 91.5z" />
<glyph unicode="&#183;" horiz-adv-x="225" d="M57 299q0 20 15.5 36.5q15.5 16.5 41.5 16.5q23 0 38 -16.5q15 -16.5 15 -36.5q0 -23 -15 -40q-15 -17 -38 -17q-26 0 -41.5 17t-15.5 40z" />
<glyph unicode="&#184;" horiz-adv-x="351" d="M84 -132q15 -10 34 -16.5q19 -6.5 37 -6.5q24 0 40 9.5q16 9.5 16 26.5q0 18 -13 28.5q-13 10.5 -45 10.5h-6v80h43v-43q51 -3 76 -24q25 -21 25 -56q0 -36 -32.5 -59q-32.5 -23 -93.5 -23q-38 0 -62.5 11q-24.5 11 -42.5 23z" />
<glyph unicode="&#185;" horiz-adv-x="252" d="M127 701h50v-351h-70v269l-58 -37l-27 48z" />
<glyph unicode="&#186;" horiz-adv-x="476" d="M55 489q0 38 14 69q14 31 38.5 53.5q24.5 22.5 58 34.5q33.5 12 72.5 12q39 0 72.5 -12q33.5 -12 58 -34.5q24.5 -22.5 38.5 -53.5q14 -31 14 -69q0 -38 -14 -69q-14 -31 -38.5 -53.5q-24.5 -22.5 -58 -35q-33.5 -12.5 -72.5 -12.5q-39 0 -72.5 12.5q-33.5 12.5 -58 35q-24.5 22.5 -38.5 53.5q-14 31 -14 69zt0 0zM130 489q0 -24 9 -43.5q9 -19.5 24 -33q15 -13.5 34.5 -21q19.5 -7.5 40.5 -7.5q22 0 41.5 7.5q19.5 7.5 34.5 21q15 13.5 23.5 33q8.5 19.5 8.5 43.5q0 24 -8.5 43q-8.5 19 -23.5 32.5q-15 13.5 -34.5 21q-19.5 7.5 -41.5 7.5q-45 0 -76.5 -28t-31.5 -76z" />
<glyph unicode="&#187;" horiz-adv-x="530" d="M300 30l-54 47l147 173l-148 172l52 46l188 -216v-4zM110 30l-54 47l147 173l-148 172l52 46l188 -216l0 -4z" />
<glyph unicode="&#188;" horiz-adv-x="673" d="M137 701h50v-351h-70v269l-58 -37l-27 48zM564 710l46 -34l-513 -686l-47 33zM529 79h-194v46l168 225h67l-163 -216h122v91h65v-91h59v-55h-59v-79l-65 0z" />
<glyph unicode="&#189;" horiz-adv-x="689" d="M137 701h50v-351h-70v269l-58 -37l-27 48zM544 710l46 -34l-513 -686l-47 33zM365 51q27 18 60.5 40q33.5 22 62.5 46.5q29 24.5 49 50.5q20 26 20 51q0 23 -15.5 39q-15.5 16 -45.5 16q-24 0 -44.5 -16q-20.5 -16 -24.5 -42l-59 21q8 46 45 71.5q37 25.5 90 25.5q65 0 96.5 -31q31.5 -31 31.5 -76q0 -35 -21 -65.5q-21 -30.5 -49.5 -54.5q-28.5 -24 -57.5 -41.5q-29 -17.5 -46 -25.5l192 0v-60l-284 0z" />
<glyph unicode="&#190;" horiz-adv-x="723" d="M624 710l46 -34l-513 -686l-47 33zM579 79h-194v46l168 225h67l-163 -216h122v91h65v-91h59v-55h-59v-79h-65zM174 344q-46 0 -85 17q-39 17 -59 53l41 38q12 -23 38 -36.5q26 -13.5 54 -13.5q38 0 57.5 15q19.5 15 19.5 38q0 20 -18 33.5q-18 13.5 -53 13.5h-34v50h30q26 0 44 14.5q18 14.5 18 36.5q0 21 -17 33q-17 12 -46 12q-34 0 -55.5 -14q-21.5 -14 -33.5 -31l-34 38q15 27 49 45.5q34 18.5 88 18.5q56 0 90 -23q34 -23 34 -65q0 -31 -19.5 -53q-19.5 -22 -54.5 -31l0 -1q43 -3 65 -27.5q22 -24.5 22 -55.5q0 -24 -11 -43.5q-11 -19.5 -30.5 -33q-19.5 -13.5 -45 -21t-54.5 -7.5z" />
<glyph unicode="&#191;" horiz-adv-x="466" d="M116 -63q0 -23 9 -43q9 -20 25.5 -35q16.5 -15 38.5 -23.5q22 -8.5 49 -8.5q45 0 79.5 19q34.5 19 60.5 55l48 -53q-27 -44 -78 -72.5q-51 -28.5 -115 -28.5q-48 0 -86 14q-38 14 -64 37.5q-26 23.5 -39.5 55q-13.5 31.5 -13.5 66.5q0 50 16 83q16 33 40 57.5q24 24.5 50.5 43.5q26.5 19 48 39.5q21.5 20.5 33 46.5q11.5 26 4.5 64l72 0q9 -45 -0.5 -76.5q-9.5 -31.5 -29.5 -54q-20 -22.5 -45.5 -40q-25.5 -17.5 -48.5 -37.5q-23 -20 -38.5 -45.5q-15.5 -25.5 -15.5 -63.5zt0 0zM314 403q0 -20 -15.5 -36.5q-15.5 -16.5 -42.5 -16.5q-23 0 -38 16.5q-15 16.5 -15 36.5q0 23 15 40q15 17 38 17q27 0 42.5 -17t15.5 -40z" />
<glyph unicode="&#192;" horiz-adv-x="705" d="M316 704h73l301 -704h-91l-90 212h-319l-89 -212h-86zM224 292h252l-126 299zM193 819l30 68l195 -104l-23 -48z" />
<glyph unicode="&#193;" horiz-adv-x="705" d="M316 704h73l301 -704h-91l-90 212h-319l-89 -212h-86zM224 292h252l-126 299zM311 735l-23 48l195 104l30 -68z" />
<glyph unicode="&#194;" horiz-adv-x="705" d="M316 704h73l301 -704h-91l-90 212h-319l-89 -212h-86zM224 292h252l-126 299zM348 882h4l174 -103l-33 -46l-143 76l-144 -76l-29 45z" />
<glyph unicode="&#195;" horiz-adv-x="705" d="M316 704h73l301 -704h-91l-90 212h-319l-89 -212h-86zM224 292h252l-126 299zM178 811q21 23 47.5 35q26.5 12 52.5 12q22 0 41 -6.5q19 -6.5 36.5 -14q17.5 -7.5 35 -13.5q17.5 -6 37.5 -6q17 0 36.5 6q19.5 6 38.5 26l22 -50q-21 -28 -46.5 -40q-25.5 -12 -55.5 -12q-20 0 -38.5 6q-18.5 6 -37 13.5q-18.5 7.5 -37.5 14q-19 6.5 -40 6.5q-33 0 -66 -27z" />
<glyph unicode="&#196;" horiz-adv-x="705" d="M316 704h73l301 -704h-91l-90 212h-319l-89 -212h-86zM224 292h252l-126 299zM182 813q0 21 16 33q16 12 39 12q20 0 36 -12q16 -12 16 -33q0 -23 -16 -35.5q-16 -12.5 -36 -12.5q-23 0 -39 12.5q-16 12.5 -16 35.5zt0 0zM414 813q0 21 16.5 33q16.5 12 39.5 12q20 0 35.5 -11.5q15.5 -11.5 15.5 -33.5q0 -23 -15.5 -35.5q-15.5 -12.5 -35.5 -12.5q-23 0 -39.5 12.5t-16.5 35.5z" />
<glyph unicode="&#197;" horiz-adv-x="705" d="M227 792q0 25 10 43q10 18 26.5 30q16.5 12 39 17.5q22.5 5.5 48.5 5.5q26 0 49 -5.5q23 -5.5 40 -17.5q17 -12 27 -30q10 -18 10 -43q0 -39 -23.5 -63.5q-23.5 -24.5 -61.5 -32.5l298 -696h-91l-90 212h-319l-89 -212h-86l297 696q-37 8 -61 32q-24 24 -24 64zt0 0zM224 292h252l-126 299zM287 792q0 -28 18.5 -41.5q18.5 -13.5 46.5 -13.5q27 0 46 13.5q19 13.5 19 41.5q0 27 -19 39q-19 12 -46 12q-28 0 -46.5 -12t-18.5 -39z" />
<glyph unicode="&#198;" horiz-adv-x="956" d="M881 620h-310v-226h280v-80h-280v-234h320v-80h-405v216h-250l-152 -216h-99l503 700h393zM292 296h194l0 275z" />
<glyph unicode="&#199;" horiz-adv-x="656" d="M302 -127q15 -11 35.5 -19.5q20.5 -8.5 38.5 -8.5q24 0 40 9.5q16 9.5 16 26.5q0 18 -13 28.5q-13 10.5 -45 10.5h-6v72q-71 6 -129.5 33.5q-58.5 27.5 -100.5 74q-42 46.5 -65 110q-23 63.5 -23 140.5q0 75 23.5 141q23.5 66 68.5 114.5q45 48.5 110 76.5q65 28 147 28q68 0 121.5 -18q53.5 -18 91.5 -50l-39 -64q-35 26 -76.5 39q-41.5 13 -96.5 13q-57 0 -105 -20.5q-48 -20.5 -82.5 -57.5q-34.5 -37 -53.5 -88.5q-19 -51.5 -19 -113.5q0 -63 20 -114.5q20 -51.5 56 -88q36 -36.5 86 -57q50 -20.5 111 -20.5q51 0 97 16.5q46 16.5 82 45.5l34 -64q-35 -35 -93 -55.5q-58 -20.5 -122 -22.5l0 -33q56 -3 81 -24q25 -21 25 -56q0 -36 -32.5 -59q-32.5 -23 -90.5 -23q-45 0 -72.5 12q-27.5 12 -45.5 24z" />
<glyph unicode="&#200;" horiz-adv-x="575" d="M105 700h395v-80h-310v-226h280v-80h-280v-234h320v-80h-405zM158 819l30 68l195 -104l-23 -48z" />
<glyph unicode="&#201;" horiz-adv-x="575" d="M105 700h395v-80h-310v-226h280v-80h-280v-234h320v-80h-405zM251 735l-23 48l195 104l30 -68z" />
<glyph unicode="&#202;" horiz-adv-x="575" d="M105 700h395v-80h-310v-226h280v-80h-280v-234h320v-80h-405zM300 882h4l174 -103l-33 -46l-143 76l-144 -76l-29 45z" />
<glyph unicode="&#203;" horiz-adv-x="575" d="M105 700h395v-80h-310v-226h280v-80h-280v-234h320v-80h-405zM136 813q0 21 16 33q16 12 39 12q20 0 36 -12q16 -12 16 -33q0 -23 -16 -35.5q-16 -12.5 -36 -12.5q-23 0 -39 12.5q-16 12.5 -16 35.5zt0 0zM368 813q0 21 16.5 33q16.5 12 39.5 12q20 0 35.5 -11.5q15.5 -11.5 15.5 -33.5q0 -23 -15.5 -35.5q-15.5 -12.5 -35.5 -12.5q-23 0 -39.5 12.5t-16.5 35.5z" />
<glyph unicode="&#204;" horiz-adv-x="335" d="M125 700h85v-700h-85zM-2 819l30 68l195 -104l-23 -48z" />
<glyph unicode="&#205;" horiz-adv-x="335" d="M125 700h85v-700h-85zM136 735l-23 48l195 104l30 -68z" />
<glyph unicode="&#206;" horiz-adv-x="335" d="M125 700h85v-700h-85zM164 882h4l174 -103l-33 -46l-143 76l-144 -76l-29 45z" />
<glyph unicode="&#207;" horiz-adv-x="335" d="M125 700h85v-700h-85zM-2 813q0 21 16 33q16 12 39 12q20 0 36 -12q16 -12 16 -33q0 -23 -16 -35.5q-16 -12.5 -36 -12.5q-23 0 -39 12.5q-16 12.5 -16 35.5zt0 0zM230 813q0 21 16.5 33q16.5 12 39.5 12q20 0 35.5 -11.5q15.5 -11.5 15.5 -33.5q0 -23 -15.5 -35.5q-15.5 -12.5 -35.5 -12.5q-23 0 -39.5 12.5t-16.5 35.5z" />
<glyph unicode="&#208;" horiz-adv-x="754" d="M10 391h110v309h12q17 0 39 0.5q22 0.5 46 1q24 0.5 48.5 1q24.5 0.5 45.5 0.5q105 0 179.5 -28q74.5 -28 122 -75.5q47.5 -47.5 69.5 -109.5q22 -62 22 -131q0 -75 -25 -140.5q-25 -65.5 -75.5 -114.5q-50.5 -49 -125.5 -77.5q-75 -28.5 -175 -28.5q-35 0 -81 1q-46 1 -91 1h-11v316h-110zM309 623q-32 0 -55 -1q-23 -1 -49 -2l0 -229h188v-75h-188v-236q35 -1 63.5 -1.5q28.5 -0.5 37.5 -0.5q75 0 132.5 21q57.5 21 96.5 58.5q39 37.5 59 89q20 51.5 20 112.5q0 57 -19 105.5q-19 48.5 -57.5 83.5q-38.5 35 -95.5 55t-133 20z" />
<glyph unicode="&#209;" horiz-adv-x="795" d="M622 0l-437 550v-550h-80v700h68l437 -552v552h80v-700zM230 811q21 23 47.5 35q26.5 12 52.5 12q22 0 41 -6.5q19 -6.5 36.5 -14q17.5 -7.5 35 -13.5q17.5 -6 37.5 -6q17 0 36.5 6q19.5 6 38.5 26l22 -50q-21 -28 -46.5 -40q-25.5 -12 -55.5 -12q-20 0 -38.5 6q-18.5 6 -37 13.5q-18.5 7.5 -37.5 14q-19 6.5 -40 6.5q-33 0 -66 -27z" />
<glyph unicode="&#210;" horiz-adv-x="814" d="M50 350q0 76 26.5 142q26.5 66 74 114.5q47.5 48.5 113 76q65.5 27.5 143.5 27.5q76 0 141.5 -26.5q65.5 -26.5 113.5 -74q48 -47.5 75 -113.5q27 -66 27 -146q0 -78 -27 -144q-27 -66 -75 -114q-48 -48 -113.5 -75q-65.5 -27 -141.5 -27q-76 0 -141.5 26.5q-65.5 26.5 -113.5 74q-48 47.5 -75 113.5q-27 66 -27 146zt0 0zM140 350q0 -60 20.5 -111q20.5 -51 56.5 -88.5q36 -37.5 85 -59q49 -21.5 105 -21.5q60 0 109 21.5q49 21.5 84.5 59q35.5 37.5 54.5 89q19 51.5 19 110.5q0 61 -20.5 112.5q-20.5 51.5 -56.5 88.5q-36 37 -85 58q-49 21 -105 21q-57 0 -106 -21q-49 -21 -84.5 -58q-35.5 -37 -56 -88.5q-20.5 -51.5 -20.5 -112.5zt0 0zM278 819l30 68l195 -104l-23 -48z" />
<glyph unicode="&#211;" horiz-adv-x="814" d="M50 350q0 76 26.5 142q26.5 66 74 114.5q47.5 48.5 113 76q65.5 27.5 143.5 27.5q76 0 141.5 -26.5q65.5 -26.5 113.5 -74q48 -47.5 75 -113.5q27 -66 27 -146q0 -78 -27 -144q-27 -66 -75 -114q-48 -48 -113.5 -75q-65.5 -27 -141.5 -27q-76 0 -141.5 26.5q-65.5 26.5 -113.5 74q-48 47.5 -75 113.5q-27 66 -27 146zt0 0zM140 350q0 -60 20.5 -111q20.5 -51 56.5 -88.5q36 -37.5 85 -59q49 -21.5 105 -21.5q60 0 109 21.5q49 21.5 84.5 59q35.5 37.5 54.5 89q19 51.5 19 110.5q0 61 -20.5 112.5q-20.5 51.5 -56.5 88.5q-36 37 -85 58q-49 21 -105 21q-57 0 -106 -21q-49 -21 -84.5 -58q-35.5 -37 -56 -88.5q-20.5 -51.5 -20.5 -112.5zt0 0zM361 735l-23 48l195 104l30 -68z" />
<glyph unicode="&#212;" horiz-adv-x="814" d="M50 350q0 76 26.5 142q26.5 66 74 114.5q47.5 48.5 113 76q65.5 27.5 143.5 27.5q76 0 141.5 -26.5q65.5 -26.5 113.5 -74q48 -47.5 75 -113.5q27 -66 27 -146q0 -78 -27 -144q-27 -66 -75 -114q-48 -48 -113.5 -75q-65.5 -27 -141.5 -27q-76 0 -141.5 26.5q-65.5 26.5 -113.5 74q-48 47.5 -75 113.5q-27 66 -27 146zt0 0zM140 350q0 -60 20.5 -111q20.5 -51 56.5 -88.5q36 -37.5 85 -59q49 -21.5 105 -21.5q60 0 109 21.5q49 21.5 84.5 59q35.5 37.5 54.5 89q19 51.5 19 110.5q0 61 -20.5 112.5q-20.5 51.5 -56.5 88.5q-36 37 -85 58q-49 21 -105 21q-57 0 -106 -21q-49 -21 -84.5 -58q-35.5 -37 -56 -88.5q-20.5 -51.5 -20.5 -112.5zt0 0zM407 882h4l174 -103l-33 -46l-143 76l-144 -76l-29 45z" />
<glyph unicode="&#213;" horiz-adv-x="814" d="M50 350q0 76 26.5 142q26.5 66 74 114.5q47.5 48.5 113 76q65.5 27.5 143.5 27.5q76 0 141.5 -26.5q65.5 -26.5 113.5 -74q48 -47.5 75 -113.5q27 -66 27 -146q0 -78 -27 -144q-27 -66 -75 -114q-48 -48 -113.5 -75q-65.5 -27 -141.5 -27q-76 0 -141.5 26.5q-65.5 26.5 -113.5 74q-48 47.5 -75 113.5q-27 66 -27 146zt0 0zM140 350q0 -60 20.5 -111q20.5 -51 56.5 -88.5q36 -37.5 85 -59q49 -21.5 105 -21.5q60 0 109 21.5q49 21.5 84.5 59q35.5 37.5 54.5 89q19 51.5 19 110.5q0 61 -20.5 112.5q-20.5 51.5 -56.5 88.5q-36 37 -85 58q-49 21 -105 21q-57 0 -106 -21q-49 -21 -84.5 -58q-35.5 -37 -56 -88.5q-20.5 -51.5 -20.5 -112.5zt0 0zM232 811q21 23 47.5 35q26.5 12 52.5 12q22 0 41 -6.5q19 -6.5 36.5 -14q17.5 -7.5 35 -13.5q17.5 -6 37.5 -6q17 0 36.5 6q19.5 6 38.5 26l22 -50q-21 -28 -46.5 -40q-25.5 -12 -55.5 -12q-20 0 -38.5 6q-18.5 6 -37 13.5q-18.5 7.5 -37.5 14q-19 6.5 -40 6.5q-33 0 -66 -27z" />
<glyph unicode="&#214;" horiz-adv-x="814" d="M50 350q0 76 26.5 142q26.5 66 74 114.5q47.5 48.5 113 76q65.5 27.5 143.5 27.5q76 0 141.5 -26.5q65.5 -26.5 113.5 -74q48 -47.5 75 -113.5q27 -66 27 -146q0 -78 -27 -144q-27 -66 -75 -114q-48 -48 -113.5 -75q-65.5 -27 -141.5 -27q-76 0 -141.5 26.5q-65.5 26.5 -113.5 74q-48 47.5 -75 113.5q-27 66 -27 146zt0 0zM140 350q0 -60 20.5 -111q20.5 -51 56.5 -88.5q36 -37.5 85 -59q49 -21.5 105 -21.5q60 0 109 21.5q49 21.5 84.5 59q35.5 37.5 54.5 89q19 51.5 19 110.5q0 61 -20.5 112.5q-20.5 51.5 -56.5 88.5q-36 37 -85 58q-49 21 -105 21q-57 0 -106 -21q-49 -21 -84.5 -58q-35.5 -37 -56 -88.5q-20.5 -51.5 -20.5 -112.5zt0 0zM236 813q0 21 16 33q16 12 39 12q20 0 36 -12q16 -12 16 -33q0 -23 -16 -35.5q-16 -12.5 -36 -12.5q-23 0 -39 12.5q-16 12.5 -16 35.5zt0 0zM468 813q0 21 16.5 33q16.5 12 39.5 12q20 0 35.5 -11.5q15.5 -11.5 15.5 -33.5q0 -23 -15.5 -35.5q-15.5 -12.5 -35.5 -12.5q-23 0 -39.5 12.5t-16.5 35.5z" />
<glyph unicode="&#215;" horiz-adv-x="592" d="M161 545l135 -136l135 136l49 -50l-135 -135l137 -136l-50 -50l-136 136l-137 -136l-49 50l136 136l-135 135z" />
<glyph unicode="&#216;" horiz-adv-x="814" d="M50 350q0 76 26.5 142q26.5 66 74 114.5q47.5 48.5 113 76q65.5 27.5 143.5 27.5q68 0 126.5 -21q58.5 -21 104.5 -59l44 43l46 -47l-43 -42q38 -46 58.5 -105q20.5 -59 20.5 -129q0 -78 -27 -144q-27 -66 -75 -114q-48 -48 -113.5 -75q-65.5 -27 -141.5 -27q-71 0 -132 22.5q-61 22.5 -108 64.5l-45 -44l-47 48l46 45q-34 45 -52.5 101.5q-18.5 56.5 -18.5 122.5zt0 0zM674 350q0 50 -14 93q-14 43 -39 78l-392 -383q35 -32 80.5 -50q45.5 -18 97.5 -18q60 0 109 21.5q49 21.5 84.5 59q35.5 37.5 54.5 89q19 51.5 19 110.5zt0 0zM140 350q0 -46 12 -86.5q12 -40.5 34 -74.5l390 381q-34 29 -77 44.5q-43 15.5 -92 15.5q-57 0 -106 -21q-49 -21 -84.5 -58q-35.5 -37 -56 -88.5t-20.5 -112.5z" />
<glyph unicode="&#217;" horiz-adv-x="751" d="M656 292q0 -80 -22 -137q-22 -57 -59.5 -93.5q-37.5 -36.5 -86.5 -53.5q-49 -17 -103 -17q-63 0 -116 19.5q-53 19.5 -92 58q-39 38.5 -60.5 96q-21.5 57.5 -21.5 134.5v401h85v-385q0 -115 53 -179.5q53 -64.5 152 -64.5q87 0 136.5 59q49.5 59 49.5 179v391h85zM233 819l30 68l195 -104l-23 -48z" />
<glyph unicode="&#218;" horiz-adv-x="751" d="M656 292q0 -80 -22 -137q-22 -57 -59.5 -93.5q-37.5 -36.5 -86.5 -53.5q-49 -17 -103 -17q-63 0 -116 19.5q-53 19.5 -92 58q-39 38.5 -60.5 96q-21.5 57.5 -21.5 134.5v401h85v-385q0 -115 53 -179.5q53 -64.5 152 -64.5q87 0 136.5 59q49.5 59 49.5 179v391h85zM326 735l-23 48l195 104l30 -68z" />
<glyph unicode="&#219;" horiz-adv-x="751" d="M656 292q0 -80 -22 -137q-22 -57 -59.5 -93.5q-37.5 -36.5 -86.5 -53.5q-49 -17 -103 -17q-63 0 -116 19.5q-53 19.5 -92 58q-39 38.5 -60.5 96q-21.5 57.5 -21.5 134.5v401h85v-385q0 -115 53 -179.5q53 -64.5 152 -64.5q87 0 136.5 59q49.5 59 49.5 179v391h85zM371 882h4l174 -103l-33 -46l-143 76l-144 -76l-29 45z" />
<glyph unicode="&#220;" horiz-adv-x="751" d="M656 292q0 -80 -22 -137q-22 -57 -59.5 -93.5q-37.5 -36.5 -86.5 -53.5q-49 -17 -103 -17q-63 0 -116 19.5q-53 19.5 -92 58q-39 38.5 -60.5 96q-21.5 57.5 -21.5 134.5v401h85v-385q0 -115 53 -179.5q53 -64.5 152 -64.5q87 0 136.5 59q49.5 59 49.5 179v391h85zM201 813q0 21 16 33q16 12 39 12q20 0 36 -12q16 -12 16 -33q0 -23 -16 -35.5q-16 -12.5 -36 -12.5q-23 0 -39 12.5q-16 12.5 -16 35.5zt0 0zM433 813q0 21 16.5 33q16.5 12 39.5 12q20 0 35.5 -11.5q15.5 -11.5 15.5 -33.5q0 -23 -15.5 -35.5q-15.5 -12.5 -35.5 -12.5q-23 0 -39.5 12.5t-16.5 35.5z" />
<glyph unicode="&#221;" horiz-adv-x="604" d="M343 300v-300h-85v300l-248 400h98l196 -320l197 320h93zM256 735l-23 48l195 104l30 -68z" />
<glyph unicode="&#222;" horiz-adv-x="597" d="M105 0v700h85v-105q9 0 22.5 0.5q13.5 0.5 28 0.5q14.5 0 27 0.5q12.5 0.5 20.5 0.5q75 0 125 -18.5q50 -18.5 79.5 -49q29.5 -30.5 42 -69.5q12.5 -39 12.5 -80q0 -43 -15.5 -82.5q-15.5 -39.5 -46.5 -70q-31 -30.5 -78.5 -49q-47.5 -18.5 -111.5 -18.5q-21 0 -50 1q-29 1 -55 3l0 -164zM289 517q-10 0 -23.5 -0.5q-13.5 -0.5 -27.5 -1q-14 -0.5 -26.5 -1q-12.5 -0.5 -21.5 -0.5l0 -269q26 -2 51 -3.5q25 -1.5 51 -1.5q78 0 121.5 37.5q43.5 37.5 43.5 103.5q0 63 -40.5 99.5t-127.5 36.5z" />
<glyph unicode="&#223;" horiz-adv-x="546" d="M421 154q0 27 -13.5 46.5q-13.5 19.5 -34 36q-20.5 16.5 -44 31q-23.5 14.5 -44 31.5q-20.5 17 -34 38q-13.5 21 -13.5 51q0 36 14.5 59q14.5 23 32.5 41.5q18 18.5 32.5 36.5q14.5 18 14.5 44q0 29 -24 47.5q-24 18.5 -56 18.5q-51 0 -74 -32.5q-23 -32.5 -23 -104.5v-500h-80v510q0 105 49.5 153.5q49.5 48.5 138.5 48.5q33 0 61 -9.5q28 -9.5 49 -27q21 -17.5 32.5 -40.5q11.5 -23 11.5 -50q0 -37 -14.5 -59.5q-14.5 -22.5 -32.5 -40.5q-18 -18 -32.5 -35.5q-14.5 -17.5 -14.5 -44.5q0 -26 13.5 -44q13.5 -18 34 -33q20.5 -15 44 -29q23.5 -14 44 -33.5q20.5 -19.5 34 -46q13.5 -26.5 13.5 -65.5q0 -34 -11.5 -63.5q-11.5 -29.5 -32 -51.5q-20.5 -22 -49 -34.5q-28.5 -12.5 -61.5 -12.5q-52 0 -88 20q-36 20 -55 45l27 61q16 -19 40 -35q24 -16 57 -16q35 0 61.5 23t26.5 66z" />
<glyph unicode="&#224;" horiz-adv-x="460" d="M75 419q30 19 69 30q39 11 81 11q96 0 134.5 -48q38.5 -48 38.5 -136v-276h-76v58q-20 -26 -54 -45.5q-34 -19.5 -90 -19.5q-62 0 -100 36.5q-38 36.5 -38 102.5q0 34 13 61q13 27 35.5 45q22.5 18 54 27.5q31.5 9.5 67.5 9.5q26 0 57.5 -6q31.5 -6 54.5 -23q0 31 -3.5 57.5q-3.5 26.5 -14 45q-10.5 18.5 -31 29q-20.5 10.5 -53.5 10.5q-42 0 -69.5 -9.5q-27.5 -9.5 -54.5 -23.5zM206 65q44 0 71.5 19q27.5 19 44.5 39l0 57q-42 30 -101 30q-18 0 -35.5 -4.5q-17.5 -4.5 -31 -13.5q-13.5 -9 -21.5 -23q-8 -14 -8 -33q0 -32 21 -51.5q21 -19.5 60 -19.5zt0 0zM130 673l63 48l107 -156l-49 -34z" />
<glyph unicode="&#225;" horiz-adv-x="460" d="M75 419q30 19 69 30q39 11 81 11q96 0 134.5 -48q38.5 -48 38.5 -136v-276h-76v58q-20 -26 -54 -45.5q-34 -19.5 -90 -19.5q-62 0 -100 36.5q-38 36.5 -38 102.5q0 34 13 61q13 27 35.5 45q22.5 18 54 27.5q31.5 9.5 67.5 9.5q26 0 57.5 -6q31.5 -6 54.5 -23q0 31 -3.5 57.5q-3.5 26.5 -14 45q-10.5 18.5 -31 29q-20.5 10.5 -53.5 10.5q-42 0 -69.5 -9.5q-27.5 -9.5 -54.5 -23.5zM206 65q44 0 71.5 19q27.5 19 44.5 39l0 57q-42 30 -101 30q-18 0 -35.5 -4.5q-17.5 -4.5 -31 -13.5q-13.5 -9 -21.5 -23q-8 -14 -8 -33q0 -32 21 -51.5q21 -19.5 60 -19.5zt0 0zM215 531l-48 34l106 157l62 -48z" />
<glyph unicode="&#226;" horiz-adv-x="460" d="M75 419q30 19 69 30q39 11 81 11q96 0 134.5 -48q38.5 -48 38.5 -136v-276h-76v58q-20 -26 -54 -45.5q-34 -19.5 -90 -19.5q-62 0 -100 36.5q-38 36.5 -38 102.5q0 34 13 61q13 27 35.5 45q22.5 18 54 27.5q31.5 9.5 67.5 9.5q26 0 57.5 -6q31.5 -6 54.5 -23q0 31 -3.5 57.5q-3.5 26.5 -14 45q-10.5 18.5 -31 29q-20.5 10.5 -53.5 10.5q-42 0 -69.5 -9.5q-27.5 -9.5 -54.5 -23.5zM206 65q44 0 71.5 19q27.5 19 44.5 39l0 57q-42 30 -101 30q-18 0 -35.5 -4.5q-17.5 -4.5 -31 -13.5q-13.5 -9 -21.5 -23q-8 -14 -8 -33q0 -32 21 -51.5q21 -19.5 60 -19.5zt0 0zM371 574l-38 -48l-104 91l-104 -90l-38 47l141 133l4 0z" />
<glyph unicode="&#227;" horiz-adv-x="460" d="M75 419q30 19 69 30q39 11 81 11q96 0 134.5 -48q38.5 -48 38.5 -136v-276h-76v58q-20 -26 -54 -45.5q-34 -19.5 -90 -19.5q-62 0 -100 36.5q-38 36.5 -38 102.5q0 34 13 61q13 27 35.5 45q22.5 18 54 27.5q31.5 9.5 67.5 9.5q26 0 57.5 -6q31.5 -6 54.5 -23q0 31 -3.5 57.5q-3.5 26.5 -14 45q-10.5 18.5 -31 29q-20.5 10.5 -53.5 10.5q-42 0 -69.5 -9.5q-27.5 -9.5 -54.5 -23.5zM206 65q44 0 71.5 19q27.5 19 44.5 39l0 57q-42 30 -101 30q-18 0 -35.5 -4.5q-17.5 -4.5 -31 -13.5q-13.5 -9 -21.5 -23q-8 -14 -8 -33q0 -32 21 -51.5q21 -19.5 60 -19.5zt0 0zM66 594q29 32 57 46q28 14 53 14q18 0 32 -7q14 -7 27 -15q13 -8 26 -15q13 -7 28 -7q20 0 34.5 8.5q14.5 8.5 36.5 26.5l28 -41q-56 -59 -106 -59q-17 0 -30.5 7q-13.5 7 -26.5 15q-13 8 -26.5 15q-13.5 7 -30.5 7q-15 0 -32.5 -9q-17.5 -9 -36.5 -23z" />
<glyph unicode="&#228;" horiz-adv-x="460" d="M75 419q30 19 69 30q39 11 81 11q96 0 134.5 -48q38.5 -48 38.5 -136v-276h-76v58q-20 -26 -54 -45.5q-34 -19.5 -90 -19.5q-62 0 -100 36.5q-38 36.5 -38 102.5q0 34 13 61q13 27 35.5 45q22.5 18 54 27.5q31.5 9.5 67.5 9.5q26 0 57.5 -6q31.5 -6 54.5 -23q0 31 -3.5 57.5q-3.5 26.5 -14 45q-10.5 18.5 -31 29q-20.5 10.5 -53.5 10.5q-42 0 -69.5 -9.5q-27.5 -9.5 -54.5 -23.5zM206 65q44 0 71.5 19q27.5 19 44.5 39l0 57q-42 30 -101 30q-18 0 -35.5 -4.5q-17.5 -4.5 -31 -13.5q-13.5 -9 -21.5 -23q-8 -14 -8 -33q0 -32 21 -51.5q21 -19.5 60 -19.5zt0 0zM83 610q0 21 13.5 33.5q13.5 12.5 33.5 12.5q17 0 30.5 -12.5q13.5 -12.5 14.5 -33.5q-1 -24 -14.5 -37q-13.5 -13 -30.5 -13q-20 0 -33.5 13q-13.5 13 -13.5 37zt0 0zM286 610q0 21 14 33.5q14 12.5 34 12.5q17 0 30.5 -12.5q13.5 -12.5 13.5 -33.5q0 -24 -13.5 -37q-13.5 -13 -30.5 -13q-20 0 -34 13t-14 37z" />
<glyph unicode="&#229;" horiz-adv-x="460" d="M75 419q30 19 69 30q39 11 81 11q96 0 134.5 -48q38.5 -48 38.5 -136v-276h-76v58q-20 -26 -54 -45.5q-34 -19.5 -90 -19.5q-62 0 -100 36.5q-38 36.5 -38 102.5q0 34 13 61q13 27 35.5 45q22.5 18 54 27.5q31.5 9.5 67.5 9.5q26 0 57.5 -6q31.5 -6 54.5 -23q0 31 -3.5 57.5q-3.5 26.5 -14 45q-10.5 18.5 -31 29q-20.5 10.5 -53.5 10.5q-42 0 -69.5 -9.5q-27.5 -9.5 -54.5 -23.5zM206 65q44 0 71.5 19q27.5 19 44.5 39l0 57q-42 30 -101 30q-18 0 -35.5 -4.5q-17.5 -4.5 -31 -13.5q-13.5 -9 -21.5 -23q-8 -14 -8 -33q0 -32 21 -51.5q21 -19.5 60 -19.5zt0 0zM116 613q0 23 8.5 43q8.5 20 24 35q15.5 15 36.5 24q21 9 45 9q25 0 46 -9q21 -9 36.5 -24q15.5 -15 24.5 -35q9 -20 9 -43q0 -23 -9 -43q-9 -20 -24.5 -35q-15.5 -15 -36.5 -23.5q-21 -8.5 -46 -8.5q-24 0 -45 8.5q-21 8.5 -36.5 23.5q-15.5 15 -24 35q-8.5 20 -8.5 43zt0 0zM168 614q0 -28 18 -47q18 -19 45 -19q27 0 45 19q18 19 18 47q0 27 -18 46q-18 19 -45 19q-27 0 -45 -19t-18 -46z" />
<glyph unicode="&#230;" horiz-adv-x="775" d="M225 460q54 0 88 -15q34 -15 54 -44q29 27 70 43q41 16 92 16q43 0 81.5 -15q38.5 -15 66.5 -42q28 -27 44.5 -65q16.5 -38 16.5 -84q0 -31 -5 -54l-335 0v-62q21 -35 57 -54q36 -19 89 -19q44 0 80 13.5q36 13.5 58 33.5l25 -63q-33 -30 -78.5 -44.5q-45.5 -14.5 -90.5 -14.5q-58 0 -103.5 18.5q-45.5 18.5 -77.5 51.5q-42 -38 -81.5 -52.5q-39.5 -14.5 -81.5 -14.5q-74 0 -114 36.5q-40 36.5 -40 102.5q0 34 13 61q13 27 35.5 45q22.5 18 54 27.5q31.5 9.5 67.5 9.5q13 0 28.5 -1q15.5 -1 30.5 -3q15 -2 28 -4.5q13 -2.5 21 -5.5q3 60 -18 92q-21 32 -80 32q-42 0 -69.5 -9.5q-27.5 -9.5 -54.5 -23.5l-21 67q30 19 69 30q39 11 81 11zt0 0zM398 265h257q-3 56 -37 88q-34 32 -93 32q-42 0 -75.5 -18q-33.5 -18 -53.5 -51q1 -9 1.5 -19q0.5 -10 0.5 -21zM206 68q44 0 69.5 17.5q25.5 17.5 42.5 37.5l0 73q-25 7 -46.5 10.5q-21.5 3.5 -50.5 3.5q-18 0 -35.5 -4.5q-17.5 -4.5 -31 -13.5q-13.5 -9 -21.5 -23q-8 -14 -8 -33q0 -32 23 -50t58 -18z" />
<glyph unicode="&#231;" horiz-adv-x="488" d="M183 -132q15 -10 34 -16.5q19 -6.5 37 -6.5q24 0 40 9.5q16 9.5 16 26.5q0 18 -13 28.5q-13 10.5 -45 10.5h-6v72q-46 5 -83.5 24q-37.5 19 -64.5 49q-27 30 -41.5 70.5q-14.5 40.5 -14.5 89.5q0 49 17 92q17 43 47.5 74.5q30.5 31.5 72 50q41.5 18.5 91.5 18.5q54 0 99.5 -13.5q45.5 -13.5 77.5 -45.5l-37 -63q-29 26 -61.5 36.5q-32.5 10.5 -67.5 10.5q-30 0 -58 -11.5q-28 -11.5 -49.5 -32.5q-21.5 -21 -34 -50.5q-12.5 -29.5 -12.5 -65.5q0 -37 13 -66.5q13 -29.5 35 -50.5q22 -21 51.5 -32q29.5 -11 62.5 -11q41 0 73.5 16q32.5 16 55.5 42l38 -58q-28 -36 -72 -54.5q-44 -18.5 -95 -20.5l0 -33q51 -3 76 -24q25 -21 25 -56q0 -36 -32.5 -59q-32.5 -23 -93.5 -23q-38 0 -62.5 11q-24.5 11 -42.5 23z" />
<glyph unicode="&#232;" horiz-adv-x="520" d="M452 49q-33 -30 -78.5 -44.5q-45.5 -14.5 -90.5 -14.5q-55 0 -99.5 16.5q-44.5 16.5 -76 47.5q-31.5 31 -48.5 74.5q-17 43.5 -17 96.5q0 49 15.5 92q15.5 43 45 74.5q29.5 31.5 72.5 50q43 18.5 99 18.5q43 0 81.5 -15q38.5 -15 66.5 -42q28 -27 44.5 -65q16.5 -38 16.5 -84q0 -31 -5 -54l-346 0q5 -64 48 -99.5q43 -35.5 109 -35.5q44 0 80 13.5q36 13.5 58 33.5zM270 385q-62 0 -99 -34q-37 -34 -44 -86l273 0q-3 56 -37 88q-34 32 -93 32zt0 0zM165 673l63 48l107 -156l-49 -34z" />
<glyph unicode="&#233;" horiz-adv-x="520" d="M452 49q-33 -30 -78.5 -44.5q-45.5 -14.5 -90.5 -14.5q-55 0 -99.5 16.5q-44.5 16.5 -76 47.5q-31.5 31 -48.5 74.5q-17 43.5 -17 96.5q0 49 15.5 92q15.5 43 45 74.5q29.5 31.5 72.5 50q43 18.5 99 18.5q43 0 81.5 -15q38.5 -15 66.5 -42q28 -27 44.5 -65q16.5 -38 16.5 -84q0 -31 -5 -54l-346 0q5 -64 48 -99.5q43 -35.5 109 -35.5q44 0 80 13.5q36 13.5 58 33.5zM270 385q-62 0 -99 -34q-37 -34 -44 -86l273 0q-3 56 -37 88q-34 32 -93 32zt0 0zM270 531l-48 34l106 157l62 -48z" />
<glyph unicode="&#234;" horiz-adv-x="520" d="M452 49q-33 -30 -78.5 -44.5q-45.5 -14.5 -90.5 -14.5q-55 0 -99.5 16.5q-44.5 16.5 -76 47.5q-31.5 31 -48.5 74.5q-17 43.5 -17 96.5q0 49 15.5 92q15.5 43 45 74.5q29.5 31.5 72.5 50q43 18.5 99 18.5q43 0 81.5 -15q38.5 -15 66.5 -42q28 -27 44.5 -65q16.5 -38 16.5 -84q0 -31 -5 -54l-346 0q5 -64 48 -99.5q43 -35.5 109 -35.5q44 0 80 13.5q36 13.5 58 33.5zM270 385q-62 0 -99 -34q-37 -34 -44 -86l273 0q-3 56 -37 88q-34 32 -93 32zt0 0zM411 574l-38 -48l-104 91l-104 -90l-38 47l141 133l4 0z" />
<glyph unicode="&#235;" horiz-adv-x="520" d="M452 49q-33 -30 -78.5 -44.5q-45.5 -14.5 -90.5 -14.5q-55 0 -99.5 16.5q-44.5 16.5 -76 47.5q-31.5 31 -48.5 74.5q-17 43.5 -17 96.5q0 49 15.5 92q15.5 43 45 74.5q29.5 31.5 72.5 50q43 18.5 99 18.5q43 0 81.5 -15q38.5 -15 66.5 -42q28 -27 44.5 -65q16.5 -38 16.5 -84q0 -31 -5 -54l-346 0q5 -64 48 -99.5q43 -35.5 109 -35.5q44 0 80 13.5q36 13.5 58 33.5zM270 385q-62 0 -99 -34q-37 -34 -44 -86l273 0q-3 56 -37 88q-34 32 -93 32zt0 0zM119 610q0 21 13.5 33.5q13.5 12.5 33.5 12.5q17 0 30.5 -12.5q13.5 -12.5 14.5 -33.5q-1 -24 -14.5 -37q-13.5 -13 -30.5 -13q-20 0 -33.5 13q-13.5 13 -13.5 37zt0 0zM322 610q0 21 14 33.5q14 12.5 34 12.5q17 0 30.5 -12.5q13.5 -12.5 13.5 -33.5q0 -24 -13.5 -37q-13.5 -13 -30.5 -13q-20 0 -34 13t-14 37z" />
<glyph unicode="&#236;" horiz-adv-x="268" d="M94 450h80v-450h-80zM6 673l63 48l107 -156l-49 -34z" />
<glyph unicode="&#237;" horiz-adv-x="268" d="M94 450h80v-450h-80zM126 531l-48 34l106 157l62 -48z" />
<glyph unicode="&#238;" horiz-adv-x="268" d="M94 450h80v-450h-80zM276 574l-38 -48l-104 91l-104 -90l-38 47l141 133l4 0z" />
<glyph unicode="&#239;" horiz-adv-x="268" d="M94 450h80v-450h-80zM-13 610q0 21 13.5 33.5q13.5 12.5 33.5 12.5q17 0 30.5 -12.5q13.5 -12.5 14.5 -33.5q-1 -24 -14.5 -37q-13.5 -13 -30.5 -13q-20 0 -33.5 13q-13.5 13 -13.5 37zt0 0zM190 610q0 21 14 33.5q14 12.5 34 12.5q17 0 30.5 -12.5q13.5 -12.5 13.5 -33.5q0 -24 -13.5 -37q-13.5 -13 -30.5 -13q-20 0 -34 13t-14 37z" />
<glyph unicode="&#240;" horiz-adv-x="565" d="M173 583l96 40q-50 44 -103 72l90 15q45 -24 84 -57l105 45l23 -71l-72 -30q30 -36 53.5 -77q23.5 -41 39.5 -84.5q16 -43.5 24.5 -88q8.5 -44.5 8.5 -87.5q0 -63 -17.5 -113.5q-17.5 -50.5 -49 -85q-31.5 -34.5 -75.5 -53q-44 -18.5 -98 -18.5q-54 0 -98.5 17.5q-44.5 17.5 -76 49q-31.5 31.5 -48.5 74.5q-17 43 -17 94q0 51 17 94q17 43 48.5 74.5q31.5 31.5 76 49q44.5 17.5 98.5 17.5q44 0 79.5 -21.5q35.5 -21.5 55.5 -57.5q-12 52 -36 98.5q-24 46.5 -57 86.5l-128 -54zM127 225q0 -35 11.5 -64.5q11.5 -29.5 32 -50.5q20.5 -21 49 -33q28.5 -12 62.5 -12q35 0 64.5 14q29.5 14 50 39.5q20.5 25.5 31.5 62.5q11 37 9 84q-5 23 -18 44.5q-13 21.5 -32.5 38.5q-19.5 17 -46 27q-26.5 10 -58.5 10q-33 0 -61.5 -11.5q-28.5 -11.5 -49 -32.5q-20.5 -21 -32.5 -50.5t-12 -65.5z" />
<glyph unicode="&#241;" horiz-adv-x="549" d="M72 450h80v-55q23 26 62.5 44.5q39.5 18.5 84.5 18.5q88 0 137.5 -46q49.5 -46 49.5 -152v-260h-80v245q0 71 -32 104.5q-32 33.5 -95 33.5q-38 0 -71.5 -16.5q-33.5 -16.5 -55.5 -41.5l0 -325h-80zM111 594q29 32 57 46q28 14 53 14q18 0 32 -7q14 -7 27 -15q13 -8 26 -15q13 -7 28 -7q20 0 34.5 8.5q14.5 8.5 36.5 26.5l28 -41q-56 -59 -106 -59q-17 0 -30.5 7q-13.5 7 -26.5 15q-13 8 -26.5 15q-13.5 7 -30.5 7q-15 0 -32.5 -9q-17.5 -9 -36.5 -23z" />
<glyph unicode="&#242;" horiz-adv-x="565" d="M42 225q0 51 17 94q17 43 48.5 74.5q31.5 31.5 76 49q44.5 17.5 98.5 17.5q54 0 98 -17.5q44 -17.5 75.5 -49q31.5 -31.5 49 -74.5q17.5 -43 17.5 -94q0 -51 -17.5 -94q-17.5 -43 -49 -74.5q-31.5 -31.5 -75.5 -49q-44 -17.5 -98 -17.5q-54 0 -98.5 17.5q-44.5 17.5 -76 49q-31.5 31.5 -48.5 74.5q-17 43 -17 94zt0 0zM127 225q0 -35 11.5 -64.5q11.5 -29.5 32 -50.5q20.5 -21 49 -33q28.5 -12 62.5 -12q34 0 62.5 11.5q28.5 11.5 49 32.5q20.5 21 32 50.5q11.5 29.5 11.5 65.5q0 35 -11.5 64.5q-11.5 29.5 -32 50.5q-20.5 21 -49 33q-28.5 12 -62.5 12q-33 0 -61.5 -11.5q-28.5 -11.5 -49 -32.5q-20.5 -21 -32.5 -50.5q-12 -29.5 -12 -65.5zt0 0zM169 673l63 48l107 -156l-49 -34z" />
<glyph unicode="&#243;" horiz-adv-x="565" d="M42 225q0 51 17 94q17 43 48.5 74.5q31.5 31.5 76 49q44.5 17.5 98.5 17.5q54 0 98 -17.5q44 -17.5 75.5 -49q31.5 -31.5 49 -74.5q17.5 -43 17.5 -94q0 -51 -17.5 -94q-17.5 -43 -49 -74.5q-31.5 -31.5 -75.5 -49q-44 -17.5 -98 -17.5q-54 0 -98.5 17.5q-44.5 17.5 -76 49q-31.5 31.5 -48.5 74.5q-17 43 -17 94zt0 0zM127 225q0 -35 11.5 -64.5q11.5 -29.5 32 -50.5q20.5 -21 49 -33q28.5 -12 62.5 -12q34 0 62.5 11.5q28.5 11.5 49 32.5q20.5 21 32 50.5q11.5 29.5 11.5 65.5q0 35 -11.5 64.5q-11.5 29.5 -32 50.5q-20.5 21 -49 33q-28.5 12 -62.5 12q-33 0 -61.5 -11.5q-28.5 -11.5 -49 -32.5q-20.5 -21 -32.5 -50.5q-12 -29.5 -12 -65.5zt0 0zM274 531l-48 34l106 157l62 -48z" />
<glyph unicode="&#244;" horiz-adv-x="565" d="M42 225q0 51 17 94q17 43 48.5 74.5q31.5 31.5 76 49q44.5 17.5 98.5 17.5q54 0 98 -17.5q44 -17.5 75.5 -49q31.5 -31.5 49 -74.5q17.5 -43 17.5 -94q0 -51 -17.5 -94q-17.5 -43 -49 -74.5q-31.5 -31.5 -75.5 -49q-44 -17.5 -98 -17.5q-54 0 -98.5 17.5q-44.5 17.5 -76 49q-31.5 31.5 -48.5 74.5q-17 43 -17 94zt0 0zM127 225q0 -35 11.5 -64.5q11.5 -29.5 32 -50.5q20.5 -21 49 -33q28.5 -12 62.5 -12q34 0 62.5 11.5q28.5 11.5 49 32.5q20.5 21 32 50.5q11.5 29.5 11.5 65.5q0 35 -11.5 64.5q-11.5 29.5 -32 50.5q-20.5 21 -49 33q-28.5 12 -62.5 12q-33 0 -61.5 -11.5q-28.5 -11.5 -49 -32.5q-20.5 -21 -32.5 -50.5q-12 -29.5 -12 -65.5zt0 0zM424 574l-38 -48l-104 91l-104 -90l-38 47l141 133l4 0z" />
<glyph unicode="&#245;" horiz-adv-x="565" d="M42 225q0 51 17 94q17 43 48.5 74.5q31.5 31.5 76 49q44.5 17.5 98.5 17.5q54 0 98 -17.5q44 -17.5 75.5 -49q31.5 -31.5 49 -74.5q17.5 -43 17.5 -94q0 -51 -17.5 -94q-17.5 -43 -49 -74.5q-31.5 -31.5 -75.5 -49q-44 -17.5 -98 -17.5q-54 0 -98.5 17.5q-44.5 17.5 -76 49q-31.5 31.5 -48.5 74.5q-17 43 -17 94zt0 0zM127 225q0 -35 11.5 -64.5q11.5 -29.5 32 -50.5q20.5 -21 49 -33q28.5 -12 62.5 -12q34 0 62.5 11.5q28.5 11.5 49 32.5q20.5 21 32 50.5q11.5 29.5 11.5 65.5q0 35 -11.5 64.5q-11.5 29.5 -32 50.5q-20.5 21 -49 33q-28.5 12 -62.5 12q-33 0 -61.5 -11.5q-28.5 -11.5 -49 -32.5q-20.5 -21 -32.5 -50.5q-12 -29.5 -12 -65.5zt0 0zM119 594q29 32 57 46q28 14 53 14q18 0 32 -7q14 -7 27 -15q13 -8 26 -15q13 -7 28 -7q20 0 34.5 8.5q14.5 8.5 36.5 26.5l28 -41q-56 -59 -106 -59q-17 0 -30.5 7q-13.5 7 -26.5 15q-13 8 -26.5 15q-13.5 7 -30.5 7q-15 0 -32.5 -9q-17.5 -9 -36.5 -23z" />
<glyph unicode="&#246;" horiz-adv-x="565" d="M42 225q0 51 17 94q17 43 48.5 74.5q31.5 31.5 76 49q44.5 17.5 98.5 17.5q54 0 98 -17.5q44 -17.5 75.5 -49q31.5 -31.5 49 -74.5q17.5 -43 17.5 -94q0 -51 -17.5 -94q-17.5 -43 -49 -74.5q-31.5 -31.5 -75.5 -49q-44 -17.5 -98 -17.5q-54 0 -98.5 17.5q-44.5 17.5 -76 49q-31.5 31.5 -48.5 74.5q-17 43 -17 94zt0 0zM127 225q0 -35 11.5 -64.5q11.5 -29.5 32 -50.5q20.5 -21 49 -33q28.5 -12 62.5 -12q34 0 62.5 11.5q28.5 11.5 49 32.5q20.5 21 32 50.5q11.5 29.5 11.5 65.5q0 35 -11.5 64.5q-11.5 29.5 -32 50.5q-20.5 21 -49 33q-28.5 12 -62.5 12q-33 0 -61.5 -11.5q-28.5 -11.5 -49 -32.5q-20.5 -21 -32.5 -50.5q-12 -29.5 -12 -65.5zt0 0zM139 610q0 21 13.5 33.5q13.5 12.5 33.5 12.5q17 0 30.5 -12.5q13.5 -12.5 14.5 -33.5q-1 -24 -14.5 -37q-13.5 -13 -30.5 -13q-20 0 -33.5 13q-13.5 13 -13.5 37zt0 0zM342 610q0 21 14 33.5q14 12.5 34 12.5q17 0 30.5 -12.5q13.5 -12.5 13.5 -33.5q0 -24 -13.5 -37q-13.5 -13 -30.5 -13q-20 0 -34 13t-14 37z" />
<glyph unicode="&#247;" horiz-adv-x="592" d="M246 565q0 17 13 32.5q13 15.5 37 15.5q23 0 36 -15.5q13 -15.5 13 -32.5q0 -20 -13 -35.5q-13 -15.5 -36 -15.5q-24 0 -37 15.5q-13 15.5 -13 35.5zt0 0zM246 158q0 18 13 33q13 15 37 15q22 0 35.5 -15q13.5 -15 13.5 -33q0 -20 -13 -35.5q-13 -15.5 -36 -15.5q-24 0 -37 15.5q-13 15.5 -13 35.5zt0 0zM69 395h454v-70l-454 0z" />
<glyph unicode="&#248;" horiz-adv-x="565" d="M42 225q0 51 17 94q17 43 48.5 74.5q31.5 31.5 76 49q44.5 17.5 98.5 17.5q46 0 84.5 -13q38.5 -13 68.5 -36l46 44l44 -49l-45 -43q42 -59 42 -138q0 -51 -17.5 -94q-17.5 -43 -49 -74.5q-31.5 -31.5 -75.5 -49q-44 -17.5 -98 -17.5q-44 0 -80.5 11.5q-36.5 11.5 -65.5 31.5l-50 -47l-45 51l46 44q-22 29 -33.5 65.5q-11.5 36.5 -11.5 78.5zt0 0zM127 225q0 -50 21 -86l228 216q-41 30 -94 30q-33 0 -61.5 -11.5q-28.5 -11.5 -49 -32.5q-20.5 -21 -32.5 -50.5q-12 -29.5 -12 -65.5zt0 0zM437 225q0 22 -5 42q-5 20 -13 37l-224 -214q37 -25 87 -25q34 0 62.5 11.5q28.5 11.5 49 32.5q20.5 21 32 50.5t11.5 65.5z" />
<glyph unicode="&#249;" horiz-adv-x="540" d="M467 0h-80v64q-23 -29 -64 -51.5q-41 -22.5 -95 -22.5q-75 0 -120.5 46.5q-45.5 46.5 -45.5 145.5v268h80v-250q0 -64 27 -99.5q27 -35.5 89 -35.5q39 0 73.5 20q34.5 20 55.5 47l0 318h80zM154 673l63 48l107 -156l-49 -34z" />
<glyph unicode="&#250;" horiz-adv-x="540" d="M467 0h-80v64q-23 -29 -64 -51.5q-41 -22.5 -95 -22.5q-75 0 -120.5 46.5q-45.5 46.5 -45.5 145.5v268h80v-250q0 -64 27 -99.5q27 -35.5 89 -35.5q39 0 73.5 20q34.5 20 55.5 47l0 318h80zM264 531l-48 34l106 157l62 -48z" />
<glyph unicode="&#251;" horiz-adv-x="540" d="M467 0h-80v64q-23 -29 -64 -51.5q-41 -22.5 -95 -22.5q-75 0 -120.5 46.5q-45.5 46.5 -45.5 145.5v268h80v-250q0 -64 27 -99.5q27 -35.5 89 -35.5q39 0 73.5 20q34.5 20 55.5 47l0 318h80zM408 574l-38 -48l-104 91l-104 -90l-38 47l141 133l4 0z" />
<glyph unicode="&#252;" horiz-adv-x="540" d="M467 0h-80v64q-23 -29 -64 -51.5q-41 -22.5 -95 -22.5q-75 0 -120.5 46.5q-45.5 46.5 -45.5 145.5v268h80v-250q0 -64 27 -99.5q27 -35.5 89 -35.5q39 0 73.5 20q34.5 20 55.5 47l0 318h80zM121 610q0 21 13.5 33.5q13.5 12.5 33.5 12.5q17 0 30.5 -12.5q13.5 -12.5 14.5 -33.5q-1 -24 -14.5 -37q-13.5 -13 -30.5 -13q-20 0 -33.5 13q-13.5 13 -13.5 37zt0 0zM324 610q0 21 14 33.5q14 12.5 34 12.5q17 0 30.5 -12.5q13.5 -12.5 13.5 -33.5q0 -24 -13.5 -37q-13.5 -13 -30.5 -13q-20 0 -34 13t-14 37z" />
<glyph unicode="&#253;" horiz-adv-x="491" d="M301 0q-25 -60 -46 -99q-21 -39 -41 -61.5q-20 -22.5 -40.5 -31q-20.5 -8.5 -44.5 -8.5q-26 0 -46.5 8q-20.5 8 -38.5 20l26 61q11 -5 23.5 -10q12.5 -5 26.5 -5q29 0 51 24q22 24 45 78l10 24l-216 450h96l132 -286q8 -17 14 -34q6 -17 13 -34q9 33 21 69l104 285h91zM235 531l-48 34l106 157l62 -48z" />
<glyph unicode="&#254;" horiz-adv-x="556" d="M72 700h80v-298q26 25 65.5 41.5q39.5 16.5 87.5 16.5q48 0 86.5 -17q38.5 -17 65.5 -47q27 -30 41.5 -72q14.5 -42 14.5 -92q0 -51 -16.5 -95.5q-16.5 -44.5 -47.5 -77q-31 -32.5 -74 -51q-43 -18.5 -96 -18.5q-36 0 -69.5 7.5q-33.5 7.5 -57.5 23.5l0 -221h-80zM282 385q-40 0 -74.5 -18q-34.5 -18 -55.5 -44l0 -223q30 -20 59 -27.5q29 -7.5 61 -7.5q36 0 65 12.5q29 12.5 49 34q20 21.5 31 51.5q11 30 11 66q0 34 -9.5 62.5q-9.5 28.5 -28.5 49.5q-19 21 -46 32.5t-62 11.5z" />
<glyph unicode="&#255;" horiz-adv-x="491" d="M301 0q-25 -60 -46 -99q-21 -39 -41 -61.5q-20 -22.5 -40.5 -31q-20.5 -8.5 -44.5 -8.5q-26 0 -46.5 8q-20.5 8 -38.5 20l26 61q11 -5 23.5 -10q12.5 -5 26.5 -5q29 0 51 24q22 24 45 78l10 24l-216 450h96l132 -286q8 -17 14 -34q6 -17 13 -34q9 33 21 69l104 285h91zM103 610q0 21 13.5 33.5q13.5 12.5 33.5 12.5q17 0 30.5 -12.5q13.5 -12.5 14.5 -33.5q-1 -24 -14.5 -37q-13.5 -13 -30.5 -13q-20 0 -33.5 13q-13.5 13 -13.5 37zt0 0zM306 610q0 21 14 33.5q14 12.5 34 12.5q17 0 30.5 -12.5q13.5 -12.5 13.5 -33.5q0 -24 -13.5 -37q-13.5 -13 -30.5 -13q-20 0 -34 13t-14 37z" />
<glyph unicode="&#256;" horiz-adv-x="705" d="M316 704h73l301 -704h-91l-90 212h-319l-89 -212h-86zM224 292h252l-126 299zM200 835h304v-65l-304 0z" />
<glyph unicode="&#257;" horiz-adv-x="460" d="M75 419q30 19 69 30q39 11 81 11q96 0 134.5 -48q38.5 -48 38.5 -136v-276h-76v58q-20 -26 -54 -45.5q-34 -19.5 -90 -19.5q-62 0 -100 36.5q-38 36.5 -38 102.5q0 34 13 61q13 27 35.5 45q22.5 18 54 27.5q31.5 9.5 67.5 9.5q26 0 57.5 -6q31.5 -6 54.5 -23q0 31 -3.5 57.5q-3.5 26.5 -14 45q-10.5 18.5 -31 29q-20.5 10.5 -53.5 10.5q-42 0 -69.5 -9.5q-27.5 -9.5 -54.5 -23.5zM206 65q44 0 71.5 19q27.5 19 44.5 39l0 57q-42 30 -101 30q-18 0 -35.5 -4.5q-17.5 -4.5 -31 -13.5q-13.5 -9 -21.5 -23q-8 -14 -8 -33q0 -32 21 -51.5q21 -19.5 60 -19.5zt0 0zM101 645h264v-65l-264 0z" />
<glyph unicode="&#258;" horiz-adv-x="705" d="M316 704h73l301 -704h-91l-90 212h-319l-89 -212h-86zM224 292h252l-126 299zM213 880q9 -10 21.5 -21.5q12.5 -11.5 30 -21q17.5 -9.5 40 -16q22.5 -6.5 51.5 -6.5q50 0 85 20.5q35 20.5 55 44.5l31 -42q-12 -18 -29 -35q-17 -17 -39 -29.5q-22 -12.5 -48 -20.5q-26 -8 -55 -8q-33 0 -62 9q-29 9 -51.5 23q-22.5 14 -39.5 30q-17 16 -26 31z" />
<glyph unicode="&#259;" horiz-adv-x="460" d="M75 419q30 19 69 30q39 11 81 11q96 0 134.5 -48q38.5 -48 38.5 -136v-276h-76v58q-20 -26 -54 -45.5q-34 -19.5 -90 -19.5q-62 0 -100 36.5q-38 36.5 -38 102.5q0 34 13 61q13 27 35.5 45q22.5 18 54 27.5q31.5 9.5 67.5 9.5q26 0 57.5 -6q31.5 -6 54.5 -23q0 31 -3.5 57.5q-3.5 26.5 -14 45q-10.5 18.5 -31 29q-20.5 10.5 -53.5 10.5q-42 0 -69.5 -9.5q-27.5 -9.5 -54.5 -23.5zM206 65q44 0 71.5 19q27.5 19 44.5 39l0 57q-42 30 -101 30q-18 0 -35.5 -4.5q-17.5 -4.5 -31 -13.5q-13.5 -9 -21.5 -23q-8 -14 -8 -33q0 -32 21 -51.5q21 -19.5 60 -19.5zt0 0zM116 681q7 -9 17.5 -19.5q10.5 -10.5 24.5 -20q14 -9.5 31.5 -15.5q17.5 -6 40.5 -6q39 0 68 19q29 19 47 41l29 -39q-11 -15 -24 -30q-13 -15 -31 -27.5q-18 -12.5 -40.5 -20.5q-22.5 -8 -51.5 -8q-31 0 -55.5 9.5q-24.5 9.5 -43 22.5q-18.5 13 -30.5 27.5q-12 14.5 -19 25.5z" />
<glyph unicode="&#260;" horiz-adv-x="705" d="M685 -175q-13 -11 -36.5 -18q-23.5 -7 -49.5 -7q-22 0 -43.5 4.5q-21.5 4.5 -39 15.5q-17.5 11 -28.5 28.5q-11 17.5 -11 43.5q0 45 35 73.5q35 28.5 84 40.5l-87 206h-319l-89 -212h-86l301 704h73l301 -704h-19q-23 -1 -43.5 -7.5q-20.5 -6.5 -36 -17.5q-15.5 -11 -25 -26q-9.5 -15 -9.5 -31q0 -16 6 -26q6 -10 15 -16q9 -6 19.5 -8.5q10.5 -2.5 19.5 -2.5q11 0 21 1.5q10 1.5 23 7.5zM224 292h252l-126 299z" />
<glyph unicode="&#261;" horiz-adv-x="460" d="M407 -175q-13 -11 -36.5 -18q-23.5 -7 -49.5 -7q-22 0 -43.5 4.5q-21.5 4.5 -39 15.5q-17.5 11 -28.5 28.5q-11 17.5 -11 43.5q0 23 10 41.5q10 18.5 26.5 33q16.5 14.5 39 24.5q22.5 10 47.5 16l0 51q-20 -26 -54 -45.5q-34 -19.5 -90 -19.5q-62 0 -100 36.5q-38 36.5 -38 102.5q0 34 13 61q13 27 35.5 45q22.5 18 54 27.5q31.5 9.5 67.5 9.5q26 0 57.5 -6q31.5 -6 54.5 -23q0 31 -3.5 57.5q-3.5 26.5 -14 45q-10.5 18.5 -31 29q-20.5 10.5 -53.5 10.5q-42 0 -69.5 -9.5q-27.5 -9.5 -54.5 -23.5l-21 64q30 19 69 30q39 11 81 11q96 0 134.5 -48q38.5 -48 38.5 -136v-276q-23 0 -44.5 -6.5q-21.5 -6.5 -38 -17.5q-16.5 -11 -26.5 -26q-10 -15 -10 -32q0 -16 6 -26q6 -10 15 -16q9 -6 19.5 -8.5q10.5 -2.5 19.5 -2.5q11 0 21 1.5q10 1.5 23 7.5zM206 65q44 0 71.5 19q27.5 19 44.5 39l0 57q-42 30 -101 30q-18 0 -35.5 -4.5q-17.5 -4.5 -31 -13.5q-13.5 -9 -21.5 -23q-8 -14 -8 -33q0 -32 21 -51.5t60 -19.5z" />
<glyph unicode="&#262;" horiz-adv-x="656" d="M626 68q-18 -18 -42.5 -32.5q-24.5 -14.5 -53 -24.5q-28.5 -10 -60.5 -15.5q-32 -5.5 -65 -5.5q-79 0 -144 25.5q-65 25.5 -112 72.5q-47 47 -73 113.5q-26 66.5 -26 148.5q0 75 23.5 141q23.5 66 68.5 114.5q45 48.5 110 76.5q65 28 147 28q68 0 121.5 -18q53.5 -18 91.5 -50l-39 -64q-35 26 -76.5 39q-41.5 13 -96.5 13q-57 0 -105 -20.5q-48 -20.5 -82.5 -57.5q-34.5 -37 -53.5 -88.5q-19 -51.5 -19 -113.5q0 -63 20 -114.5q20 -51.5 56 -88q36 -36.5 86 -57q50 -20.5 111 -20.5q51 0 97 16.5q46 16.5 82 45.5zM336 735l-23 48l195 104l30 -68z" />
<glyph unicode="&#263;" horiz-adv-x="488" d="M456 65q-29 -37 -75 -56q-46 -19 -98 -19q-54 0 -98 16.5q-44 16.5 -76 47.5q-32 31 -49.5 74.5q-17.5 43.5 -17.5 96.5q0 49 17 92q17 43 47.5 74.5q30.5 31.5 72 50q41.5 18.5 91.5 18.5q54 0 99.5 -13.5q45.5 -13.5 77.5 -45.5l-37 -63q-29 26 -61.5 36.5q-32.5 10.5 -67.5 10.5q-30 0 -58 -11.5q-28 -11.5 -49.5 -32.5q-21.5 -21 -34 -50.5q-12.5 -29.5 -12.5 -65.5q0 -37 13 -66.5q13 -29.5 35 -50.5q22 -21 51.5 -32q29.5 -11 62.5 -11q41 0 73.5 16q32.5 16 55.5 42zM262 531l-48 34l106 157l62 -48z" />
<glyph unicode="&#264;" horiz-adv-x="656" d="M626 68q-18 -18 -42.5 -32.5q-24.5 -14.5 -53 -24.5q-28.5 -10 -60.5 -15.5q-32 -5.5 -65 -5.5q-79 0 -144 25.5q-65 25.5 -112 72.5q-47 47 -73 113.5q-26 66.5 -26 148.5q0 75 23.5 141q23.5 66 68.5 114.5q45 48.5 110 76.5q65 28 147 28q68 0 121.5 -18q53.5 -18 91.5 -50l-39 -64q-35 26 -76.5 39q-41.5 13 -96.5 13q-57 0 -105 -20.5q-48 -20.5 -82.5 -57.5q-34.5 -37 -53.5 -88.5q-19 -51.5 -19 -113.5q0 -63 20 -114.5q20 -51.5 56 -88q36 -36.5 86 -57q50 -20.5 111 -20.5q51 0 97 16.5q46 16.5 82 45.5zM387 882h4l174 -103l-33 -46l-143 76l-144 -76l-29 45z" />
<glyph unicode="&#265;" horiz-adv-x="488" d="M456 65q-29 -37 -75 -56q-46 -19 -98 -19q-54 0 -98 16.5q-44 16.5 -76 47.5q-32 31 -49.5 74.5q-17.5 43.5 -17.5 96.5q0 49 17 92q17 43 47.5 74.5q30.5 31.5 72 50q41.5 18.5 91.5 18.5q54 0 99.5 -13.5q45.5 -13.5 77.5 -45.5l-37 -63q-29 26 -61.5 36.5q-32.5 10.5 -67.5 10.5q-30 0 -58 -11.5q-28 -11.5 -49.5 -32.5q-21.5 -21 -34 -50.5q-12.5 -29.5 -12.5 -65.5q0 -37 13 -66.5q13 -29.5 35 -50.5q22 -21 51.5 -32q29.5 -11 62.5 -11q41 0 73.5 16q32.5 16 55.5 42zM418 574l-38 -48l-104 91l-104 -90l-38 47l141 133l4 0z" />
<glyph unicode="&#266;" horiz-adv-x="656" d="M626 68q-18 -18 -42.5 -32.5q-24.5 -14.5 -53 -24.5q-28.5 -10 -60.5 -15.5q-32 -5.5 -65 -5.5q-79 0 -144 25.5q-65 25.5 -112 72.5q-47 47 -73 113.5q-26 66.5 -26 148.5q0 75 23.5 141q23.5 66 68.5 114.5q45 48.5 110 76.5q65 28 147 28q68 0 121.5 -18q53.5 -18 91.5 -50l-39 -64q-35 26 -76.5 39q-41.5 13 -96.5 13q-57 0 -105 -20.5q-48 -20.5 -82.5 -57.5q-34.5 -37 -53.5 -88.5q-19 -51.5 -19 -113.5q0 -63 20 -114.5q20 -51.5 56 -88q36 -36.5 86 -57q50 -20.5 111 -20.5q51 0 97 16.5q46 16.5 82 45.5zM325 817q0 24 17 37.5q17 13.5 40 13.5q21 0 37.5 -13.5q16.5 -13.5 16.5 -37.5q0 -26 -16.5 -40q-16.5 -14 -37.5 -14q-23 0 -40 14t-17 40z" />
<glyph unicode="&#267;" horiz-adv-x="488" d="M456 65q-29 -37 -75 -56q-46 -19 -98 -19q-54 0 -98 16.5q-44 16.5 -76 47.5q-32 31 -49.5 74.5q-17.5 43.5 -17.5 96.5q0 49 17 92q17 43 47.5 74.5q30.5 31.5 72 50q41.5 18.5 91.5 18.5q54 0 99.5 -13.5q45.5 -13.5 77.5 -45.5l-37 -63q-29 26 -61.5 36.5q-32.5 10.5 -67.5 10.5q-30 0 -58 -11.5q-28 -11.5 -49.5 -32.5q-21.5 -21 -34 -50.5q-12.5 -29.5 -12.5 -65.5q0 -37 13 -66.5q13 -29.5 35 -50.5q22 -21 51.5 -32q29.5 -11 62.5 -11q41 0 73.5 16q32.5 16 55.5 42zM226 619q0 22 15.5 35q15.5 13 36.5 13q19 0 34 -13q15 -13 15 -35q0 -25 -15 -38.5q-15 -13.5 -34 -13.5q-21 0 -36.5 13.5t-15.5 38.5z" />
<glyph unicode="&#268;" horiz-adv-x="656" d="M626 68q-18 -18 -42.5 -32.5q-24.5 -14.5 -53 -24.5q-28.5 -10 -60.5 -15.5q-32 -5.5 -65 -5.5q-79 0 -144 25.5q-65 25.5 -112 72.5q-47 47 -73 113.5q-26 66.5 -26 148.5q0 75 23.5 141q23.5 66 68.5 114.5q45 48.5 110 76.5q65 28 147 28q68 0 121.5 -18q53.5 -18 91.5 -50l-39 -64q-35 26 -76.5 39q-41.5 13 -96.5 13q-57 0 -105 -20.5q-48 -20.5 -82.5 -57.5q-34.5 -37 -53.5 -88.5q-19 -51.5 -19 -113.5q0 -63 20 -114.5q20 -51.5 56 -88q36 -36.5 86 -57q50 -20.5 111 -20.5q51 0 97 16.5q46 16.5 82 45.5zM215 841l33 46l144 -81l143 81l30 -45l-171 -104l-4 0z" />
<glyph unicode="&#269;" horiz-adv-x="488" d="M456 65q-29 -37 -75 -56q-46 -19 -98 -19q-54 0 -98 16.5q-44 16.5 -76 47.5q-32 31 -49.5 74.5q-17.5 43.5 -17.5 96.5q0 49 17 92q17 43 47.5 74.5q30.5 31.5 72 50q41.5 18.5 91.5 18.5q54 0 99.5 -13.5q45.5 -13.5 77.5 -45.5l-37 -63q-29 26 -61.5 36.5q-32.5 10.5 -67.5 10.5q-30 0 -58 -11.5q-28 -11.5 -49.5 -32.5q-21.5 -21 -34 -50.5q-12.5 -29.5 -12.5 -65.5q0 -37 13 -66.5q13 -29.5 35 -50.5q22 -21 51.5 -32q29.5 -11 62.5 -11q41 0 73.5 16q32.5 16 55.5 42zM133 662l39 48l104 -103l104 102l37 -47l-140 -133l-4 0z" />
<glyph unicode="&#270;" horiz-adv-x="739" d="M105 700h12q17 0 39 0.5q22 0.5 46 1q24 0.5 48.5 1q24.5 0.5 45.5 0.5q105 0 179.5 -28q74.5 -28 122 -75.5q47.5 -47.5 69.5 -109.5q22 -62 22 -131q0 -75 -25 -140.5q-25 -65.5 -75.5 -114.5q-50.5 -49 -125.5 -77.5q-75 -28.5 -175 -28.5q-35 0 -81 1q-46 1 -91 1h-11zM294 623q-32 0 -55 -1q-23 -1 -49 -2l0 -540q35 -1 63.5 -1.5q28.5 -0.5 37.5 -0.5q75 0 132.5 21q57.5 21 96.5 58.5q39 37.5 59 89q20 51.5 20 112.5q0 57 -19 105.5q-19 48.5 -57.5 83.5q-38.5 35 -95.5 55q-57 20 -133 20zt0 0zM160 841l33 46l144 -81l143 81l30 -45l-171 -104l-4 0z" />
<glyph unicode="&#271;" horiz-adv-x="554" d="M649 700q8 -16 8 -38q0 -30 -7.5 -55q-7.5 -25 -19.5 -44q-12 -19 -27.5 -32.5q-15.5 -13.5 -31.5 -21.5l-36 35q21 18 34 46.5q13 28.5 13 62.5q0 15 -3 26q-3 11 -8 21zM402 57q-25 -27 -61 -46q-36 -19 -82 -19q-50 0 -90 16.5q-40 16.5 -68 46.5q-28 30 -43.5 72.5q-15.5 42.5 -15.5 94.5q0 52 18.5 96q18.5 44 51.5 75.5q33 31.5 78 49q45 17.5 98 17.5q36 0 63.5 -7.5q27.5 -7.5 50.5 -24.5l0 272h80v-700h-80zM274 67q39 0 73 18.5q34 18.5 55 41.5l0 223q-55 35 -111 35q-33 0 -63 -11q-30 -11 -52.5 -32q-22.5 -21 -35.5 -51q-13 -30 -13 -67q0 -37 11 -66q11 -29 31 -49.5q20 -20.5 46.5 -31t58.5 -10.5z" />
<glyph unicode="&#272;" horiz-adv-x="754" d="M10 391h110v309h12q17 0 39 0.5q22 0.5 46 1q24 0.5 48.5 1q24.5 0.5 45.5 0.5q105 0 179.5 -28q74.5 -28 122 -75.5q47.5 -47.5 69.5 -109.5q22 -62 22 -131q0 -75 -25 -140.5q-25 -65.5 -75.5 -114.5q-50.5 -49 -125.5 -77.5q-75 -28.5 -175 -28.5q-35 0 -81 1q-46 1 -91 1h-11v316h-110zM309 623q-32 0 -55 -1q-23 -1 -49 -2l0 -229h188v-75h-188v-236q35 -1 63.5 -1.5q28.5 -0.5 37.5 -0.5q75 0 132.5 21q57.5 21 96.5 58.5q39 37.5 59 89q20 51.5 20 112.5q0 57 -19 105.5q-19 48.5 -57.5 83.5q-38.5 35 -95.5 55t-133 20z" />
<glyph unicode="&#273;" horiz-adv-x="554" d="M245 599h157v101h80v-101h92v-65h-92v-534h-80v57q-25 -27 -61 -46q-36 -19 -82 -19q-50 0 -90 16.5q-40 16.5 -68 46.5q-28 30 -43.5 72.5q-15.5 42.5 -15.5 94.5q0 52 18.5 96q18.5 44 51.5 75.5q33 31.5 78 49q45 17.5 98 17.5q36 0 63.5 -7.5q27.5 -7.5 50.5 -24.5l0 106h-157zM274 67q39 0 73 18.5q34 18.5 55 41.5l0 223q-55 35 -111 35q-33 0 -63 -11q-30 -11 -52.5 -32q-22.5 -21 -35.5 -51q-13 -30 -13 -67q0 -37 11 -66q11 -29 31 -49.5q20 -20.5 46.5 -31t58.5 -10.5z" />
<glyph unicode="&#274;" horiz-adv-x="575" d="M105 700h395v-80h-310v-226h280v-80h-280v-234h320v-80h-405zM150 835h304v-65l-304 0z" />
<glyph unicode="&#275;" horiz-adv-x="520" d="M452 49q-33 -30 -78.5 -44.5q-45.5 -14.5 -90.5 -14.5q-55 0 -99.5 16.5q-44.5 16.5 -76 47.5q-31.5 31 -48.5 74.5q-17 43.5 -17 96.5q0 49 15.5 92q15.5 43 45 74.5q29.5 31.5 72.5 50q43 18.5 99 18.5q43 0 81.5 -15q38.5 -15 66.5 -42q28 -27 44.5 -65q16.5 -38 16.5 -84q0 -31 -5 -54l-346 0q5 -64 48 -99.5q43 -35.5 109 -35.5q44 0 80 13.5q36 13.5 58 33.5zM270 385q-62 0 -99 -34q-37 -34 -44 -86l273 0q-3 56 -37 88q-34 32 -93 32zt0 0zM132 645h264v-65l-264 0z" />
<glyph unicode="&#278;" horiz-adv-x="575" d="M105 700h395v-80h-310v-226h280v-80h-280v-234h320v-80h-405zM250 817q0 24 17 37.5q17 13.5 40 13.5q21 0 37.5 -13.5q16.5 -13.5 16.5 -37.5q0 -26 -16.5 -40q-16.5 -14 -37.5 -14q-23 0 -40 14t-17 40z" />
<glyph unicode="&#279;" horiz-adv-x="520" d="M452 49q-33 -30 -78.5 -44.5q-45.5 -14.5 -90.5 -14.5q-55 0 -99.5 16.5q-44.5 16.5 -76 47.5q-31.5 31 -48.5 74.5q-17 43.5 -17 96.5q0 49 15.5 92q15.5 43 45 74.5q29.5 31.5 72.5 50q43 18.5 99 18.5q43 0 81.5 -15q38.5 -15 66.5 -42q28 -27 44.5 -65q16.5 -38 16.5 -84q0 -31 -5 -54l-346 0q5 -64 48 -99.5q43 -35.5 109 -35.5q44 0 80 13.5q36 13.5 58 33.5zM270 385q-62 0 -99 -34q-37 -34 -44 -86l273 0q-3 56 -37 88q-34 32 -93 32zt0 0zM215 619q0 22 15.5 35q15.5 13 36.5 13q19 0 34 -13q15 -13 15 -35q0 -25 -15 -38.5q-15 -13.5 -34 -13.5q-21 0 -36.5 13.5t-15.5 38.5z" />
<glyph unicode="&#280;" horiz-adv-x="575" d="M105 700h395v-80h-310v-226h280v-80h-280v-234h320v-80h-5q-23 -1 -43.5 -7.5q-20.5 -6.5 -36 -17.5q-15.5 -11 -25 -26q-9.5 -15 -9.5 -31q0 -16 6 -26q6 -10 15 -16q9 -6 19.5 -8.5q10.5 -2.5 19.5 -2.5q11 0 21 1.5q10 1.5 23 7.5l24 -49q-13 -11 -36.5 -18q-23.5 -7 -49.5 -7q-22 0 -43.5 4.5q-21.5 4.5 -39 15.5q-17.5 11 -28.5 28.5q-11 17.5 -11 43.5q0 40 28 67q28 27 70 41l-304 0z" />
<glyph unicode="&#281;" horiz-adv-x="520" d="M452 49q-32 -29 -74 -43q-30 -20 -48.5 -41.5q-18.5 -21.5 -18.5 -46.5q0 -16 6.5 -26q6.5 -10 15.5 -16q9 -6 19.5 -8.5q10.5 -2.5 19.5 -2.5q11 0 21 1.5q10 1.5 23 7.5l24 -49q-13 -11 -36.5 -18q-23.5 -7 -49.5 -7q-22 0 -44 4.5q-22 4.5 -39.5 15.5q-17.5 11 -28.5 28.5q-11 17.5 -11 43.5q0 31 19.5 55q19.5 24 52.5 44q-5 0 -10 -0.5q-5 -0.5 -10 -0.5q-55 0 -99.5 16.5q-44.5 16.5 -76 47.5q-31.5 31 -48.5 74.5q-17 43.5 -17 96.5q0 49 15.5 92q15.5 43 45 74.5q29.5 31.5 72.5 50q43 18.5 99 18.5q43 0 81.5 -15q38.5 -15 66.5 -42q28 -27 44.5 -65q16.5 -38 16.5 -84q0 -31 -5 -54l-346 0q5 -64 48 -99.5q43 -35.5 109 -35.5q44 0 80 13.5q36 13.5 58 33.5zM270 385q-62 0 -99 -34q-37 -34 -44 -86l273 0q-3 56 -37 88t-93 32z" />
<glyph unicode="&#282;" horiz-adv-x="575" d="M105 700h395v-80h-310v-226h280v-80h-280v-234h320v-80h-405zM135 841l33 46l144 -81l143 81l30 -45l-171 -104l-4 0z" />
<glyph unicode="&#283;" horiz-adv-x="520" d="M452 49q-33 -30 -78.5 -44.5q-45.5 -14.5 -90.5 -14.5q-55 0 -99.5 16.5q-44.5 16.5 -76 47.5q-31.5 31 -48.5 74.5q-17 43.5 -17 96.5q0 49 15.5 92q15.5 43 45 74.5q29.5 31.5 72.5 50q43 18.5 99 18.5q43 0 81.5 -15q38.5 -15 66.5 -42q28 -27 44.5 -65q16.5 -38 16.5 -84q0 -31 -5 -54l-346 0q5 -64 48 -99.5q43 -35.5 109 -35.5q44 0 80 13.5q36 13.5 58 33.5zM270 385q-62 0 -99 -34q-37 -34 -44 -86l273 0q-3 56 -37 88q-34 32 -93 32zt0 0zM131 662l39 48l104 -103l104 102l37 -47l-140 -133l-4 0z" />
<glyph unicode="&#284;" horiz-adv-x="727" d="M398 356h269v-269q-23 -23 -54.5 -41q-31.5 -18 -67 -30.5q-35.5 -12.5 -71.5 -19q-36 -6.5 -69 -6.5q-82 0 -147.5 25.5q-65.5 25.5 -111.5 72.5q-46 47 -71 113.5q-25 66.5 -25 148.5q0 75 24.5 141q24.5 66 69.5 114.5q45 48.5 108.5 76.5q63.5 28 141.5 28q72 0 124.5 -17q52.5 -17 95.5 -51l-37 -68q-31 28 -76.5 42q-45.5 14 -96.5 14q-59 0 -107.5 -20q-48.5 -20 -83 -56.5q-34.5 -36.5 -54 -88.5q-19.5 -52 -19.5 -115q0 -64 19.5 -115.5q19.5 -51.5 54.5 -88q35 -36.5 84 -56.5q49 -20 109 -20q25 0 51 4.5q26 4.5 50 13q24 8.5 44.5 19.5q20.5 11 34.5 25l0 144h-189zM387 882h4l174 -103l-33 -46l-143 76l-144 -76l-29 45z" />
<glyph unicode="&#285;" horiz-adv-x="494" d="M10 -65q0 55 39.5 89q39.5 34 104.5 48q-6 8 -8.5 17.5q-2.5 9.5 -2.5 19.5q0 23 12 38q-48 20 -74.5 59q-26.5 39 -26.5 89q0 34 13 64q13 30 37 52.5q24 22.5 58 35.5q34 13 76 13q33 0 62 -8.5q29 -8.5 52 -24.5l132 32l2 -65l-85 -21q21 -35 21 -78q0 -34 -13 -63.5q-13 -29.5 -37 -51.5q-24 -22 -58 -34.5q-34 -12.5 -76 -12.5q-8 0 -15 0q-7 0 -15 1q-3 -6 -4 -12.5q-1 -6.5 -1 -12.5q0 -18 9 -30q7 0 13.5 0.5q6.5 0.5 13.5 0.5q49 0 91 -9q42 -9 72.5 -27q30.5 -18 48 -45q17.5 -27 17.5 -64q0 -36 -17.5 -63q-17.5 -27 -48 -44.5q-30.5 -17.5 -72.5 -26.5q-42 -9 -91 -9q-49 0 -91 8.5q-42 8.5 -72.5 26q-30.5 17.5 -48 44.5q-17.5 27 -17.5 64zt0 0zM85 -65q0 -38 42 -58q42 -20 112 -20q70 0 112 20q42 20 42 58q0 38 -41 59q-41 21 -113 21q-72 0 -113 -21q-41 -21 -41 -59zt0 0zM129 295q0 -42 29.5 -69.5q29.5 -27.5 79.5 -27.5q48 0 78.5 26.5q30.5 26.5 30.5 70.5q0 42 -29 71q-29 29 -80 29q-50 0 -79.5 -29q-29.5 -29 -29.5 -71zt0 0zM384 574l-38 -48l-104 91l-104 -90l-38 47l141 133l4 0z" />
<glyph unicode="&#286;" horiz-adv-x="727" d="M398 356h269v-269q-23 -23 -54.5 -41q-31.5 -18 -67 -30.5q-35.5 -12.5 -71.5 -19q-36 -6.5 -69 -6.5q-82 0 -147.5 25.5q-65.5 25.5 -111.5 72.5q-46 47 -71 113.5q-25 66.5 -25 148.5q0 75 24.5 141q24.5 66 69.5 114.5q45 48.5 108.5 76.5q63.5 28 141.5 28q72 0 124.5 -17q52.5 -17 95.5 -51l-37 -68q-31 28 -76.5 42q-45.5 14 -96.5 14q-59 0 -107.5 -20q-48.5 -20 -83 -56.5q-34.5 -36.5 -54 -88.5q-19.5 -52 -19.5 -115q0 -64 19.5 -115.5q19.5 -51.5 54.5 -88q35 -36.5 84 -56.5q49 -20 109 -20q25 0 51 4.5q26 4.5 50 13q24 8.5 44.5 19.5q20.5 11 34.5 25l0 144h-189zM262 880q9 -10 21.5 -21.5q12.5 -11.5 30 -21q17.5 -9.5 40 -16q22.5 -6.5 51.5 -6.5q50 0 85 20.5q35 20.5 55 44.5l31 -42q-12 -18 -29 -35q-17 -17 -39 -29.5q-22 -12.5 -48 -20.5q-26 -8 -55 -8q-33 0 -62 9q-29 9 -51.5 23q-22.5 14 -39.5 30q-17 16 -26 31z" />
<glyph unicode="&#287;" horiz-adv-x="494" d="M10 -65q0 55 39.5 89q39.5 34 104.5 48q-6 8 -8.5 17.5q-2.5 9.5 -2.5 19.5q0 23 12 38q-48 20 -74.5 59q-26.5 39 -26.5 89q0 34 13 64q13 30 37 52.5q24 22.5 58 35.5q34 13 76 13q33 0 62 -8.5q29 -8.5 52 -24.5l132 32l2 -65l-85 -21q21 -35 21 -78q0 -34 -13 -63.5q-13 -29.5 -37 -51.5q-24 -22 -58 -34.5q-34 -12.5 -76 -12.5q-8 0 -15 0q-7 0 -15 1q-3 -6 -4 -12.5q-1 -6.5 -1 -12.5q0 -18 9 -30q7 0 13.5 0.5q6.5 0.5 13.5 0.5q49 0 91 -9q42 -9 72.5 -27q30.5 -18 48 -45q17.5 -27 17.5 -64q0 -36 -17.5 -63q-17.5 -27 -48 -44.5q-30.5 -17.5 -72.5 -26.5q-42 -9 -91 -9q-49 0 -91 8.5q-42 8.5 -72.5 26q-30.5 17.5 -48 44.5q-17.5 27 -17.5 64zt0 0zM85 -65q0 -38 42 -58q42 -20 112 -20q70 0 112 20q42 20 42 58q0 38 -41 59q-41 21 -113 21q-72 0 -113 -21q-41 -21 -41 -59zt0 0zM129 295q0 -42 29.5 -69.5q29.5 -27.5 79.5 -27.5q48 0 78.5 26.5q30.5 26.5 30.5 70.5q0 42 -29 71q-29 29 -80 29q-50 0 -79.5 -29q-29.5 -29 -29.5 -71zt0 0zM129 681q7 -9 17.5 -19.5q10.5 -10.5 24.5 -20q14 -9.5 31.5 -15.5q17.5 -6 40.5 -6q39 0 68 19q29 19 47 41l29 -39q-11 -15 -24 -30q-13 -15 -31 -27.5q-18 -12.5 -40.5 -20.5q-22.5 -8 -51.5 -8q-31 0 -55.5 9.5q-24.5 9.5 -43 22.5q-18.5 13 -30.5 27.5q-12 14.5 -19 25.5z" />
<glyph unicode="&#288;" horiz-adv-x="727" d="M398 356h269v-269q-23 -23 -54.5 -41q-31.5 -18 -67 -30.5q-35.5 -12.5 -71.5 -19q-36 -6.5 -69 -6.5q-82 0 -147.5 25.5q-65.5 25.5 -111.5 72.5q-46 47 -71 113.5q-25 66.5 -25 148.5q0 75 24.5 141q24.5 66 69.5 114.5q45 48.5 108.5 76.5q63.5 28 141.5 28q72 0 124.5 -17q52.5 -17 95.5 -51l-37 -68q-31 28 -76.5 42q-45.5 14 -96.5 14q-59 0 -107.5 -20q-48.5 -20 -83 -56.5q-34.5 -36.5 -54 -88.5q-19.5 -52 -19.5 -115q0 -64 19.5 -115.5q19.5 -51.5 54.5 -88q35 -36.5 84 -56.5q49 -20 109 -20q25 0 51 4.5q26 4.5 50 13q24 8.5 44.5 19.5q20.5 11 34.5 25l0 144h-189zM325 817q0 24 17 37.5q17 13.5 40 13.5q21 0 37.5 -13.5q16.5 -13.5 16.5 -37.5q0 -26 -16.5 -40q-16.5 -14 -37.5 -14q-23 0 -40 14t-17 40z" />
<glyph unicode="&#289;" horiz-adv-x="494" d="M10 -65q0 55 39.5 89q39.5 34 104.5 48q-6 8 -8.5 17.5q-2.5 9.5 -2.5 19.5q0 23 12 38q-48 20 -74.5 59q-26.5 39 -26.5 89q0 34 13 64q13 30 37 52.5q24 22.5 58 35.5q34 13 76 13q33 0 62 -8.5q29 -8.5 52 -24.5l132 32l2 -65l-85 -21q21 -35 21 -78q0 -34 -13 -63.5q-13 -29.5 -37 -51.5q-24 -22 -58 -34.5q-34 -12.5 -76 -12.5q-8 0 -15 0q-7 0 -15 1q-3 -6 -4 -12.5q-1 -6.5 -1 -12.5q0 -18 9 -30q7 0 13.5 0.5q6.5 0.5 13.5 0.5q49 0 91 -9q42 -9 72.5 -27q30.5 -18 48 -45q17.5 -27 17.5 -64q0 -36 -17.5 -63q-17.5 -27 -48 -44.5q-30.5 -17.5 -72.5 -26.5q-42 -9 -91 -9q-49 0 -91 8.5q-42 8.5 -72.5 26q-30.5 17.5 -48 44.5q-17.5 27 -17.5 64zt0 0zM85 -65q0 -38 42 -58q42 -20 112 -20q70 0 112 20q42 20 42 58q0 38 -41 59q-41 21 -113 21q-72 0 -113 -21q-41 -21 -41 -59zt0 0zM129 295q0 -42 29.5 -69.5q29.5 -27.5 79.5 -27.5q48 0 78.5 26.5q30.5 26.5 30.5 70.5q0 42 -29 71q-29 29 -80 29q-50 0 -79.5 -29q-29.5 -29 -29.5 -71zt0 0zM189 619q0 22 15.5 35q15.5 13 36.5 13q19 0 34 -13q15 -13 15 -35q0 -25 -15 -38.5q-15 -13.5 -34 -13.5q-21 0 -36.5 13.5t-15.5 38.5z" />
<glyph unicode="&#290;" horiz-adv-x="727" d="M398 356h269v-269q-23 -23 -54.5 -41q-31.5 -18 -67 -30.5q-35.5 -12.5 -71.5 -19q-36 -6.5 -69 -6.5q-82 0 -147.5 25.5q-65.5 25.5 -111.5 72.5q-46 47 -71 113.5q-25 66.5 -25 148.5q0 75 24.5 141q24.5 66 69.5 114.5q45 48.5 108.5 76.5q63.5 28 141.5 28q72 0 124.5 -17q52.5 -17 95.5 -51l-37 -68q-31 28 -76.5 42q-45.5 14 -96.5 14q-59 0 -107.5 -20q-48.5 -20 -83 -56.5q-34.5 -36.5 -54 -88.5q-19.5 -52 -19.5 -115q0 -64 19.5 -115.5q19.5 -51.5 54.5 -88q35 -36.5 84 -56.5q49 -20 109 -20q25 0 51 4.5q26 4.5 50 13q24 8.5 44.5 19.5q20.5 11 34.5 25l0 144h-189zM426 -46q12 -3 20.5 -15.5q8.5 -12.5 8.5 -33.5q0 -24 -9 -42.5q-9 -18.5 -23.5 -32q-14.5 -13.5 -33 -22q-18.5 -8.5 -37.5 -12.5l-23 36q25 10 35.5 25q10.5 15 10.5 37q0 17 -6.5 26.5q-6.5 9.5 -17.5 14.5z" />
<glyph unicode="&#291;" horiz-adv-x="494" d="M10 -65q0 55 39.5 89q39.5 34 104.5 48q-6 8 -8.5 17.5q-2.5 9.5 -2.5 19.5q0 23 12 38q-48 20 -74.5 59q-26.5 39 -26.5 89q0 34 13 64q13 30 37 52.5q24 22.5 58 35.5q34 13 76 13q33 0 62 -8.5q29 -8.5 52 -24.5l132 32l2 -65l-85 -21q21 -35 21 -78q0 -34 -13 -63.5q-13 -29.5 -37 -51.5q-24 -22 -58 -34.5q-34 -12.5 -76 -12.5q-8 0 -15 0q-7 0 -15 1q-3 -6 -4 -12.5q-1 -6.5 -1 -12.5q0 -18 9 -30q7 0 13.5 0.5q6.5 0.5 13.5 0.5q49 0 91 -9q42 -9 72.5 -27q30.5 -18 48 -45q17.5 -27 17.5 -64q0 -36 -17.5 -63q-17.5 -27 -48 -44.5q-30.5 -17.5 -72.5 -26.5q-42 -9 -91 -9q-49 0 -91 8.5q-42 8.5 -72.5 26q-30.5 17.5 -48 44.5q-17.5 27 -17.5 64zt0 0zM85 -65q0 -38 42 -58q42 -20 112 -20q70 0 112 20q42 20 42 58q0 38 -41 59q-41 21 -113 21q-72 0 -113 -21q-41 -21 -41 -59zt0 0zM129 295q0 -42 29.5 -69.5q29.5 -27.5 79.5 -27.5q48 0 78.5 26.5q30.5 26.5 30.5 70.5q0 42 -29 71q-29 29 -80 29q-50 0 -79.5 -29q-29.5 -29 -29.5 -71zt0 0zM210 543q-12 3 -20.5 15.5q-8.5 12.5 -8.5 33.5q0 24 9 42.5q9 18.5 23.5 32q14.5 13.5 33 22q18.5 8.5 37.5 12.5l23 -36q-25 -10 -35.5 -25q-10.5 -15 -10.5 -37q0 -17 6.5 -26.5q6.5 -9.5 17.5 -14.5z" />
<glyph unicode="&#292;" horiz-adv-x="765" d="M575 317h-385v-317h-85v700h85v-303h385v303h85v-700h-85zM380 882h4l174 -103l-33 -46l-143 76l-144 -76l-29 45z" />
<glyph unicode="&#293;" horiz-adv-x="549" d="M72 700h80v-302q25 26 64.5 43q39.5 17 82.5 17q88 0 137.5 -47q49.5 -47 49.5 -153v-258h-80v247q0 136 -126 136q-38 0 -72.5 -16.5q-34.5 -16.5 -55.5 -40.5l0 -326h-80zM154 882h4l174 -103l-33 -46l-143 76l-144 -76l-29 45z" />
<glyph unicode="&#294;" horiz-adv-x="775" d="M25 589h85v111h85v-111h385v111h85v-111h85v-75h-85v-514h-85v317h-385v-317h-85v514h-85zM580 397v117h-385l0 -117z" />
<glyph unicode="&#295;" horiz-adv-x="574" d="M-20 595h117v105h80v-105h162v-75h-162v-122q25 26 64.5 43q39.5 17 82.5 17q88 0 137.5 -47q49.5 -47 49.5 -153v-258h-80v247q0 136 -126 136q-38 0 -72.5 -16.5q-34.5 -16.5 -55.5 -40.5l0 -326h-80v520l-117 0z" />
<glyph unicode="&#298;" horiz-adv-x="335" d="M125 700h85v-700h-85zM18 835h304v-65l-304 0z" />
<glyph unicode="&#299;" horiz-adv-x="268" d="M94 450h80v-450h-80zM2 645h264v-65l-264 0z" />
<glyph unicode="&#302;" horiz-adv-x="335" d="M219 -175q-13 -11 -36.5 -18q-23.5 -7 -49.5 -7q-22 0 -43.5 4.5q-21.5 4.5 -39 15.5q-17.5 11 -28.5 28.5q-11 17.5 -11 43.5q0 22 9 40q9 18 24.5 32q15.5 14 36 24.5q20.5 10.5 44.5 16.5l0 695h85v-700h-5q-23 -1 -43.5 -7.5q-20.5 -6.5 -36 -17.5q-15.5 -11 -25 -26q-9.5 -15 -9.5 -31q0 -16 6 -26q6 -10 15 -16q9 -6 19.5 -8.5q10.5 -2.5 19.5 -2.5q11 0 21 1.5q10 1.5 23 7.5z" />
<glyph unicode="&#303;" horiz-adv-x="268" d="M182 -175q-13 -11 -36.5 -18q-23.5 -7 -49.5 -7q-22 0 -43.5 4.5q-21.5 4.5 -39 15.5q-17.5 11 -28.5 28.5q-11 17.5 -11 43.5q0 22 9.5 40.5q9.5 18.5 26 33q16.5 14.5 38.5 24.5q22 10 46 16l0 444h80v-450h-6q-23 -1 -43.5 -7.5q-20.5 -6.5 -36 -17.5q-15.5 -11 -25 -26q-9.5 -15 -9.5 -31q0 -16 6 -26q6 -10 15 -16q9 -6 19.5 -8.5q10.5 -2.5 19.5 -2.5q11 0 21 1.5q10 1.5 23 7.5zM81 619q0 22 15.5 35q15.5 13 36.5 13q19 0 34 -13q15 -13 15 -35q0 -25 -15 -38.5q-15 -13.5 -34 -13.5q-21 0 -36.5 13.5t-15.5 38.5z" />
<glyph unicode="&#304;" horiz-adv-x="335" d="M125 700h85v-700h-85zM112 817q0 24 17 37.5q17 13.5 40 13.5q21 0 37.5 -13.5q16.5 -13.5 16.5 -37.5q0 -26 -16.5 -40q-16.5 -14 -37.5 -14q-23 0 -40 14t-17 40z" />
<glyph unicode="&#305;" horiz-adv-x="268" d="M94 450h80v-450l-80 0z" />
<glyph unicode="&#308;" horiz-adv-x="374" d="M269 159q0 -79 -36 -124q-36 -45 -117 -45q-35 0 -63.5 11.5q-28.5 11.5 -42.5 25.5l29 65q12 -9 29.5 -15.5q17.5 -6.5 36.5 -6.5q46 0 62.5 29q16.5 29 16.5 74v527h85zM218 882h4l174 -103l-33 -46l-143 76l-144 -76l-29 45z" />
<glyph unicode="&#309;" horiz-adv-x="266" d="M178 -33q0 -83 -33 -129q-33 -46 -108 -46q-32 0 -59 9q-27 9 -41 20l23 64q12 -8 26.5 -13q14.5 -5 32.5 -5q43 0 61 28q18 28 18 78v477h80zM280 574l-38 -48l-104 91l-104 -90l-38 47l141 133l4 0z" />
<glyph unicode="&#310;" horiz-adv-x="653" d="M305 371l328 -371h-109l-317 365l307 335h103zM105 700h85v-700h-85zM346 -46q12 -3 20.5 -15.5q8.5 -12.5 8.5 -33.5q0 -24 -9 -42.5q-9 -18.5 -23.5 -32q-14.5 -13.5 -33 -22q-18.5 -8.5 -37.5 -12.5l-23 36q25 10 35.5 25q10.5 15 10.5 37q0 17 -6.5 26.5q-6.5 9.5 -17.5 14.5z" />
<glyph unicode="&#311;" horiz-adv-x="491" d="M266 241l215 -241h-109l-203 235l186 215h102zM72 700h80v-700h-80zM260 -46q12 -3 20.5 -15.5q8.5 -12.5 8.5 -33.5q0 -24 -9 -42.5q-9 -18.5 -23.5 -32q-14.5 -13.5 -33 -22q-18.5 -8.5 -37.5 -12.5l-23 36q25 10 35.5 25q10.5 15 10.5 37q0 17 -6.5 26.5q-6.5 9.5 -17.5 14.5z" />
<glyph unicode="&#313;" horiz-adv-x="550" d="M105 700h85v-620h345v-80h-430zM236 735l-23 48l195 104l30 -68z" />
<glyph unicode="&#314;" horiz-adv-x="290" d="M72 700h80v-544q0 -46 12 -67.5q12 -21.5 41 -21.5q17 0 31.5 6q14.5 6 25.5 14l18 -61q-18 -14 -44.5 -24q-26.5 -10 -61.5 -10q-102 0 -102 128zM93 735l-23 48l195 104l30 -68z" />
<glyph unicode="&#315;" horiz-adv-x="550" d="M105 700h85v-620h345v-80h-430zM336 -46q12 -3 20.5 -15.5q8.5 -12.5 8.5 -33.5q0 -24 -9 -42.5q-9 -18.5 -23.5 -32q-14.5 -13.5 -33 -22q-18.5 -8.5 -37.5 -12.5l-23 36q25 10 35.5 25q10.5 15 10.5 37q0 17 -6.5 26.5q-6.5 9.5 -17.5 14.5z" />
<glyph unicode="&#316;" horiz-adv-x="290" d="M72 700h80v-544q0 -46 12 -67.5q12 -21.5 41 -21.5q17 0 31.5 6q14.5 6 25.5 14l18 -61q-18 -14 -44.5 -24q-26.5 -10 -61.5 -10q-102 0 -102 128zM193 -46q12 -3 20.5 -15.5q8.5 -12.5 8.5 -33.5q0 -24 -9 -42.5q-9 -18.5 -23.5 -32q-14.5 -13.5 -33 -22q-18.5 -8.5 -37.5 -12.5l-23 36q25 10 35.5 25q10.5 15 10.5 37q0 17 -6.5 26.5q-6.5 9.5 -17.5 14.5z" />
<glyph unicode="&#317;" horiz-adv-x="550" d="M434 700q8 -16 8 -38q0 -30 -7.5 -55q-7.5 -25 -19.5 -44q-12 -19 -27.5 -32.5q-15.5 -13.5 -31.5 -21.5l-36 35q21 18 34 46.5q13 28.5 13 62.5q0 15 -3 26q-3 11 -8 21zM105 700h85v-620h345v-80l-430 0z" />
<glyph unicode="&#318;" horiz-adv-x="290" d="M324 700q8 -16 8 -38q0 -30 -7.5 -55q-7.5 -25 -19.5 -44q-12 -19 -27.5 -32.5q-15.5 -13.5 -31.5 -21.5l-36 35q21 18 34 46.5q13 28.5 13 62.5q0 15 -3 26q-3 11 -8 21zM72 700h80v-544q0 -46 12 -67.5q12 -21.5 41 -21.5q17 0 31.5 6q14.5 6 25.5 14l18 -61q-18 -14 -44.5 -24q-26.5 -10 -61.5 -10q-102 0 -102 128z" />
</font>
</defs>
</svg>
