<?xml version="1.0" encoding="UTF-8" standalone="no"?>
<!DOCTYPE svg PUBLIC "-//W3C//DTD SVG 1.1//EN" "http://www.w3.org/Graphics/SVG/1.1/DTD/svg11.dtd" >
<svg xmlns="http://www.w3.org/2000/svg">
<metadata>
Generated by SVGconv.
Copyright   : Copyright (c) 2018 ParaType, Inc., ParaType Ltd. All rights reserved.
Designer    : A.Korolkova
Foundry     : ParaType Ltd
Foundry URL : http://www.paratype.com
</metadata>
<defs>
<font id="CirceSlabCWeb-Regular" horiz-adv-x="608" >
<font-face units-per-em="1000" ascent="935" descent="320" >
<font-face-src>
<font-face-name/>
</font-face-src>
</font-face>
<missing-glyph horiz-adv-x="500" />
<glyph unicode="&#13;" horiz-adv-x="240" />
<glyph unicode="&#32;" horiz-adv-x="240" />
<glyph unicode="&#33;" horiz-adv-x="310" d="M99 700h112l-32 -493h-48zM90 55q0 26 18 45.5q18 19.5 47 19.5q27 0 45.5 -18.5q18.5 -18.5 18.5 -46.5q0 -26 -18 -45.5q-18 -19.5 -47 -19.5q-30 0 -47 19.5t-17 45.5z" />
<glyph unicode="&#34;" horiz-adv-x="450" d="M83 700h92l-24 -220h-44zM243 700h92l-24 -220l-44 0z" />
<glyph unicode="&#35;" horiz-adv-x="744" d="M89 7l72 199h-121v50h139l69 194h-208v50h226l76 210l47 -16l-70 -194h165l76 210l47 -16l-70 -194h121v-50h-139l-69 -194h208v-50h-226l-78 -216l-47 17l72 199h-165l-78 -216zM397 256l69 194h-165l-69 -194z" />
<glyph unicode="&#36;" horiz-adv-x="566" d="M55 0v205h54l5 -58q19 -43 62.5 -73q43.5 -30 98.5 -30q66 0 105.5 28.5q39.5 28.5 39.5 87.5q0 47 -26 76q-26 29 -65.5 50.5q-39.5 21.5 -85 39.5q-45.5 18 -85 43.5q-39.5 25.5 -65.5 63q-26 37.5 -26 96.5q0 34 11.5 65q11.5 31 34 55q22.5 24 55.5 40q33 16 77 20l0 81h49v-81q41 -3 79 -19q38 -16 66 -46l0 56h54v-187h-54l-5 57q-20 45 -60.5 65.5q-40.5 20.5 -93.5 20.5q-54 0 -85.5 -31q-31.5 -31 -31.5 -78q0 -44 26 -71.5q26 -27.5 65.5 -48q39.5 -20.5 85 -39q45.5 -18.5 85 -45q39.5 -26.5 65.5 -66q26 -39.5 26 -100.5q0 -43 -16.5 -77.5q-16.5 -34.5 -45 -59q-28.5 -24.5 -66 -37.5q-37.5 -13 -79.5 -13h-15v-90h-49v96q-89 17 -136 73l0 -69z" />
<glyph unicode="&#37;" horiz-adv-x="860" d="M446 146q0 37 13 67q13 30 37 51q24 21 57.5 32q33.5 11 74.5 11q40 0 73.5 -11q33.5 -11 57.5 -32q24 -21 37.5 -50.5q13.5 -29.5 13.5 -65.5q0 -37 -14 -67q-14 -30 -38 -51q-24 -21 -57.5 -32.5q-33.5 -11.5 -72.5 -11.5q-40 0 -73.5 11.5q-33.5 11.5 -57.5 32.5q-24 21 -37.5 50.5q-13.5 29.5 -13.5 65.5zt0 0zM516 146q0 -57 32 -88.5q32 -31.5 80 -31.5q48 0 79.5 31.5q31.5 31.5 31.5 88.5q0 60 -31.5 90.5q-31.5 30.5 -79.5 30.5q-49 0 -80.5 -30.5q-31.5 -30.5 -31.5 -90.5zt0 0zM50 546q0 37 13 67q13 30 37 51q24 21 57.5 32q33.5 11 74.5 11q40 0 73.5 -11q33.5 -11 57.5 -32q24 -21 37.5 -50.5q13.5 -29.5 13.5 -65.5q0 -37 -14 -67q-14 -30 -38 -51q-24 -21 -57.5 -32.5q-33.5 -11.5 -72.5 -11.5q-40 0 -73.5 11.5q-33.5 11.5 -57.5 32.5q-24 21 -37.5 50.5q-13.5 29.5 -13.5 65.5zt0 0zM120 546q0 -57 32 -88.5q32 -31.5 80 -31.5q48 0 79.5 31.5q31.5 31.5 31.5 88.5q0 60 -31.5 90.5q-31.5 30.5 -79.5 30.5q-49 0 -80.5 -30.5q-31.5 -30.5 -31.5 -90.5zt0 0zM702 710l37 -31l-583 -689l-37 31z" />
<glyph unicode="&#38;" horiz-adv-x="762" d="M527 189q26 43 41.5 98.5q15.5 55.5 18.5 113.5l-65 0v49h169v-49h-49q-5 -71 -26 -135.5q-21 -64.5 -56 -118.5l78 -98h67v-49h-116l-79 99q-34 -46 -89 -77.5q-55 -31.5 -128 -31.5q-53 0 -95.5 15q-42.5 15 -73 41.5q-30.5 26.5 -47 63q-16.5 36.5 -16.5 80.5q0 44 18 81q18 37 45.5 68.5q27.5 31.5 61 57q33.5 25.5 64.5 46.5q-13 15 -27 32q-14 17 -25 35.5q-11 18.5 -18.5 39q-7.5 20.5 -7.5 42.5q0 53 35 85.5q35 32.5 107 32.5q62 0 98 -31.5q36 -31.5 36 -88.5q0 -28 -10 -50q-10 -22 -26.5 -40q-16.5 -18 -36.5 -33.5q-20 -15.5 -39 -31.5zM312 39q58 0 99 29.5q41 29.5 70 71.5l-197 254q-26 -18 -48.5 -39.5q-22.5 -21.5 -40 -46q-17.5 -24.5 -27.5 -52.5q-10 -28 -10 -60q0 -37 12 -66q12 -29 32.5 -49.5q20.5 -20.5 48.5 -31q28 -10.5 61 -10.5zt0 0zM301 470q33 24 57 51q24 27 24 66q0 36 -20 55q-20 19 -52 19q-37 0 -55 -20q-18 -20 -18 -47q0 -34 19.5 -64.5t44.5 -59.5z" />
<glyph unicode="&#39;" horiz-adv-x="250" d="M79 700h92l-24 -220l-44 0z" />
<glyph unicode="&#40;" horiz-adv-x="341" d="M291 622q-48 -45 -79 -92q-31 -47 -49 -96.5q-18 -49.5 -25.5 -101.5q-7.5 -52 -7.5 -107q0 -55 9 -109.5q9 -54.5 28.5 -105.5q19.5 -51 50 -97.5q30.5 -46.5 73.5 -85.5l-33 -27q-58 47 -97.5 98.5q-39.5 51.5 -64 105.5q-24.5 54 -35.5 110q-11 56 -11 111q0 55 10.5 109.5q10.5 54.5 35 108q24.5 53.5 64.5 105.5q40 52 99 102z" />
<glyph unicode="&#41;" horiz-adv-x="341" d="M50 -173q43 39 73.5 85.5q30.5 46.5 50 97.5q19.5 51 28.5 105.5q9 54.5 9 109.5q0 55 -7.5 107q-7.5 52 -25.5 101.5q-18 49.5 -49 96.5q-31 47 -79 92l32 28q59 -50 99 -102q40 -52 64.5 -105.5q24.5 -53.5 35 -108q10.5 -54.5 10.5 -109.5q0 -55 -11 -111q-11 -56 -35.5 -110q-24.5 -54 -64 -105.5q-39.5 -51.5 -97.5 -98.5z" />
<glyph unicode="&#42;" horiz-adv-x="468" d="M195 395q0 16 11 27.5q11 11.5 27 11.5q16 0 28 -11.5q12 -11.5 12 -27.5q0 -16 -12 -27q-12 -11 -28 -11q-16 0 -27 11q-11 11 -11 27zt0 0zM75 599q0 16 11 27.5q11 11.5 27 11.5q16 0 27.5 -11.5q11.5 -11.5 11.5 -27.5q0 -16 -11.5 -27q-11.5 -11 -27.5 -11q-16 0 -27 11q-11 11 -11 27zt0 0zM75 467q0 16 11 27.5q11 11.5 27 11.5q16 0 27.5 -11.5q11.5 -11.5 11.5 -27.5q0 -16 -11.5 -27q-11.5 -11 -27.5 -11q-16 0 -27 11q-11 11 -11 27zt0 0zM195 671q0 16 11 27.5q11 11.5 27 11.5q16 0 28 -11.5q12 -11.5 12 -27.5q0 -16 -12 -27q-12 -11 -28 -11q-16 0 -27 11q-11 11 -11 27zt0 0zM316 599q0 16 11 27.5q11 11.5 27 11.5q16 0 27.5 -11.5q11.5 -11.5 11.5 -27.5q0 -16 -11.5 -27q-11.5 -11 -27.5 -11q-16 0 -27 11q-11 11 -11 27zt0 0zM316 467q0 16 11 27.5q11 11.5 27 11.5q16 0 27.5 -11.5q11.5 -11.5 11.5 -27.5q0 -16 -11.5 -27q-11.5 -11 -27.5 -11q-16 0 -27 11t-11 27z" />
<glyph unicode="&#43;" horiz-adv-x="600" d="M266 334h-196v52h196v199h57v-199h198v-52h-198v-201l-57 0z" />
<glyph unicode="&#44;" horiz-adv-x="281" d="M50 -112q12 3 26 11q14 8 26 20q12 12 20 29q8 17 8 40q0 8 -3 16q-8 -6 -23 -6q-25 0 -40.5 15.5q-15.5 15.5 -15.5 41.5q0 29 17.5 47q17.5 18 44.5 18q32 0 54.5 -24.5q22.5 -24.5 22.5 -76.5q0 -30 -9 -57q-9 -27 -25.5 -48.5q-16.5 -21.5 -39.5 -36.5q-23 -15 -51 -21z" />
<glyph unicode="&#45;" horiz-adv-x="355" d="M60 296h235v-52l-235 0z" />
<glyph unicode="&#46;" horiz-adv-x="229" d="M50 55q0 26 18 45.5q18 19.5 47 19.5q27 0 45.5 -18.5q18.5 -18.5 18.5 -46.5q0 -26 -18 -45.5q-18 -19.5 -47 -19.5q-30 0 -47 19.5t-17 45.5z" />
<glyph unicode="&#47;" horiz-adv-x="382" d="M-21 -192l325 902l46 -16l-325 -902z" />
<glyph unicode="&#48;" horiz-adv-x="639" d="M321 -8q-62 0 -108.5 26.5q-46.5 26.5 -77.5 74q-31 47.5 -46.5 113.5q-15.5 66 -15.5 144q0 78 15 144q15 66 45.5 113.5q30.5 47.5 77 74q46.5 26.5 108.5 26.5q64 0 110.5 -26.5q46.5 -26.5 76.5 -74q30 -47.5 44.5 -113.5q14.5 -66 14.5 -144q0 -78 -15 -144q-15 -66 -45 -113.5q-30 -47.5 -76 -74q-46 -26.5 -108 -26.5zt0 0zM321 36q80 0 110 81q30 81 30 233q0 74 -7 132.5q-7 58.5 -23.5 99q-16.5 40.5 -44 61.5q-27.5 21 -67.5 21q-40 0 -67 -20.5q-27 -20.5 -43.5 -60.5q-16.5 -40 -24 -98.5q-7.5 -58.5 -7.5 -134.5q0 -152 32 -233t112 -81z" />
<glyph unicode="&#49;" horiz-adv-x="475" d="M78 49h109v537q-6 -6 -20.5 -13.5q-14.5 -7.5 -32.5 -15q-18 -7.5 -36.5 -13q-18.5 -5.5 -32.5 -8.5l-8 38q29 9 59 23q30 14 57 31.5q27 17.5 48.5 37.5q21.5 20 33.5 40l28 0v-657h89v-49l-294 0z" />
<glyph unicode="&#50;" horiz-adv-x="581" d="M60 46q30 24 66.5 55q36.5 31 73.5 67q37 36 71.5 76q34.5 40 61 82.5q26.5 42.5 42.5 86q16 43.5 16 87.5q0 34 -9 62.5q-9 28.5 -26.5 49.5q-17.5 21 -44 32.5q-26.5 11.5 -60.5 11.5q-23 0 -44.5 -6q-21.5 -6 -39.5 -16.5q-18 -10.5 -30.5 -25q-12.5 -14.5 -16.5 -30.5q35 6 56 -11.5q21 -17.5 21 -48.5q0 -28 -20 -46q-20 -18 -46 -18q-29 0 -48.5 21.5q-19.5 21.5 -19.5 56.5q0 30 15 61.5q15 31.5 43.5 57q28.5 25.5 70 42q41.5 16.5 93.5 16.5q53 0 92.5 -15.5q39.5 -15.5 65.5 -41.5q26 -26 39 -59.5q13 -33.5 13 -68.5q0 -50 -20 -98.5q-20 -48.5 -51 -93.5q-31 -45 -69.5 -84.5q-38.5 -39.5 -76 -72q-37.5 -32.5 -70 -56.5q-32.5 -24 -51.5 -36l312 0v87h48v-170l-457 0z" />
<glyph unicode="&#51;" horiz-adv-x="579" d="M202 334v48h45q26 0 50 10.5q24 10.5 42 29q18 18.5 28.5 45.5q10.5 27 10.5 60q0 66 -39.5 100q-39.5 34 -106.5 34q-35 0 -68 -13.5q-33 -13.5 -47 -34.5q31 -2 46.5 -19q15.5 -17 15.5 -44q0 -21 -17.5 -39q-17.5 -18 -43.5 -18q-26 0 -43.5 17.5q-17.5 17.5 -17.5 48.5q0 27 16 54q16 27 44.5 48.5q28.5 21.5 67.5 35q39 13.5 84 13.5q98 0 156 -46q58 -46 58 -131q0 -28 -9.5 -54.5q-9.5 -26.5 -27.5 -49q-18 -22.5 -44.5 -39q-26.5 -16.5 -61.5 -25.5l0 -3q40 -3 72 -18.5q32 -15.5 53.5 -38.5q21.5 -23 33 -52.5q11.5 -29.5 11.5 -59.5q0 -48 -18.5 -85.5q-18.5 -37.5 -51 -63.5q-32.5 -26 -77 -40q-44.5 -14 -95.5 -14q-49 0 -90.5 13.5q-41.5 13.5 -72 36.5q-30.5 23 -47.5 53q-17 30 -17 62q0 28 18.5 47.5q18.5 19.5 44.5 19.5q33 0 48.5 -18.5q15.5 -18.5 15.5 -41.5q0 -22 -13 -42q-13 -20 -45 -25q17 -25 51 -40.5q34 -15.5 82 -15.5q37 0 67 11.5q30 11.5 51 31q21 19.5 32.5 46.5q11.5 27 11.5 58q0 33 -11 60q-11 27 -31 46.5q-20 19.5 -48.5 30.5q-28.5 11 -63.5 11z" />
<glyph unicode="&#52;" horiz-adv-x="622" d="M361 231v185l77 34h18v-219h100v-52h-100v-179h-95v179h-324v34q49 44 93.5 102.5q44.5 58.5 79.5 123.5q35 65 59 132q24 67 32 129l119 0q-14 -62 -48.5 -130q-34.5 -68 -78.5 -132q-44 -64 -92 -118.5q-48 -54.5 -89 -88.5z" />
<glyph unicode="&#53;" horiz-adv-x="585" d="M172 418q17 7 40 11.5q23 4.5 55 4.5q52 0 96 -15q44 -15 76 -43q32 -28 50 -67.5q18 -39.5 18 -88.5q0 -53 -18.5 -95.5q-18.5 -42.5 -50.5 -72.5q-32 -30 -75.5 -46q-43.5 -16 -92.5 -16q-49 0 -90 13q-41 13 -71 34.5q-30 21.5 -47 49q-17 27.5 -17 56.5q0 35 20 55q20 20 52 20q28 0 45 -19q17 -19 17 -46q0 -23 -15.5 -42.5q-15.5 -19.5 -42.5 -25.5q17 -20 50 -32.5q33 -12.5 75 -12.5q34 0 63 12q29 12 49.5 33.5q20.5 21.5 32 52q11.5 30.5 11.5 67.5q0 37 -13 69q-13 32 -37 55.5q-24 23.5 -57.5 36.5q-33.5 13 -74.5 13q-34 0 -60.5 -7q-26.5 -7 -45.5 -17l43 345h303l10 73h48l-17 -160l-304 0z" />
<glyph unicode="&#54;" horiz-adv-x="644" d="M332 -10q-62 0 -112 20q-50 20 -85 56.5q-35 36.5 -54 88q-19 51.5 -19 114.5q0 88 30.5 168q30.5 80 84.5 140.5q54 60.5 128.5 96q74.5 35.5 162.5 34.5l-1 -47q-57 -7 -108.5 -33q-51.5 -26 -91.5 -69.5q-40 -43.5 -65.5 -103q-25.5 -59.5 -31.5 -132.5q21 51 69 84q48 33 114 33q51 0 91 -16q40 -16 67 -44.5q27 -28.5 41.5 -68q14.5 -39.5 14.5 -87.5q0 -50 -18.5 -92.5q-18.5 -42.5 -50.5 -74q-32 -31.5 -74.5 -49.5q-42.5 -18 -91.5 -18zt0 0zM325 39q29 0 54 13q25 13 44 36.5q19 23.5 29.5 55.5q10.5 32 10.5 71q0 75 -37.5 121.5q-37.5 46.5 -105.5 46.5q-33 0 -59.5 -10.5q-26.5 -10.5 -45.5 -27.5q-19 -17 -31 -38.5q-12 -21.5 -18 -43.5q0 -46 9.5 -87q9.5 -41 29 -71.5q19.5 -30.5 49.5 -48t71 -17.5z" />
<glyph unicode="&#55;" horiz-adv-x="544" d="M51 700h442v-36q-63 -101 -107.5 -187.5q-44.5 -86.5 -73 -166q-28.5 -79.5 -41.5 -155.5q-13 -76 -13 -155l-98 0q1 68 17 133q16 65 47 136.5q31 71.5 76.5 154q45.5 82.5 107.5 185.5l-309 0v-96l-48 0z" />
<glyph unicode="&#56;" horiz-adv-x="661" d="M420 359q36 -5 65.5 -19.5q29.5 -14.5 51 -37q21.5 -22.5 33 -52q11.5 -29.5 11.5 -63.5q0 -47 -19.5 -83.5q-19.5 -36.5 -53 -62q-33.5 -25.5 -79.5 -38.5q-46 -13 -99 -13q-53 0 -99 13q-46 13 -79.5 38q-33.5 25 -53 60q-19.5 35 -19.5 80q0 65 41.5 113.5q41.5 48.5 115.5 63.5l0 3q-29 8 -54 24q-25 16 -43 38q-18 22 -28 48.5q-10 26.5 -10 55.5q0 42 17.5 76q17.5 34 48 58q30.5 24 72.5 36.5q42 12.5 90 12.5q49 0 91 -12.5q42 -12.5 73 -36q31 -23.5 48 -57.5q17 -34 17 -77q0 -26 -9 -51q-9 -25 -26.5 -47.5q-17.5 -22.5 -43.5 -40q-26 -17.5 -59 -26.5zM331 39q30 0 57 10.5q27 10.5 46.5 31q19.5 20.5 31 49q11.5 28.5 11.5 64.5q0 31 -10.5 57.5q-10.5 26.5 -28 46q-17.5 19.5 -42 30q-24.5 10.5 -53.5 10.5h-23q-29 0 -54 -11.5q-25 -11.5 -43.5 -31.5q-18.5 -20 -29 -46.5q-10.5 -26.5 -10.5 -56.5q0 -35 12 -63q12 -28 32 -48q20 -20 47 -31q27 -11 57 -11zt0 0zM344 382q21 0 41 10.5q20 10.5 36.5 28.5q16.5 18 26.5 42.5q10 24.5 10 53.5q0 34 -10.5 61q-10.5 27 -28.5 45.5q-18 18.5 -41.5 28q-23.5 9.5 -48.5 9.5q-26 0 -49 -9.5q-23 -9.5 -40.5 -28q-17.5 -18.5 -28 -45.5q-10.5 -27 -10.5 -61q0 -29 10.5 -54q10.5 -25 27 -43q16.5 -18 37 -28q20.5 -10 40.5 -10z" />
<glyph unicode="&#57;" horiz-adv-x="644" d="M158 39q64 7 117 33q53 26 92 69q39 43 62.5 100.5q23.5 57.5 29.5 128.5q-21 -51 -68.5 -80.5q-47.5 -29.5 -111.5 -29.5q-51 0 -92 17.5q-41 17.5 -69.5 47q-28.5 29.5 -44 69.5q-15.5 40 -15.5 85q0 49 19.5 91.5q19.5 42.5 53.5 73.5q34 31 79.5 48.5q45.5 17.5 97.5 17.5q60 0 107.5 -20.5q47.5 -20.5 80 -57q32.5 -36.5 50 -88q17.5 -51.5 17.5 -113.5q0 -94 -28 -175q-28 -81 -80.5 -140q-52.5 -59 -127.5 -92q-75 -33 -170 -31zM311 312q31 0 55.5 10q24.5 10 43.5 26q19 16 31 36.5q12 20.5 18 42.5q1 43 -7.5 84.5q-8.5 41.5 -27 74q-18.5 32.5 -48 52q-29.5 19.5 -71.5 19.5q-29 0 -54.5 -12.5q-25.5 -12.5 -45.5 -35q-20 -22.5 -31.5 -53.5q-11.5 -31 -11.5 -68q0 -35 10 -67q10 -32 28.5 -56q18.5 -24 46.5 -38.5t64 -14.5z" />
<glyph unicode="&#58;" horiz-adv-x="316" d="M93 55q0 26 18 45.5q18 19.5 47 19.5q27 0 45.5 -18.5q18.5 -18.5 18.5 -46.5q0 -26 -18 -45.5q-18 -19.5 -47 -19.5q-30 0 -47 19.5q-17 19.5 -17 45.5zt0 0zM93 385q0 26 18 45.5q18 19.5 47 19.5q27 0 45.5 -18.5q18.5 -18.5 18.5 -46.5q0 -26 -18 -45.5q-18 -19.5 -47 -19.5q-30 0 -47 19.5t-17 45.5z" />
<glyph unicode="&#59;" horiz-adv-x="229" d="M50 385q0 26 18 45.5q18 19.5 47 19.5q27 0 45.5 -18.5q18.5 -18.5 18.5 -46.5q0 -26 -18 -45.5q-18 -19.5 -47 -19.5q-30 0 -47 19.5q-17 19.5 -17 45.5zt0 0zM50 -112q12 3 26 11q14 8 26 20q12 12 20 29q8 17 8 40q0 8 -3 16q-8 -6 -23 -6q-25 0 -40.5 15.5q-15.5 15.5 -15.5 41.5q0 29 17.5 47q17.5 18 44.5 18q32 0 54.5 -24.5q22.5 -24.5 22.5 -76.5q0 -30 -9 -57q-9 -27 -25.5 -48.5q-16.5 -21.5 -39.5 -36.5q-23 -15 -51 -21z" />
<glyph unicode="&#60;" horiz-adv-x="600" d="M492 146v-63l-411 264v30l411 262v-63l-335 -214z" />
<glyph unicode="&#61;" horiz-adv-x="600" d="M70 298h451v-53h-451zM70 475h451v-53l-451 0z" />
<glyph unicode="&#62;" horiz-adv-x="600" d="M99 146l335 216l-335 214v63l410 -262v-30l-410 -264z" />
<glyph unicode="&#63;" horiz-adv-x="510" d="M196 198q-10 29 -10 55q0 33 12.5 58q12.5 25 31.5 46q19 21 40.5 40q21.5 19 40.5 41q19 22 31.5 48q12.5 26 12.5 61q0 52 -32.5 83q-32.5 31 -93.5 31q-48 0 -80 -19.5q-32 -19.5 -46 -48.5q23 -2 35.5 -16.5q12.5 -14.5 12.5 -36.5q0 -23 -16 -39.5q-16 -16.5 -39 -16.5q-23 0 -39 17.5q-16 17.5 -16 40.5q0 35 16.5 65.5q16.5 30.5 44.5 53.5q28 23 65.5 36q37.5 13 79.5 13q48 0 86.5 -11.5q38.5 -11.5 65.5 -33q27 -21.5 41.5 -51.5q14.5 -30 14.5 -66q0 -46 -16.5 -78.5q-16.5 -32.5 -40.5 -57.5q-24 -25 -53 -44.5q-29 -19.5 -53 -39q-24 -19.5 -40.5 -42q-16.5 -22.5 -16.5 -53.5q0 -8 1 -16q1 -8 3 -18zM160 55q0 26 18 45.5q18 19.5 47 19.5q27 0 45.5 -18.5q18.5 -18.5 18.5 -46.5q0 -26 -18 -45.5q-18 -19.5 -47 -19.5q-30 0 -47 19.5t-17 45.5z" />
<glyph unicode="&#64;" horiz-adv-x="1006" d="M626 88q-8 -13 -21.5 -26.5q-13.5 -13.5 -32.5 -24q-19 -10.5 -43.5 -17.5q-24.5 -7 -54.5 -7q-37 0 -70 14q-33 14 -58 40q-25 26 -40 64.5q-15 38.5 -15 87.5q0 50 17 90.5q17 40.5 48.5 69.5q31.5 29 76 45q44.5 16 98.5 16q49 0 93.5 -14q44.5 -14 79.5 -37l0 -320h29q35 0 66 15.5q31 15.5 54.5 43.5q23.5 28 37 66.5q13.5 38.5 13.5 85.5q0 72 -26 133q-26 61 -75.5 105.5q-49.5 44.5 -121 70q-71.5 25.5 -162.5 25.5q-85 0 -158.5 -29q-73.5 -29 -127.5 -81q-54 -52 -84.5 -123.5q-30.5 -71.5 -30.5 -155.5q0 -84 31 -155.5q31 -71.5 85 -123.5q54 -52 128 -81q74 -29 161 -29q26 0 54 3q28 3 54 9l5 -47q-27 -6 -57.5 -9.5q-30.5 -3.5 -59.5 -3.5q-99 0 -182.5 33.5q-83.5 33.5 -143.5 92q-60 58.5 -94 138.5q-34 80 -34 173q0 91 34 170.5q34 79.5 94 139q60 59.5 143.5 93.5q83.5 34 182.5 34q95 0 175.5 -27q80.5 -27 139 -76q58.5 -49 91 -119q32.5 -70 32.5 -155q0 -52 -15.5 -100q-15.5 -48 -47 -84.5q-31.5 -36.5 -81 -58.5q-49.5 -22 -116.5 -22h-71zM514 64q38 0 65.5 19.5q27.5 19.5 42.5 39.5l0 246q-26 13 -50 17.5q-24 4.5 -50 4.5q-31 0 -58 -11q-27 -11 -47.5 -33q-20.5 -22 -32 -54q-11.5 -32 -11.5 -74q0 -38 11.5 -67q11.5 -29 31 -48.5q19.5 -19.5 45 -29.5t53.5 -10z" />
<glyph unicode="&#65;" horiz-adv-x="734" d="M8 49h59l244 651h106l255 -651h58v-49h-239v49h78l-76 201h-290l-73 -201h81v-49h-203zM474 299l-93 241q-12 32 -20.5 57q-8.5 25 -13.5 39l-3 0q-5 -15 -14.5 -39.5q-9.5 -24.5 -20.5 -56.5l-89 -241z" />
<glyph unicode="&#66;" horiz-adv-x="670" d="M130 49v602h-80v49h80q15 0 44.5 0.5q29.5 0.5 64.5 1q35 0.5 69 1q34 0.5 58 0.5q63 0 106.5 -13.5q43.5 -13.5 70.5 -36.5q27 -23 39 -55q12 -32 12 -68q0 -34 -12 -62q-12 -28 -33 -49q-21 -21 -48.5 -34q-27.5 -13 -57.5 -17l0 -2q80 -8 128.5 -51.5q48.5 -43.5 48.5 -115.5q0 -53 -19 -91q-19 -38 -53 -63q-34 -25 -81 -36.5q-47 -11.5 -104 -11.5q-23 0 -56.5 0.5q-33.5 0.5 -67.5 1q-34 0.5 -64 1q-30 0.5 -45 0.5h-80v49zM226 333v-283q19 -2 53.5 -3q34.5 -1 66.5 -1q82 0 127 39q45 39 45 112q0 60 -43.5 98q-43.5 38 -131.5 38zM344 381q33 0 60 10.5q27 10.5 46.5 29q19.5 18.5 30.5 44q11 25.5 11 55.5q0 61 -35.5 97.5q-35.5 36.5 -118.5 36.5q-29 0 -60.5 0q-31.5 0 -51.5 -2l0 -271z" />
<glyph unicode="&#67;" horiz-adv-x="712" d="M608 205h54v-205h-54v58q-38 -32 -90.5 -50q-52.5 -18 -109.5 -18q-79 0 -145 25q-66 25 -113 71.5q-47 46.5 -73.5 113.5q-26.5 67 -26.5 150q0 75 25 141q25 66 70.5 114.5q45.5 48.5 110 76.5q64.5 28 144.5 28q126 0 202 -66l0 56h54v-196h-54l-5 81q-32 33 -74 52q-42 19 -100 19q-59 0 -107.5 -23q-48.5 -23 -83 -63.5q-34.5 -40.5 -53.5 -97q-19 -56.5 -19 -122.5q0 -68 19.5 -124q19.5 -56 55 -96.5q35.5 -40.5 85.5 -63q50 -22.5 110 -22.5q55 0 98 20q43 20 75 52z" />
<glyph unicode="&#68;" horiz-adv-x="798" d="M230 49q38 -1 66.5 -1.5q28.5 -0.5 36.5 -0.5q77 0 134.5 24.5q57.5 24.5 95.5 66.5q38 42 56.5 99q18.5 57 18.5 122q0 61 -17 115q-17 54 -54 94q-37 40 -94 63q-57 23 -137 23q-17 0 -30.5 0q-13.5 0 -25.5 -0.5q-12 -0.5 -24 -1q-12 -0.5 -26 -1.5zM134 49v602h-84v49h96q18 0 43 0.5q25 0.5 52 1q27 0.5 55 1q28 0.5 52 0.5q108 0 184 -28q76 -28 124 -75.5q48 -47.5 70 -109.5q22 -62 22 -131q0 -75 -24.5 -140.5q-24.5 -65.5 -75 -114.5q-50.5 -49 -128.5 -77.5q-78 -28.5 -186 -28.5q-18 0 -41.5 0.5q-23.5 0.5 -49 0.5q-25.5 0 -51.5 0.5q-26 0.5 -48 0.5h-94l0 49z" />
<glyph unicode="&#69;" horiz-adv-x="630" d="M50 49h84v602h-84v49h515v-196h-54l-10 147h-271v-272h211v-48h-211v-282h281l10 149h54v-198l-525 0z" />
<glyph unicode="&#70;" horiz-adv-x="601" d="M50 49h80v602h-80v49h515v-196h-54l-10 147h-275v-294h241v-49h-241v-259h120v-49l-296 0z" />
<glyph unicode="&#71;" horiz-adv-x="742" d="M682 337v-337h-54v63q-44 -35 -103 -54q-59 -19 -115 -19q-84 0 -151 25.5q-67 25.5 -113.5 72.5q-46.5 47 -71 113.5q-24.5 66.5 -24.5 148.5q0 76 25.5 142q25.5 66 71 114.5q45.5 48.5 109.5 76q64 27.5 142 27.5q128 0 207 -67l0 51h54v-197h-54l-5 90q-34 32 -75 50.5q-41 18.5 -97 18.5q-61 0 -110.5 -23q-49.5 -23 -84.5 -64q-35 -41 -54 -97q-19 -56 -19 -122q0 -67 18.5 -123q18.5 -56 54 -96.5q35.5 -40.5 86 -63.5q50.5 -23 113.5 -23q28 0 56.5 6q28.5 6 54.5 16.5q26 10.5 48 25q22 14.5 37 30.5l0 156l-199 10l0 49z" />
<glyph unicode="&#72;" horiz-adv-x="851" d="M50 49h80v602h-80v49h254v-49h-78v-272h399v272h-79v49h255v-49h-80v-602h80v-49h-255v49h79v281h-399v-281h78v-49l-254 0z" />
<glyph unicode="&#73;" horiz-adv-x="375" d="M55 49h85v602h-85v49h265v-49h-84v-602h84v-49l-265 0z" />
<glyph unicode="&#74;" horiz-adv-x="390" d="M173 651h-100v49h277v-49h-81v-483q0 -43 -7.5 -76q-7.5 -33 -25.5 -55.5q-18 -22.5 -48.5 -34.5q-30.5 -12 -76.5 -12q-33 0 -64 9q-31 9 -47 21l20 43q9 -8 26 -13.5q17 -5.5 42 -5.5q47 0 66 32.5q19 32.5 19 84.5z" />
<glyph unicode="&#75;" horiz-adv-x="726" d="M50 49h80v602h-80v49h240v-49h-64v-602h74v-49h-250zM261 351l279 300h-69v49h208v-49h-62l-263 -271l295 -331h57v-49l-139 0z" />
<glyph unicode="&#76;" horiz-adv-x="601" d="M50 49h80v602h-80v49h273v-49h-97v-602h281l10 150h54v-199l-521 0z" />
<glyph unicode="&#77;" horiz-adv-x="939" d="M50 49h84v602h-84v49h184l242 -375l239 375h174v-49h-80v-602h80v-49h-259v49h83v549l-255 -398h-12l-252 395v-546h77v-49l-221 0z" />
<glyph unicode="&#78;" horiz-adv-x="827" d="M50 49h80v602h-80v49h165l435 -571v522h-79v49h216v-49h-83v-651h-76l-444 581v-532h86v-49l-220 0z" />
<glyph unicode="&#79;" horiz-adv-x="827" d="M413 -15q-78 0 -144.5 24.5q-66.5 24.5 -115 71q-48.5 46.5 -76 114.5q-27.5 68 -27.5 155q0 84 27 151.5q27 67.5 75 115q48 47.5 114.5 73q66.5 25.5 146.5 25.5q80 0 147 -24.5q67 -24.5 115 -71q48 -46.5 75 -114.5q27 -68 27 -155q0 -85 -27 -152.5q-27 -67.5 -75 -115q-48 -47.5 -115 -72.5q-67 -25 -147 -25zt0 0zM416 39q58 0 104.5 21.5q46.5 21.5 79 62q32.5 40.5 50 98q17.5 57.5 17.5 129.5q0 73 -18.5 131q-18.5 58 -52 98q-33.5 40 -80.5 61q-47 21 -103 21q-56 0 -102.5 -21q-46.5 -21 -80 -61q-33.5 -40 -52 -98q-18.5 -58 -18.5 -131q0 -72 19.5 -129.5q19.5 -57.5 53.5 -98q34 -40.5 81 -62t102 -21.5z" />
<glyph unicode="&#80;" horiz-adv-x="652" d="M50 49h84v602h-84v49h84q15 0 42.5 0.5q27.5 0.5 57.5 0.5q30 0 58.5 0.5q28.5 0.5 44.5 0.5q78 0 130 -17.5q52 -17.5 83 -47q31 -29.5 44 -68.5q13 -39 13 -82q0 -44 -16.5 -83q-16.5 -39 -49 -68q-32.5 -29 -81 -45.5q-48.5 -16.5 -113.5 -16.5q-22 0 -55.5 1q-33.5 1 -61.5 3l0 -229h108v-49h-288zM230 327q27 -3 49 -4q22 -1 46 -1q48 0 81.5 13q33.5 13 55 35.5q21.5 22.5 31.5 53.5q10 31 10 66q0 35 -10.5 65q-10.5 30 -32 51.5q-21.5 21.5 -54.5 34q-33 12.5 -78 12.5q-10 0 -22.5 0q-12.5 0 -26 -0.5q-13.5 -0.5 -26.5 -1q-13 -0.5 -23 -0.5z" />
<glyph unicode="&#81;" horiz-adv-x="827" d="M864 -135q-31 -37 -74.5 -54q-43.5 -17 -86.5 -17q-39 0 -73 12.5q-34 12.5 -71 36.5q-37 24 -80 60q-43 36 -101 83q-71 6 -131.5 32.5q-60.5 26.5 -104 73q-43.5 46.5 -68 111.5q-24.5 65 -24.5 147q0 84 27 151.5q27 67.5 75 115q48 47.5 114.5 73q66.5 25.5 146.5 25.5q80 0 147 -24.5q67 -24.5 115 -71q48 -46.5 75 -114.5q27 -68 27 -155q0 -78 -23 -141.5q-23 -63.5 -64.5 -110q-41.5 -46.5 -99.5 -75q-58 -28.5 -128 -35.5q82 -61 150 -98q68 -37 110 -36q75 0 124 46zM416 39q58 0 104.5 21.5q46.5 21.5 79 62q32.5 40.5 50 98q17.5 57.5 17.5 129.5q0 73 -18.5 131q-18.5 58 -52 98q-33.5 40 -80.5 61q-47 21 -103 21q-56 0 -102.5 -21q-46.5 -21 -80 -61q-33.5 -40 -52 -98q-18.5 -58 -18.5 -131q0 -72 19.5 -129.5q19.5 -57.5 53.5 -98q34 -40.5 81 -62t102 -21.5z" />
<glyph unicode="&#82;" horiz-adv-x="697" d="M50 49h84v602h-84v49h84q15 0 47 0.5q32 0.5 66 0.5q34 0 62 0.5q28 0.5 36 0.5q72 0 121 -16.5q49 -16.5 79 -45q30 -28.5 43 -65.5q13 -37 13 -79q0 -38 -14 -69.5q-14 -31.5 -37 -56.5q-23 -25 -54 -41.5q-31 -16.5 -64 -24.5l202 -255h59v-49h-137l-209 289h-117v-240h70v-49h-250zM334 338q33 0 63 12q30 12 52 33q22 21 35 50q13 29 13 63q0 34 -9.5 63q-9.5 29 -30 50q-20.5 21 -54 32.5q-33.5 11.5 -81.5 11.5q-7 0 -18.5 0q-11.5 0 -24 -0.5q-12.5 -0.5 -25.5 -1q-13 -0.5 -24 -0.5l0 -313z" />
<glyph unicode="&#83;" horiz-adv-x="566" d="M55 0v205h54l5 -58q19 -43 62.5 -73q43.5 -30 98.5 -30q66 0 105.5 28.5q39.5 28.5 39.5 87.5q0 47 -26 76q-26 29 -65.5 50.5q-39.5 21.5 -85 39.5q-45.5 18 -85 43.5q-39.5 25.5 -65.5 63q-26 37.5 -26 96.5q0 37 13 70q13 33 39.5 58q26.5 25 65.5 39q39 14 90 14q45 0 89 -16q44 -16 75 -50l0 56h54v-187h-54l-5 57q-20 45 -60.5 65.5q-40.5 20.5 -93.5 20.5q-54 0 -85.5 -31q-31.5 -31 -31.5 -78q0 -44 26 -71.5q26 -27.5 65.5 -48q39.5 -20.5 85 -39q45.5 -18.5 85 -45q39.5 -26.5 65.5 -66q26 -39.5 26 -100.5q0 -43 -16.5 -77.5q-16.5 -34.5 -45 -59q-28.5 -24.5 -66 -37.5q-37.5 -13 -79.5 -13q-66 0 -117.5 21.5q-51.5 21.5 -82.5 57.5l0 -69z" />
<glyph unicode="&#84;" horiz-adv-x="646" d="M181 49h94v602h-181l-10 -147h-54v196h586v-196h-54l-10 147h-181v-602h94v-49l-284 0z" />
<glyph unicode="&#85;" horiz-adv-x="773" d="M609 651h-90v49h219v-49h-75v-353q0 -83 -19.5 -141q-19.5 -58 -54.5 -95q-35 -37 -83.5 -54q-48.5 -17 -106.5 -17q-132 0 -208.5 77q-76.5 77 -76.5 231v352h-79v49h260v-49h-85v-342q0 -120 54 -186q54 -66 151 -66q44 0 80 15q36 15 61.5 46q25.5 31 39 77q13.5 46 13.5 109z" />
<glyph unicode="&#86;" horiz-adv-x="726" d="M63 651h-59v49h244v-49h-80l230 -542l210 542h-95v49h209v-49h-55l-258 -656l-67 0z" />
<glyph unicode="&#87;" horiz-adv-x="999" d="M56 651h-52v49h233v-49h-77l135 -512l198 561h53l195 -567l142 518h-90v49h202v-49h-53l-186 -651h-63l-197 563l-199 -563l-59 0z" />
<glyph unicode="&#88;" horiz-adv-x="719" d="M20 49h55l230 299l-229 303h-54v49h237v-49h-67l181 -241l175 241h-82v49h209v-49h-53l-218 -281l242 -321h53v-49h-237v49h69l-194 256l-188 -256h83v-49l-212 0z" />
<glyph unicode="&#89;" horiz-adv-x="676" d="M194 49h95v253l-230 349h-54v49h234v-49h-74l189 -298l190 298h-84v49h211v-49h-58l-228 -349v-253h93v-49l-284 0z" />
<glyph unicode="&#90;" horiz-adv-x="623" d="M30 34l435 617h-344l-10 -147h-54v196h536v-34l-436 -617h355l10 157h54v-206l-546 0z" />
<glyph unicode="&#91;" horiz-adv-x="405" d="M60 650h254v-49h-163v-752h163v-49l-254 0z" />
<glyph unicode="&#92;" horiz-adv-x="342" d="M-30 694l46 16l326 -902l-47 -16z" />
<glyph unicode="&#93;" horiz-adv-x="405" d="M9 -151h162v752h-162v49h253v-850l-253 0z" />
<glyph unicode="&#94;" horiz-adv-x="522" d="M226 708h38l181 -258h-68l-132 197l-134 -197l-68 0z" />
<glyph unicode="&#95;" horiz-adv-x="385" d="M0 -149h308v-51l-308 0z" />
<glyph unicode="&#96;" horiz-adv-x="342" d="M115 719l101 -158l-31 -21l-131 130z" />
<glyph unicode="&#97;" horiz-adv-x="508" d="M416 93q0 -27 5 -39.5q5 -12.5 20 -12.5q11 0 21.5 5q10.5 5 17.5 10l15 -26q-13 -14 -38 -27q-25 -13 -50 -13q-32 0 -49 19.5q-17 19.5 -17 62.5q-19 -31 -56 -56.5q-37 -25.5 -100 -25.5q-29 0 -55 8.5q-26 8.5 -45.5 25q-19.5 16.5 -31 40.5q-11.5 24 -11.5 55q0 62 47 96.5q47 34.5 128 34.5q15 0 33 -2q18 -2 35 -5q17 -3 32 -7q15 -4 23 -8q1 14 1 31q0 17 0 40q0 58 -24.5 88.5q-24.5 30.5 -80.5 30.5q-32 0 -54.5 -7.5q-22.5 -7.5 -38.5 -17.5q13 -4 25.5 -17.5q12.5 -13.5 12.5 -35.5q0 -21 -14.5 -35q-14.5 -14 -37.5 -14q-23 0 -37 16q-14 16 -14 39q0 22 14 43q14 21 38.5 36.5q24.5 15.5 57 25q32.5 9.5 69.5 9.5q81 0 122.5 -43q41.5 -43 41.5 -124q0 -9 -1 -37q-1 -28 -1.5 -60.5q-0.5 -32.5 -1.5 -62q-1 -29.5 -1 -40.5zt0 0zM128 128q0 -41 27.5 -64q27.5 -23 65.5 -23q23 0 42 6q19 6 34 15.5q15 9.5 25.5 21q10.5 11.5 15.5 22.5l2 88q-21 9 -49.5 14.5q-28.5 5.5 -58.5 5.5q-44 0 -74 -23t-30 -63z" />
<glyph unicode="&#98;" horiz-adv-x="572" d="M20 700h143v-297q25 23 65 40q40 17 86 17q52 0 92.5 -17q40.5 -17 68.5 -47q28 -30 42.5 -72q14.5 -42 14.5 -92q0 -54 -17.5 -98.5q-17.5 -44.5 -51 -76.5q-33.5 -32 -81 -49.5q-47.5 -17.5 -107.5 -17.5q-64 0 -112 15.5q-48 15.5 -80 44.5l0 601h-63zM163 77q29 -20 57 -27q28 -7 59 -7q36 0 66 13.5q30 13.5 51.5 38q21.5 24.5 33.5 58.5q12 34 12 76q0 83 -38 130.5q-38 47.5 -110 47.5q-42 0 -78 -18q-36 -18 -53 -40z" />
<glyph unicode="&#99;" horiz-adv-x="498" d="M40 225q0 49 17 92q17 43 48.5 74.5q31.5 31.5 75.5 50q44 18.5 98 18.5q38 0 71.5 -9.5q33.5 -9.5 58 -26.5q24.5 -17 39 -40.5q14.5 -23.5 14.5 -50.5q0 -29 -17 -46q-17 -17 -40 -17q-23 0 -38.5 15.5q-15.5 15.5 -15.5 37.5q0 17 12.5 33.5q12.5 16.5 32.5 18.5q-14 13 -38.5 24.5q-24.5 11.5 -63.5 11.5q-36 0 -66 -13.5q-30 -13.5 -51.5 -37.5q-21.5 -24 -34 -57.5q-12.5 -33.5 -12.5 -73.5q0 -44 13.5 -78.5q13.5 -34.5 37 -58.5q23.5 -24 55.5 -36.5q32 -12.5 70 -12.5q38 0 73.5 17.5q35.5 17.5 56.5 46.5l32 -26q-30 -47 -78 -69q-48 -22 -105 -22q-56 0 -101 16.5q-45 16.5 -77 47.5q-32 31 -49.5 74.5t-17.5 96.5z" />
<glyph unicode="&#100;" horiz-adv-x="582" d="M557 49v-49h-145v68q-21 -30 -62 -53q-41 -23 -94 -23q-48 0 -87.5 16.5q-39.5 16.5 -68 46.5q-28.5 30 -44.5 72.5q-16 42.5 -16 94.5q0 54 18 98q18 44 51 75q33 31 78 48q45 17 99 17q42 0 71 -9.5q29 -9.5 55 -26.5l0 227h-65v49h145v-651zM285 45q43 0 76.5 19q33.5 19 50.5 42l0 268q-30 23 -62 30q-32 7 -55 7q-36 0 -66.5 -14q-30.5 -14 -52 -38.5q-21.5 -24.5 -34 -59q-12.5 -34.5 -12.5 -74.5q0 -81 41.5 -130.5t113.5 -49.5z" />
<glyph unicode="&#101;" horiz-adv-x="536" d="M130 209q1 -35 13 -65q12 -30 33.5 -52.5q21.5 -22.5 52.5 -35.5q31 -13 70 -13q51 0 88 17q37 17 59 41l26 -34q-23 -28 -72 -52.5q-49 -24.5 -121 -24.5q-54 0 -98.5 17q-44.5 17 -75.5 48.5q-31 31.5 -48 76q-17 44.5 -17 100.5q0 46 16.5 87.5q16.5 41.5 47 73q30.5 31.5 73.5 49.5q43 18 96 18q51 0 91.5 -14.5q40.5 -14.5 68.5 -41.5q28 -27 43 -65q15 -38 15 -84q0 -29 -4 -46zM411 254q1 34 -6.5 62.5q-7.5 28.5 -23.5 49.5q-16 21 -41 33q-25 12 -59 12q-35 0 -62.5 -12.5q-27.5 -12.5 -46.5 -34q-19 -21.5 -30 -50q-11 -28.5 -13 -60.5z" />
<glyph unicode="&#102;" horiz-adv-x="333" d="M45 49h63v352h-63v49h63v73q0 94 44 140.5q44 46.5 125 46.5q34 0 59.5 -9.5q25.5 -9.5 42.5 -25q17 -15.5 25.5 -36q8.5 -20.5 8.5 -41.5q0 -25 -15 -39.5q-15 -14.5 -37 -14.5q-22 0 -36 13q-14 13 -14 34q0 18 10 31.5q10 13.5 27 19.5q-8 9 -25 16q-17 7 -37 7q-51 0 -74.5 -34.5q-23.5 -34.5 -23.5 -110.5v-70h116v-49h-116v-352h95v-49l-238 0z" />
<glyph unicode="&#103;" horiz-adv-x="510" d="M253 139q-22 0 -41 3q-5 -8 -7.5 -18q-2.5 -10 -2.5 -18q0 -9 2.5 -20q2.5 -11 9.5 -20q10 1 20.5 1.5q10.5 0.5 21.5 0.5q52 0 95 -8.5q43 -8.5 74 -25.5q31 -17 47.5 -43q16.5 -26 16.5 -61q0 -35 -17 -61q-17 -26 -47.5 -43q-30.5 -17 -74 -25.5q-43.5 -8.5 -97.5 -8.5q-110 0 -173.5 34q-63.5 34 -63.5 104q0 53 40 86.5q40 33.5 116 45.5q-5 9 -8.5 21q-3.5 12 -3.5 24q0 11 3 22.5q3 11.5 9 21.5q-59 18 -87 57.5q-28 39.5 -28 87.5q0 34 12.5 63.5q12.5 29.5 37.5 52q25 22.5 61 35.5q36 13 84 13q33 0 66 -10q33 -10 60 -30q23 7 38 18q15 11 20 23q-23 1 -37 15.5q-14 14.5 -14 33.5q0 19 13 33.5q13 14.5 38 14.5q22 0 37.5 -15q15.5 -15 15.5 -44q0 -28 -22.5 -56.5q-22.5 -28.5 -64.5 -42.5q20 -20 32 -46q12 -26 12 -58q0 -34 -12.5 -62q-12.5 -28 -37.5 -49q-25 -21 -61 -33q-36 -12 -82 -13zt0 0zM253 -168q69 0 110 24.5q41 24.5 41 73.5q0 47 -41 72.5q-41 25.5 -110 25.5q-67 0 -109.5 -24q-42.5 -24 -42.5 -74q0 -48 41.5 -73q41.5 -25 110.5 -25zt0 0zM252 183q51 0 82.5 31q31.5 31 31.5 82q0 52 -30.5 85.5q-30.5 33.5 -83.5 33.5q-53 0 -84 -33q-31 -33 -31 -86q0 -50 31 -81.5t84 -31.5z" />
<glyph unicode="&#104;" horiz-adv-x="601" d="M40 49h58v602h-63v49h143v-318q12 15 29 28.5q17 13.5 38 24q21 10.5 44.5 17q23.5 6.5 46.5 6.5q90 0 132 -47.5q42 -47.5 42 -153.5v-208h54v-49h-185v49h51v207q0 72 -27 108.5q-27 36.5 -94 36.5q-42 0 -77 -19q-35 -19 -54 -43l0 -290h48v-49l-186 0z" />
<glyph unicode="&#105;" horiz-adv-x="284" d="M45 49h63v352h-63v49h141v-401h65v-49h-206zM143 584q-24 0 -41 16q-17 16 -17 44q0 26 17 41q17 15 41 15q22 0 39.5 -15q17.5 -15 17.5 -41q0 -28 -17.5 -44t-39.5 -16z" />
<glyph unicode="&#106;" horiz-adv-x="287" d="M44 450h142v-483q0 -83 -38.5 -129q-38.5 -46 -104.5 -46q-28 0 -52 8.5q-24 8.5 -42 23q-18 14.5 -28.5 34q-10.5 19.5 -10.5 41.5q0 23 13 38q13 15 36 15q23 0 35 -14.5q12 -14.5 12 -31.5q0 -16 -10.5 -28.5q-10.5 -12.5 -27.5 -15.5q8 -11 22.5 -18.5q14.5 -7.5 37.5 -7.5q42 0 61 32q19 32 19 83v106v344h-64zM148 584q-24 0 -41 16q-17 16 -17 44q0 26 17 41q17 15 41 15q22 0 39.5 -15q17.5 -15 17.5 -41q0 -28 -17.5 -44t-39.5 -16z" />
<glyph unicode="&#107;" horiz-adv-x="511" d="M25 49h63v602h-63v49h143v-651h41v-49h-184zM194 229l164 172h-62v49h182v-49h-46l-156 -158l162 -194h48v-49l-115 0z" />
<glyph unicode="&#108;" horiz-adv-x="288" d="M288 25q-17 -15 -43 -23.5q-26 -8.5 -59 -8.5q-55 0 -81.5 30.5q-26.5 30.5 -26.5 95.5v532h-63v49h144v-561q0 -48 13.5 -70.5q13.5 -22.5 46.5 -22.5q15 0 30.5 5q15.5 5 26.5 12z" />
<glyph unicode="&#109;" horiz-adv-x="853" d="M45 49h65v352h-65v49h145v-68q22 33 64 54.5q42 21.5 87 21.5q45 0 83 -22q38 -22 52 -68q20 38 63 64q43 26 94 26q28 0 53.5 -8q25.5 -8 45 -27q19.5 -19 31 -50.5q11.5 -31.5 11.5 -77.5v-246h64v-49h-191v49h47v236q0 60 -24 88q-24 28 -69 28q-43 0 -72.5 -19.5q-29.5 -19.5 -46.5 -49.5q1 -3 0.5 -7.5q-0.5 -4.5 -0.5 -9.5v-266h47v-49h-175v49h48v255q0 43 -25 70q-25 27 -67 27q-42 0 -72.5 -19.5q-30.5 -19.5 -47.5 -45.5l0 -287h48v-49l-193 0z" />
<glyph unicode="&#110;" horiz-adv-x="611" d="M45 48h67v354h-67v48h147v-70q12 17 31 31q19 14 42.5 24.5q23.5 10.5 49.5 16.5q26 6 52 6q81 0 119 -45q38 -45 38 -130v-235h64v-48h-195v48h51v207q0 75 -28 110.5q-28 35.5 -100 35.5q-42 0 -73.5 -19.5q-31.5 -19.5 -50.5 -43.5l0 -290h51v-48l-198 0z" />
<glyph unicode="&#111;" horiz-adv-x="570" d="M285 -11q-60 0 -106 18q-46 18 -77.5 49.5q-31.5 31.5 -47.5 74.5q-16 43 -16 94q0 51 17 94q17 43 48.5 74.5q31.5 31.5 77.5 49.5q46 18 104 18q58 0 104 -18q46 -18 77.5 -49.5q31.5 -31.5 48.5 -74.5q17 -43 17 -94q0 -51 -17 -94q-17 -43 -48.5 -74.5q-31.5 -31.5 -77.5 -49.5q-46 -18 -104 -18zt0 0zM285 38q74 0 115.5 47.5q41.5 47.5 41.5 139.5q0 41 -11 75.5q-11 34.5 -31 59q-20 24.5 -49.5 38.5q-29.5 14 -65.5 14q-36 0 -65 -13.5q-29 -13.5 -49.5 -38q-20.5 -24.5 -31.5 -59q-11 -34.5 -11 -76.5q0 -41 10.5 -75.5q10.5 -34.5 31 -59.5q20.5 -25 49.5 -38.5t66 -13.5z" />
<glyph unicode="&#112;" horiz-adv-x="588" d="M40 -151h57v552h-57v49h136v-68q25 35 68.5 56.5q43.5 21.5 94.5 21.5q50 0 89 -17q39 -17 65.5 -47q26.5 -30 40.5 -72q14 -42 14 -92q0 -53 -16 -97.5q-16 -44.5 -46.5 -76.5q-30.5 -32 -75 -50q-44.5 -18 -100.5 -18q-38 0 -72 9q-34 9 -60 26l0 -176h74v-49h-212zM178 79q31 -22 61.5 -30q30.5 -8 61.5 -8q39 0 69 14q30 14 50 39q20 25 30.5 59.5q10.5 34.5 10.5 75.5q0 79 -38 126.5q-38 47.5 -113 47.5q-43 0 -78.5 -18.5q-35.5 -18.5 -53.5 -42.5z" />
<glyph unicode="&#113;" horiz-adv-x="567" d="M331 -151h78v205q-21 -27 -62 -45.5q-41 -18.5 -90 -18.5q-48 0 -88 15.5q-40 15.5 -69 45.5q-29 30 -45.5 73q-16.5 43 -16.5 97q0 55 19 99.5q19 44.5 53.5 75.5q34.5 31 82.5 48q48 17 107 17q57 0 106 -12q49 -12 84 -35l0 -565h53v-49h-212zM281 43q20 0 39.5 5q19.5 5 37 13.5q17.5 8.5 30.5 18.5q13 10 21 20l0 277q-29 17 -57.5 23q-28.5 6 -54.5 6q-36 0 -67.5 -12.5q-31.5 -12.5 -55 -35.5q-23.5 -23 -36.5 -56.5q-13 -33.5 -13 -76.5q0 -86 42 -134t114 -48z" />
<glyph unicode="&#114;" horiz-adv-x="422" d="M45 49h65v352h-65v49h146v-64q18 29 47.5 50.5q29.5 21.5 67.5 21.5q43 0 69.5 -24q26.5 -24 26.5 -58q0 -29 -16 -41.5q-16 -12.5 -36 -12.5q-22 0 -35.5 13.5q-13.5 13.5 -13.5 33.5q0 11 4.5 19.5q4.5 8.5 9.5 12.5q-6 8 -28 8q-33 0 -58 -24.5q-25 -24.5 -38 -62.5l0 -273h84v-49l-230 0z" />
<glyph unicode="&#115;" horiz-adv-x="435" d="M62 112q15 -31 54.5 -54.5q39.5 -23.5 102.5 -23.5q41 0 66 17q25 17 25 55q0 27 -19 42.5q-19 15.5 -48 27q-29 11.5 -62 22.5q-33 11 -62 27.5q-29 16.5 -48 42.5q-19 26 -19 68q0 57 45.5 91.5q45.5 34.5 121.5 34.5q34 0 63.5 -8q29.5 -8 51.5 -22.5q22 -14.5 34.5 -34q12.5 -19.5 12.5 -42.5q0 -22 -14.5 -36q-14.5 -14 -34.5 -14q-21 0 -35 13q-14 13 -14 34q0 17 10 27.5q10 10.5 23 15.5q-10 9 -35.5 18q-25.5 9 -54.5 9q-43 0 -68.5 -20.5q-25.5 -20.5 -25.5 -49.5q0 -32 19 -50.5q19 -18.5 48 -31q29 -12.5 62 -23q33 -10.5 62 -25.5q29 -15 48 -39q19 -24 19 -63q0 -32 -14 -56.5q-14 -24.5 -38 -41.5q-24 -17 -57 -25.5q-33 -8.5 -71 -8.5q-36 0 -66 8.5q-30 8.5 -53 23q-23 14.5 -39 32.5q-16 18 -24 37z" />
<glyph unicode="&#116;" horiz-adv-x="360" d="M345 29q-16 -16 -45 -26q-29 -10 -64 -10q-80 0 -112.5 42q-32.5 42 -32.5 124v242h-71v49h71v112h81v-112h156v-49h-156v-235q0 -58 21 -89.5q21 -31.5 73 -31.5q18 0 35.5 6q17.5 6 28.5 14z" />
<glyph unicode="&#117;" horiz-adv-x="578" d="M405 402h-60v48h141v-402h57v-48h-136v80q-11 -17 -28 -33.5q-17 -16.5 -38 -29q-21 -12.5 -45 -20q-24 -7.5 -51 -7.5q-82 0 -125 47q-43 47 -41 148q0 7 0.5 39q0.5 32 1 69.5q0.5 37.5 1 69.5q0.5 32 0.5 39l-57 0v48h139q0 -5 0 -25.5q0 -20.5 -0.5 -48q-0.5 -27.5 -0.5 -58.5q0 -31 -0.5 -58.5q-0.5 -27.5 -0.5 -47.5q0 -20 0 -25q-1 -69 25 -106.5q26 -37.5 90 -37.5q44 0 76.5 21q32.5 21 51.5 47z" />
<glyph unicode="&#118;" horiz-adv-x="517" d="M49 401h-47v49h186v-49h-53l59 -150q14 -36 27.5 -67.5q13.5 -31.5 24 -56.5q10.5 -25 17 -41q6.5 -16 7.5 -22q2 11 24 62.5q22 51.5 54 125.5l63 149h-61v49h165v-49h-47l-177 -406l-68 0z" />
<glyph unicode="&#119;" horiz-adv-x="738" d="M43 401h-39v49h179v-49h-60l51 -173q17 -57 26.5 -93.5q9.5 -36.5 17.5 -64.5q10 31 25.5 71.5q15.5 40.5 32.5 88.5l75 220h59l79 -220q21 -58 33.5 -97q12.5 -39 20.5 -64q8 26 21.5 68.5q13.5 42.5 27.5 90.5l51 173h-64v49h155v-49h-40l-123 -406h-72l-80 220q-22 59 -33 91q-11 32 -18 52q-5 -17 -18 -53q-13 -36 -32 -90l-81 -220l-69 0z" />
<glyph unicode="&#120;" horiz-adv-x="499" d="M61 49l148 175l-145 177h-43v49h185v-49h-43l106 -130l103 130h-51v49h158v-49h-40l-140 -167l152 -185h38v-49h-176v49h40l-113 138l-114 -138h58v-49h-169l0 49z" />
<glyph unicode="&#121;" horiz-adv-x="517" d="M47 401h-37v49h186v-49h-56l119 -254q4 -8 9 -19q5 -11 9.5 -21.5q4.5 -10.5 8 -19q3.5 -8.5 4.5 -11.5q1 4 4.5 13.5q3.5 9.5 7.5 20.5q4 11 8.5 21.5q4.5 10.5 6.5 16.5l101 253h-64v49h158v-49h-37l-178 -428q-21 -50 -41 -83.5q-20 -33.5 -41 -53.5q-21 -20 -43 -28q-22 -8 -47 -8q-35 0 -60 19q-25 19 -25 51q0 23 14.5 37.5q14.5 14.5 38.5 14.5q23 0 35 -14.5q12 -14.5 12 -31.5q0 -11 -5.5 -20q-5.5 -9 -12.5 -14l9 0q31 0 59 31.5q28 31.5 54 97.5l9 24z" />
<glyph unicode="&#122;" horiz-adv-x="470" d="M40 35l284 366h-212l-10 -102h-54v151h378v-35l-284 -366h224l10 111h54v-160l-390 0z" />
<glyph unicode="&#123;" horiz-adv-x="400" d="M311 -151v-49h-66q-72 0 -103.5 33q-31.5 33 -31.5 103v164q0 31 -8.5 51q-8.5 20 -22 31.5q-13.5 11.5 -29.5 16q-16 4.5 -30 4.5l0 44q13 0 29 4.5q16 4.5 29.5 17q13.5 12.5 22.5 34q9 21.5 9 54.5v155q0 67 29 102.5q29 35.5 103 35.5h69v-49h-37q-44 0 -61.5 -21q-17.5 -21 -17.5 -71v-156q0 -51 -22 -86.5q-22 -35.5 -57 -40.5q35 -5 57 -38q22 -33 22 -90v-159q0 -51 20 -70.5q20 -19.5 62 -19.5z" />
<glyph unicode="&#124;" horiz-adv-x="310" d="M129 700h52v-700l-52 0z" />
<glyph unicode="&#125;" horiz-adv-x="400" d="M20 -151h34q42 0 62 19.5q20 19.5 20 70.5v159q0 57 22.5 90q22.5 33 57.5 38q-36 5 -58 40.5q-22 35.5 -22 86.5v156q0 50 -17.5 71q-17.5 21 -60.5 21h-38v49h69q74 0 103 -35.5q29 -35.5 29 -102.5v-155q0 -33 9 -54.5q9 -21.5 22.5 -34q13.5 -12.5 29 -17q15.5 -4.5 29.5 -4.5l0 -44q-14 0 -30 -4.5q-16 -4.5 -29.5 -16q-13.5 -11.5 -22 -31.5q-8.5 -20 -8.5 -51v-164q0 -70 -31.5 -103q-31.5 -33 -103.5 -33l-66 0z" />
<glyph unicode="&#126;" horiz-adv-x="600" d="M533 357q-26 -27 -54.5 -43q-28.5 -16 -62.5 -16q-30 0 -59.5 11q-29.5 11 -58.5 24.5q-29 13.5 -57 24.5q-28 11 -56 11q-30 0 -56.5 -15q-26.5 -15 -49.5 -37l-26 36q32 33 66 51q34 18 67 18q31 0 60 -11.5q29 -11.5 57 -25q28 -13.5 56.5 -24.5q28.5 -11 57.5 -11q23 0 47 12.5q24 12.5 45 33.5z" />
<glyph unicode="&#160;" horiz-adv-x="240" />
<glyph unicode="&#161;" horiz-adv-x="310" d="M90 395q0 26 17 45.5q17 19.5 47 19.5q29 0 47 -19.5q18 -19.5 18 -45.5q0 -28 -18.5 -46.5q-18.5 -18.5 -45.5 -18.5q-29 0 -47 19.5q-18 19.5 -18 45.5zt0 0zM131 243h48l32 -493l-112 0z" />
<glyph unicode="&#162;" horiz-adv-x="543" d="M272 -9q-50 4 -90.5 22q-40.5 18 -69 48.5q-28.5 30.5 -44 72q-15.5 41.5 -15.5 91.5q0 47 15.5 88q15.5 41 44.5 72.5q29 31.5 69 51q40 19.5 90 22.5l0 107h48v-107q33 -3 61.5 -14q28.5 -11 49 -27.5q20.5 -16.5 32.5 -38q12 -21.5 12 -46.5q0 -29 -17 -46q-17 -17 -40 -17q-23 0 -38.5 15.5q-15.5 15.5 -15.5 37.5q0 17 12.5 33.5q12.5 16.5 32.5 18.5q-14 13 -38.5 24.5q-24.5 11.5 -63.5 11.5q-36 0 -66 -13.5q-30 -13.5 -51.5 -37.5q-21.5 -24 -34 -57.5q-12.5 -33.5 -12.5 -73.5q0 -44 13.5 -78.5q13.5 -34.5 37 -58.5q23.5 -24 55.5 -36.5q32 -12.5 70 -12.5q38 0 73.5 17.5q35.5 17.5 56.5 46.5l32 -26q-27 -42 -69 -64q-42 -22 -92 -26l0 -111l-48 0z" />
<glyph unicode="&#163;" horiz-adv-x="600" d="M40 43q5 4 14.5 14q9.5 10 23 21q13.5 11 30 20.5q16.5 9.5 35.5 14.5q19 22 31.5 52.5q12.5 30.5 12.5 74.5q0 22 -6 42l-104 0v49h85q-11 20 -23 40.5q-12 20.5 -22 43q-10 22.5 -17 48q-7 25.5 -7 56.5q0 37 15 72q15 35 42.5 61q27.5 26 67 42q39.5 16 89.5 16q43 0 80.5 -11.5q37.5 -11.5 64.5 -31.5q27 -20 42.5 -46q15.5 -26 15.5 -55q0 -25 -17.5 -42.5q-17.5 -17.5 -40.5 -17.5q-26 0 -42.5 16q-16.5 16 -16.5 39q0 21 14 39q14 18 37 18q-11 17 -42 30q-31 13 -69 13q-67 0 -105.5 -41q-38.5 -41 -38.5 -108q0 -26 5 -49q5 -23 12 -45q7 -22 15 -43.5q8 -21.5 14 -43.5l180 0v-49h-171q1 -5 1 -10.5q0 -5.5 0 -11.5q0 -44 -15 -83.5q-15 -39.5 -38 -62.5q7 2 14 3q7 1 14 1q26 -3 50.5 -11q24.5 -8 48 -16.5q23.5 -8.5 47 -15.5q23.5 -7 47.5 -7q36 0 61 15q25 15 42 31l34 -50q-9 -9 -22.5 -20.5q-13.5 -11.5 -30.5 -22q-17 -10.5 -39 -18q-22 -7.5 -47 -7.5q-29 0 -56.5 8q-27.5 8 -55.5 18q-28 10 -55.5 18q-27.5 8 -56.5 8q-18 0 -35 -5.5q-17 -5.5 -32 -13.5q-15 -8 -28 -17.5q-13 -9.5 -22 -18.5z" />
<glyph unicode="&#164;" horiz-adv-x="588" d="M25 112l90 91q-23 29 -35.5 65.5q-12.5 36.5 -12.5 77.5q0 40 12.5 77q12.5 37 35.5 66l-84 86l37 37l86 -87q27 22 62 35q35 13 77 13q42 0 77 -13q35 -13 63 -35l90 91l37 -37l-88 -90q23 -29 35 -66q12 -37 12 -77q0 -41 -12 -77.5q-12 -36.5 -35 -65.5l85 -87l-37 -38l-87 88q-27 -22 -62.5 -34.5q-35.5 -12.5 -77.5 -12.5q-83 0 -139 47l-91 -92zM293 167q41 0 73 14q32 14 54.5 38.5q22.5 24.5 34.5 57q12 32.5 12 69.5q0 36 -12 68.5q-12 32.5 -34.5 57q-22.5 24.5 -54.5 38.5q-32 14 -73 14q-41 0 -73 -14q-32 -14 -54 -38.5q-22 -24.5 -34 -57q-12 -32.5 -12 -68.5q0 -37 12 -69.5q12 -32.5 34 -57q22 -24.5 54 -38.5t73 -14z" />
<glyph unicode="&#165;" horiz-adv-x="734" d="M289 201v101h-188v50h154l-196 297h-54v51h234v-51h-74l189 -296l190 296h-84v51h211v-51h-58l-195 -297h154v-50h-187v-101h187v-51h-187v-99h38v-51h-173v51h39v99h-188l0 51z" />
<glyph unicode="&#166;" horiz-adv-x="310" d="M129 260h52v-260h-52zM129 700h52v-260l-52 0z" />
<glyph unicode="&#167;" horiz-adv-x="564" d="M110 -82q0 24 15 41q15 17 43 17q26 0 39.5 -14.5q13.5 -14.5 13.5 -36.5q0 -19 -10.5 -32.5q-10.5 -13.5 -32.5 -18.5q14 -14 32 -24.5q18 -10.5 52 -10.5q44 0 71.5 27q27.5 27 27.5 67q0 34 -22.5 55.5q-22.5 21.5 -57 39q-34.5 17.5 -74 34q-39.5 16.5 -74 40q-34.5 23.5 -57 57q-22.5 33.5 -22.5 85.5q0 35 14 65q14 30 38 53.5q24 23.5 55.5 39.5q31.5 16 65.5 23q-51 28 -80 61q-29 33 -29 86q0 25 11 48q11 23 31.5 41q20.5 18 50 28.5q29.5 10.5 65.5 10.5q36 0 64.5 -9q28.5 -9 48 -24q19.5 -15 29.5 -34.5q10 -19.5 10 -40.5q0 -20 -13.5 -35.5q-13.5 -15.5 -36.5 -15.5q-23 0 -36 14.5q-13 14.5 -13 32.5q0 17 12 28.5q12 11.5 23 14.5q-9 11 -30 20q-21 9 -56 9q-44 0 -71.5 -23q-27.5 -23 -27.5 -61q0 -35 23 -58q23 -23 57 -42q34 -19 74 -37q40 -18 74 -42.5q34 -24.5 57 -58.5q23 -34 23 -84q0 -35 -12.5 -65q-12.5 -30 -34.5 -53.5q-22 -23.5 -52 -39q-30 -15.5 -64 -22.5q19 -9 37 -21.5q18 -12.5 31.5 -29.5q13.5 -17 21.5 -38q8 -21 8 -45q0 -30 -11 -55.5q-11 -25.5 -31.5 -44.5q-20.5 -19 -50 -30q-29.5 -11 -65.5 -11q-29 0 -57 9.5q-28 9.5 -49.5 26q-21.5 16.5 -34.5 38q-13 21.5 -13 45.5zt0 0zM284 101q22 3 42 15.5q20 12.5 35.5 32q15.5 19.5 24.5 44.5q9 25 9 52q0 30 -9 51.5q-9 21.5 -25 39q-16 17.5 -38 32q-22 14.5 -47 29.5q-22 -3 -45 -15.5q-23 -12.5 -42 -32q-19 -19.5 -31 -44q-12 -24.5 -12 -52.5q0 -29 10.5 -53q10.5 -24 29 -42.5q18.5 -18.5 44 -32.5t54.5 -24z" />
<glyph unicode="&#168;" horiz-adv-x="471" d="M103 583q-23 0 -38 14q-15 14 -15 39q0 23 15 37.5q15 14.5 38 14.5q18 0 33.5 -14.5q15.5 -14.5 15.5 -37.5q0 -25 -15.5 -39q-15.5 -14 -33.5 -14zt0 0zM303 583q-23 0 -38 14q-15 14 -15 39q0 23 15 37.5q15 14.5 38 14.5q18 0 33.5 -14.5q15.5 -14.5 15.5 -37.5q0 -25 -15.5 -39t-33.5 -14z" />
<glyph unicode="&#169;" horiz-adv-x="1018" d="M509 -212q-93 0 -172 34q-79 34 -137 92.5q-58 58.5 -91 137.5q-33 79 -33 169q0 90 33 169q33 79 91 137.5q58 58.5 137 92.5q79 34 172 34q93 0 172 -34q79 -34 137 -92.5q58 -58.5 91 -137.5q33 -79 33 -169q0 -90 -33 -169q-33 -79 -91 -137.5q-58 -58.5 -137 -92.5q-79 -34 -172 -34zt0 0zM509 -162q82 0 151.5 30.5q69.5 30.5 120.5 82.5q51 52 79.5 121.5q28.5 69.5 28.5 148.5q0 79 -28.5 148.5q-28.5 69.5 -79.5 121.5q-51 52 -120.5 82.5q-69.5 30.5 -151.5 30.5q-82 0 -151.5 -30.5q-69.5 -30.5 -120.5 -82.5q-51 -52 -79.5 -121.5q-28.5 -69.5 -28.5 -148.5q0 -79 28.5 -148.5q28.5 -69.5 79.5 -121.5q51 -52 120.5 -82.5q69.5 -30.5 151.5 -30.5zt0 0zM273 225q0 49 17 92q17 43 48.5 74.5q31.5 31.5 75.5 50q44 18.5 98 18.5q38 0 71.5 -9.5q33.5 -9.5 58 -26.5q24.5 -17 39 -40.5q14.5 -23.5 14.5 -50.5q0 -29 -17 -46q-17 -17 -40 -17q-23 0 -38.5 15.5q-15.5 15.5 -15.5 37.5q0 17 12.5 33.5q12.5 16.5 32.5 18.5q-14 13 -38.5 24.5q-24.5 11.5 -63.5 11.5q-36 0 -66 -13.5q-30 -13.5 -51.5 -37.5q-21.5 -24 -34 -57.5q-12.5 -33.5 -12.5 -73.5q0 -44 13.5 -78.5q13.5 -34.5 37 -58.5q23.5 -24 55.5 -36.5q32 -12.5 70 -12.5q38 0 73.5 17.5q35.5 17.5 56.5 46.5l32 -26q-30 -47 -78 -69q-48 -22 -105 -22q-56 0 -101 16.5q-45 16.5 -77 47.5q-32 31 -49.5 74.5t-17.5 96.5z" />
<glyph unicode="&#170;" horiz-adv-x="465" d="M400 386v-36h-113v52q-13 -19 -40 -37q-27 -18 -79 -18q-63 0 -92 25q-29 25 -29 66q0 43 35 66q35 23 105 23q31 0 55.5 -3.5q24.5 -3.5 41.5 -8.5l0 24q-2 92 -90 92q-23 0 -38.5 -4.5q-15.5 -4.5 -23.5 -9.5q16 -8 16 -31q0 -11 -8.5 -21q-8.5 -10 -25.5 -10q-20 0 -28.5 10.5q-8.5 10.5 -8.5 24.5q0 19 12.5 33.5q12.5 14.5 31.5 24q19 9.5 42.5 14.5q23.5 5 44.5 5q72 0 108.5 -32.5q36.5 -32.5 36.5 -92.5q0 -6 -0.5 -28.5q-0.5 -22.5 -0.5 -49q0 -26.5 -0.5 -49.5q-0.5 -23 -0.5 -29zM118 446q0 -27 19 -44q19 -17 54 -17q41 0 62 13.5q21 13.5 31 27.5l0 61q-13 5 -36.5 9q-23.5 4 -47.5 4q-41 0 -61.5 -14.5t-20.5 -39.5z" />
<glyph unicode="&#171;" horiz-adv-x="562" d="M47 248v4l186 214l33 -28l-118 -188l117 -189l-34 -28zM231 248v4l186 214l33 -28l-118 -188l117 -189l-34 -28z" />
<glyph unicode="&#172;" horiz-adv-x="600" d="M530 391v-193h-58v136h-411l0 57z" />
<glyph unicode="&#173;" horiz-adv-x="355" d="M60 296h235v-52l-235 0z" />
<glyph unicode="&#174;" horiz-adv-x="708" d="M303 244q-53 0 -98.5 19.5q-45.5 19.5 -80 54q-34.5 34.5 -54 80.5q-19.5 46 -19.5 99q0 52 19.5 97.5q19.5 45.5 54 79.5q34.5 34 80 53.5q45.5 19.5 98.5 19.5q52 0 98 -19.5q46 -19.5 80 -53.5q34 -34 53.5 -79.5q19.5 -45.5 19.5 -97.5q0 -53 -19.5 -99q-19.5 -46 -53.5 -80.5q-34 -34.5 -80 -54q-46 -19.5 -98 -19.5zt0 0zM303 292q43 0 80 15.5q37 15.5 64 43q27 27.5 42.5 65q15.5 37.5 15.5 80.5q0 43 -15.5 80q-15.5 37 -42.5 64.5q-27 27.5 -64 43q-37 15.5 -80 15.5q-44 0 -81 -15.5q-37 -15.5 -64 -43q-27 -27.5 -42.5 -64.5q-15.5 -37 -15.5 -80q0 -43 15.5 -80.5q15.5 -37.5 42.5 -65q27 -27.5 64 -43q37 -15.5 81 -15.5zt0 0zM200 640h100q32 0 54 -7.5q22 -7.5 35.5 -19.5q13.5 -12 19 -27.5q5.5 -15.5 5.5 -32.5q0 -29 -18 -50q-18 -21 -47 -28l87 -115h-63l-74 111h-45v-111h-54zM298 496q21 0 40 15q19 15 19 41q0 26 -16.5 41.5q-16.5 15.5 -46.5 15.5h-40l0 -113z" />
<glyph unicode="&#175;" horiz-adv-x="414" d="M60 641h260v-44l-260 0z" />
<glyph unicode="&#176;" horiz-adv-x="395" d="M198 425q-30 0 -55.5 10.5q-25.5 10.5 -43.5 28.5q-18 18 -28.5 43.5q-10.5 25.5 -10.5 55.5q0 30 11 55q11 25 29.5 43.5q18.5 18.5 43.5 28.5q25 10 54 10q30 0 55 -10.5q25 -10.5 43 -28.5q18 -18 28.5 -43.5q10.5 -25.5 10.5 -55.5q0 -29 -10.5 -54q-10.5 -25 -29 -43.5q-18.5 -18.5 -43.5 -29q-25 -10.5 -54 -10.5zt0 0zM198 475q37 0 59.5 23q22.5 23 22.5 64q0 35 -21 62q-21 27 -61 27q-41 0 -62 -25.5q-21 -25.5 -21 -61.5q0 -38 22 -63.5t61 -25.5z" />
<glyph unicode="&#177;" horiz-adv-x="600" d="M70 225h451v-53h-451zM266 469v198h57v-198h198v-53h-198v-137h-57v137h-196l0 53z" />
<glyph unicode="&#178;" horiz-adv-x="398" d="M60 375q33 19 69 43.5q36 24.5 66 52q30 27.5 49.5 58q19.5 30.5 19.5 62.5q0 29 -17.5 52.5q-17.5 23.5 -58.5 23.5q-29 0 -52 -14q-23 -14 -32 -36q17 0 29 -11.5q12 -11.5 12 -29.5q0 -13 -10.5 -25q-10.5 -12 -33.5 -12q-18 0 -30.5 14.5q-12.5 14.5 -12.5 37.5q0 16 9.5 36q9.5 20 28 37.5q18.5 17.5 46.5 29q28 11.5 65 11.5q38 0 63.5 -9.5q25.5 -9.5 40.5 -24q15 -14.5 21.5 -32.5q6.5 -18 6.5 -36q0 -36 -23.5 -69q-23.5 -33 -56 -60q-32.5 -27 -66 -46.5q-33.5 -19.5 -53.5 -28.5l183 0v52h36v-101l-299 0z" />
<glyph unicode="&#179;" horiz-adv-x="412" d="M163 515v28h27q43 0 59 18.5q16 18.5 16 47.5q0 31 -22 49q-22 18 -57 18q-24 0 -41 -8.5q-17 -8.5 -24 -18.5q16 -5 21 -16.5q5 -11.5 5 -22.5q0 -17 -11.5 -28q-11.5 -11 -31.5 -11q-16 0 -27 11q-11 11 -11 29q0 40 40 67q40 27 104 27q64 0 96.5 -23q32.5 -23 32.5 -65q0 -29 -19 -52.5q-19 -23.5 -58 -32.5l0 -1q48 -3 71.5 -26.5q23.5 -23.5 23.5 -54.5q0 -49 -40.5 -78q-40.5 -29 -104.5 -29q-78 0 -115.5 27.5q-37.5 27.5 -37.5 63.5q0 20 12 32q12 12 31 12q21 0 31 -12.5q10 -12.5 10 -28.5q0 -14 -7.5 -23.5q-7.5 -9.5 -18.5 -14.5q11 -9 31 -18q20 -9 49 -9q38 0 61.5 21q23.5 21 23.5 54q0 31 -20.5 49.5q-20.5 18.5 -68.5 18.5z" />
<glyph unicode="&#180;" horiz-adv-x="340" d="M66 560l101 160l61 -48l-133 -132z" />
<glyph unicode="&#181;" horiz-adv-x="592" d="M91 401h-55v49h136v-290q0 -54 28.5 -85.5q28.5 -31.5 89.5 -31.5q46 0 84 21q38 21 57 47l0 290h-55v49h136v-406h57v-44h-136v75q-12 -16 -29.5 -31q-17.5 -15 -38.5 -27q-21 -12 -45.5 -19q-24.5 -7 -49.5 -7q-32 0 -56.5 8.5q-24.5 8.5 -41.5 28.5l0 -228l-81 0z" />
<glyph unicode="&#182;" horiz-adv-x="546" d="M257 263q-43 0 -81 15q-38 15 -66.5 43q-28.5 28 -45.5 68.5q-17 40.5 -17 91.5q0 103 60 161q60 58 167 58h158v-49h-94v-689q0 -76 -37 -123q-37 -47 -117 -47q-42 0 -76.5 17q-34.5 17 -49.5 46l26 26q15 -19 34 -28.5q19 -9.5 51 -9.5q49 0 68.5 31q19.5 31 19.5 89z" />
<glyph unicode="&#183;" horiz-adv-x="229" d="M50 386q0 26 18 45.5q18 19.5 47 19.5q27 0 45.5 -18.5q18.5 -18.5 18.5 -46.5q0 -26 -18 -45.5q-18 -19.5 -47 -19.5q-30 0 -47 19.5t-17 45.5z" />
<glyph unicode="&#184;" horiz-adv-x="404" d="M145 0h38v-45q100 -6 100 -79q0 -35 -30.5 -57.5q-30.5 -22.5 -85.5 -22.5q-35 0 -61 12q-26 12 -43 25l18 26q17 -11 35.5 -17q18.5 -6 36.5 -6q32 0 46 11.5q14 11.5 14 30.5q0 20 -13.5 31.5q-13.5 11.5 -48.5 11.5l-6 0z" />
<glyph unicode="&#185;" horiz-adv-x="331" d="M58 386h78v239q-16 -8 -36.5 -13q-20.5 -5 -40.5 -10l-7 34q42 10 77.5 26q35.5 16 54.5 42l21 0v-318h67v-36l-214 0z" />
<glyph unicode="&#186;" horiz-adv-x="522" d="M235 346q-40 0 -73.5 11.5q-33.5 11.5 -57.5 32.5q-24 21 -37.5 50.5q-13.5 29.5 -13.5 65.5q0 37 13 67q13 30 37 51q24 21 57.5 32q33.5 11 74.5 11q40 0 73.5 -11q33.5 -11 57.5 -32q24 -21 37.5 -50.5q13.5 -29.5 13.5 -65.5q0 -37 -14 -67q-14 -30 -38 -51q-24 -21 -57.5 -32.5q-33.5 -11.5 -72.5 -11.5zt0 0zM235 386q48 0 79.5 31.5q31.5 31.5 31.5 88.5q0 60 -31.5 90.5q-31.5 30.5 -79.5 30.5q-49 0 -80.5 -30.5q-31.5 -30.5 -31.5 -90.5q0 -57 32 -88.5t80 -31.5z" />
<glyph unicode="&#187;" horiz-adv-x="562" d="M60 61l117 189l-118 188l32 28l186 -214v-4l-183 -215zM244 61l117 189l-118 188l32 28l186 -214v-4l-183 -215z" />
<glyph unicode="&#188;" horiz-adv-x="819" d="M56 386h78v239q-16 -8 -36.5 -13q-20.5 -5 -40.5 -10l-7 34q42 10 77.5 26q35.5 16 54.5 42l21 0v-318h67v-36h-214zM547 117v78l55 30h13v-108h63v-37h-63v-80h-68v80h-208v28q60 47 104 111q44 64 59 131l86 0q-11 -33 -33 -67.5q-22 -34.5 -48.5 -66q-26.5 -31.5 -55 -57.5q-28.5 -26 -52.5 -42zM56 21l583 689l37 -31l-583 -689z" />
<glyph unicode="&#189;" horiz-adv-x="853" d="M56 386h78v239q-16 -8 -36.5 -13q-20.5 -5 -40.5 -10l-7 34q42 10 77.5 26q35.5 16 54.5 42l21 0v-318h67v-36h-214zM399 25q33 19 69 43.5q36 24.5 66 52q30 27.5 49.5 58q19.5 30.5 19.5 62.5q0 29 -17.5 52.5q-17.5 23.5 -58.5 23.5q-29 0 -52 -14q-23 -14 -32 -36q17 0 29 -11.5q12 -11.5 12 -29.5q0 -13 -10.5 -25q-10.5 -12 -33.5 -12q-18 0 -30.5 14.5q-12.5 14.5 -12.5 37.5q0 16 9.5 36q9.5 20 28 37.5q18.5 17.5 46.5 29q28 11.5 65 11.5q38 0 63.5 -9.5q25.5 -9.5 40.5 -24q15 -14.5 21.5 -32.5q6.5 -18 6.5 -36q0 -36 -23.5 -69q-23.5 -33 -56 -60q-32.5 -27 -66 -46.5q-33.5 -19.5 -53.5 -28.5l183 0v52h36v-101h-299zM35 21l583 689l37 -31l-583 -689z" />
<glyph unicode="&#190;" horiz-adv-x="882" d="M151 515v28h27q43 0 59 18.5q16 18.5 16 47.5q0 31 -22 49q-22 18 -57 18q-24 0 -41 -8.5q-17 -8.5 -24 -18.5q16 -5 21 -16.5q5 -11.5 5 -22.5q0 -17 -11.5 -28q-11.5 -11 -31.5 -11q-16 0 -27 11q-11 11 -11 29q0 40 40 67q40 27 104 27q64 0 96.5 -23q32.5 -23 32.5 -65q0 -29 -19 -52.5q-19 -23.5 -58 -32.5l0 -1q48 -3 71.5 -26.5q23.5 -23.5 23.5 -54.5q0 -49 -40.5 -78q-40.5 -29 -104.5 -29q-78 0 -115.5 27.5q-37.5 27.5 -37.5 63.5q0 20 12 32q12 12 31 12q21 0 31 -12.5q10 -12.5 10 -28.5q0 -14 -7.5 -23.5q-7.5 -9.5 -18.5 -14.5q11 -9 31 -18q20 -9 49 -9q38 0 61.5 21q23.5 21 23.5 54q0 31 -20.5 49.5q-20.5 18.5 -68.5 18.5zM598 117v78l55 30h13v-108h63v-37h-63v-80h-68v80h-208v28q60 47 104 111q44 64 59 131l86 0q-11 -33 -33 -67.5q-22 -34.5 -48.5 -66q-26.5 -31.5 -55 -57.5q-28.5 -26 -52.5 -42zM105 21l583 689l37 -31l-583 -689z" />
<glyph unicode="&#191;" horiz-adv-x="481" d="M281 252q10 -29 10 -55q0 -33 -12.5 -58q-12.5 -25 -31.5 -46q-19 -21 -40.5 -40q-21.5 -19 -40.5 -41q-19 -22 -31.5 -48q-12.5 -26 -12.5 -61q0 -52 32.5 -83q32.5 -31 93.5 -31q48 0 80 19.5q32 19.5 46 48.5q-23 2 -35.5 16.5q-12.5 14.5 -12.5 36.5q0 23 16 39.5q16 16.5 39 16.5q23 0 39 -17.5q16 -17.5 16 -40.5q0 -35 -16.5 -65.5q-16.5 -30.5 -44.5 -53.5q-28 -23 -65.5 -36q-37.5 -13 -79.5 -13q-48 0 -86.5 11.5q-38.5 11.5 -65.5 33q-27 21.5 -41.5 51.5q-14.5 30 -14.5 66q0 46 16.5 78.5q16.5 32.5 40.5 57.5q24 25 53 44.5q29 19.5 53 39q24 19.5 40.5 42q16.5 22.5 16.5 53.5q0 8 -1 16q-1 8 -3 18zM317 395q0 -26 -18 -45.5q-18 -19.5 -47 -19.5q-27 0 -45.5 18.5q-18.5 18.5 -18.5 46.5q0 26 18 45.5q18 19.5 47 19.5q30 0 47 -19.5t17 -45.5z" />
<glyph unicode="&#192;" horiz-adv-x="734" d="M8 49h59l244 651h106l255 -651h58v-49h-239v49h78l-76 201h-290l-73 -201h81v-49h-203zM474 299l-93 241q-12 32 -20.5 57q-8.5 25 -13.5 39l-3 0q-5 -15 -14.5 -39.5q-9.5 -24.5 -20.5 -56.5l-89 -241zM421 769l-15 -30l-207 73l37 69z" />
<glyph unicode="&#193;" horiz-adv-x="734" d="M8 49h59l244 651h106l255 -651h58v-49h-239v49h78l-76 201h-290l-73 -201h81v-49h-203zM474 299l-93 241q-12 32 -20.5 57q-8.5 25 -13.5 39l-3 0q-5 -15 -14.5 -39.5q-9.5 -24.5 -20.5 -56.5l-89 -241zM291 766l170 126l46 -73l-202 -80z" />
<glyph unicode="&#194;" horiz-adv-x="734" d="M8 49h59l244 651h106l255 -651h58v-49h-239v49h78l-76 201h-290l-73 -201h81v-49h-203zM474 299l-93 241q-12 32 -20.5 57q-8.5 25 -13.5 39l-3 0q-5 -15 -14.5 -39.5q-9.5 -24.5 -20.5 -56.5l-89 -241zM188 761l167 120h4l168 -119l-21 -23l-149 63l-151 -63z" />
<glyph unicode="&#195;" horiz-adv-x="734" d="M8 49h59l244 651h106l255 -651h58v-49h-239v49h78l-76 201h-290l-73 -201h81v-49h-203zM474 299l-93 241q-12 32 -20.5 57q-8.5 25 -13.5 39l-3 0q-5 -15 -14.5 -39.5q-9.5 -24.5 -20.5 -56.5l-89 -241zM532 812q-19 -28 -44.5 -45.5q-25.5 -17.5 -54.5 -17.5q-20 0 -39 6.5q-19 6.5 -37.5 14q-18.5 7.5 -38 14q-19.5 6.5 -40.5 6.5q-16 0 -33 -5q-17 -5 -34 -19l-21 27q18 24 44.5 41.5q26.5 17.5 50.5 17.5q22 0 42 -6.5q20 -6.5 38.5 -14.5q18.5 -8 36.5 -14.5q18 -6.5 38 -6.5q16 0 34 5.5q18 5.5 38 22.5z" />
<glyph unicode="&#196;" horiz-adv-x="734" d="M8 49h59l244 651h106l255 -651h58v-49h-239v49h78l-76 201h-290l-73 -201h81v-49h-203zM474 299l-93 241q-12 32 -20.5 57q-8.5 25 -13.5 39l-3 0q-5 -15 -14.5 -39.5q-9.5 -24.5 -20.5 -56.5l-89 -241zM268 751q-26 0 -44.5 16q-18.5 16 -18.5 44q0 26 18.5 41.5q18.5 15.5 44.5 15.5q23 0 41.5 -15.5q18.5 -15.5 18.5 -41.5q0 -28 -18.5 -44q-18.5 -16 -41.5 -16zt0 0zM468 752q-26 0 -44.5 15.5q-18.5 15.5 -18.5 43.5q0 26 18.5 41.5q18.5 15.5 44.5 15.5q23 0 41.5 -15.5q18.5 -15.5 18.5 -41.5q0 -28 -18.5 -43.5t-41.5 -15.5z" />
<glyph unicode="&#197;" horiz-adv-x="734" d="M8 49h59l244 651h106l255 -651h58v-49h-239v49h78l-76 201h-290l-73 -201h81v-49h-203zM474 299l-93 241q-12 32 -20.5 57q-8.5 25 -13.5 39l-3 0q-5 -15 -14.5 -39.5q-9.5 -24.5 -20.5 -56.5l-89 -241zM356 727q-50 0 -84.5 23q-34.5 23 -34.5 65q0 19 9.5 35q9.5 16 25.5 27q16 11 37.5 17q21.5 6 46.5 6q25 0 47.5 -5.5q22.5 -5.5 39 -16.5q16.5 -11 26 -26.5q9.5 -15.5 9.5 -36.5q0 -20 -9.5 -36q-9.5 -16 -26 -27.5q-16.5 -11.5 -39 -18q-22.5 -6.5 -47.5 -6.5zt0 0zM357 759q31 0 47 15q16 15 16 41q0 26 -17 40q-17 14 -46 14q-29 0 -45.5 -14q-16.5 -14 -16.5 -40q0 -26 16.5 -41t45.5 -15z" />
<glyph unicode="&#198;" horiz-adv-x="1003" d="M1 51h60l404 598h-79v51h558v-179h-54l-10 128h-273v-270h209v-48h-209v-280h283l10 137h54v-188h-523v51h84v204h-248l-138 -204h80v-51h-208zM515 304v329h-3q-5 -11 -16.5 -31q-11.5 -20 -23.5 -42l-177 -256z" />
<glyph unicode="&#199;" horiz-adv-x="712" d="M373 -8q-72 5 -131.5 32q-59.5 27 -102 73.5q-42.5 46.5 -66 110q-23.5 63.5 -23.5 142.5q0 75 25 141q25 66 70.5 114.5q45.5 48.5 110 76.5q64.5 28 144.5 28q126 0 202 -66l0 56h54v-196h-54l-5 81q-32 33 -74 52q-42 19 -100 19q-59 0 -107.5 -23q-48.5 -23 -83 -63.5q-34.5 -40.5 -53.5 -97q-19 -56.5 -19 -122.5q0 -68 19.5 -124q19.5 -56 55 -96.5q35.5 -40.5 85.5 -63q50 -22.5 110 -22.5q55 0 98 20q43 20 75 52l5 89h54v-205h-54v58q-38 -32 -89.5 -49.5q-51.5 -17.5 -108.5 -18.5l0 -35q56 -3 80.5 -23.5q24.5 -20.5 24.5 -55.5q0 -35 -31.5 -57.5q-31.5 -22.5 -87.5 -22.5q-38 0 -65.5 12q-27.5 12 -44.5 25l18 26q16 -10 35 -16.5q19 -6.5 37 -6.5q29 0 47 11.5q18 11.5 18 31.5q0 20 -14 31q-14 11 -48 11l-6 0z" />
<glyph unicode="&#200;" horiz-adv-x="630" d="M50 49h84v602h-84v49h515v-196h-54l-10 147h-271v-272h211v-48h-211v-282h281l10 149h54v-198h-525zM420 769l-15 -30l-207 73l37 69z" />
<glyph unicode="&#201;" horiz-adv-x="630" d="M50 49h84v602h-84v49h515v-196h-54l-10 147h-271v-272h211v-48h-211v-282h281l10 149h54v-198h-525zM256 766l170 126l46 -73l-202 -80z" />
<glyph unicode="&#202;" horiz-adv-x="630" d="M50 49h84v602h-84v49h515v-196h-54l-10 147h-271v-272h211v-48h-211v-282h281l10 149h54v-198h-525zM165 761l167 120h4l168 -119l-21 -23l-149 63l-151 -63z" />
<glyph unicode="&#203;" horiz-adv-x="630" d="M50 49h84v602h-84v49h515v-196h-54l-10 147h-271v-272h211v-48h-211v-282h281l10 149h54v-198h-525zM216 751q-26 0 -44.5 16q-18.5 16 -18.5 44q0 26 18.5 41.5q18.5 15.5 44.5 15.5q23 0 41.5 -15.5q18.5 -15.5 18.5 -41.5q0 -28 -18.5 -44q-18.5 -16 -41.5 -16zt0 0zM416 752q-26 0 -44.5 15.5q-18.5 15.5 -18.5 43.5q0 26 18.5 41.5q18.5 15.5 44.5 15.5q23 0 41.5 -15.5q18.5 -15.5 18.5 -41.5q0 -28 -18.5 -43.5t-41.5 -15.5z" />
<glyph unicode="&#204;" horiz-adv-x="375" d="M55 49h85v602h-85v49h265v-49h-84v-602h84v-49h-265zM256 769l-15 -30l-207 73l37 69z" />
<glyph unicode="&#205;" horiz-adv-x="375" d="M55 49h85v602h-85v49h265v-49h-84v-602h84v-49h-265zM120 766l170 126l46 -73l-202 -80z" />
<glyph unicode="&#206;" horiz-adv-x="375" d="M55 49h85v602h-85v49h265v-49h-84v-602h84v-49h-265zM18 761l167 120h4l168 -119l-21 -23l-149 63l-151 -63z" />
<glyph unicode="&#207;" horiz-adv-x="375" d="M55 49h85v602h-85v49h265v-49h-84v-602h84v-49h-265zM86 751q-26 0 -44.5 16q-18.5 16 -18.5 44q0 26 18.5 41.5q18.5 15.5 44.5 15.5q23 0 41.5 -15.5q18.5 -15.5 18.5 -41.5q0 -28 -18.5 -44q-18.5 -16 -41.5 -16zt0 0zM286 752q-26 0 -44.5 15.5q-18.5 15.5 -18.5 43.5q0 26 18.5 41.5q18.5 15.5 44.5 15.5q23 0 41.5 -15.5q18.5 -15.5 18.5 -41.5q0 -28 -18.5 -43.5t-41.5 -15.5z" />
<glyph unicode="&#208;" horiz-adv-x="798" d="M134 49v284h-84v55h84v263h-84v49h96q18 0 43 0.5q25 0.5 52 1q27 0.5 55 1q28 0.5 52 0.5q108 0 184 -28q76 -28 124 -75.5q48 -47.5 70 -109.5q22 -62 22 -131q0 -75 -24.5 -140.5q-24.5 -65.5 -75 -114.5q-50.5 -49 -128.5 -77.5q-78 -28.5 -186 -28.5q-18 0 -41.5 0.5q-23.5 0.5 -49 0.5q-25.5 0 -51.5 0.5q-26 0.5 -48 0.5h-94v49zM230 333v-284q38 -1 66.5 -1.5q28.5 -0.5 36.5 -0.5q77 0 134.5 24.5q57.5 24.5 95.5 66.5q38 42 56.5 99q18.5 57 18.5 122q0 61 -17 115q-17 54 -54 94q-37 40 -94 63q-57 23 -137 23q-17 0 -30.5 0q-13.5 0 -25.5 -0.5q-12 -0.5 -24 -1q-12 -0.5 -26 -1.5l0 -263h156l0 -55z" />
<glyph unicode="&#209;" horiz-adv-x="827" d="M50 49h80v602h-80v49h165l435 -571v522h-79v49h216v-49h-83v-651h-76l-444 581v-532h86v-49h-220zM594 812q-19 -28 -44.5 -45.5q-25.5 -17.5 -54.5 -17.5q-20 0 -39 6.5q-19 6.5 -37.5 14q-18.5 7.5 -38 14q-19.5 6.5 -40.5 6.5q-16 0 -33 -5q-17 -5 -34 -19l-21 27q18 24 44.5 41.5q26.5 17.5 50.5 17.5q22 0 42 -6.5q20 -6.5 38.5 -14.5q18.5 -8 36.5 -14.5q18 -6.5 38 -6.5q16 0 34 5.5q18 5.5 38 22.5z" />
<glyph unicode="&#210;" horiz-adv-x="827" d="M413 -15q-78 0 -144.5 24.5q-66.5 24.5 -115 71q-48.5 46.5 -76 114.5q-27.5 68 -27.5 155q0 84 27 151.5q27 67.5 75 115q48 47.5 114.5 73q66.5 25.5 146.5 25.5q80 0 147 -24.5q67 -24.5 115 -71q48 -46.5 75 -114.5q27 -68 27 -155q0 -85 -27 -152.5q-27 -67.5 -75 -115q-48 -47.5 -115 -72.5q-67 -25 -147 -25zt0 0zM416 39q58 0 104.5 21.5q46.5 21.5 79 62q32.5 40.5 50 98q17.5 57.5 17.5 129.5q0 73 -18.5 131q-18.5 58 -52 98q-33.5 40 -80.5 61q-47 21 -103 21q-56 0 -102.5 -21q-46.5 -21 -80 -61q-33.5 -40 -52 -98q-18.5 -58 -18.5 -131q0 -72 19.5 -129.5q19.5 -57.5 53.5 -98q34 -40.5 81 -62q47 -21.5 102 -21.5zt0 0zM503 769l-15 -30l-207 73l37 69z" />
<glyph unicode="&#211;" horiz-adv-x="827" d="M413 -15q-78 0 -144.5 24.5q-66.5 24.5 -115 71q-48.5 46.5 -76 114.5q-27.5 68 -27.5 155q0 84 27 151.5q27 67.5 75 115q48 47.5 114.5 73q66.5 25.5 146.5 25.5q80 0 147 -24.5q67 -24.5 115 -71q48 -46.5 75 -114.5q27 -68 27 -155q0 -85 -27 -152.5q-27 -67.5 -75 -115q-48 -47.5 -115 -72.5q-67 -25 -147 -25zt0 0zM416 39q58 0 104.5 21.5q46.5 21.5 79 62q32.5 40.5 50 98q17.5 57.5 17.5 129.5q0 73 -18.5 131q-18.5 58 -52 98q-33.5 40 -80.5 61q-47 21 -103 21q-56 0 -102.5 -21q-46.5 -21 -80 -61q-33.5 -40 -52 -98q-18.5 -58 -18.5 -131q0 -72 19.5 -129.5q19.5 -57.5 53.5 -98q34 -40.5 81 -62q47 -21.5 102 -21.5zt0 0zM353 766l170 126l46 -73l-202 -80z" />
<glyph unicode="&#212;" horiz-adv-x="827" d="M413 -15q-78 0 -144.5 24.5q-66.5 24.5 -115 71q-48.5 46.5 -76 114.5q-27.5 68 -27.5 155q0 84 27 151.5q27 67.5 75 115q48 47.5 114.5 73q66.5 25.5 146.5 25.5q80 0 147 -24.5q67 -24.5 115 -71q48 -46.5 75 -114.5q27 -68 27 -155q0 -85 -27 -152.5q-27 -67.5 -75 -115q-48 -47.5 -115 -72.5q-67 -25 -147 -25zt0 0zM416 39q58 0 104.5 21.5q46.5 21.5 79 62q32.5 40.5 50 98q17.5 57.5 17.5 129.5q0 73 -18.5 131q-18.5 58 -52 98q-33.5 40 -80.5 61q-47 21 -103 21q-56 0 -102.5 -21q-46.5 -21 -80 -61q-33.5 -40 -52 -98q-18.5 -58 -18.5 -131q0 -72 19.5 -129.5q19.5 -57.5 53.5 -98q34 -40.5 81 -62q47 -21.5 102 -21.5zt0 0zM248 761l167 120h4l168 -119l-21 -23l-149 63l-151 -63z" />
<glyph unicode="&#213;" horiz-adv-x="827" d="M413 -15q-78 0 -144.5 24.5q-66.5 24.5 -115 71q-48.5 46.5 -76 114.5q-27.5 68 -27.5 155q0 84 27 151.5q27 67.5 75 115q48 47.5 114.5 73q66.5 25.5 146.5 25.5q80 0 147 -24.5q67 -24.5 115 -71q48 -46.5 75 -114.5q27 -68 27 -155q0 -85 -27 -152.5q-27 -67.5 -75 -115q-48 -47.5 -115 -72.5q-67 -25 -147 -25zt0 0zM416 39q58 0 104.5 21.5q46.5 21.5 79 62q32.5 40.5 50 98q17.5 57.5 17.5 129.5q0 73 -18.5 131q-18.5 58 -52 98q-33.5 40 -80.5 61q-47 21 -103 21q-56 0 -102.5 -21q-46.5 -21 -80 -61q-33.5 -40 -52 -98q-18.5 -58 -18.5 -131q0 -72 19.5 -129.5q19.5 -57.5 53.5 -98q34 -40.5 81 -62q47 -21.5 102 -21.5zt0 0zM584 812q-19 -28 -44.5 -45.5q-25.5 -17.5 -54.5 -17.5q-20 0 -39 6.5q-19 6.5 -37.5 14q-18.5 7.5 -38 14q-19.5 6.5 -40.5 6.5q-16 0 -33 -5q-17 -5 -34 -19l-21 27q18 24 44.5 41.5q26.5 17.5 50.5 17.5q22 0 42 -6.5q20 -6.5 38.5 -14.5q18.5 -8 36.5 -14.5q18 -6.5 38 -6.5q16 0 34 5.5q18 5.5 38 22.5z" />
<glyph unicode="&#214;" horiz-adv-x="827" d="M413 -15q-78 0 -144.5 24.5q-66.5 24.5 -115 71q-48.5 46.5 -76 114.5q-27.5 68 -27.5 155q0 84 27 151.5q27 67.5 75 115q48 47.5 114.5 73q66.5 25.5 146.5 25.5q80 0 147 -24.5q67 -24.5 115 -71q48 -46.5 75 -114.5q27 -68 27 -155q0 -85 -27 -152.5q-27 -67.5 -75 -115q-48 -47.5 -115 -72.5q-67 -25 -147 -25zt0 0zM416 39q58 0 104.5 21.5q46.5 21.5 79 62q32.5 40.5 50 98q17.5 57.5 17.5 129.5q0 73 -18.5 131q-18.5 58 -52 98q-33.5 40 -80.5 61q-47 21 -103 21q-56 0 -102.5 -21q-46.5 -21 -80 -61q-33.5 -40 -52 -98q-18.5 -58 -18.5 -131q0 -72 19.5 -129.5q19.5 -57.5 53.5 -98q34 -40.5 81 -62q47 -21.5 102 -21.5zt0 0zM317 751q-26 0 -44.5 16q-18.5 16 -18.5 44q0 26 18.5 41.5q18.5 15.5 44.5 15.5q23 0 41.5 -15.5q18.5 -15.5 18.5 -41.5q0 -28 -18.5 -44q-18.5 -16 -41.5 -16zt0 0zM517 752q-26 0 -44.5 15.5q-18.5 15.5 -18.5 43.5q0 26 18.5 41.5q18.5 15.5 44.5 15.5q23 0 41.5 -15.5q18.5 -15.5 18.5 -41.5q0 -28 -18.5 -43.5t-41.5 -15.5z" />
<glyph unicode="&#215;" horiz-adv-x="598" d="M113 219l142 141l-140 140l40 39l140 -141l140 141l40 -39l-140 -140l142 -141l-41 -39l-141 141l-141 -141z" />
<glyph unicode="&#216;" horiz-adv-x="823" d="M118 119q-33 45 -51.5 102.5q-18.5 57.5 -18.5 128.5q0 84 27 151.5q27 67.5 75 115q48 47.5 114.5 73q66.5 25.5 146.5 25.5q78 0 143 -22.5q65 -22.5 113 -67.5l46 43l32 -38l-44 -41q35 -45 54.5 -105q19.5 -60 19.5 -134q0 -85 -27 -152.5q-27 -67.5 -75 -115q-48 -47.5 -115 -72.5q-67 -25 -147 -25q-78 0 -144.5 24q-66.5 24 -115.5 72h-52l-33 -10zM216 142q35 -50 85.5 -76.5q50.5 -26.5 112.5 -26.5q58 0 104.5 21.5q46.5 21.5 79 62q32.5 40.5 50 98q17.5 57.5 17.5 129.5q0 51 -9 94.5q-9 43.5 -26 78.5zM603 567q-34 46 -83 70q-49 24 -109 24q-56 0 -102.5 -21q-46.5 -21 -80 -61q-33.5 -40 -52 -98q-18.5 -58 -18.5 -131q0 -48 8.5 -88.5q8.5 -40.5 24.5 -75.5z" />
<glyph unicode="&#217;" horiz-adv-x="773" d="M609 651h-90v49h219v-49h-75v-353q0 -83 -19.5 -141q-19.5 -58 -54.5 -95q-35 -37 -83.5 -54q-48.5 -17 -106.5 -17q-132 0 -208.5 77q-76.5 77 -76.5 231v352h-79v49h260v-49h-85v-342q0 -120 54 -186q54 -66 151 -66q44 0 80 15q36 15 61.5 46q25.5 31 39 77q13.5 46 13.5 109zM481 769l-15 -30l-207 73l37 69z" />
<glyph unicode="&#218;" horiz-adv-x="773" d="M609 651h-90v49h219v-49h-75v-353q0 -83 -19.5 -141q-19.5 -58 -54.5 -95q-35 -37 -83.5 -54q-48.5 -17 -106.5 -17q-132 0 -208.5 77q-76.5 77 -76.5 231v352h-79v49h260v-49h-85v-342q0 -120 54 -186q54 -66 151 -66q44 0 80 15q36 15 61.5 46q25.5 31 39 77q13.5 46 13.5 109zM341 766l170 126l46 -73l-202 -80z" />
<glyph unicode="&#219;" horiz-adv-x="773" d="M609 651h-90v49h219v-49h-75v-353q0 -83 -19.5 -141q-19.5 -58 -54.5 -95q-35 -37 -83.5 -54q-48.5 -17 -106.5 -17q-132 0 -208.5 77q-76.5 77 -76.5 231v352h-79v49h260v-49h-85v-342q0 -120 54 -186q54 -66 151 -66q44 0 80 15q36 15 61.5 46q25.5 31 39 77q13.5 46 13.5 109zM235 761l167 120h4l168 -119l-21 -23l-149 63l-151 -63z" />
<glyph unicode="&#220;" horiz-adv-x="773" d="M609 651h-90v49h219v-49h-75v-353q0 -83 -19.5 -141q-19.5 -58 -54.5 -95q-35 -37 -83.5 -54q-48.5 -17 -106.5 -17q-132 0 -208.5 77q-76.5 77 -76.5 231v352h-79v49h260v-49h-85v-342q0 -120 54 -186q54 -66 151 -66q44 0 80 15q36 15 61.5 46q25.5 31 39 77q13.5 46 13.5 109zM288 751q-26 0 -44.5 16q-18.5 16 -18.5 44q0 26 18.5 41.5q18.5 15.5 44.5 15.5q23 0 41.5 -15.5q18.5 -15.5 18.5 -41.5q0 -28 -18.5 -44q-18.5 -16 -41.5 -16zt0 0zM488 752q-26 0 -44.5 15.5q-18.5 15.5 -18.5 43.5q0 26 18.5 41.5q18.5 15.5 44.5 15.5q23 0 41.5 -15.5q18.5 -15.5 18.5 -41.5q0 -28 -18.5 -43.5t-41.5 -15.5z" />
<glyph unicode="&#221;" horiz-adv-x="676" d="M194 49h95v253l-230 349h-54v49h234v-49h-74l189 -298l190 298h-84v49h211v-49h-58l-228 -349v-253h93v-49h-284zM289 766l170 126l46 -73l-202 -80z" />
<glyph unicode="&#222;" horiz-adv-x="688" d="M53 51h84v598h-84v51h273v-51h-93v-82q9 0 25.5 0q16.5 0 33.5 0.5q17 0.5 32.5 0.5q15.5 0 21.5 0q73 0 122 -16.5q49 -16.5 78.5 -44q29.5 -27.5 42 -64q12.5 -36.5 12.5 -76.5q0 -42 -15.5 -78q-15.5 -36 -47 -63q-31.5 -27 -78.5 -42.5q-47 -15.5 -110 -15.5q-22 0 -55.5 1q-33.5 1 -61.5 3l0 -121h108v-51h-288zM233 221q27 -2 49 -3.5q22 -1.5 46 -1.5q46 0 78 12q32 12 52 33q20 21 29.5 49q9.5 28 9.5 60q0 32 -8.5 59q-8.5 27 -28 46.5q-19.5 19.5 -50 30.5q-30.5 11 -73.5 11q-10 0 -23.5 0q-13.5 0 -28 -0.5q-14.5 -0.5 -28.5 -1q-14 -0.5 -24 -0.5z" />
<glyph unicode="&#223;" horiz-adv-x="582" d="M45 450h57v60q0 101 48 150.5q48 49.5 139 49.5q32 0 60 -9.5q28 -9.5 49 -26q21 -16.5 33 -39q12 -22.5 12 -49.5q0 -33 -15.5 -54q-15.5 -21 -33.5 -38.5q-18 -17.5 -33.5 -35.5q-15.5 -18 -15.5 -45q0 -27 15.5 -46.5q15.5 -19.5 39 -36.5q23.5 -17 50.5 -33.5q27 -16.5 50.5 -38q23.5 -21.5 39 -49q15.5 -27.5 15.5 -66.5q0 -34 -13 -62q-13 -28 -36 -48.5q-23 -20.5 -55 -31.5q-32 -11 -70 -11q-27 0 -50 6q-23 6 -40 14.5q-17 8.5 -28 18.5q-11 10 -15 18l20 39q4 -6 13 -14.5q9 -8.5 22.5 -16q13.5 -7.5 31 -13q17.5 -5.5 37.5 -5.5q21 0 39 7.5q18 7.5 31.5 20q13.5 12.5 21.5 30.5q8 18 8 39q0 29 -15 50.5q-15 21.5 -37 39.5q-22 18 -48.5 35q-26.5 17 -48.5 36q-22 19 -37 42q-15 23 -15 54q0 33 16.5 54.5q16.5 21.5 36.5 41q20 19.5 36.5 41q16.5 21.5 16.5 55.5q0 39 -27 60.5q-27 21.5 -62 21.5q-53 0 -80 -34q-27 -34 -27 -109v-522h-136v49h57v352l-57 0z" />
<glyph unicode="&#224;" horiz-adv-x="508" d="M416 93q0 -27 5 -39.5q5 -12.5 20 -12.5q11 0 21.5 5q10.5 5 17.5 10l15 -26q-13 -14 -38 -27q-25 -13 -50 -13q-32 0 -49 19.5q-17 19.5 -17 62.5q-19 -31 -56 -56.5q-37 -25.5 -100 -25.5q-29 0 -55 8.5q-26 8.5 -45.5 25q-19.5 16.5 -31 40.5q-11.5 24 -11.5 55q0 62 47 96.5q47 34.5 128 34.5q15 0 33 -2q18 -2 35 -5q17 -3 32 -7q15 -4 23 -8q1 14 1 31q0 17 0 40q0 58 -24.5 88.5q-24.5 30.5 -80.5 30.5q-32 0 -54.5 -7.5q-22.5 -7.5 -38.5 -17.5q13 -4 25.5 -17.5q12.5 -13.5 12.5 -35.5q0 -21 -14.5 -35q-14.5 -14 -37.5 -14q-23 0 -37 16q-14 16 -14 39q0 22 14 43q14 21 38.5 36.5q24.5 15.5 57 25q32.5 9.5 69.5 9.5q81 0 122.5 -43q41.5 -43 41.5 -124q0 -9 -1 -37q-1 -28 -1.5 -60.5q-0.5 -32.5 -1.5 -62q-1 -29.5 -1 -40.5zt0 0zM128 128q0 -41 27.5 -64q27.5 -23 65.5 -23q23 0 42 6q19 6 34 15.5q15 9.5 25.5 21q10.5 11.5 15.5 22.5l2 88q-21 9 -49.5 14.5q-28.5 5.5 -58.5 5.5q-44 0 -74 -23q-30 -23 -30 -63zt0 0zM197 719l101 -158l-31 -21l-131 130z" />
<glyph unicode="&#225;" horiz-adv-x="508" d="M416 93q0 -27 5 -39.5q5 -12.5 20 -12.5q11 0 21.5 5q10.5 5 17.5 10l15 -26q-13 -14 -38 -27q-25 -13 -50 -13q-32 0 -49 19.5q-17 19.5 -17 62.5q-19 -31 -56 -56.5q-37 -25.5 -100 -25.5q-29 0 -55 8.5q-26 8.5 -45.5 25q-19.5 16.5 -31 40.5q-11.5 24 -11.5 55q0 62 47 96.5q47 34.5 128 34.5q15 0 33 -2q18 -2 35 -5q17 -3 32 -7q15 -4 23 -8q1 14 1 31q0 17 0 40q0 58 -24.5 88.5q-24.5 30.5 -80.5 30.5q-32 0 -54.5 -7.5q-22.5 -7.5 -38.5 -17.5q13 -4 25.5 -17.5q12.5 -13.5 12.5 -35.5q0 -21 -14.5 -35q-14.5 -14 -37.5 -14q-23 0 -37 16q-14 16 -14 39q0 22 14 43q14 21 38.5 36.5q24.5 15.5 57 25q32.5 9.5 69.5 9.5q81 0 122.5 -43q41.5 -43 41.5 -124q0 -9 -1 -37q-1 -28 -1.5 -60.5q-0.5 -32.5 -1.5 -62q-1 -29.5 -1 -40.5zt0 0zM128 128q0 -41 27.5 -64q27.5 -23 65.5 -23q23 0 42 6q19 6 34 15.5q15 9.5 25.5 21q10.5 11.5 15.5 22.5l2 88q-21 9 -49.5 14.5q-28.5 5.5 -58.5 5.5q-44 0 -74 -23q-30 -23 -30 -63zt0 0zM185 560l101 160l61 -48l-133 -132z" />
<glyph unicode="&#226;" horiz-adv-x="508" d="M416 93q0 -27 5 -39.5q5 -12.5 20 -12.5q11 0 21.5 5q10.5 5 17.5 10l15 -26q-13 -14 -38 -27q-25 -13 -50 -13q-32 0 -49 19.5q-17 19.5 -17 62.5q-19 -31 -56 -56.5q-37 -25.5 -100 -25.5q-29 0 -55 8.5q-26 8.5 -45.5 25q-19.5 16.5 -31 40.5q-11.5 24 -11.5 55q0 62 47 96.5q47 34.5 128 34.5q15 0 33 -2q18 -2 35 -5q17 -3 32 -7q15 -4 23 -8q1 14 1 31q0 17 0 40q0 58 -24.5 88.5q-24.5 30.5 -80.5 30.5q-32 0 -54.5 -7.5q-22.5 -7.5 -38.5 -17.5q13 -4 25.5 -17.5q12.5 -13.5 12.5 -35.5q0 -21 -14.5 -35q-14.5 -14 -37.5 -14q-23 0 -37 16q-14 16 -14 39q0 22 14 43q14 21 38.5 36.5q24.5 15.5 57 25q32.5 9.5 69.5 9.5q81 0 122.5 -43q41.5 -43 41.5 -124q0 -9 -1 -37q-1 -28 -1.5 -60.5q-0.5 -32.5 -1.5 -62q-1 -29.5 -1 -40.5zt0 0zM128 128q0 -41 27.5 -64q27.5 -23 65.5 -23q23 0 42 6q19 6 34 15.5q15 9.5 25.5 21q10.5 11.5 15.5 22.5l2 88q-21 9 -49.5 14.5q-28.5 5.5 -58.5 5.5q-44 0 -74 -23q-30 -23 -30 -63zt0 0zM99 562l137 149h4l136 -149l-26 -25l-112 96l-114 -95z" />
<glyph unicode="&#227;" horiz-adv-x="508" d="M416 93q0 -27 5 -39.5q5 -12.5 20 -12.5q11 0 21.5 5q10.5 5 17.5 10l15 -26q-13 -14 -38 -27q-25 -13 -50 -13q-32 0 -49 19.5q-17 19.5 -17 62.5q-19 -31 -56 -56.5q-37 -25.5 -100 -25.5q-29 0 -55 8.5q-26 8.5 -45.5 25q-19.5 16.5 -31 40.5q-11.5 24 -11.5 55q0 62 47 96.5q47 34.5 128 34.5q15 0 33 -2q18 -2 35 -5q17 -3 32 -7q15 -4 23 -8q1 14 1 31q0 17 0 40q0 58 -24.5 88.5q-24.5 30.5 -80.5 30.5q-32 0 -54.5 -7.5q-22.5 -7.5 -38.5 -17.5q13 -4 25.5 -17.5q12.5 -13.5 12.5 -35.5q0 -21 -14.5 -35q-14.5 -14 -37.5 -14q-23 0 -37 16q-14 16 -14 39q0 22 14 43q14 21 38.5 36.5q24.5 15.5 57 25q32.5 9.5 69.5 9.5q81 0 122.5 -43q41.5 -43 41.5 -124q0 -9 -1 -37q-1 -28 -1.5 -60.5q-0.5 -32.5 -1.5 -62q-1 -29.5 -1 -40.5zt0 0zM128 128q0 -41 27.5 -64q27.5 -23 65.5 -23q23 0 42 6q19 6 34 15.5q15 9.5 25.5 21q10.5 11.5 15.5 22.5l2 88q-21 9 -49.5 14.5q-28.5 5.5 -58.5 5.5q-44 0 -74 -23q-30 -23 -30 -63zt0 0zM396 619q-22 -34 -48 -51q-26 -17 -49 -17q-17 0 -30 7q-13 7 -26 15q-13 8 -26.5 15q-13.5 7 -30.5 7q-31 0 -72 -29l-18 20q23 33 48.5 50q25.5 17 48.5 17q18 0 32 -7q14 -7 27 -15.5q13 -8.5 26 -15.5q13 -7 28 -7q19 0 35 7q16 7 39 26z" />
<glyph unicode="&#228;" horiz-adv-x="508" d="M416 93q0 -27 5 -39.5q5 -12.5 20 -12.5q11 0 21.5 5q10.5 5 17.5 10l15 -26q-13 -14 -38 -27q-25 -13 -50 -13q-32 0 -49 19.5q-17 19.5 -17 62.5q-19 -31 -56 -56.5q-37 -25.5 -100 -25.5q-29 0 -55 8.5q-26 8.5 -45.5 25q-19.5 16.5 -31 40.5q-11.5 24 -11.5 55q0 62 47 96.5q47 34.5 128 34.5q15 0 33 -2q18 -2 35 -5q17 -3 32 -7q15 -4 23 -8q1 14 1 31q0 17 0 40q0 58 -24.5 88.5q-24.5 30.5 -80.5 30.5q-32 0 -54.5 -7.5q-22.5 -7.5 -38.5 -17.5q13 -4 25.5 -17.5q12.5 -13.5 12.5 -35.5q0 -21 -14.5 -35q-14.5 -14 -37.5 -14q-23 0 -37 16q-14 16 -14 39q0 22 14 43q14 21 38.5 36.5q24.5 15.5 57 25q32.5 9.5 69.5 9.5q81 0 122.5 -43q41.5 -43 41.5 -124q0 -9 -1 -37q-1 -28 -1.5 -60.5q-0.5 -32.5 -1.5 -62q-1 -29.5 -1 -40.5zt0 0zM128 128q0 -41 27.5 -64q27.5 -23 65.5 -23q23 0 42 6q19 6 34 15.5q15 9.5 25.5 21q10.5 11.5 15.5 22.5l2 88q-21 9 -49.5 14.5q-28.5 5.5 -58.5 5.5q-44 0 -74 -23q-30 -23 -30 -63zt0 0zM147 583q-23 0 -38 14q-15 14 -15 39q0 23 15 37.5q15 14.5 38 14.5q18 0 33.5 -14.5q15.5 -14.5 15.5 -37.5q0 -25 -15.5 -39q-15.5 -14 -33.5 -14zt0 0zM347 583q-23 0 -38 14q-15 14 -15 39q0 23 15 37.5q15 14.5 38 14.5q18 0 33.5 -14.5q15.5 -14.5 15.5 -37.5q0 -25 -15.5 -39t-33.5 -14z" />
<glyph unicode="&#229;" horiz-adv-x="508" d="M416 93q0 -27 5 -39.5q5 -12.5 20 -12.5q11 0 21.5 5q10.5 5 17.5 10l15 -26q-13 -14 -38 -27q-25 -13 -50 -13q-32 0 -49 19.5q-17 19.5 -17 62.5q-19 -31 -56 -56.5q-37 -25.5 -100 -25.5q-29 0 -55 8.5q-26 8.5 -45.5 25q-19.5 16.5 -31 40.5q-11.5 24 -11.5 55q0 62 47 96.5q47 34.5 128 34.5q15 0 33 -2q18 -2 35 -5q17 -3 32 -7q15 -4 23 -8q1 14 1 31q0 17 0 40q0 58 -24.5 88.5q-24.5 30.5 -80.5 30.5q-32 0 -54.5 -7.5q-22.5 -7.5 -38.5 -17.5q13 -4 25.5 -17.5q12.5 -13.5 12.5 -35.5q0 -21 -14.5 -35q-14.5 -14 -37.5 -14q-23 0 -37 16q-14 16 -14 39q0 22 14 43q14 21 38.5 36.5q24.5 15.5 57 25q32.5 9.5 69.5 9.5q81 0 122.5 -43q41.5 -43 41.5 -124q0 -9 -1 -37q-1 -28 -1.5 -60.5q-0.5 -32.5 -1.5 -62q-1 -29.5 -1 -40.5zt0 0zM128 128q0 -41 27.5 -64q27.5 -23 65.5 -23q23 0 42 6q19 6 34 15.5q15 9.5 25.5 21q10.5 11.5 15.5 22.5l2 88q-21 9 -49.5 14.5q-28.5 5.5 -58.5 5.5q-44 0 -74 -23q-30 -23 -30 -63zt0 0zM237 511q-48 0 -79.5 28.5q-31.5 28.5 -31.5 73.5q0 22 8.5 41.5q8.5 19.5 23.5 33q15 13.5 35 21.5q20 8 44 8q48 0 80.5 -26.5q32.5 -26.5 32.5 -77.5q0 -22 -8.5 -41q-8.5 -19 -24 -32.5q-15.5 -13.5 -36 -21q-20.5 -7.5 -44.5 -7.5zt0 0zM238 542q33 0 49.5 20q16.5 20 16.5 52q0 36 -19 54q-19 18 -47 18q-30 0 -48 -21.5q-18 -21.5 -18 -50.5q0 -30 18 -51t48 -21z" />
<glyph unicode="&#230;" horiz-adv-x="787" d="M744 67q-23 -28 -72 -52.5q-49 -24.5 -121 -24.5q-58 0 -106.5 21q-48.5 21 -79.5 65q-12 -19 -31 -35q-19 -16 -41.5 -27q-22.5 -11 -47.5 -17.5q-25 -6.5 -49 -6.5q-69 0 -111 35.5q-42 35.5 -42 97.5q0 62 44.5 96.5q44.5 34.5 125.5 34.5q15 0 33 -2q18 -2 35 -5q17 -3 32 -7q15 -4 23 -8q2 33 1.5 66q-0.5 33 -10.5 60q-10 27 -33.5 43.5q-23.5 16.5 -68.5 16.5q-30 0 -52 -10q-22 -10 -35 -21q13 -4 23.5 -16q10.5 -12 10.5 -34q0 -21 -13.5 -33.5q-13.5 -12.5 -36.5 -12.5q-23 0 -37 16q-14 16 -14 39q0 22 13.5 43q13.5 21 37 36.5q23.5 15.5 56 25q32.5 9.5 71.5 9.5q49 0 81 -16q32 -16 50 -47q30 29 72 46q42 17 93 17q51 0 91.5 -14.5q40.5 -14.5 68.5 -41.5q28 -27 43 -65q15 -38 15 -84q0 -15 -2 -25.5q-2 -10.5 -4 -20.5l-355 0v-8q0 -38 13.5 -67q13.5 -29 36 -49.5q22.5 -20.5 53 -31q30.5 -10.5 66.5 -10.5q51 0 85 17q34 17 56 41zM683 254q1 34 -6.5 62.5q-7.5 28.5 -23.5 49.5q-16 21 -41 33q-25 12 -59 12q-60 0 -101.5 -30q-41.5 -30 -50.5 -92l0 -21v-14zM217 41q23 0 44 7q21 7 38.5 17.5q17.5 10.5 30 23q12.5 12.5 17.5 23.5q-5 20 -8 39.5q-3 19.5 -3 46.5q-21 9 -49.5 14.5q-28.5 5.5 -58.5 5.5q-44 0 -71.5 -20q-27.5 -20 -27.5 -66q0 -41 25 -66t63 -25z" />
<glyph unicode="&#231;" horiz-adv-x="498" d="M254 -8q-49 4 -88.5 22.5q-39.5 18.5 -67.5 48.5q-28 30 -43 71q-15 41 -15 91q0 49 17 92q17 43 48.5 74.5q31.5 31.5 75.5 50q44 18.5 98 18.5q38 0 71.5 -9.5q33.5 -9.5 58 -26.5q24.5 -17 39 -40.5q14.5 -23.5 14.5 -50.5q0 -29 -17 -46q-17 -17 -40 -17q-23 0 -38.5 15.5q-15.5 15.5 -15.5 37.5q0 17 12.5 33.5q12.5 16.5 32.5 18.5q-14 13 -38.5 24.5q-24.5 11.5 -63.5 11.5q-36 0 -66 -13.5q-30 -13.5 -51.5 -37.5q-21.5 -24 -34 -57.5q-12.5 -33.5 -12.5 -73.5q0 -44 13.5 -78.5q13.5 -34.5 37 -58.5q23.5 -24 55.5 -36.5q32 -12.5 70 -12.5q38 0 73.5 17.5q35.5 17.5 56.5 46.5l32 -26q-29 -45 -75.5 -67q-46.5 -22 -100.5 -24l0 -35q100 -6 100 -79q0 -35 -30.5 -57.5q-30.5 -22.5 -85.5 -22.5q-35 0 -61 12q-26 12 -43 25l18 26q17 -11 35.5 -17q18.5 -6 36.5 -6q32 0 46 11.5q14 11.5 14 30.5q0 20 -13.5 31.5q-13.5 11.5 -48.5 11.5l-6 0z" />
<glyph unicode="&#232;" horiz-adv-x="536" d="M130 209q1 -35 13 -65q12 -30 33.5 -52.5q21.5 -22.5 52.5 -35.5q31 -13 70 -13q51 0 88 17q37 17 59 41l26 -34q-23 -28 -72 -52.5q-49 -24.5 -121 -24.5q-54 0 -98.5 17q-44.5 17 -75.5 48.5q-31 31.5 -48 76q-17 44.5 -17 100.5q0 46 16.5 87.5q16.5 41.5 47 73q30.5 31.5 73.5 49.5q43 18 96 18q51 0 91.5 -14.5q40.5 -14.5 68.5 -41.5q28 -27 43 -65q15 -38 15 -84q0 -29 -4 -46zM411 254q1 34 -6.5 62.5q-7.5 28.5 -23.5 49.5q-16 21 -41 33q-25 12 -59 12q-35 0 -62.5 -12.5q-27.5 -12.5 -46.5 -34q-19 -21.5 -30 -50q-11 -28.5 -13 -60.5zM227 719l101 -158l-31 -21l-131 130z" />
<glyph unicode="&#233;" horiz-adv-x="536" d="M130 209q1 -35 13 -65q12 -30 33.5 -52.5q21.5 -22.5 52.5 -35.5q31 -13 70 -13q51 0 88 17q37 17 59 41l26 -34q-23 -28 -72 -52.5q-49 -24.5 -121 -24.5q-54 0 -98.5 17q-44.5 17 -75.5 48.5q-31 31.5 -48 76q-17 44.5 -17 100.5q0 46 16.5 87.5q16.5 41.5 47 73q30.5 31.5 73.5 49.5q43 18 96 18q51 0 91.5 -14.5q40.5 -14.5 68.5 -41.5q28 -27 43 -65q15 -38 15 -84q0 -29 -4 -46zM411 254q1 34 -6.5 62.5q-7.5 28.5 -23.5 49.5q-16 21 -41 33q-25 12 -59 12q-35 0 -62.5 -12.5q-27.5 -12.5 -46.5 -34q-19 -21.5 -30 -50q-11 -28.5 -13 -60.5zM238 560l101 160l61 -48l-133 -132z" />
<glyph unicode="&#234;" horiz-adv-x="536" d="M130 209q1 -35 13 -65q12 -30 33.5 -52.5q21.5 -22.5 52.5 -35.5q31 -13 70 -13q51 0 88 17q37 17 59 41l26 -34q-23 -28 -72 -52.5q-49 -24.5 -121 -24.5q-54 0 -98.5 17q-44.5 17 -75.5 48.5q-31 31.5 -48 76q-17 44.5 -17 100.5q0 46 16.5 87.5q16.5 41.5 47 73q30.5 31.5 73.5 49.5q43 18 96 18q51 0 91.5 -14.5q40.5 -14.5 68.5 -41.5q28 -27 43 -65q15 -38 15 -84q0 -29 -4 -46zM411 254q1 34 -6.5 62.5q-7.5 28.5 -23.5 49.5q-16 21 -41 33q-25 12 -59 12q-35 0 -62.5 -12.5q-27.5 -12.5 -46.5 -34q-19 -21.5 -30 -50q-11 -28.5 -13 -60.5zM137 562l137 149h4l136 -149l-26 -25l-112 96l-114 -95z" />
<glyph unicode="&#235;" horiz-adv-x="536" d="M130 209q1 -35 13 -65q12 -30 33.5 -52.5q21.5 -22.5 52.5 -35.5q31 -13 70 -13q51 0 88 17q37 17 59 41l26 -34q-23 -28 -72 -52.5q-49 -24.5 -121 -24.5q-54 0 -98.5 17q-44.5 17 -75.5 48.5q-31 31.5 -48 76q-17 44.5 -17 100.5q0 46 16.5 87.5q16.5 41.5 47 73q30.5 31.5 73.5 49.5q43 18 96 18q51 0 91.5 -14.5q40.5 -14.5 68.5 -41.5q28 -27 43 -65q15 -38 15 -84q0 -29 -4 -46zM411 254q1 34 -6.5 62.5q-7.5 28.5 -23.5 49.5q-16 21 -41 33q-25 12 -59 12q-35 0 -62.5 -12.5q-27.5 -12.5 -46.5 -34q-19 -21.5 -30 -50q-11 -28.5 -13 -60.5zM183 583q-23 0 -38 14q-15 14 -15 39q0 23 15 37.5q15 14.5 38 14.5q18 0 33.5 -14.5q15.5 -14.5 15.5 -37.5q0 -25 -15.5 -39q-15.5 -14 -33.5 -14zt0 0zM383 583q-23 0 -38 14q-15 14 -15 39q0 23 15 37.5q15 14.5 38 14.5q18 0 33.5 -14.5q15.5 -14.5 15.5 -37.5q0 -25 -15.5 -39t-33.5 -14z" />
<glyph unicode="&#236;" horiz-adv-x="284" d="M45 49h63v352h-63v49h141v-401h65v-49h-206zM74 719l101 -158l-31 -21l-131 130z" />
<glyph unicode="&#237;" horiz-adv-x="284" d="M45 49h63v352h-63v49h141v-401h65v-49h-206zM98 560l101 160l61 -48l-133 -132z" />
<glyph unicode="&#238;" horiz-adv-x="284" d="M45 49h63v352h-63v49h141v-401h65v-49h-206zM5 562l137 149h4l136 -149l-26 -25l-112 96l-114 -95z" />
<glyph unicode="&#239;" horiz-adv-x="284" d="M45 49h63v352h-63v49h141v-401h65v-49h-206zM46 583q-23 0 -38 14q-15 14 -15 39q0 23 15 37.5q15 14.5 38 14.5q18 0 33.5 -14.5q15.5 -14.5 15.5 -37.5q0 -25 -15.5 -39q-15.5 -14 -33.5 -14zt0 0zM246 583q-23 0 -38 14q-15 14 -15 39q0 23 15 37.5q15 14.5 38 14.5q18 0 33.5 -14.5q15.5 -14.5 15.5 -37.5q0 -25 -15.5 -39t-33.5 -14z" />
<glyph unicode="&#240;" horiz-adv-x="574" d="M283 622q-50 44 -107 74l44 15q64 -26 115 -66l112 48l18 -44l-89 -39q73 -69 115.5 -161q42.5 -92 42.5 -189q0 -63 -17.5 -113q-17.5 -50 -49.5 -85q-32 -35 -77.5 -53.5q-45.5 -18.5 -102.5 -18.5q-57 0 -102.5 17.5q-45.5 17.5 -77.5 49q-32 31.5 -49.5 74.5q-17.5 43 -17.5 94q0 51 17 94q17 43 48 74.5q31 31.5 74.5 49q43.5 17.5 95.5 17.5q30 0 53.5 -6q23.5 -6 41.5 -16q18 -10 32.5 -22q14.5 -12 26.5 -24q-13 56 -41 104q-28 48 -67 90l-122 -54l-19 46zM287 39q37 0 67.5 16q30.5 16 51.5 46q21 30 31.5 73.5q10.5 43.5 9.5 97.5q-5 28 -18.5 53q-13.5 25 -34 44q-20.5 19 -47.5 30.5q-27 11.5 -60 11.5q-34 0 -63 -12.5q-29 -12.5 -50.5 -36.5q-21.5 -24 -34 -58.5q-12.5 -34.5 -12.5 -78.5q0 -44 12 -78.5q12 -34.5 33.5 -58.5q21.5 -24 51 -36.5t63.5 -12.5z" />
<glyph unicode="&#241;" horiz-adv-x="611" d="M45 48h67v354h-67v48h147v-70q12 17 31 31q19 14 42.5 24.5q23.5 10.5 49.5 16.5q26 6 52 6q81 0 119 -45q38 -45 38 -130v-235h64v-48h-195v48h51v207q0 75 -28 110.5q-28 35.5 -100 35.5q-42 0 -73.5 -19.5q-31.5 -19.5 -50.5 -43.5l0 -290h51v-48h-198zM470 619q-22 -34 -48 -51q-26 -17 -49 -17q-17 0 -30 7q-13 7 -26 15q-13 8 -26.5 15q-13.5 7 -30.5 7q-31 0 -72 -29l-18 20q23 33 48.5 50q25.5 17 48.5 17q18 0 32 -7q14 -7 27 -15.5q13 -8.5 26 -15.5q13 -7 28 -7q19 0 35 7q16 7 39 26z" />
<glyph unicode="&#242;" horiz-adv-x="570" d="M285 -11q-60 0 -106 18q-46 18 -77.5 49.5q-31.5 31.5 -47.5 74.5q-16 43 -16 94q0 51 17 94q17 43 48.5 74.5q31.5 31.5 77.5 49.5q46 18 104 18q58 0 104 -18q46 -18 77.5 -49.5q31.5 -31.5 48.5 -74.5q17 -43 17 -94q0 -51 -17 -94q-17 -43 -48.5 -74.5q-31.5 -31.5 -77.5 -49.5q-46 -18 -104 -18zt0 0zM285 38q74 0 115.5 47.5q41.5 47.5 41.5 139.5q0 41 -11 75.5q-11 34.5 -31 59q-20 24.5 -49.5 38.5q-29.5 14 -65.5 14q-36 0 -65 -13.5q-29 -13.5 -49.5 -38q-20.5 -24.5 -31.5 -59q-11 -34.5 -11 -76.5q0 -41 10.5 -75.5q10.5 -34.5 31 -59.5q20.5 -25 49.5 -38.5q29 -13.5 66 -13.5zt0 0zM231 719l101 -158l-31 -21l-131 130z" />
<glyph unicode="&#243;" horiz-adv-x="570" d="M285 -11q-60 0 -106 18q-46 18 -77.5 49.5q-31.5 31.5 -47.5 74.5q-16 43 -16 94q0 51 17 94q17 43 48.5 74.5q31.5 31.5 77.5 49.5q46 18 104 18q58 0 104 -18q46 -18 77.5 -49.5q31.5 -31.5 48.5 -74.5q17 -43 17 -94q0 -51 -17 -94q-17 -43 -48.5 -74.5q-31.5 -31.5 -77.5 -49.5q-46 -18 -104 -18zt0 0zM285 38q74 0 115.5 47.5q41.5 47.5 41.5 139.5q0 41 -11 75.5q-11 34.5 -31 59q-20 24.5 -49.5 38.5q-29.5 14 -65.5 14q-36 0 -65 -13.5q-29 -13.5 -49.5 -38q-20.5 -24.5 -31.5 -59q-11 -34.5 -11 -76.5q0 -41 10.5 -75.5q10.5 -34.5 31 -59.5q20.5 -25 49.5 -38.5q29 -13.5 66 -13.5zt0 0zM239 560l101 160l61 -48l-133 -132z" />
<glyph unicode="&#244;" horiz-adv-x="570" d="M285 -11q-60 0 -106 18q-46 18 -77.5 49.5q-31.5 31.5 -47.5 74.5q-16 43 -16 94q0 51 17 94q17 43 48.5 74.5q31.5 31.5 77.5 49.5q46 18 104 18q58 0 104 -18q46 -18 77.5 -49.5q31.5 -31.5 48.5 -74.5q17 -43 17 -94q0 -51 -17 -94q-17 -43 -48.5 -74.5q-31.5 -31.5 -77.5 -49.5q-46 -18 -104 -18zt0 0zM285 38q74 0 115.5 47.5q41.5 47.5 41.5 139.5q0 41 -11 75.5q-11 34.5 -31 59q-20 24.5 -49.5 38.5q-29.5 14 -65.5 14q-36 0 -65 -13.5q-29 -13.5 -49.5 -38q-20.5 -24.5 -31.5 -59q-11 -34.5 -11 -76.5q0 -41 10.5 -75.5q10.5 -34.5 31 -59.5q20.5 -25 49.5 -38.5q29 -13.5 66 -13.5zt0 0zM146 562l137 149h4l136 -149l-26 -25l-112 96l-114 -95z" />
<glyph unicode="&#245;" horiz-adv-x="570" d="M285 -11q-60 0 -106 18q-46 18 -77.5 49.5q-31.5 31.5 -47.5 74.5q-16 43 -16 94q0 51 17 94q17 43 48.5 74.5q31.5 31.5 77.5 49.5q46 18 104 18q58 0 104 -18q46 -18 77.5 -49.5q31.5 -31.5 48.5 -74.5q17 -43 17 -94q0 -51 -17 -94q-17 -43 -48.5 -74.5q-31.5 -31.5 -77.5 -49.5q-46 -18 -104 -18zt0 0zM285 38q74 0 115.5 47.5q41.5 47.5 41.5 139.5q0 41 -11 75.5q-11 34.5 -31 59q-20 24.5 -49.5 38.5q-29.5 14 -65.5 14q-36 0 -65 -13.5q-29 -13.5 -49.5 -38q-20.5 -24.5 -31.5 -59q-11 -34.5 -11 -76.5q0 -41 10.5 -75.5q10.5 -34.5 31 -59.5q20.5 -25 49.5 -38.5q29 -13.5 66 -13.5zt0 0zM435 619q-22 -34 -48 -51q-26 -17 -49 -17q-17 0 -30 7q-13 7 -26 15q-13 8 -26.5 15q-13.5 7 -30.5 7q-31 0 -72 -29l-18 20q23 33 48.5 50q25.5 17 48.5 17q18 0 32 -7q14 -7 27 -15.5q13 -8.5 26 -15.5q13 -7 28 -7q19 0 35 7q16 7 39 26z" />
<glyph unicode="&#246;" horiz-adv-x="570" d="M285 -11q-60 0 -106 18q-46 18 -77.5 49.5q-31.5 31.5 -47.5 74.5q-16 43 -16 94q0 51 17 94q17 43 48.5 74.5q31.5 31.5 77.5 49.5q46 18 104 18q58 0 104 -18q46 -18 77.5 -49.5q31.5 -31.5 48.5 -74.5q17 -43 17 -94q0 -51 -17 -94q-17 -43 -48.5 -74.5q-31.5 -31.5 -77.5 -49.5q-46 -18 -104 -18zt0 0zM285 38q74 0 115.5 47.5q41.5 47.5 41.5 139.5q0 41 -11 75.5q-11 34.5 -31 59q-20 24.5 -49.5 38.5q-29.5 14 -65.5 14q-36 0 -65 -13.5q-29 -13.5 -49.5 -38q-20.5 -24.5 -31.5 -59q-11 -34.5 -11 -76.5q0 -41 10.5 -75.5q10.5 -34.5 31 -59.5q20.5 -25 49.5 -38.5q29 -13.5 66 -13.5zt0 0zM187 583q-23 0 -38 14q-15 14 -15 39q0 23 15 37.5q15 14.5 38 14.5q18 0 33.5 -14.5q15.5 -14.5 15.5 -37.5q0 -25 -15.5 -39q-15.5 -14 -33.5 -14zt0 0zM387 583q-23 0 -38 14q-15 14 -15 39q0 23 15 37.5q15 14.5 38 14.5q18 0 33.5 -14.5q15.5 -14.5 15.5 -37.5q0 -25 -15.5 -39t-33.5 -14z" />
<glyph unicode="&#247;" horiz-adv-x="591" d="M238 189q0 26 17 41q17 15 41 15q22 0 39.5 -15q17.5 -15 17.5 -41q0 -28 -17.5 -44q-17.5 -16 -39.5 -16q-24 0 -41 16q-17 16 -17 44zt0 0zM238 535q0 26 17 41q17 15 41 15q22 0 39.5 -15q17.5 -15 17.5 -41q0 -28 -17.5 -44q-17.5 -16 -39.5 -16q-24 0 -41 16q-17 16 -17 44zt0 0zM70 386h451v-52l-451 0z" />
<glyph unicode="&#248;" horiz-adv-x="574" d="M47 22l47 44q-54 65 -54 159q0 51 17 94q17 43 48.5 74.5q31.5 31.5 77.5 49.5q46 18 104 18q53 0 95.5 -15q42.5 -15 73.5 -41l49 45l28 -28l-49 -46q50 -61 50 -151q0 -51 -17 -94q-17 -43 -48.5 -74.5q-31.5 -31.5 -77.5 -49.5q-46 -18 -104 -18q-51 0 -91.5 13q-40.5 13 -70.5 36l-51 -48zM405 356q-21 26 -50.5 41q-29.5 15 -67.5 15q-36 0 -65 -13.5q-29 -13.5 -49.5 -38q-20.5 -24.5 -31.5 -59q-11 -34.5 -11 -76.5q0 -58 22 -105zM176 86q40 -48 111 -48q74 0 115.5 47.5q41.5 47.5 41.5 139.5q0 54 -18 96z" />
<glyph unicode="&#249;" horiz-adv-x="578" d="M405 402h-60v48h141v-402h57v-48h-136v80q-11 -17 -28 -33.5q-17 -16.5 -38 -29q-21 -12.5 -45 -20q-24 -7.5 -51 -7.5q-82 0 -125 47q-43 47 -41 148q0 7 0.5 39q0.5 32 1 69.5q0.5 37.5 1 69.5q0.5 32 0.5 39l-57 0v48h139q0 -5 0 -25.5q0 -20.5 -0.5 -48q-0.5 -27.5 -0.5 -58.5q0 -31 -0.5 -58.5q-0.5 -27.5 -0.5 -47.5q0 -20 0 -25q-1 -69 25 -106.5q26 -37.5 90 -37.5q44 0 76.5 21q32.5 21 51.5 47zM223 719l101 -158l-31 -21l-131 130z" />
<glyph unicode="&#250;" horiz-adv-x="578" d="M405 402h-60v48h141v-402h57v-48h-136v80q-11 -17 -28 -33.5q-17 -16.5 -38 -29q-21 -12.5 -45 -20q-24 -7.5 -51 -7.5q-82 0 -125 47q-43 47 -41 148q0 7 0.5 39q0.5 32 1 69.5q0.5 37.5 1 69.5q0.5 32 0.5 39l-57 0v48h139q0 -5 0 -25.5q0 -20.5 -0.5 -48q-0.5 -27.5 -0.5 -58.5q0 -31 -0.5 -58.5q-0.5 -27.5 -0.5 -47.5q0 -20 0 -25q-1 -69 25 -106.5q26 -37.5 90 -37.5q44 0 76.5 21q32.5 21 51.5 47zM235 560l101 160l61 -48l-133 -132z" />
<glyph unicode="&#251;" horiz-adv-x="578" d="M405 402h-60v48h141v-402h57v-48h-136v80q-11 -17 -28 -33.5q-17 -16.5 -38 -29q-21 -12.5 -45 -20q-24 -7.5 -51 -7.5q-82 0 -125 47q-43 47 -41 148q0 7 0.5 39q0.5 32 1 69.5q0.5 37.5 1 69.5q0.5 32 0.5 39l-57 0v48h139q0 -5 0 -25.5q0 -20.5 -0.5 -48q-0.5 -27.5 -0.5 -58.5q0 -31 -0.5 -58.5q-0.5 -27.5 -0.5 -47.5q0 -20 0 -25q-1 -69 25 -106.5q26 -37.5 90 -37.5q44 0 76.5 21q32.5 21 51.5 47zM137 562l137 149h4l136 -149l-26 -25l-112 96l-114 -95z" />
<glyph unicode="&#252;" horiz-adv-x="578" d="M405 402h-60v48h141v-402h57v-48h-136v80q-11 -17 -28 -33.5q-17 -16.5 -38 -29q-21 -12.5 -45 -20q-24 -7.5 -51 -7.5q-82 0 -125 47q-43 47 -41 148q0 7 0.5 39q0.5 32 1 69.5q0.5 37.5 1 69.5q0.5 32 0.5 39l-57 0v48h139q0 -5 0 -25.5q0 -20.5 -0.5 -48q-0.5 -27.5 -0.5 -58.5q0 -31 -0.5 -58.5q-0.5 -27.5 -0.5 -47.5q0 -20 0 -25q-1 -69 25 -106.5q26 -37.5 90 -37.5q44 0 76.5 21q32.5 21 51.5 47zM181 583q-23 0 -38 14q-15 14 -15 39q0 23 15 37.5q15 14.5 38 14.5q18 0 33.5 -14.5q15.5 -14.5 15.5 -37.5q0 -25 -15.5 -39q-15.5 -14 -33.5 -14zt0 0zM381 583q-23 0 -38 14q-15 14 -15 39q0 23 15 37.5q15 14.5 38 14.5q18 0 33.5 -14.5q15.5 -14.5 15.5 -37.5q0 -25 -15.5 -39t-33.5 -14z" />
<glyph unicode="&#253;" horiz-adv-x="517" d="M47 401h-37v49h186v-49h-56l119 -254q4 -8 9 -19q5 -11 9.5 -21.5q4.5 -10.5 8 -19q3.5 -8.5 4.5 -11.5q1 4 4.5 13.5q3.5 9.5 7.5 20.5q4 11 8.5 21.5q4.5 10.5 6.5 16.5l101 253h-64v49h158v-49h-37l-178 -428q-21 -50 -41 -83.5q-20 -33.5 -41 -53.5q-21 -20 -43 -28q-22 -8 -47 -8q-35 0 -60 19q-25 19 -25 51q0 23 14.5 37.5q14.5 14.5 38.5 14.5q23 0 35 -14.5q12 -14.5 12 -31.5q0 -11 -5.5 -20q-5.5 -9 -12.5 -14l9 0q31 0 59 31.5q28 31.5 54 97.5l9 24zM209 560l101 160l61 -48l-133 -132z" />
<glyph unicode="&#254;" horiz-adv-x="584" d="M25 -151h68v802h-68v49h147v-296q23 23 64 39.5q41 16.5 89 16.5q52 0 93 -17q41 -17 69 -47q28 -30 42.5 -72q14.5 -42 14.5 -92q0 -53 -16 -97.5q-16 -44.5 -46.5 -76.5q-30.5 -32 -75 -50q-44.5 -18 -100.5 -18q-38 0 -72 9q-34 9 -60 26l0 -176h74v-49h-223zM174 79q31 -22 61.5 -30q30.5 -8 60.5 -8q39 0 69.5 14q30.5 14 50.5 39q20 25 30.5 59.5q10.5 34.5 10.5 75.5q0 81 -41.5 129.5q-41.5 48.5 -114.5 48.5q-42 0 -76 -17q-34 -17 -51 -38z" />
<glyph unicode="&#255;" horiz-adv-x="517" d="M47 401h-37v49h186v-49h-56l119 -254q4 -8 9 -19q5 -11 9.5 -21.5q4.5 -10.5 8 -19q3.5 -8.5 4.5 -11.5q1 4 4.5 13.5q3.5 9.5 7.5 20.5q4 11 8.5 21.5q4.5 10.5 6.5 16.5l101 253h-64v49h158v-49h-37l-178 -428q-21 -50 -41 -83.5q-20 -33.5 -41 -53.5q-21 -20 -43 -28q-22 -8 -47 -8q-35 0 -60 19q-25 19 -25 51q0 23 14.5 37.5q14.5 14.5 38.5 14.5q23 0 35 -14.5q12 -14.5 12 -31.5q0 -11 -5.5 -20q-5.5 -9 -12.5 -14l9 0q31 0 59 31.5q28 31.5 54 97.5l9 24zM153 583q-23 0 -38 14q-15 14 -15 39q0 23 15 37.5q15 14.5 38 14.5q18 0 33.5 -14.5q15.5 -14.5 15.5 -37.5q0 -25 -15.5 -39q-15.5 -14 -33.5 -14zt0 0zM353 583q-23 0 -38 14q-15 14 -15 39q0 23 15 37.5q15 14.5 38 14.5q18 0 33.5 -14.5q15.5 -14.5 15.5 -37.5q0 -25 -15.5 -39t-33.5 -14z" />
<glyph unicode="&#256;" horiz-adv-x="734" d="M8 49h59l244 651h106l255 -651h58v-49h-239v49h78l-76 201h-290l-73 -201h81v-49h-203zM474 299l-93 241q-12 32 -20.5 57q-8.5 25 -13.5 39l-3 0q-5 -15 -14.5 -39.5q-9.5 -24.5 -20.5 -56.5l-89 -241zM206 826h303v-45l-303 0z" />
<glyph unicode="&#257;" horiz-adv-x="508" d="M416 93q0 -27 5 -39.5q5 -12.5 20 -12.5q11 0 21.5 5q10.5 5 17.5 10l15 -26q-13 -14 -38 -27q-25 -13 -50 -13q-32 0 -49 19.5q-17 19.5 -17 62.5q-19 -31 -56 -56.5q-37 -25.5 -100 -25.5q-29 0 -55 8.5q-26 8.5 -45.5 25q-19.5 16.5 -31 40.5q-11.5 24 -11.5 55q0 62 47 96.5q47 34.5 128 34.5q15 0 33 -2q18 -2 35 -5q17 -3 32 -7q15 -4 23 -8q1 14 1 31q0 17 0 40q0 58 -24.5 88.5q-24.5 30.5 -80.5 30.5q-32 0 -54.5 -7.5q-22.5 -7.5 -38.5 -17.5q13 -4 25.5 -17.5q12.5 -13.5 12.5 -35.5q0 -21 -14.5 -35q-14.5 -14 -37.5 -14q-23 0 -37 16q-14 16 -14 39q0 22 14 43q14 21 38.5 36.5q24.5 15.5 57 25q32.5 9.5 69.5 9.5q81 0 122.5 -43q41.5 -43 41.5 -124q0 -9 -1 -37q-1 -28 -1.5 -60.5q-0.5 -32.5 -1.5 -62q-1 -29.5 -1 -40.5zt0 0zM128 128q0 -41 27.5 -64q27.5 -23 65.5 -23q23 0 42 6q19 6 34 15.5q15 9.5 25.5 21q10.5 11.5 15.5 22.5l2 88q-21 9 -49.5 14.5q-28.5 5.5 -58.5 5.5q-44 0 -74 -23q-30 -23 -30 -63zt0 0zM111 641h260v-44l-260 0z" />
<glyph unicode="&#258;" horiz-adv-x="734" d="M8 49h59l244 651h106l255 -651h58v-49h-239v49h78l-76 201h-290l-73 -201h81v-49h-203zM474 299l-93 241q-12 32 -20.5 57q-8.5 25 -13.5 39l-3 0q-5 -15 -14.5 -39.5q-9.5 -24.5 -20.5 -56.5l-89 -241zM524 855q-10 -18 -26 -37.5q-16 -19.5 -37 -35q-21 -15.5 -46.5 -25.5q-25.5 -10 -54.5 -10q-33 0 -61 11q-28 11 -50 27.5q-22 16.5 -37 35.5q-15 19 -22 34l27 19q17 -20 51.5 -37.5q34.5 -17.5 91.5 -17.5q25 0 46.5 5.5q21.5 5.5 39 13.5q17.5 8 31.5 17.5q14 9.5 23 18.5z" />
<glyph unicode="&#259;" horiz-adv-x="508" d="M416 93q0 -27 5 -39.5q5 -12.5 20 -12.5q11 0 21.5 5q10.5 5 17.5 10l15 -26q-13 -14 -38 -27q-25 -13 -50 -13q-32 0 -49 19.5q-17 19.5 -17 62.5q-19 -31 -56 -56.5q-37 -25.5 -100 -25.5q-29 0 -55 8.5q-26 8.5 -45.5 25q-19.5 16.5 -31 40.5q-11.5 24 -11.5 55q0 62 47 96.5q47 34.5 128 34.5q15 0 33 -2q18 -2 35 -5q17 -3 32 -7q15 -4 23 -8q1 14 1 31q0 17 0 40q0 58 -24.5 88.5q-24.5 30.5 -80.5 30.5q-32 0 -54.5 -7.5q-22.5 -7.5 -38.5 -17.5q13 -4 25.5 -17.5q12.5 -13.5 12.5 -35.5q0 -21 -14.5 -35q-14.5 -14 -37.5 -14q-23 0 -37 16q-14 16 -14 39q0 22 14 43q14 21 38.5 36.5q24.5 15.5 57 25q32.5 9.5 69.5 9.5q81 0 122.5 -43q41.5 -43 41.5 -124q0 -9 -1 -37q-1 -28 -1.5 -60.5q-0.5 -32.5 -1.5 -62q-1 -29.5 -1 -40.5zt0 0zM128 128q0 -41 27.5 -64q27.5 -23 65.5 -23q23 0 42 6q19 6 34 15.5q15 9.5 25.5 21q10.5 11.5 15.5 22.5l2 88q-21 9 -49.5 14.5q-28.5 5.5 -58.5 5.5q-44 0 -74 -23q-30 -23 -30 -63zt0 0zM393 659q-10 -18 -23 -35.5q-13 -17.5 -30.5 -31.5q-17.5 -14 -40 -22.5q-22.5 -8.5 -50.5 -8.5q-30 0 -54.5 10.5q-24.5 10.5 -42.5 25.5q-18 15 -30 31.5q-12 16.5 -18 29.5l32 23q8 -9 18.5 -20q10.5 -11 24.5 -20q14 -9 32 -15.5q18 -6.5 41 -6.5q40 0 68.5 19q28.5 19 46.5 42z" />
<glyph unicode="&#260;" horiz-adv-x="734" d="M8 49h59l244 651h106l255 -651h58v-49h-239v49h78l-76 201h-290l-73 -201h81v-49h-203zM474 299l-93 241q-12 32 -20.5 57q-8.5 25 -13.5 39l-3 0q-5 -15 -14.5 -39.5q-9.5 -24.5 -20.5 -56.5l-89 -241zM702 0q-24 0 -44.5 -7.5q-20.5 -7.5 -35.5 -20q-15 -12.5 -23.5 -29.5q-8.5 -17 -8.5 -36q0 -32 18.5 -45q18.5 -13 36.5 -13q10 0 20.5 1.5q10.5 1.5 23.5 7.5l18 -29q-13 -10 -34.5 -19.5q-21.5 -9.5 -50.5 -9.5q-18 0 -38 4.5q-20 4.5 -36.5 15.5q-16.5 11 -27 28.5q-10.5 17.5 -10.5 43.5q0 30 17.5 53.5q17.5 23.5 45 39q27.5 15.5 62 23.5q34.5 8 67.5 8z" />
<glyph unicode="&#261;" horiz-adv-x="508" d="M416 79q0 -17 8.5 -23.5q8.5 -6.5 32.5 -6.5h21v-49h-5q-23 -1 -44 -8.5q-21 -7.5 -37.5 -20q-16.5 -12.5 -26 -29.5q-9.5 -17 -9.5 -36q0 -18 7 -30q7 -12 17 -19q10 -7 22 -10q12 -3 22 -3q27 0 50 11l11 -27q-13 -10 -35.5 -19q-22.5 -9 -54.5 -9q-17 0 -36 4.5q-19 4.5 -35.5 15.5q-16.5 11 -27 28.5q-10.5 17.5 -10.5 43.5q0 39 28 66.5q28 27.5 69 41.5q-24 6 -34 22.5q-10 16.5 -8 49.5q-19 -31 -56 -56.5q-37 -25.5 -100 -25.5q-29 0 -55 8.5q-26 8.5 -45.5 25q-19.5 16.5 -31 40.5q-11.5 24 -11.5 55q0 62 47 96.5q47 34.5 128 34.5q15 0 33 -2q18 -2 35 -5q17 -3 32 -7q15 -4 23 -8q1 14 1 31q0 17 0 40q0 58 -24.5 88.5q-24.5 30.5 -80.5 30.5q-32 0 -54.5 -7.5q-22.5 -7.5 -38.5 -17.5q13 -4 25.5 -17.5q12.5 -13.5 12.5 -35.5q0 -21 -14.5 -35q-14.5 -14 -37.5 -14q-23 0 -37 16q-14 16 -14 39q0 22 14 43q14 21 38.5 36.5q24.5 15.5 57 25q32.5 9.5 69.5 9.5q81 0 122.5 -43q41.5 -43 41.5 -124q0 -9 -1 -40q-1 -31 -1.5 -67q-0.5 -36 -1.5 -67q-1 -31 -1 -40zt0 0zM128 128q0 -41 27.5 -64q27.5 -23 65.5 -23q23 0 42 6q19 6 34 15.5q15 9.5 25.5 21q10.5 11.5 15.5 22.5l2 88q-21 9 -49.5 14.5q-28.5 5.5 -58.5 5.5q-44 0 -74 -23t-30 -63z" />
<glyph unicode="&#262;" horiz-adv-x="712" d="M608 205h54v-205h-54v58q-38 -32 -90.5 -50q-52.5 -18 -109.5 -18q-79 0 -145 25q-66 25 -113 71.5q-47 46.5 -73.5 113.5q-26.5 67 -26.5 150q0 75 25 141q25 66 70.5 114.5q45.5 48.5 110 76.5q64.5 28 144.5 28q126 0 202 -66l0 56h54v-196h-54l-5 81q-32 33 -74 52q-42 19 -100 19q-59 0 -107.5 -23q-48.5 -23 -83 -63.5q-34.5 -40.5 -53.5 -97q-19 -56.5 -19 -122.5q0 -68 19.5 -124q19.5 -56 55 -96.5q35.5 -40.5 85.5 -63q50 -22.5 110 -22.5q55 0 98 20q43 20 75 52zM326 766l170 126l46 -73l-202 -80z" />
<glyph unicode="&#263;" horiz-adv-x="498" d="M40 225q0 49 17 92q17 43 48.5 74.5q31.5 31.5 75.5 50q44 18.5 98 18.5q38 0 71.5 -9.5q33.5 -9.5 58 -26.5q24.5 -17 39 -40.5q14.5 -23.5 14.5 -50.5q0 -29 -17 -46q-17 -17 -40 -17q-23 0 -38.5 15.5q-15.5 15.5 -15.5 37.5q0 17 12.5 33.5q12.5 16.5 32.5 18.5q-14 13 -38.5 24.5q-24.5 11.5 -63.5 11.5q-36 0 -66 -13.5q-30 -13.5 -51.5 -37.5q-21.5 -24 -34 -57.5q-12.5 -33.5 -12.5 -73.5q0 -44 13.5 -78.5q13.5 -34.5 37 -58.5q23.5 -24 55.5 -36.5q32 -12.5 70 -12.5q38 0 73.5 17.5q35.5 17.5 56.5 46.5l32 -26q-30 -47 -78 -69q-48 -22 -105 -22q-56 0 -101 16.5q-45 16.5 -77 47.5q-32 31 -49.5 74.5q-17.5 43.5 -17.5 96.5zt0 0zM234 560l101 160l61 -48l-133 -132z" />
<glyph unicode="&#264;" horiz-adv-x="712" d="M608 205h54v-205h-54v58q-38 -32 -90.5 -50q-52.5 -18 -109.5 -18q-79 0 -145 25q-66 25 -113 71.5q-47 46.5 -73.5 113.5q-26.5 67 -26.5 150q0 75 25 141q25 66 70.5 114.5q45.5 48.5 110 76.5q64.5 28 144.5 28q126 0 202 -66l0 56h54v-196h-54l-5 81q-32 33 -74 52q-42 19 -100 19q-59 0 -107.5 -23q-48.5 -23 -83 -63.5q-34.5 -40.5 -53.5 -97q-19 -56.5 -19 -122.5q0 -68 19.5 -124q19.5 -56 55 -96.5q35.5 -40.5 85.5 -63q50 -22.5 110 -22.5q55 0 98 20q43 20 75 52zM230 761l167 120h4l168 -119l-21 -23l-149 63l-151 -63z" />
<glyph unicode="&#265;" horiz-adv-x="498" d="M40 225q0 49 17 92q17 43 48.5 74.5q31.5 31.5 75.5 50q44 18.5 98 18.5q38 0 71.5 -9.5q33.5 -9.5 58 -26.5q24.5 -17 39 -40.5q14.5 -23.5 14.5 -50.5q0 -29 -17 -46q-17 -17 -40 -17q-23 0 -38.5 15.5q-15.5 15.5 -15.5 37.5q0 17 12.5 33.5q12.5 16.5 32.5 18.5q-14 13 -38.5 24.5q-24.5 11.5 -63.5 11.5q-36 0 -66 -13.5q-30 -13.5 -51.5 -37.5q-21.5 -24 -34 -57.5q-12.5 -33.5 -12.5 -73.5q0 -44 13.5 -78.5q13.5 -34.5 37 -58.5q23.5 -24 55.5 -36.5q32 -12.5 70 -12.5q38 0 73.5 17.5q35.5 17.5 56.5 46.5l32 -26q-30 -47 -78 -69q-48 -22 -105 -22q-56 0 -101 16.5q-45 16.5 -77 47.5q-32 31 -49.5 74.5q-17.5 43.5 -17.5 96.5zt0 0zM138 562l137 149h4l136 -149l-26 -25l-112 96l-114 -95z" />
<glyph unicode="&#266;" horiz-adv-x="712" d="M608 205h54v-205h-54v58q-38 -32 -90.5 -50q-52.5 -18 -109.5 -18q-79 0 -145 25q-66 25 -113 71.5q-47 46.5 -73.5 113.5q-26.5 67 -26.5 150q0 75 25 141q25 66 70.5 114.5q45.5 48.5 110 76.5q64.5 28 144.5 28q126 0 202 -66l0 56h54v-196h-54l-5 81q-32 33 -74 52q-42 19 -100 19q-59 0 -107.5 -23q-48.5 -23 -83 -63.5q-34.5 -40.5 -53.5 -97q-19 -56.5 -19 -122.5q0 -68 19.5 -124q19.5 -56 55 -96.5q35.5 -40.5 85.5 -63q50 -22.5 110 -22.5q55 0 98 20q43 20 75 52zM392 752q-26 0 -44.5 15.5q-18.5 15.5 -18.5 43.5q0 26 18.5 41.5q18.5 15.5 44.5 15.5q23 0 41.5 -15.5q18.5 -15.5 18.5 -41.5q0 -28 -18.5 -43.5t-41.5 -15.5z" />
<glyph unicode="&#267;" horiz-adv-x="498" d="M40 225q0 49 17 92q17 43 48.5 74.5q31.5 31.5 75.5 50q44 18.5 98 18.5q38 0 71.5 -9.5q33.5 -9.5 58 -26.5q24.5 -17 39 -40.5q14.5 -23.5 14.5 -50.5q0 -29 -17 -46q-17 -17 -40 -17q-23 0 -38.5 15.5q-15.5 15.5 -15.5 37.5q0 17 12.5 33.5q12.5 16.5 32.5 18.5q-14 13 -38.5 24.5q-24.5 11.5 -63.5 11.5q-36 0 -66 -13.5q-30 -13.5 -51.5 -37.5q-21.5 -24 -34 -57.5q-12.5 -33.5 -12.5 -73.5q0 -44 13.5 -78.5q13.5 -34.5 37 -58.5q23.5 -24 55.5 -36.5q32 -12.5 70 -12.5q38 0 73.5 17.5q35.5 17.5 56.5 46.5l32 -26q-30 -47 -78 -69q-48 -22 -105 -22q-56 0 -101 16.5q-45 16.5 -77 47.5q-32 31 -49.5 74.5q-17.5 43.5 -17.5 96.5zt0 0zM281 584q-24 0 -41 16q-17 16 -17 44q0 26 17 41q17 15 41 15q22 0 39.5 -15q17.5 -15 17.5 -41q0 -28 -17.5 -44t-39.5 -16z" />
<glyph unicode="&#268;" horiz-adv-x="712" d="M608 205h54v-205h-54v58q-38 -32 -90.5 -50q-52.5 -18 -109.5 -18q-79 0 -145 25q-66 25 -113 71.5q-47 46.5 -73.5 113.5q-26.5 67 -26.5 150q0 75 25 141q25 66 70.5 114.5q45.5 48.5 110 76.5q64.5 28 144.5 28q126 0 202 -66l0 56h54v-196h-54l-5 81q-32 33 -74 52q-42 19 -100 19q-59 0 -107.5 -23q-48.5 -23 -83 -63.5q-34.5 -40.5 -53.5 -97q-19 -56.5 -19 -122.5q0 -68 19.5 -124q19.5 -56 55 -96.5q35.5 -40.5 85.5 -63q50 -22.5 110 -22.5q55 0 98 20q43 20 75 52zM408 813l150 68l18 -23l-166 -119h-4l-169 118l21 24z" />
<glyph unicode="&#269;" horiz-adv-x="498" d="M40 225q0 49 17 92q17 43 48.5 74.5q31.5 31.5 75.5 50q44 18.5 98 18.5q38 0 71.5 -9.5q33.5 -9.5 58 -26.5q24.5 -17 39 -40.5q14.5 -23.5 14.5 -50.5q0 -29 -17 -46q-17 -17 -40 -17q-23 0 -38.5 15.5q-15.5 15.5 -15.5 37.5q0 17 12.5 33.5q12.5 16.5 32.5 18.5q-14 13 -38.5 24.5q-24.5 11.5 -63.5 11.5q-36 0 -66 -13.5q-30 -13.5 -51.5 -37.5q-21.5 -24 -34 -57.5q-12.5 -33.5 -12.5 -73.5q0 -44 13.5 -78.5q13.5 -34.5 37 -58.5q23.5 -24 55.5 -36.5q32 -12.5 70 -12.5q38 0 73.5 17.5q35.5 17.5 56.5 46.5l32 -26q-30 -47 -78 -69q-48 -22 -105 -22q-56 0 -101 16.5q-45 16.5 -77 47.5q-32 31 -49.5 74.5q-17.5 43.5 -17.5 96.5zt0 0zM148 685l25 25l114 -96l113 95l25 -24l-137 -150l-4 0z" />
<glyph unicode="&#270;" horiz-adv-x="798" d="M230 49q38 -1 66.5 -1.5q28.5 -0.5 36.5 -0.5q77 0 134.5 24.5q57.5 24.5 95.5 66.5q38 42 56.5 99q18.5 57 18.5 122q0 61 -17 115q-17 54 -54 94q-37 40 -94 63q-57 23 -137 23q-17 0 -30.5 0q-13.5 0 -25.5 -0.5q-12 -0.5 -24 -1q-12 -0.5 -26 -1.5zM134 49v602h-84v49h96q18 0 43 0.5q25 0.5 52 1q27 0.5 55 1q28 0.5 52 0.5q108 0 184 -28q76 -28 124 -75.5q48 -47.5 70 -109.5q22 -62 22 -131q0 -75 -24.5 -140.5q-24.5 -65.5 -75 -114.5q-50.5 -49 -128.5 -77.5q-78 -28.5 -186 -28.5q-18 0 -41.5 0.5q-23.5 0.5 -49 0.5q-25.5 0 -51.5 0.5q-26 0.5 -48 0.5h-94v49zM377 813l150 68l18 -23l-166 -119h-4l-169 118l21 24z" />
<glyph unicode="&#271;" horiz-adv-x="677" d="M557 49v-49h-145v68q-21 -30 -62 -53q-41 -23 -94 -23q-48 0 -87.5 16.5q-39.5 16.5 -68 46.5q-28.5 30 -44.5 72.5q-16 42.5 -16 94.5q0 54 18 98q18 44 51 75q33 31 78 48q45 17 99 17q42 0 71 -9.5q29 -9.5 55 -26.5l0 227h-65v49h145v-651zM285 45q43 0 76.5 19q33.5 19 50.5 42l0 268q-30 23 -62 30q-32 7 -55 7q-36 0 -66.5 -14q-30.5 -14 -52 -38.5q-21.5 -24.5 -34 -59q-12.5 -34.5 -12.5 -74.5q0 -81 41.5 -130.5q41.5 -49.5 113.5 -49.5zt0 0zM554 546q21 17 34 45.5q13 28.5 13 61.5q0 15 -2.5 26q-2.5 11 -7.5 21l68 0q8 -16 8 -38q0 -29 -9 -53q-9 -24 -23.5 -42q-14.5 -18 -32 -30.5q-17.5 -12.5 -34.5 -18.5z" />
<glyph unicode="&#272;" horiz-adv-x="798" d="M134 49v284h-84v55h84v263h-84v49h96q18 0 43 0.5q25 0.5 52 1q27 0.5 55 1q28 0.5 52 0.5q108 0 184 -28q76 -28 124 -75.5q48 -47.5 70 -109.5q22 -62 22 -131q0 -75 -24.5 -140.5q-24.5 -65.5 -75 -114.5q-50.5 -49 -128.5 -77.5q-78 -28.5 -186 -28.5q-18 0 -41.5 0.5q-23.5 0.5 -49 0.5q-25.5 0 -51.5 0.5q-26 0.5 -48 0.5h-94v49zM230 333v-284q38 -1 66.5 -1.5q28.5 -0.5 36.5 -0.5q77 0 134.5 24.5q57.5 24.5 95.5 66.5q38 42 56.5 99q18.5 57 18.5 122q0 61 -17 115q-17 54 -54 94q-37 40 -94 63q-57 23 -137 23q-17 0 -30.5 0q-13.5 0 -25.5 -0.5q-12 -0.5 -24 -1q-12 -0.5 -26 -1.5l0 -263h156l0 -55z" />
<glyph unicode="&#273;" horiz-adv-x="582" d="M557 49v-49h-145v68q-21 -30 -62 -53q-41 -23 -94 -23q-48 0 -87.5 16.5q-39.5 16.5 -68 46.5q-28.5 30 -44.5 72.5q-16 42.5 -16 94.5q0 54 18 98q18 44 51 75q33 31 78 48q45 17 99 17q42 0 71 -9.5q29 -9.5 55 -26.5l0 113h-182v48h182v66h-65v49h145v-115h66v-48h-66v-488zM285 45q43 0 76.5 19q33.5 19 50.5 42l0 268q-30 23 -62 30q-32 7 -55 7q-36 0 -66.5 -14q-30.5 -14 -52 -38.5q-21.5 -24.5 -34 -59q-12.5 -34.5 -12.5 -74.5q0 -81 41.5 -130.5t113.5 -49.5z" />
<glyph unicode="&#274;" horiz-adv-x="630" d="M50 49h84v602h-84v49h515v-196h-54l-10 147h-271v-272h211v-48h-211v-282h281l10 149h54v-198h-525zM178 826h303v-45l-303 0z" />
<glyph unicode="&#275;" horiz-adv-x="536" d="M130 209q1 -35 13 -65q12 -30 33.5 -52.5q21.5 -22.5 52.5 -35.5q31 -13 70 -13q51 0 88 17q37 17 59 41l26 -34q-23 -28 -72 -52.5q-49 -24.5 -121 -24.5q-54 0 -98.5 17q-44.5 17 -75.5 48.5q-31 31.5 -48 76q-17 44.5 -17 100.5q0 46 16.5 87.5q16.5 41.5 47 73q30.5 31.5 73.5 49.5q43 18 96 18q51 0 91.5 -14.5q40.5 -14.5 68.5 -41.5q28 -27 43 -65q15 -38 15 -84q0 -29 -4 -46zM411 254q1 34 -6.5 62.5q-7.5 28.5 -23.5 49.5q-16 21 -41 33q-25 12 -59 12q-35 0 -62.5 -12.5q-27.5 -12.5 -46.5 -34q-19 -21.5 -30 -50q-11 -28.5 -13 -60.5zM137 641h260v-44l-260 0z" />
<glyph unicode="&#278;" horiz-adv-x="630" d="M50 49h84v602h-84v49h515v-196h-54l-10 147h-271v-272h211v-48h-211v-282h281l10 149h54v-198h-525zM333 752q-26 0 -44.5 15.5q-18.5 15.5 -18.5 43.5q0 26 18.5 41.5q18.5 15.5 44.5 15.5q23 0 41.5 -15.5q18.5 -15.5 18.5 -41.5q0 -28 -18.5 -43.5t-41.5 -15.5z" />
</font>
</defs>
</svg>
