<?xml version="1.0" encoding="UTF-8" standalone="no"?>
<!DOCTYPE svg PUBLIC "-//W3C//DTD SVG 1.1//EN" "http://www.w3.org/Graphics/SVG/1.1/DTD/svg11.dtd" >
<svg xmlns="http://www.w3.org/2000/svg">
<metadata>
Generated by SVGconv.
Copyright   : Copyright (c) 2018 ParaType, Inc., ParaType Ltd. All rights reserved.
Designer    : A.Korolkova
Foundry     : ParaType Ltd
Foundry URL : http://www.paratype.com
</metadata>
<defs>
<font id="CirceSlabCWeb-ExtraLight" horiz-adv-x="597" >
<font-face units-per-em="1000" ascent="935" descent="320" >
<font-face-src>
<font-face-name/>
</font-face-src>
</font-face>
<missing-glyph horiz-adv-x="500" />
<glyph unicode="&#13;" horiz-adv-x="240" />
<glyph unicode="&#32;" horiz-adv-x="240" />
<glyph unicode="&#33;" horiz-adv-x="309" d="M121 700h69l-22 -515h-26zM111 36q0 17 11.5 30q11.5 13 31.5 13q18 0 30 -12q12 -12 12 -31q0 -17 -12 -29.5q-12 -12.5 -31 -12.5q-20 0 -31 12.5t-11 29.5z" />
<glyph unicode="&#34;" horiz-adv-x="422" d="M99 700h56l-16 -204h-24zM245 700h56l-16 -204l-24 0z" />
<glyph unicode="&#35;" horiz-adv-x="712" d="M81 2l79 214h-120v30h130l77 212h-207v30h218l81 221l28 -9l-77 -212h201l81 221l28 -9l-77 -212h119v-30h-130l-77 -212h207v-30h-217l-82 -225l-29 11l78 214h-200l-82 -225zM403 246l77 212h-201l-76 -212z" />
<glyph unicode="&#36;" horiz-adv-x="547" d="M59 0v189h31l3 -60q23 -46 71.5 -76q48.5 -30 109.5 -30q33 0 62.5 8.5q29.5 8.5 52 25.5q22.5 17 35.5 43q13 26 13 61q0 53 -27.5 85q-27.5 32 -68.5 53.5q-41 21.5 -89.5 39q-48.5 17.5 -89.5 41.5q-41 24 -68.5 60q-27.5 36 -27.5 96q0 35 12 65.5q12 30.5 35 53.5q23 23 58 37.5q35 14.5 80 16.5l0 81h28v-81q45 -3 86.5 -22q41.5 -19 70.5 -53l0 66h31v-172h-31l-3 59q-25 47 -68 68.5q-43 21.5 -96 21.5q-67 0 -105.5 -36q-38.5 -36 -38.5 -93q0 -50 27.5 -80.5q27.5 -30.5 68.5 -51.5q41 -21 89.5 -38.5q48.5 -17.5 89.5 -42.5q41 -25 68.5 -63q27.5 -38 27.5 -100q0 -42 -16.5 -76q-16.5 -34 -44.5 -57.5q-28 -23.5 -65 -36q-37 -12.5 -78 -12.5h-13v-90h-28v95q-53 6 -95 28.5q-42 22.5 -66 55.5l0 -79z" />
<glyph unicode="&#37;" horiz-adv-x="835" d="M441 147q0 35 12.5 64q12.5 29 35 49.5q22.5 20.5 53.5 31.5q31 11 68 11q37 0 68 -11q31 -11 53.5 -31.5q22.5 -20.5 35.5 -49q13 -28.5 13 -63.5q0 -35 -13 -64q-13 -29 -35.5 -49.5q-22.5 -20.5 -54 -32q-31.5 -11.5 -67.5 -11.5q-37 0 -68 11.5q-31 11.5 -53.5 32q-22.5 20.5 -35 49q-12.5 28.5 -12.5 63.5zt0 0zM483 147q0 -30 10.5 -54.5q10.5 -24.5 27.5 -42q17 -17.5 40 -26.5q23 -9 49 -9q26 0 49 9q23 9 40.5 26.5q17.5 17.5 27.5 42q10 24.5 10 54.5q0 31 -10 56q-10 25 -27.5 41.5q-17.5 16.5 -40.5 25.5q-23 9 -49 9q-26 0 -49.5 -9q-23.5 -9 -40.5 -26q-17 -17 -27 -41.5q-10 -24.5 -10 -55.5zt0 0zM55 548q0 35 12.5 64q12.5 29 35 49.5q22.5 20.5 54 31.5q31.5 11 68.5 11q36 0 67.5 -11q31.5 -11 54 -31.5q22.5 -20.5 35.5 -49q13 -28.5 13 -63.5q0 -35 -13 -64q-13 -29 -36 -49.5q-23 -20.5 -54 -32q-31 -11.5 -67 -11.5q-37 0 -68 11.5q-31 11.5 -53.5 32q-22.5 20.5 -35.5 49q-13 28.5 -13 63.5zt0 0zM98 548q0 -30 10.5 -54.5q10.5 -24.5 27.5 -42q17 -17.5 40 -26.5q23 -9 49 -9q26 0 49 9q23 9 40 26.5q17 17.5 27 42q10 24.5 10 54.5q0 31 -10 56q-10 25 -27 41.5q-17 16.5 -40 25.5q-23 9 -49 9q-26 0 -49.5 -9q-23.5 -9 -40.5 -26q-17 -17 -27 -41.5q-10 -24.5 -10 -55.5zt0 0zM691 709l23 -19l-568 -699l-22 20z" />
<glyph unicode="&#38;" horiz-adv-x="757" d="M527 167q32 53 49.5 119.5q17.5 66.5 19.5 133.5l-66 0v30h149v-30h-51q-4 -76 -24 -147.5q-20 -71.5 -57 -130.5l89 -112h65v-30h-94l-90 113q-37 -54 -93.5 -88q-56.5 -34 -131.5 -34q-48 0 -89 15q-41 15 -70 41q-29 26 -45.5 62.5q-16.5 36.5 -16.5 80.5q0 44 18.5 82q18.5 38 46.5 70q28 32 61.5 58.5q33.5 26.5 64.5 47.5q-14 16 -28 33.5q-14 17.5 -26 37q-12 19.5 -19.5 40q-7.5 20.5 -7.5 42.5q0 48 31.5 78q31.5 30 94.5 30q55 0 88.5 -28.5q33.5 -28.5 33.5 -83.5q0 -28 -10.5 -49.5q-10.5 -21.5 -27 -39.5q-16.5 -18 -37 -34q-20.5 -16 -41.5 -32zM129 193q0 -41 14 -73q14 -32 38 -54.5q24 -22.5 55.5 -34.5q31.5 -12 67.5 -12q66 0 114.5 33.5q48.5 33.5 81.5 84.5l-218 281q-28 -20 -55.5 -43.5q-27.5 -23.5 -49 -52q-21.5 -28.5 -35 -61q-13.5 -32.5 -13.5 -68.5zt0 0zM292 463q20 14 38 28.5q18 14.5 31 30q13 15.5 20.5 33.5q7.5 18 7.5 40q0 43 -23 63.5q-23 20.5 -60 20.5q-43 0 -64.5 -22.5q-21.5 -22.5 -21.5 -54.5q0 -37 21 -70t51 -69z" />
<glyph unicode="&#39;" horiz-adv-x="250" d="M97 700h56l-16 -204l-24 0z" />
<glyph unicode="&#40;" horiz-adv-x="305" d="M272 636q-52 -48 -86 -98q-34 -50 -54.5 -101q-20.5 -51 -28.5 -104q-8 -53 -8 -108q0 -55 9.5 -110q9.5 -55 31 -107.5q21.5 -52.5 55 -101.5q33.5 -49 81.5 -92l-19 -16q-58 48 -97.5 100q-39.5 52 -63.5 106q-24 54 -34.5 110q-10.5 56 -10.5 111q0 55 10.5 109.5q10.5 54.5 34.5 108.5q24 54 63.5 106q39.5 52 98.5 103z" />
<glyph unicode="&#41;" horiz-adv-x="305" d="M33 -186q48 43 82 92q34 49 55 101.5q21 52.5 30.5 107.5q9.5 55 9.5 110q0 55 -8.5 108q-8.5 53 -28.5 104q-20 51 -54 101q-34 50 -86 98l19 16q58 -51 98 -103q40 -52 64 -106q24 -54 34.5 -108.5q10.5 -54.5 10.5 -109.5q0 -55 -10.5 -111q-10.5 -56 -35 -110q-24.5 -54 -64 -106q-39.5 -52 -96.5 -100z" />
<glyph unicode="&#42;" horiz-adv-x="450" d="M87 616q0 11 7.5 18.5q7.5 7.5 17.5 7.5q11 0 18.5 -7.5q7.5 -7.5 7.5 -18.5q0 -11 -7.5 -17.5q-7.5 -6.5 -18.5 -6.5q-10 0 -17.5 6.5q-7.5 6.5 -7.5 17.5zt0 0zM87 494q0 10 7.5 18q7.5 8 17.5 8q11 0 18.5 -8q7.5 -8 7.5 -18q0 -11 -7.5 -17.5q-7.5 -6.5 -18.5 -6.5q-10 0 -17.5 6.5q-7.5 6.5 -7.5 17.5zt0 0zM199 427q0 11 7 18.5q7 7.5 18 7.5q11 0 19 -7.5q8 -7.5 8 -18.5q0 -11 -8 -17.5q-8 -6.5 -19 -6.5q-11 0 -18 6.5q-7 6.5 -7 17.5zt0 0zM199 683q0 11 7 18.5q7 7.5 18 7.5q11 0 19 -7.5q8 -7.5 8 -18.5q0 -10 -8 -17q-8 -7 -19 -7q-11 0 -18 7q-7 7 -7 17zt0 0zM312 616q0 11 7.5 18.5q7.5 7.5 18.5 7.5q10 0 17.5 -7.5q7.5 -7.5 7.5 -18.5q0 -11 -7.5 -17.5q-7.5 -6.5 -17.5 -6.5q-11 0 -18.5 6.5q-7.5 6.5 -7.5 17.5zt0 0zM312 494q0 10 7.5 18q7.5 8 18.5 8q10 0 17.5 -8q7.5 -8 7.5 -18q0 -11 -7.5 -17.5q-7.5 -6.5 -17.5 -6.5q-11 0 -18.5 6.5t-7.5 17.5z" />
<glyph unicode="&#43;" horiz-adv-x="593" d="M276 344h-204v32h204v205h34v-205h205v-32h-205v-207l-34 0z" />
<glyph unicode="&#44;" horiz-adv-x="230" d="M45 -125q12 3 25.5 10.5q13.5 7.5 25 20q11.5 12.5 19 29.5q7.5 17 7.5 39q0 15 -4 22q-4 7 -8 12q-5 -9 -19 -9q-17 0 -27.5 10.5q-10.5 10.5 -10.5 26.5q0 19 11 31q11 12 30 12q25 -1 43.5 -22.5q18.5 -21.5 18.5 -66.5q0 -51 -30 -88.5q-30 -37.5 -74 -47.5z" />
<glyph unicode="&#45;" horiz-adv-x="377" d="M76 285h225v-31l-225 0z" />
<glyph unicode="&#46;" horiz-adv-x="190" d="M53 36q0 17 11.5 30q11.5 13 31.5 13q18 0 30 -12q12 -12 12 -31q0 -17 -12 -29.5q-12 -12.5 -31 -12.5q-20 0 -31 12.5t-11 29.5z" />
<glyph unicode="&#47;" horiz-adv-x="345" d="M-24 -198l331 907l27 -9l-330 -908z" />
<glyph unicode="&#48;" horiz-adv-x="622" d="M313 -8q-60 0 -104.5 27q-44.5 27 -73.5 75q-29 48 -43 113.5q-14 65.5 -14 142.5q0 77 14 142.5q14 65.5 42.5 113.5q28.5 48 72.5 75q44 27 104 27q61 0 105.5 -27q44.5 -27 72.5 -75q28 -48 41.5 -113.5q13.5 -65.5 13.5 -142.5q0 -77 -13.5 -142.5q-13.5 -65.5 -42 -113.5q-28.5 -48 -72 -75q-43.5 -27 -103.5 -27zt0 0zM313 17q47 0 79 23.5q32 23.5 51.5 67q19.5 43.5 28 105q8.5 61.5 8.5 137.5q0 75 -8.5 136.5q-8.5 61.5 -28.5 105q-20 43.5 -52 67.5q-32 24 -80 24q-47 0 -79 -23.5q-32 -23.5 -52 -67q-20 -43.5 -29 -105q-9 -61.5 -9 -137.5q0 -76 9 -137.5q9 -61.5 29 -105q20 -43.5 53 -67t80 -23.5z" />
<glyph unicode="&#49;" horiz-adv-x="426" d="M80 29h110v597q-8 -9 -22 -18.5q-14 -9.5 -32 -19q-18 -9.5 -37.5 -17.5q-19.5 -8 -37.5 -14l-4 23q28 9 55.5 23q27.5 14 51.5 31.5q24 17.5 42 36q18 18.5 26 35.5l17 0v-677h89v-29l-258 0z" />
<glyph unicode="&#50;" horiz-adv-x="569" d="M62 28q30 25 67 59q37 34 75.5 73.5q38.5 39.5 75 83.5q36.5 44 64.5 90q28 46 45.5 92.5q17.5 46.5 17.5 90.5q0 32 -9.5 61q-9.5 29 -29 51q-19.5 22 -48 35q-28.5 13 -67.5 13q-27 0 -52 -8.5q-25 -8.5 -45.5 -22q-20.5 -13.5 -34 -31.5q-13.5 -18 -16.5 -37q26 5 43 -8q17 -13 17 -36q0 -20 -14 -32.5q-14 -12.5 -33 -12.5q-20 0 -34 15.5q-14 15.5 -14 41.5q0 27 15 56q15 29 42 53q27 24 64.5 39q37.5 15 82.5 15q51 0 88 -15.5q37 -15.5 61.5 -40.5q24.5 -25 36 -57q11.5 -32 11.5 -64q0 -49 -21 -100q-21 -51 -54 -100q-33 -49 -73.5 -94q-40.5 -45 -79.5 -82q-39 -37 -71.5 -64.5q-32.5 -27.5 -50.5 -40.5l351 0v98h28v-149l-438 0z" />
<glyph unicode="&#51;" horiz-adv-x="557" d="M253 372q27 0 51.5 12q24.5 12 44 33q19.5 21 31 50.5q11.5 29.5 11.5 64.5q0 75 -43.5 112q-43.5 37 -115.5 37q-24 0 -46.5 -6q-22.5 -6 -41 -15.5q-18.5 -9.5 -31.5 -22.5q-13 -13 -19 -26q24 0 37.5 -13q13.5 -13 13.5 -34q0 -15 -12.5 -28q-12.5 -13 -30.5 -13q-19 0 -31.5 12.5q-12.5 12.5 -12.5 34.5q0 24 15 49q15 25 41 45q26 20 62.5 32.5q36.5 12.5 78.5 12.5q94 0 147.5 -46q53.5 -46 53.5 -130q0 -27 -8.5 -53q-8.5 -26 -25.5 -48.5q-17 -22.5 -42.5 -40.5q-25.5 -18 -59.5 -27l0 -3q38 -3 68 -19q30 -16 51 -39.5q21 -23.5 32.5 -53q11.5 -29.5 11.5 -59.5q0 -46 -17.5 -83q-17.5 -37 -48 -62.5q-30.5 -25.5 -72.5 -39.5q-42 -14 -91 -14q-47 0 -85.5 13q-38.5 13 -67 34.5q-28.5 21.5 -44 48.5q-15.5 27 -15.5 55q0 20 12.5 33.5q12.5 13.5 31.5 13.5q23 0 34 -13q11 -13 11 -29q0 -17 -10.5 -32.5q-10.5 -15.5 -36.5 -17.5q6 -15 19.5 -29q13.5 -14 33.5 -25q20 -11 46 -17.5q26 -6.5 57 -6.5q41 0 74 12.5q33 12.5 56 35q23 22.5 35.5 53q12.5 30.5 12.5 65.5q0 35 -12 64q-12 29 -33.5 50q-21.5 21 -51 33q-29.5 12 -63.5 12h-57l0 28z" />
<glyph unicode="&#52;" horiz-adv-x="584" d="M361 219v209l51 22h7v-231h106v-30h-106v-189h-58v189h-326v19q50 42 96 101.5q46 59.5 83 126q37 66.5 62 135q25 68.5 32 129.5l74 0q-11 -62 -43.5 -132.5q-32.5 -70.5 -76 -136.5q-43.5 -66 -91.5 -122.5q-48 -56.5 -90 -89.5z" />
<glyph unicode="&#53;" horiz-adv-x="561" d="M155 409q17 7 40.5 11.5q23.5 4.5 55.5 4.5q51 0 94 -15q43 -15 74 -42q31 -27 48.5 -66q17.5 -39 17.5 -87q0 -51 -17.5 -92.5q-17.5 -41.5 -48 -71q-30.5 -29.5 -71 -45q-40.5 -15.5 -86.5 -15.5q-48 0 -87.5 13q-39.5 13 -68 33.5q-28.5 20.5 -44.5 46q-16 25.5 -16 51.5q0 23 14 37.5q14 14.5 36 14.5q19 0 31.5 -13.5q12.5 -13.5 12.5 -32.5q0 -18 -12.5 -32.5q-12.5 -14.5 -33.5 -17.5q12 -27 52.5 -49q40.5 -22 98.5 -22q38 0 70 13.5q32 13.5 55.5 38.5q23.5 25 36.5 59q13 34 13 75q0 40 -14 74.5q-14 34.5 -40 59.5q-26 25 -62 39q-36 14 -80 14q-31 0 -57 -6.5q-26 -6.5 -46 -15.5l42 329h294l10 77h28l-13 -130l-297 0z" />
<glyph unicode="&#54;" horiz-adv-x="608" d="M316 -9q-61 0 -108 20.5q-47 20.5 -79.5 56.5q-32.5 36 -49.5 85.5q-17 49.5 -17 108.5q0 91 30 171q30 80 82 140q52 60 121 96q69 36 147 39l-2 -28q-57 -8 -111 -37q-54 -29 -96.5 -77q-42.5 -48 -71 -114.5q-28.5 -66.5 -34.5 -149.5q10 27 28.5 51.5q18.5 24.5 43.5 42.5q25 18 56.5 28.5q31.5 10.5 67.5 10.5q51 0 90.5 -16q39.5 -16 66.5 -44.5q27 -28.5 41 -68.5q14 -40 14 -88q0 -47 -17.5 -88.5q-17.5 -41.5 -47 -72.5q-29.5 -31 -69.5 -48.5q-40 -17.5 -85 -17.5zt0 0zM311 19q33 0 62 14.5q29 14.5 51 40.5q22 26 35 61q13 35 13 77q0 40 -11 75q-11 35 -32.5 60q-21.5 25 -53 39.5q-31.5 14.5 -71.5 14.5q-39 0 -69.5 -13q-30.5 -13 -53 -33.5q-22.5 -20.5 -36 -46q-13.5 -25.5 -19.5 -50.5q0 -47 11 -90.5q11 -43.5 34 -76.5q23 -33 57.5 -52.5t82.5 -19.5z" />
<glyph unicode="&#55;" horiz-adv-x="520" d="M51 700h417v-22q-69 -114 -116.5 -205.5q-47.5 -91.5 -75.5 -171q-28 -79.5 -39 -152q-11 -72.5 -8 -149.5l-60 0q-2 68 9.5 132q11.5 64 41 137.5q29.5 73.5 77.5 163.5q48 90 119 211l-337 0v-104l-28 0z" />
<glyph unicode="&#56;" horiz-adv-x="634" d="M377 359q36 -4 66 -19q30 -15 51 -38q21 -23 33 -53q12 -30 12 -65q0 -46 -19 -82q-19 -36 -51.5 -60.5q-32.5 -24.5 -75 -37.5q-42.5 -13 -90.5 -13q-48 0 -90.5 13q-42.5 13 -75 37.5q-32.5 24.5 -51.5 59.5q-19 35 -19 80q0 31 11 60q11 29 31.5 52.5q20.5 23.5 50 40.5q29.5 17 67.5 24l0 3q-30 7 -55 24q-25 17 -43 39.5q-18 22.5 -28 49q-10 26.5 -10 53.5q0 42 16.5 75.5q16.5 33.5 45 57.5q28.5 24 67 36.5q38.5 12.5 82.5 12.5q45 0 83.5 -12.5q38.5 -12.5 67 -36q28.5 -23.5 45 -57.5q16.5 -34 16.5 -76q0 -26 -9 -51q-9 -25 -26.5 -47.5q-17.5 -22.5 -43 -40q-25.5 -17.5 -58.5 -26.5zM131 187q0 -38 14 -69q14 -31 38 -53q24 -22 55 -34q31 -12 65 -12q34 0 65 11.5q31 11.5 55 33q24 21.5 38 53q14 31.5 14 71.5q0 36 -12.5 65.5q-12.5 29.5 -33.5 50.5q-21 21 -49.5 32.5q-28.5 11.5 -61.5 11.5h-27q-33 0 -62.5 -13q-29.5 -13 -51 -35q-21.5 -22 -34 -51q-12.5 -29 -12.5 -62zt0 0zM319 372q23 0 47 11.5q24 11.5 43 31.5q19 20 31 47.5q12 27.5 12 60.5q0 38 -13 67.5q-13 29.5 -34 49.5q-21 20 -48 30.5q-27 10.5 -55 10.5q-29 0 -55.5 -10.5q-26.5 -10.5 -47.5 -30.5q-21 -20 -33.5 -49.5q-12.5 -29.5 -12.5 -67.5q0 -33 12 -60.5q12 -27.5 31.5 -48q19.5 -20.5 43 -31.5q23.5 -11 46.5 -11z" />
<glyph unicode="&#57;" horiz-adv-x="609" d="M156 20q66 9 122 38.5q56 29.5 97 77.5q41 48 66 113q25 65 30 145q-20 -55 -71 -89.5q-51 -34.5 -124 -34.5q-50 0 -90 17.5q-40 17.5 -68 47q-28 29.5 -43 68.5q-15 39 -15 83q0 47 18.5 88q18.5 41 50.5 71q32 30 74.5 47q42.5 17 90.5 17q59 0 104 -20.5q45 -20.5 75 -57q30 -36.5 45.5 -86q15.5 -49.5 15.5 -106.5q0 -95 -26.5 -175q-26.5 -80 -76 -139.5q-49.5 -59.5 -119.5 -94q-70 -34.5 -157 -37.5zM296 300q37 0 67 12q30 12 51.5 31.5q21.5 19.5 35.5 43.5q14 24 20 49q1 46 -9 89.5q-10 43.5 -31.5 77.5q-21.5 34 -55.5 54.5q-34 20.5 -82 20.5q-32 0 -62.5 -14q-30.5 -14 -54 -38.5q-23.5 -24.5 -37.5 -59q-14 -34.5 -14 -74.5q0 -38 11 -72.5q11 -34.5 33 -61q22 -26.5 54 -42.5t74 -16z" />
<glyph unicode="&#58;" horiz-adv-x="238" d="M76 36q0 17 11.5 30q11.5 13 31.5 13q18 0 30 -12q12 -12 12 -31q0 -17 -12 -29.5q-12 -12.5 -31 -12.5q-20 0 -31 12.5q-11 12.5 -11 29.5zt0 0zM76 407q0 17 11.5 30q11.5 13 31.5 13q18 0 30 -12q12 -12 12 -31q0 -17 -12 -29.5q-12 -12.5 -31 -12.5q-20 0 -31 12.5t-11 29.5z" />
<glyph unicode="&#59;" horiz-adv-x="229" d="M88 407q0 17 11.5 30q11.5 13 31.5 13q18 0 30 -12q12 -12 12 -31q0 -17 -12 -29.5q-12 -12.5 -31 -12.5q-20 0 -31 12.5q-11 12.5 -11 29.5zt0 0zM78 -125q12 3 25.5 10.5q13.5 7.5 25 20q11.5 12.5 19 29.5q7.5 17 7.5 39q0 15 -4 22q-4 7 -8 12q-5 -9 -19 -9q-17 0 -27.5 10.5q-10.5 10.5 -10.5 26.5q0 19 11 31q11 12 30 12q25 -1 43.5 -22.5q18.5 -21.5 18.5 -66.5q0 -51 -30 -88.5q-30 -37.5 -74 -47.5z" />
<glyph unicode="&#60;" horiz-adv-x="593" d="M479 130v-37l-398 260v18l398 258v-37l-353 -230z" />
<glyph unicode="&#61;" horiz-adv-x="593" d="M72 291h443v-31h-443zM72 460h443v-31l-443 0z" />
<glyph unicode="&#62;" horiz-adv-x="593" d="M109 130l353 232l-353 230v37l397 -258v-18l-397 -260z" />
<glyph unicode="&#63;" horiz-adv-x="495" d="M202 186q-9 30 -9 54q0 35 14 60.5q14 25.5 35 46.5q21 21 45.5 40.5q24.5 19.5 45.5 42q21 22.5 35 50.5q14 28 14 67q0 60 -40 97q-40 37 -110 37q-56 0 -95 -26q-39 -26 -49 -60q18 1 28.5 -10.5q10.5 -11.5 10.5 -27.5q0 -17 -11 -28.5q-11 -11.5 -27 -11.5q-16 0 -27 12q-11 12 -11 27q0 31 15 58.5q15 27.5 41 48.5q26 21 61 33.5q35 12.5 76 12.5q46 0 83 -12.5q37 -12.5 63 -34q26 -21.5 39.5 -51.5q13.5 -30 13.5 -65q0 -46 -16.5 -78q-16.5 -32 -41 -56.5q-24.5 -24.5 -53 -43q-28.5 -18.5 -53 -39q-24.5 -20.5 -41 -44.5q-16.5 -24 -16.5 -58q0 -8 1 -18q1 -10 3 -21zM177 36q0 17 11.5 30q11.5 13 31.5 13q18 0 30 -12q12 -12 12 -31q0 -17 -12 -29.5q-12 -12.5 -31 -12.5q-20 0 -31 12.5t-11 29.5z" />
<glyph unicode="&#64;" horiz-adv-x="1015" d="M654 87q-9 -15 -25 -29.5q-16 -14.5 -37 -26q-21 -11.5 -46.5 -18.5q-25.5 -7 -53.5 -7q-42 0 -78 14.5q-36 14.5 -62.5 42.5q-26.5 28 -42 67.5q-15.5 39.5 -15.5 90.5q0 49 18 90.5q18 41.5 49.5 71.5q31.5 30 75.5 46.5q44 16.5 97 16.5q48 0 90.5 -13q42.5 -13 76.5 -36l0 -355h27q43 0 79 18.5q36 18.5 61.5 50q25.5 31.5 40 73.5q14.5 42 14.5 90q0 78 -28.5 143.5q-28.5 65.5 -81 113.5q-52.5 48 -127 74.5q-74.5 26.5 -165.5 26.5q-90 0 -166.5 -31.5q-76.5 -31.5 -132.5 -86q-56 -54.5 -87.5 -129q-31.5 -74.5 -31.5 -160.5q0 -86 31.5 -160.5q31.5 -74.5 88 -129.5q56.5 -55 133.5 -86q77 -31 168 -31q26 0 54 3q28 3 54 9l5 -27q-27 -6 -57 -9.5q-30 -3.5 -59 -3.5q-98 0 -180.5 33.5q-82.5 33.5 -142 92.5q-59.5 59 -93 138q-33.5 79 -33.5 171q0 90 33.5 169.5q33.5 79.5 93 138.5q59.5 59 142 93q82.5 34 180.5 34q94 0 173.5 -28q79.5 -28 137 -78q57.5 -50 90 -120.5q32.5 -70.5 32.5 -155.5q0 -51 -14.5 -98.5q-14.5 -47.5 -45 -84.5q-30.5 -37 -77.5 -59.5q-47 -22.5 -111 -22.5h-52zM517 36q22 0 43 6.5q21 6.5 38.5 17q17.5 10.5 31 23.5q13.5 13 21.5 25l0 279q-32 18 -62.5 24q-30.5 6 -60.5 6q-38 0 -71.5 -13.5q-33.5 -13.5 -59 -39q-25.5 -25.5 -40 -62q-14.5 -36.5 -14.5 -81.5q0 -44 13.5 -78.5q13.5 -34.5 36.5 -58q23 -23.5 55 -36t69 -12.5z" />
<glyph unicode="&#65;" horiz-adv-x="739" d="M7 29h60l268 673h64l276 -673h61v-29h-204v29h80l-96 237h-317l-95 -237h86v-29h-183zM505 294l-118 289q-8 21 -17 45q-9 24 -14 34l-2 0q-4 -11 -13 -34q-9 -23 -17 -45l-116 -289z" />
<glyph unicode="&#66;" horiz-adv-x="656" d="M140 29v642h-83v29h83q15 0 41.5 0.5q26.5 0.5 57 1q30.5 0.5 61 1q30.5 0.5 52.5 0.5q63 0 105.5 -13.5q42.5 -13.5 68.5 -36.5q26 -23 37.5 -55q11.5 -32 11.5 -68q0 -36 -13 -65q-13 -29 -35 -50q-22 -21 -51 -33.5q-29 -12.5 -60 -15.5l0 -2q88 -8 137 -51.5q49 -43.5 49 -118.5q0 -52 -18.5 -89.5q-18.5 -37.5 -51.5 -61.5q-33 -24 -79 -35q-46 -11 -101 -11q-22 0 -52.5 0.5q-30.5 0.5 -61 1q-30.5 0.5 -57 1q-26.5 0.5 -41.5 0.5h-83v29zM199 344v-314q23 -1 64 -2q41 -1 76 -1q95 0 148 41.5q53 41.5 53 124.5q0 69 -51 110q-51 41 -152 41zM341 373q37 0 68 11q31 11 54 31.5q23 20.5 36 48.5q13 28 13 62q0 69 -41 108q-41 39 -138 39q-35 0 -73.5 0q-38.5 0 -60.5 -1l0 -299z" />
<glyph unicode="&#67;" horiz-adv-x="701" d="M614 189h32v-189h-32v65q-39 -36 -94 -55q-55 -19 -112 -19q-78 0 -143 25q-65 25 -111.5 71.5q-46.5 46.5 -72.5 113q-26 66.5 -26 149.5q0 75 25 140.5q25 65.5 70 114q45 48.5 108 76.5q63 28 140 28q66 0 117.5 -17q51.5 -17 93.5 -55l0 63h33v-178h-33l-3 78q-38 38 -84.5 57.5q-46.5 19.5 -108.5 19.5q-66 0 -119.5 -25q-53.5 -25 -92 -69q-38.5 -44 -59 -103.5q-20.5 -59.5 -20.5 -129.5q0 -74 22 -134q22 -60 61.5 -103q39.5 -43 94.5 -66.5q55 -23.5 121 -23.5q60 0 107.5 22q47.5 22 82.5 56z" />
<glyph unicode="&#68;" horiz-adv-x="788" d="M201 29q23 0 44.5 -0.5q21.5 -0.5 38.5 -0.5q17 0 27.5 -0.5q10.5 -0.5 12.5 -0.5q87 0 151 26.5q64 26.5 106.5 72q42.5 45.5 63.5 106q21 60.5 21 128.5q0 64 -19 121q-19 57 -59.5 100q-40.5 43 -104.5 68q-64 25 -154 25q-22 0 -38.5 -0.5q-16.5 -0.5 -31 -1q-14.5 -0.5 -28.5 -1q-14 -0.5 -30 -0.5zM143 29v642h-86v29h97q39 0 85 1.5q46 1.5 96 1.5q107 0 182.5 -28q75.5 -28 123.5 -75.5q48 -47.5 70 -109.5q22 -62 22 -130q0 -75 -24.5 -141q-24.5 -66 -75 -115q-50.5 -49 -128 -77.5q-77.5 -28.5 -182.5 -28.5q-39 0 -85 1q-46 1 -88 1h-93l0 29z" />
<glyph unicode="&#69;" horiz-adv-x="624" d="M57 29h86v642h-86v29h495v-178h-32l-7 149h-312v-301h233v-28h-233v-313h321l6 155h33v-184l-504 0z" />
<glyph unicode="&#70;" horiz-adv-x="600" d="M57 29h83v642h-83v29h500v-178h-32l-7 149h-319v-321h259v-29h-259v-292h120v-29l-262 0z" />
<glyph unicode="&#71;" horiz-adv-x="739" d="M673 324v-324h-32v72q-47 -40 -112 -60.5q-65 -20.5 -124 -20.5q-80 0 -144.5 25.5q-64.5 25.5 -110.5 72.5q-46 47 -70.5 113q-24.5 66 -24.5 148q0 76 25 141.5q25 65.5 70 114q45 48.5 108 76q63 27.5 139 27.5q132 0 214 -73l0 56h33v-183h-33l-3 94q-38 36 -85 55q-47 19 -107 19q-67 0 -121.5 -25q-54.5 -25 -92.5 -69q-38 -44 -59 -104q-21 -60 -21 -129q0 -72 21 -132.5q21 -60.5 60 -103.5q39 -43 94 -67q55 -24 123 -24q31 0 62.5 6q31.5 6 60.5 17.5q29 11.5 54.5 27q25.5 15.5 43.5 34.5l0 180l-213 7l0 29z" />
<glyph unicode="&#72;" horiz-adv-x="849" d="M57 29h83v642h-83v29h222v-29h-80v-301h452v301h-81v29h223v-29h-83v-642h83v-29h-223v29h81v312h-452v-312h80v-29l-222 0z" />
<glyph unicode="&#73;" horiz-adv-x="357" d="M63 29h87v642h-87v29h231v-29h-85v-642h85v-29l-231 0z" />
<glyph unicode="&#74;" horiz-adv-x="373" d="M187 671h-103v29h246v-29h-84v-511q0 -39 -6.5 -70.5q-6.5 -31.5 -22.5 -53.5q-16 -22 -43.5 -33.5q-27.5 -11.5 -69.5 -11.5q-29 0 -56 8.5q-27 8.5 -42 19.5l13 25q10 -8 28.5 -14.5q18.5 -6.5 42.5 -6.5q29 0 48 10q19 10 30 27.5q11 17.5 15 41q4 23.5 4 51.5z" />
<glyph unicode="&#75;" horiz-adv-x="715" d="M57 29h83v642h-83v29h210v-29h-68v-642h78v-29h-220zM245 357l316 314h-68v29h180v-29h-66l-304 -296l329 -346h66v-29l-117 0z" />
<glyph unicode="&#76;" horiz-adv-x="605" d="M57 29h83v642h-83v29h238v-29h-96v-642h334l6 151h33v-180l-515 0z" />
<glyph unicode="&#77;" horiz-adv-x="937" d="M57 29h86v642h-86v29h147l270 -398l265 398h142v-29h-83v-642h83v-29h-226v29h84v612l-276 -415h-8l-278 412v-609h81v-29l-201 0z" />
<glyph unicode="&#78;" horiz-adv-x="833" d="M57 29h83v642h-83v29h135l480 -623v594h-82v29h200v-29h-87v-671h-46l-486 629v-600h88v-29l-202 0z" />
<glyph unicode="&#79;" horiz-adv-x="819" d="M409 -12q-76 0 -140.5 25.5q-64.5 25.5 -112 72.5q-47.5 47 -74.5 114q-27 67 -27 150q0 81 26.5 147.5q26.5 66.5 74 114.5q47.5 48 112 74q64.5 26 141.5 26q77 0 142 -25.5q65 -25.5 112.5 -72.5q47.5 -47 74 -114q26.5 -67 26.5 -150q0 -82 -26.5 -148.5q-26.5 -66.5 -74 -114q-47.5 -47.5 -112.5 -73.5q-65 -26 -142 -26zt0 0zM411 19q64 0 116.5 24q52.5 24 90 67.5q37.5 43.5 58.5 104.5q21 61 21 135q0 75 -21.5 136q-21.5 61 -60 104.5q-38.5 43.5 -91 67q-52.5 23.5 -115.5 23.5q-63 0 -115.5 -23.5q-52.5 -23.5 -90.5 -67q-38 -43.5 -59.5 -104.5q-21.5 -61 -21.5 -136q0 -74 22 -135q22 -61 60.5 -104.5q38.5 -43.5 91.5 -67.5t115 -24z" />
<glyph unicode="&#80;" horiz-adv-x="630" d="M57 29h86v642h-86v29h86q15 0 39.5 0.5q24.5 0.5 51.5 0.5q27 0 51.5 0.5q24.5 0.5 39.5 0.5q75 0 124 -17.5q49 -17.5 78 -47q29 -29.5 41 -67q12 -37.5 12 -77.5q0 -42 -15 -79.5q-15 -37.5 -46 -66.5q-31 -29 -79 -46q-48 -17 -114 -17q-26 0 -60 1.5q-34 1.5 -65 3.5l0 -260h111v-29h-255zM201 318q31 -3 56.5 -4q25.5 -1 54.5 -1q55 0 93.5 14q38.5 14 63.5 39q25 25 36.5 58q11.5 33 11.5 71q0 37 -11.5 69.5q-11.5 32.5 -35.5 56.5q-24 24 -61.5 38q-37.5 14 -89.5 14q-12 0 -27.5 0q-15.5 0 -32 -0.5q-16.5 -0.5 -32 -1q-15.5 -0.5 -26.5 -0.5z" />
<glyph unicode="&#81;" horiz-adv-x="819" d="M867 -136q-32 -38 -76 -56q-44 -18 -89 -18q-38 0 -69 12.5q-31 12.5 -66 37q-35 24.5 -79 62q-44 37.5 -107 87.5q-70 3 -130 30q-60 27 -103.5 74q-43.5 47 -68 112q-24.5 65 -24.5 145q0 81 26.5 147.5q26.5 66.5 74 114.5q47.5 48 112 74q64.5 26 141.5 26q77 0 142 -25.5q65 -25.5 112.5 -72.5q47.5 -47 74 -114q26.5 -67 26.5 -150q0 -78 -24 -143q-24 -65 -67.5 -112q-43.5 -47 -104 -75q-60.5 -28 -132.5 -32q49 -38 88.5 -68q39.5 -30 73 -51q33.5 -21 62 -31.5q28.5 -10.5 56.5 -10.5q41 0 76.5 14q35.5 14 64.5 44zM411 19q63 0 116 24q53 24 90.5 68q37.5 44 58.5 104.5q21 60.5 21 134.5q0 75 -21.5 136q-21.5 61 -60 104.5q-38.5 43.5 -91 67q-52.5 23.5 -115.5 23.5q-63 0 -115.5 -23.5q-52.5 -23.5 -90.5 -67q-38 -43.5 -59.5 -104.5q-21.5 -61 -21.5 -136q0 -74 22 -135q22 -61 60.5 -104.5q38.5 -43.5 91.5 -67.5t115 -24z" />
<glyph unicode="&#82;" horiz-adv-x="687" d="M57 29h86v642h-86v29h86q15 0 42 0.5q27 0.5 55 0.5q28 0 51.5 0.5q23.5 0.5 31.5 0.5q72 0 119.5 -16.5q47.5 -16.5 76.5 -44q29 -27.5 41 -63.5q12 -36 12 -75q0 -36 -13.5 -67.5q-13.5 -31.5 -37 -56.5q-23.5 -25 -56 -42.5q-32.5 -17.5 -71.5 -25.5l228 -282h62v-29h-111l-231 302h-141v-273h76v-29h-220zM325 331q36 0 69 13q33 13 58.5 36q25.5 23 41 54.5q15.5 31.5 15.5 68.5q0 37 -10.5 68.5q-10.5 31.5 -34.5 54q-24 22.5 -62.5 35q-38.5 12.5 -93.5 12.5q-7 0 -20.5 0q-13.5 0 -28.5 -0.5q-15 -0.5 -30.5 -1q-15.5 -0.5 -27.5 -0.5l0 -340z" />
<glyph unicode="&#83;" horiz-adv-x="563" d="M67 0v189h32l4 -61q22 -45 70 -75q48 -30 108 -30q33 0 63 8.5q30 8.5 52.5 25.5q22.5 17 36 43q13.5 26 13.5 61q0 53 -27.5 85q-27.5 32 -69 53.5q-41.5 21.5 -89.5 39q-48 17.5 -89.5 41.5q-41.5 24 -69 60q-27.5 36 -27.5 96q0 36 13 68q13 32 38.5 55q25.5 23 63 36.5q37.5 13.5 87.5 13.5q48 0 92.5 -18.5q44.5 -18.5 74.5 -54.5l0 64h32v-172h-32l-3 60q-25 47 -67.5 68q-42.5 21 -94.5 21q-68 0 -107 -36q-39 -36 -39 -93q0 -50 27.5 -80.5q27.5 -30.5 69 -51.5q41.5 -21 89.5 -38.5q48 -17.5 89.5 -42.5q41.5 -25 69 -63q27.5 -38 27.5 -100q0 -42 -16 -75.5q-16 -33.5 -43.5 -57q-27.5 -23.5 -64 -36q-36.5 -12.5 -77.5 -12.5q-66 0 -120 23.5q-54 23.5 -84 62.5l0 -77z" />
<glyph unicode="&#84;" horiz-adv-x="642" d="M196 29h96v642h-223l-7 -149h-32v178h582v-178h-32l-7 149h-223v-642h96v-29l-250 0z" />
<glyph unicode="&#85;" horiz-adv-x="771" d="M626 671h-97v29h207v-29h-79v-374q0 -82 -20 -140q-20 -58 -54.5 -94.5q-34.5 -36.5 -82.5 -53.5q-48 -17 -103 -17q-63 0 -114.5 19.5q-51.5 19.5 -88 58q-36.5 38.5 -57 96q-20.5 57.5 -20.5 134.5v371h-82v29h230v-29h-89v-366q0 -66 17 -117q17 -51 47.5 -85.5q30.5 -34.5 73.5 -52.5q43 -18 94 -18q47 0 87 16q40 16 69 49q29 33 45.5 83.5q16.5 50.5 16.5 120.5z" />
<glyph unicode="&#86;" horiz-adv-x="738" d="M67 671h-63v29h213v-29h-86l262 -607l246 607h-98v29h193v-29h-60l-276 -677l-39 0z" />
<glyph unicode="&#87;" horiz-adv-x="1005" d="M59 671h-55v29h201v-29h-82l165 -581l214 610h28l215 -614l166 585h-90v29h180v-29h-55l-195 -671h-34l-216 612l-215 -612l-32 0z" />
<glyph unicode="&#88;" horiz-adv-x="718" d="M16 29h59l251 322l-247 320h-59v29h206v-29h-75l217 -281l214 281h-86v29h187v-29h-57l-240 -306l259 -336h57v-29h-206v29h78l-229 296l-226 -296h86v-29l-189 0z" />
<glyph unicode="&#89;" horiz-adv-x="663" d="M205 29h96v279l-239 363h-57v29h199v-29h-77l214 -333l215 333h-84v29h186v-29h-60l-238 -363v-279h94v-29l-249 0z" />
<glyph unicode="&#90;" horiz-adv-x="636" d="M40 17l469 654h-407l-7 -149h-32v178h527v-17l-469 -654h425l6 161h33v-190l-545 0z" />
<glyph unicode="&#91;" horiz-adv-x="349" d="M60 650h230v-29h-174v-792h174v-29l-230 0z" />
<glyph unicode="&#92;" horiz-adv-x="318" d="M-30 700l28 9l331 -907l-28 -10z" />
<glyph unicode="&#93;" horiz-adv-x="349" d="M5 -171h174v792h-174v29h229v-850l-229 0z" />
<glyph unicode="&#94;" horiz-adv-x="498" d="M228 708h21l176 -258h-41l-145 220l-147 -220l-41 0z" />
<glyph unicode="&#95;" horiz-adv-x="332" d="M0 -170h281v-30l-281 0z" />
<glyph unicode="&#96;" horiz-adv-x="300" d="M56 683l37 30l104 -151l-19 -12z" />
<glyph unicode="&#97;" horiz-adv-x="497" d="M355 306q0 64 -28.5 95.5q-28.5 31.5 -88.5 31.5q-46 0 -76 -13.5q-30 -13.5 -42 -26.5q12 -2 22 -12.5q10 -10.5 10 -27.5q0 -15 -10.5 -25q-10.5 -10 -26.5 -10q-16 0 -25.5 11.5q-9.5 11.5 -9.5 28.5q0 19 13.5 37q13.5 18 36.5 32q23 14 53.5 23q30.5 9 65.5 9q79 0 117 -40.5q38 -40.5 38 -116.5q0 -8 0 -32.5q0 -24.5 -0.5 -57q-0.5 -32.5 -1 -67q-0.5 -34.5 -0.5 -62.5q0 -21 3.5 -37q3.5 -16 23.5 -16q15 0 37 13l13 -25q-17 -16 -34.5 -21q-17.5 -5 -28.5 -5q-14 0 -28 5.5q-14 5.5 -23 22.5q-6 11 -8 25.5q-2 14.5 -2 33.5q-11 -16 -25.5 -31.5q-14.5 -15.5 -35 -28q-20.5 -12.5 -46.5 -20q-26 -7.5 -60 -7.5q-29 0 -55 8.5q-26 8.5 -45 25q-19 16.5 -30 40q-11 23.5 -11 53.5q0 31 12.5 56q12.5 25 35.5 41.5q23 16.5 55 25.5q32 9 71 9q14 0 32 -2q18 -2 36.5 -6q18.5 -4 35.5 -9.5q17 -5.5 29 -12.5q1 17 1 36q0 19 0 49zt0 0zM99 125q0 -24 9 -43q9 -19 24 -32q15 -13 35 -20q20 -7 42 -7q30 0 53 7.5q23 7.5 40.5 19q17.5 11.5 30 25.5q12.5 14 20.5 27l1 97q-26 14 -58.5 22q-32.5 8 -67.5 8q-25 0 -48 -6.5q-23 -6.5 -41 -20q-18 -13.5 -29 -33t-11 -44.5z" />
<glyph unicode="&#98;" horiz-adv-x="567" d="M21 700h116v-310q26 29 71 49q45 20 94 20q51 0 91.5 -17q40.5 -17 68.5 -47q28 -30 42.5 -71.5q14.5 -41.5 14.5 -91.5q0 -54 -17.5 -98.5q-17.5 -44.5 -50 -76q-32.5 -31.5 -78.5 -49q-46 -17.5 -102 -17.5q-118 0 -183 59l0 620h-67zM137 65q35 -25 68 -33.5q33 -8.5 68 -8.5q41 0 76.5 14.5q35.5 14.5 61 41.5q25.5 27 40 65q14.5 38 14.5 85q0 91 -44.5 144.5q-44.5 53.5 -129.5 53.5q-25 0 -48.5 -6.5q-23.5 -6.5 -44 -16.5q-20.5 -10 -36.5 -22.5q-16 -12.5 -25 -25.5z" />
<glyph unicode="&#99;" horiz-adv-x="502" d="M48 225q0 49 17 92q17 43 48 74.5q31 31.5 73 49.5q42 18 93 18q37 0 70 -10q33 -10 57.5 -26.5q24.5 -16.5 38.5 -38q14 -21.5 14 -45.5q0 -21 -11.5 -32.5q-11.5 -11.5 -27.5 -11.5q-17 0 -27 11q-10 11 -10 26q0 13 10.5 25.5q10.5 12.5 27.5 13.5q-6 10 -18 20.5q-12 10.5 -29.5 19q-17.5 8.5 -39 14q-21.5 5.5 -46.5 5.5q-39 0 -73 -15q-34 -15 -59 -42q-25 -27 -39.5 -64q-14.5 -37 -14.5 -81q0 -48 15 -86q15 -38 41.5 -65q26.5 -27 63 -41q36.5 -14 80.5 -14q42 0 80.5 18.5q38.5 18.5 61.5 47.5l19 -13q-29 -43 -76 -63.5q-47 -20.5 -99 -20.5q-53 0 -97.5 16.5q-44.5 16.5 -76 47q-31.5 30.5 -49 74t-17.5 96.5z" />
<glyph unicode="&#100;" horiz-adv-x="578" d="M546 30v-30h-114v73q-23 -32 -67 -56.5q-44 -24.5 -97 -24.5q-49 0 -89.5 16.5q-40.5 16.5 -69.5 46.5q-29 30 -45 72.5q-16 42.5 -16 95.5q0 53 18.5 96.5q18.5 43.5 51 74.5q32.5 31 77.5 48q45 17 98 17q43 0 76.5 -10.5q33.5 -10.5 62.5 -31.5l0 253h-68v30h117v-670zM285 24q24 0 47 7q23 7 42.5 17.5q19.5 10.5 34 23.5q14.5 13 23.5 25l0 290q-36 27 -70.5 35q-34.5 8 -63.5 8q-42 0 -78 -15.5q-36 -15.5 -62.5 -42.5q-26.5 -27 -41 -64.5q-14.5 -37.5 -14.5 -82.5q0 -92 49 -146.5t134 -54.5z" />
<glyph unicode="&#101;" horiz-adv-x="536" d="M102 222q0 -43 14 -79.5q14 -36.5 39 -63q25 -26.5 61 -41.5q36 -15 81 -15q51 0 90.5 18q39.5 18 62.5 45l17 -19q-25 -31 -72.5 -53.5q-47.5 -22.5 -110.5 -22.5q-53 0 -96 16.5q-43 16.5 -74.5 47.5q-31.5 31 -48.5 75.5q-17 44.5 -17 99.5q0 47 15 89q15 42 44.5 73q29.5 31 71.5 49q42 18 96 18q49 0 88 -14.5q39 -14.5 66.5 -41q27.5 -26.5 42 -64q14.5 -37.5 14.5 -83.5q0 -19 -3 -34zM437 249q2 81 -39 131q-41 50 -119 50q-41 0 -73 -14q-32 -14 -54.5 -38.5q-22.5 -24.5 -35 -57.5q-12.5 -33 -14.5 -71z" />
<glyph unicode="&#102;" horiz-adv-x="344" d="M53 30h67v390h-67v30h67v73q0 94 41 140q41 46 119 46q30 0 54 -9q24 -9 41.5 -23.5q17.5 -14.5 26.5 -33q9 -18.5 9 -37.5q0 -18 -10 -28q-10 -10 -25 -10q-16 0 -26 9.5q-10 9.5 -10 24.5q0 14 9 24q9 10 23 14q-7 14 -30.5 28q-23.5 14 -55.5 14q-60 0 -89 -39q-29 -39 -29 -125v-68h156v-30h-156v-390h104v-30l-219 0z" />
<glyph unicode="&#103;" horiz-adv-x="508" d="M251 142q-30 0 -54 6q-7 -9 -10 -19.5q-3 -10.5 -3 -21.5q0 -11 3.5 -23q3.5 -12 11.5 -21q13 1 26.5 2q13.5 1 28.5 1q103 0 165 -34q62 -34 62 -103q0 -34 -16 -59.5q-16 -25.5 -46 -43q-30 -17.5 -72.5 -26q-42.5 -8.5 -94.5 -8.5q-106 0 -168 34q-62 34 -62 103q0 52 38.5 85.5q38.5 33.5 111.5 45.5q-14 20 -14 48q0 25 14 47q-53 18 -79.5 57q-26.5 39 -26.5 87q0 34 12.5 63q12.5 29 36 50.5q23.5 21.5 58 34q34.5 12.5 78.5 12.5q35 0 68.5 -11.5q33.5 -11.5 59.5 -33.5q28 8 45 22q17 14 21 28q-19 0 -29.5 11q-10.5 11 -10.5 25q0 13 9 23.5q9 10.5 26 10.5q16 0 26.5 -10.5q10.5 -10.5 10.5 -31.5q0 -26 -21.5 -52.5q-21.5 -26.5 -62.5 -38.5q19 -20 30 -45.5q11 -25.5 11 -56.5q0 -68 -48 -111.5q-48 -43.5 -135 -45.5zt0 0zM252 -184q78 0 127 28.5q49 28.5 49 84.5q0 54 -48.5 83.5q-48.5 29.5 -127.5 29.5q-39 0 -71.5 -7q-32.5 -7 -56 -21.5q-23.5 -14.5 -37 -35.5q-13.5 -21 -13.5 -49q0 -55 49.5 -84q49.5 -29 128.5 -29zt0 0zM251 169q30 0 54.5 9.5q24.5 9.5 42 27q17.5 17.5 27.5 41q10 23.5 10 52.5q0 29 -9.5 53.5q-9.5 24.5 -27.5 42q-18 17.5 -42.5 27.5q-24.5 10 -54.5 10q-61 0 -98.5 -37q-37.5 -37 -37.5 -96q0 -28 10 -52q10 -24 28 -41q18 -17 43 -27t55 -10z" />
<glyph unicode="&#104;" horiz-adv-x="601" d="M45 30h61v640h-67v30h116v-322q13 16 32 30.5q19 14.5 41.5 25.5q22.5 11 47.5 17.5q25 6.5 49 6.5q94 0 137.5 -48.5q43.5 -48.5 43.5 -154.5v-225h56v-30h-160v30h55v224q0 86 -34 128q-34 42 -113 42q-25 0 -48.5 -6.5q-23.5 -6.5 -44 -17q-20.5 -10.5 -36.5 -24q-16 -13.5 -26 -26.5l0 -320h51v-30l-161 0z" />
<glyph unicode="&#105;" horiz-adv-x="273" d="M53 30h63v390h-63v30h111v-420h66v-30h-177zM137 596q-16 0 -27.5 11q-11.5 11 -11.5 29q0 17 11.5 28q11.5 11 27.5 11q15 0 27 -11q12 -11 12 -28q0 -18 -12 -29t-27 -11z" />
<glyph unicode="&#106;" horiz-adv-x="262" d="M48 450h116v-483q0 -83 -35.5 -129q-35.5 -46 -98.5 -46q-26 0 -48.5 8.5q-22.5 8.5 -39.5 22.5q-17 14 -27 32q-10 18 -10 37q0 17 9 27.5q9 10.5 25 10.5q16 0 24.5 -10.5q8.5 -10.5 8.5 -23.5q0 -12 -9 -22q-9 -10 -24 -12q6 -15 27 -29.5q21 -14.5 53 -14.5q50 0 74 37.5q24 37.5 24 100.5v161v303h-69zM140 596q-16 0 -27.5 11q-11.5 11 -11.5 29q0 17 11.5 28q11.5 11 27.5 11q15 0 27 -11q12 -11 12 -28q0 -18 -12 -29t-27 -11z" />
<glyph unicode="&#107;" horiz-adv-x="503" d="M36 30h64v640h-67v30h115v-670h47v-30h-159zM184 231l194 189h-63v30h156v-30h-47l-189 -180l199 -210h48v-30l-89 0z" />
<glyph unicode="&#108;" horiz-adv-x="280" d="M278 24q-16 -13 -39.5 -21q-23.5 -8 -52.5 -8q-53 0 -77 29.5q-24 29.5 -24 90.5v555h-67v30h116v-568q0 -53 15.5 -79q15.5 -26 55.5 -26q18 0 35.5 6q17.5 6 28.5 14z" />
<glyph unicode="&#109;" horiz-adv-x="857" d="M53 30h65v390h-65v30h114v-71q12 17 29 31.5q17 14.5 38 25q21 10.5 44.5 16.5q23.5 6 46.5 6q48 0 85.5 -22.5q37.5 -22.5 51.5 -68.5q22 40 67.5 65.5q45.5 25.5 95.5 25.5q30 0 56 -8q26 -8 46 -27q20 -19 31.5 -50.5q11.5 -31.5 11.5 -77.5v-265h63v-30h-164v30h52v259q0 70 -29.5 102.5q-29.5 32.5 -83.5 32.5q-51 0 -86 -22.5q-35 -22.5 -55 -57.5q1 -4 1 -10q0 -6 0 -11v-293h52v-30h-153v30h53v284q0 48 -29.5 79q-29.5 31 -82.5 31q-50 0 -86 -23q-36 -23 -55 -52l0 -319h54v-30l-168 0z" />
<glyph unicode="&#110;" horiz-adv-x="611" d="M53 30h66v390h-66v30h115v-73q13 17 33 32q20 15 44.5 26q24.5 11 51 17q26.5 6 52.5 6q88 0 128.5 -47q40.5 -47 40.5 -139v-242h63v-30h-167v30h55v223q0 88 -34 129.5q-34 41.5 -117 41.5q-25 0 -48 -6.5q-23 -6.5 -42.5 -17q-19.5 -10.5 -35 -24q-15.5 -13.5 -24.5 -26.5l0 -320h54v-30l-169 0z" />
<glyph unicode="&#111;" horiz-adv-x="573" d="M287 -10q-56 0 -100.5 17.5q-44.5 17.5 -75.5 49q-31 31.5 -47.5 74.5q-16.5 43 -16.5 94q0 51 17 94q17 43 48 74.5q31 31.5 75.5 49q44.5 17.5 99.5 17.5q55 0 99 -17.5q44 -17.5 75.5 -49q31.5 -31.5 48.5 -74.5q17 -43 17 -94q0 -51 -17 -94q-17 -43 -48.5 -74.5q-31.5 -31.5 -75.5 -49q-44 -17.5 -99 -17.5zt0 0zM287 19q85 0 135 55q50 55 50 151q0 45 -13 83q-13 38 -37.5 65q-24.5 27 -58.5 42.5q-34 15.5 -76 15.5q-42 0 -76.5 -15q-34.5 -15 -58.5 -42.5q-24 -27.5 -37.5 -65.5q-13.5 -38 -13.5 -83q0 -45 13 -83q13 -38 37.5 -65q24.5 -27 59 -42.5t76.5 -15.5z" />
<glyph unicode="&#112;" horiz-adv-x="587" d="M48 -170h59v590h-59v30h107v-71q27 36 74 58q47 22 98 22q51 0 90.5 -17q39.5 -17 66.5 -47q27 -30 41 -71.5q14 -41.5 14 -91.5q0 -53 -16 -97q-16 -44 -46 -76q-30 -32 -73.5 -50q-43.5 -18 -97.5 -18q-43 0 -81.5 10.5q-38.5 10.5 -67.5 31.5l0 -203h75v-30h-184zM157 66q35 -26 72 -35.5q37 -9.5 72 -9.5q43 0 77.5 15.5q34.5 15.5 58.5 43q24 27.5 37 66q13 38.5 13 83.5q0 88 -45.5 142q-45.5 54 -130.5 54q-25 0 -49 -6q-24 -6 -44 -16q-20 -10 -36 -23q-16 -13 -25 -26z" />
<glyph unicode="&#113;" horiz-adv-x="562" d="M349 -170h81v234q-23 -30 -67.5 -51.5q-44.5 -21.5 -95.5 -21.5q-48 0 -88.5 16q-40.5 16 -70 45.5q-29.5 29.5 -45.5 72.5q-16 43 -16 97q0 53 18.5 97q18.5 44 52.5 75.5q34 31.5 80.5 48.5q46.5 17 102.5 17q52 0 98 -12q46 -12 80 -34l0 -584h55v-30h-185zM282 23q24 0 47 6.5q23 6.5 42.5 16.5q19.5 10 35 22q15.5 12 23.5 24l0 300q-33 20 -67 27.5q-34 7.5 -64 7.5q-41 0 -77.5 -14.5q-36.5 -14.5 -63.5 -41q-27 -26.5 -43 -64q-16 -37.5 -16 -82.5q0 -94 49 -148t134 -54z" />
<glyph unicode="&#114;" horiz-adv-x="408" d="M53 30h65v390h-65v30h114v-68q19 31 50 53.5q31 22.5 73 22.5q38 0 64 -19q26 -19 26 -48q0 -20 -11 -29q-11 -9 -25 -9q-15 0 -24.5 10q-9.5 10 -9.5 24q0 10 5.5 17.5q5.5 7.5 12.5 10.5q-5 5 -17.5 9q-12.5 4 -29.5 4q-42 1 -70 -26q-28 -27 -44 -62l0 -310h85v-30l-199 0z" />
<glyph unicode="&#115;" horiz-adv-x="421" d="M63 87q16 -29 54 -49.5q38 -20.5 92 -20.5q45 0 78 21.5q33 21.5 33 67.5q0 32 -19 50.5q-19 18.5 -48 31q-29 12.5 -62 23q-33 10.5 -62 26q-29 15.5 -48 40.5q-19 25 -19 66q0 52 40 84.5q40 32.5 108 32.5q31 0 59.5 -8q28.5 -8 49.5 -21.5q21 -13.5 33.5 -31.5q12.5 -18 12.5 -39q0 -17 -10.5 -26.5q-10.5 -9.5 -24.5 -9.5q-15 0 -24.5 9.5q-9.5 9.5 -9.5 24.5q0 13 8.5 21.5q8.5 8.5 20.5 11.5q-8 14 -38.5 30q-30.5 16 -70.5 16q-48 0 -76.5 -25q-28.5 -25 -28.5 -58q0 -36 19 -56.5q19 -20.5 48 -34q29 -13.5 62 -23.5q33 -10 62 -24.5q29 -14.5 48 -37.5q19 -23 19 -62q0 -31 -13 -54.5q-13 -23.5 -35 -39.5q-22 -16 -52 -24q-30 -8 -64 -8q-59 0 -103 25.5q-44 25.5 -60 59.5z" />
<glyph unicode="&#116;" horiz-adv-x="363" d="M337 25q-14 -13 -39.5 -22q-25.5 -9 -55.5 -9q-78 0 -111 42.5q-33 42.5 -33 126.5v257h-68v30h68v116h50v-116h177v-30h-177v-249q0 -71 25 -108q25 -37 87 -37q19 0 37.5 6q18.5 6 29.5 15z" />
<glyph unicode="&#117;" horiz-adv-x="585" d="M439 420h-62v30h111v-420h59v-30h-107v83q-13 -18 -31.5 -34.5q-18.5 -16.5 -41.5 -29q-23 -12.5 -49 -20.5q-26 -8 -53 -8q-88 0 -131 48.5q-43 48.5 -41 151.5q0 6 0 23.5q0 17.5 0 41q0 23.5 0.5 50q0.5 26.5 0.5 50q0 23.5 0 41q0 17.5 0 23.5l-59 0v30h109q0 -6 0 -26q0 -20 0 -46.5q0 -26.5 -0.5 -57q-0.5 -30.5 -0.5 -57q0 -26.5 0 -46q0 -19.5 0 -25.5q-1 -85 32 -127q33 -42 109 -42q26 0 50 7.5q24 7.5 44 19q20 11.5 35.5 25.5q15.5 14 25.5 28z" />
<glyph unicode="&#118;" horiz-adv-x="516" d="M49 420h-47v30h159v-30h-59l74 -174q31 -74 54 -125q23 -51 36 -84q14 32 35.5 82.5q21.5 50.5 55.5 126.5l76 174h-67v30h149v-30h-48l-189 -426l-39 0z" />
<glyph unicode="&#119;" horiz-adv-x="734" d="M46 420h-42v30h156v-30h-64l57 -183q7 -22 16 -50q9 -28 17 -55.5q8 -27.5 15 -50.5q7 -23 11 -36q4 13 13.5 37.5q9.5 24.5 20.5 53q11 28.5 21.5 56.5q10.5 28 17.5 49l73 209h35l76 -210q8 -22 18.5 -51q10.5 -29 21 -57.5q10.5 -28.5 18.5 -52.5q8 -24 12 -35q4 12 12 36q8 24 17 52.5q9 28.5 18 56.5q9 28 15 47l56 184h-68v30h142v-30h-43l-133 -426h-41l-77 211q-9 23 -19.5 51q-10.5 28 -20.5 55q-10 27 -18 48.5q-8 21.5 -12 31.5q-3 -9 -11 -31.5q-8 -22.5 -18 -49.5q-10 -27 -20.5 -55.5q-10.5 -28.5 -17.5 -49.5l-78 -211l-39 0z" />
<glyph unicode="&#120;" horiz-adv-x="500" d="M62 30l165 197l-160 193h-42v30h167v-30h-65l137 -164l134 164h-58v30h138v-30h-39l-156 -187l168 -203h37v-30h-159v30h62l-145 174l-144 -174h63v-30h-149l0 30z" />
<glyph unicode="&#121;" horiz-adv-x="518" d="M48 420h-38v30h156v-30h-61l148 -301q8 -19 18.5 -39.5q10.5 -20.5 15.5 -33.5q5 14 14 36.5q9 22.5 16 37.5l121 300h-67v30h138v-30h-37l-182 -438q-22 -54 -42.5 -89q-20.5 -35 -41 -55.5q-20.5 -20.5 -41.5 -29q-21 -8.5 -44 -8.5q-29 0 -51.5 14q-22.5 14 -22.5 42q0 17 10 27q10 10 27 10q17 0 25.5 -10.5q8.5 -10.5 8.5 -23.5q0 -10 -6 -18q-6 -8 -14 -11q5 -3 12 -4.5q7 -1.5 12 -1.5q37 -1 69 33.5q32 34.5 65 115.5l9 24z" />
<glyph unicode="&#122;" horiz-adv-x="476" d="M48 18l314 402h-266l-7 -106h-33v136h372v-18l-315 -402h276l7 112h33v-142l-381 0z" />
<glyph unicode="&#123;" horiz-adv-x="353" d="M288 -171v-29h-57q-64 0 -92.5 30.5q-28.5 30.5 -28.5 95.5v185q0 30 -8.5 50q-8.5 20 -22 31q-13.5 11 -29 15.5q-15.5 4.5 -30.5 4.5l0 26q13 0 29 4.5q16 4.5 29.5 17q13.5 12.5 22.5 34q9 21.5 9 54.5v174q0 60 25.5 94q25.5 34 90.5 34h62v-29h-42q-46 0 -65 -23.5q-19 -23.5 -19 -75.5v-173q0 -51 -21.5 -84.5q-21.5 -33.5 -56.5 -38.5q34 -5 56 -35.5q22 -30.5 22 -87.5v-178q0 -53 22.5 -74.5q22.5 -21.5 65.5 -21.5z" />
<glyph unicode="&#124;" horiz-adv-x="307" d="M139 700h30v-700l-30 0z" />
<glyph unicode="&#125;" horiz-adv-x="353" d="M20 -171h38q44 0 66 21.5q22 21.5 22 74.5v178q0 57 22 87.5q22 30.5 56 35.5q-35 5 -56.5 38.5q-21.5 33.5 -21.5 84.5v173q0 52 -19 75.5q-19 23.5 -64 23.5h-43v29h61q66 0 91.5 -34q25.5 -34 25.5 -94v-174q0 -33 9 -54.5q9 -21.5 22.5 -34q13.5 -12.5 29 -17q15.5 -4.5 29.5 -4.5l0 -26q-15 0 -30.5 -4.5q-15.5 -4.5 -29 -15.5q-13.5 -11 -22 -31q-8.5 -20 -8.5 -50v-185q0 -65 -29 -95.5q-29 -30.5 -92 -30.5l-57 0z" />
<glyph unicode="&#126;" horiz-adv-x="593" d="M524 363q-26 -27 -53 -41q-27 -14 -57 -14q-30 0 -59 11.5q-29 11.5 -58 25.5q-29 14 -57.5 25.5q-28.5 11.5 -56.5 11.5q-28 0 -54 -13.5q-26 -13.5 -52 -37.5l-17 21q32 32 63.5 46.5q31.5 14.5 61.5 14.5q31 0 59.5 -11.5q28.5 -11.5 57 -25q28.5 -13.5 56.5 -25q28 -11.5 57 -11.5q48 0 94 46z" />
<glyph unicode="&#160;" horiz-adv-x="240" />
<glyph unicode="&#161;" horiz-adv-x="310" d="M142 269h26l21 -515h-69zM112 418q0 17 11.5 29.5q11.5 12.5 31.5 12.5q17 0 29 -12.5q12 -12.5 12 -29.5q0 -19 -12 -31q-12 -12 -29 -12q-19 0 -31 13t-12 30z" />
<glyph unicode="&#162;" horiz-adv-x="556" d="M288 -8q-49 3 -89.5 20.5q-40.5 17.5 -69.5 47.5q-29 30 -45 72q-16 42 -16 93q0 48 16 90q16 42 45.5 73.5q29.5 31.5 70 50q40.5 18.5 88.5 20.5l0 108h28v-108q34 -3 63.5 -13.5q29.5 -10.5 51.5 -26.5q22 -16 34.5 -36.5q12.5 -20.5 12.5 -43.5q0 -21 -11.5 -32.5q-11.5 -11.5 -27.5 -11.5q-17 0 -27.5 11q-10.5 11 -10.5 26q0 14 10.5 26q10.5 12 27.5 13q-5 10 -16.5 20.5q-11.5 10.5 -28.5 19q-17 8.5 -39 14q-22 5.5 -47 5.5q-39 0 -73 -15q-34 -15 -59 -42q-25 -27 -39.5 -64q-14.5 -37 -14.5 -81q0 -48 15 -86q15 -38 41.5 -65q26.5 -27 63 -41q36.5 -14 80.5 -14q42 0 80.5 18.5q38.5 18.5 61.5 47.5l20 -13q-29 -41 -72.5 -61.5q-43.5 -20.5 -91.5 -22.5l-4 0v-111l-28 0z" />
<glyph unicode="&#163;" horiz-adv-x="593" d="M46 22q6 6 15.5 14.5q9.5 8.5 20.5 17.5q11 9 24.5 17q13.5 8 28.5 12q22 24 35.5 60q13.5 36 13.5 88q0 17 -2 30.5q-2 13.5 -6 27.5l-93 0v29h81q-9 22 -20.5 43q-11.5 21 -21.5 44q-10 23 -16.5 50q-6.5 27 -6.5 62q0 36 14 70.5q14 34.5 40.5 61.5q26.5 27 65 43.5q38.5 16.5 86.5 16.5q40 0 75 -11q35 -11 60.5 -29q25.5 -18 40 -41.5q14.5 -23.5 14.5 -48.5q0 -18 -12 -30q-12 -12 -28 -12q-18 0 -29 11q-11 11 -11 27q0 16 10.5 29.5q10.5 13.5 30.5 13.5q-4 11 -16.5 22.5q-12.5 11.5 -30.5 20.5q-18 9 -41 14.5q-23 5.5 -47 5.5q-38 0 -68.5 -13q-30.5 -13 -51.5 -36q-21 -23 -32.5 -53.5q-11.5 -30.5 -11.5 -64.5q0 -32 5.5 -57.5q5.5 -25.5 13 -48.5q7.5 -23 16.5 -44.5q9 -21.5 15 -45.5l185 0v-29h-179q2 -11 3.5 -21.5q1.5 -10.5 1.5 -24.5q0 -53 -14.5 -93.5q-14.5 -40.5 -37.5 -65.5q19 6 40 6q27 -2 53 -10q26 -8 51.5 -17q25.5 -9 51 -16.5q25.5 -7.5 51.5 -7.5q33 0 59.5 14q26.5 14 46.5 34l22 -29q-23 -22 -55.5 -42q-32.5 -20 -74.5 -20q-29 0 -57 8q-28 8 -56 18q-28 10 -56 18q-28 8 -57 8q-33 0 -64.5 -16.5q-31.5 -16.5 -54.5 -38.5z" />
<glyph unicode="&#164;" horiz-adv-x="585" d="M24 99l98 100q-26 29 -39.5 68q-13.5 39 -13.5 81q0 42 13.5 80.5q13.5 38.5 39.5 68.5l-91 93l23 22l92 -93q28 26 64.5 41q36.5 15 82.5 15q45 0 81.5 -15q36.5 -15 65.5 -41l98 98l22 -22l-96 -98q25 -30 38.5 -68.5q13.5 -38.5 13.5 -80.5q0 -42 -13.5 -81q-13.5 -39 -38.5 -68l92 -94l-22 -23l-94 94q-28 -26 -65 -40.5q-37 -14.5 -82 -14.5q-45 0 -82 14.5q-37 14.5 -65 40.5l-99 -100zM293 149q45 0 80.5 16q35.5 16 60.5 43.5q25 27.5 38 63.5q13 36 13 76q0 40 -13 76q-13 36 -38 63q-25 27 -60.5 43q-35.5 16 -80.5 16q-45 0 -80.5 -16q-35.5 -16 -60.5 -43q-25 -27 -38 -63q-13 -36 -13 -76q0 -40 13 -76q13 -36 38 -63.5q25 -27.5 60.5 -43.5t80.5 -16z" />
<glyph unicode="&#165;" horiz-adv-x="704" d="M303 182v126h-200v30h179l-220 332h-56v30h200v-30h-79l216 -333l216 333h-86v30h186v-30h-58l-220 -332h179v-30h-199v-126h199v-31h-199v-121h58v-30h-176v30h60v121h-200l0 31z" />
<glyph unicode="&#166;" horiz-adv-x="307" d="M139 260h30v-260h-30zM139 700h30v-260l-30 0z" />
<glyph unicode="&#167;" horiz-adv-x="550" d="M112 -92q0 17 10.5 29q10.5 12 29.5 12q18 0 27.5 -10.5q9.5 -10.5 9.5 -25.5q0 -14 -9 -25.5q-9 -11.5 -28 -14.5q11 -17 37.5 -34q26.5 -17 70.5 -17q50 0 82 32q32 32 32 79q0 39 -23 62.5q-23 23.5 -57.5 40.5q-34.5 17 -74.5 32q-40 15 -74.5 37q-34.5 22 -57.5 55q-23 33 -23 86q0 36 15 66.5q15 30.5 39 54.5q24 24 55.5 39.5q31.5 15.5 64.5 20.5q-23 12 -44 24.5q-21 12.5 -36.5 29q-15.5 16.5 -24.5 38q-9 21.5 -9 50.5q0 27 11 51q11 24 30.5 41.5q19.5 17.5 47 28q27.5 10.5 61.5 10.5q34 0 60.5 -8.5q26.5 -8.5 44.5 -23q18 -14.5 27 -32.5q9 -18 9 -37q0 -14 -9.5 -25q-9.5 -11 -24.5 -11q-16 0 -25 10.5q-9 10.5 -9 22.5q0 13 10 22.5q10 9.5 21 11.5q-8 16 -32 31.5q-24 15.5 -72 15.5q-49 0 -81.5 -29q-32.5 -29 -32.5 -75q0 -39 23 -63.5q23 -24.5 57.5 -42.5q34.5 -18 75 -34.5q40.5 -16.5 75 -39q34.5 -22.5 57.5 -56q23 -33.5 23 -85.5q0 -36 -14 -67q-14 -31 -37 -54.5q-23 -23.5 -53 -38.5q-30 -15 -63 -20q17 -8 36 -19.5q19 -11.5 34.5 -27.5q15.5 -16 25.5 -37.5q10 -21.5 10 -48.5q0 -30 -11 -55.5q-11 -25.5 -30.5 -44.5q-19.5 -19 -47 -29.5q-27.5 -10.5 -61.5 -10.5q-27 0 -53.5 9q-26.5 9 -47.5 24q-21 15 -34 35q-13 20 -13 41zt0 0zM276 89q26 3 51 15.5q25 12.5 44.5 33.5q19.5 21 31 48.5q11.5 27.5 11.5 59.5q0 34 -11 58.5q-11 24.5 -30 43.5q-19 19 -45 33.5q-26 14.5 -56 28.5q-26 -2 -53 -15q-27 -13 -48.5 -34q-21.5 -21 -35.5 -49q-14 -28 -14 -60q0 -34 12 -60q12 -26 33 -45.5q21 -19.5 49 -33.5t61 -24z" />
<glyph unicode="&#168;" horiz-adv-x="426" d="M89 593q-16 0 -26.5 10q-10.5 10 -10.5 27q0 16 10.5 26q10.5 10 26.5 10q13 0 23.5 -10q10.5 -10 10.5 -26q0 -17 -10.5 -27q-10.5 -10 -23.5 -10zt0 0zM295 593q-15 0 -25.5 10q-10.5 10 -10.5 27q0 16 10.5 26q10.5 10 25.5 10q13 0 24 -10q11 -10 11 -26q0 -17 -11 -27t-24 -10z" />
<glyph unicode="&#169;" horiz-adv-x="1018" d="M509 -210q-93 0 -171.5 33.5q-78.5 33.5 -136.5 92q-58 58.5 -90.5 137q-32.5 78.5 -32.5 168.5q0 90 32.5 168.5q32.5 78.5 90.5 137q58 58.5 136.5 92q78.5 33.5 171.5 33.5q93 0 171.5 -33.5q78.5 -33.5 136.5 -92q58 -58.5 90.5 -137q32.5 -78.5 32.5 -168.5q0 -90 -32.5 -168.5q-32.5 -78.5 -90.5 -137q-58 -58.5 -136.5 -92q-78.5 -33.5 -171.5 -33.5zt0 0zM509 -180q86 0 159 31.5q73 31.5 126.5 86.5q53.5 55 83.5 127.5q30 72.5 30 155.5q0 83 -30 156q-30 73 -83.5 127.5q-53.5 54.5 -126.5 86q-73 31.5 -159 31.5q-86 0 -159 -31.5q-73 -31.5 -126.5 -86q-53.5 -54.5 -83.5 -127.5q-30 -73 -30 -156q0 -83 30 -155.5q30 -72.5 83.5 -127.5q53.5 -55 126.5 -86.5q73 -31.5 159 -31.5zt0 0zM278 225q0 49 17 92q17 43 47.5 74.5q30.5 31.5 73 49.5q42.5 18 92.5 18q37 0 70 -10q33 -10 58 -26.5q25 -16.5 39 -38q14 -21.5 14 -45.5q0 -21 -11.5 -32.5q-11.5 -11.5 -27.5 -11.5q-17 0 -27 11q-10 11 -10 26q0 13 10 25q10 12 27 14q-10 21 -46 40q-36 19 -87 19q-39 0 -73 -15q-34 -15 -58.5 -42q-24.5 -27 -39 -64q-14.5 -37 -14.5 -81q0 -48 15 -86q15 -38 41.5 -65q26.5 -27 63 -41q36.5 -14 79.5 -14q42 0 81 18.5q39 18.5 62 47.5l19 -13q-29 -43 -76 -63.5q-47 -20.5 -99 -20.5q-53 0 -97.5 16.5q-44.5 16.5 -76 47q-31.5 30.5 -49 74t-17.5 96.5z" />
<glyph unicode="&#170;" horiz-adv-x="435" d="M383 378v-23h-90v55q-6 -9 -15.5 -19q-9.5 -10 -24 -19q-14.5 -9 -35 -14.5q-20.5 -5.5 -47.5 -5.5q-58 0 -87.5 24q-29.5 24 -29.5 64q0 39 32 61q32 22 100 22q33 0 59 -4q26 -4 46 -9l0 31q-2 99 -99 99q-26 0 -46.5 -8q-20.5 -8 -27.5 -19q18 -6 18 -26q0 -9 -6.5 -17q-6.5 -8 -19.5 -8q-14 0 -20.5 8.5q-6.5 8.5 -6.5 19.5q0 18 11.5 31.5q11.5 13.5 29.5 23q18 9.5 38.5 14q20.5 4.5 38.5 4.5q66 0 99 -32q33 -32 33 -89q0 -6 0 -30.5q0 -24.5 -0.5 -52q-0.5 -27.5 -0.5 -51.5q0 -24 0 -30zM97 444q0 -32 25 -50q25 -18 61 -18q47 0 71 16q24 16 37 35l0 64q-17 5 -45 9.5q-28 4.5 -54 4.5q-95 0 -95 -61z" />
<glyph unicode="&#171;" horiz-adv-x="523" d="M53 248v4l180 207l19 -17l-137 -192l135 -193l-19 -17zM221 248v4l180 207l19 -17l-137 -192l135 -193l-19 -17z" />
<glyph unicode="&#172;" horiz-adv-x="593" d="M520 379v-169h-35v134h-417l0 35z" />
<glyph unicode="&#173;" horiz-adv-x="377" d="M76 285h225v-31l-225 0z" />
<glyph unicode="&#174;" horiz-adv-x="636" d="M285 266q-48 0 -90 18q-42 18 -73 49.5q-31 31.5 -49 73.5q-18 42 -18 90q0 47 18 88.5q18 41.5 49 72.5q31 31 73 49q42 18 90 18q48 0 89.5 -18q41.5 -18 72.5 -49q31 -31 49 -72.5q18 -41.5 18 -88.5q0 -48 -18 -90q-18 -42 -49 -73.5q-31 -31.5 -72.5 -49.5q-41.5 -18 -89.5 -18zt0 0zM285 296q42 0 78.5 15.5q36.5 15.5 63 42.5q26.5 27 42 63.5q15.5 36.5 15.5 78.5q0 42 -15.5 78.5q-15.5 36.5 -42 63.5q-26.5 27 -63 42.5q-36.5 15.5 -78.5 15.5q-42 0 -78.5 -15.5q-36.5 -15.5 -63.5 -42.5q-27 -27 -42.5 -63.5q-15.5 -36.5 -15.5 -78.5q0 -42 15.5 -78.5q15.5 -36.5 42.5 -63.5q27 -27 63.5 -42.5q36.5 -15.5 78.5 -15.5zt0 0zM195 640h82q31 0 51.5 -7q20.5 -7 33 -18.5q12.5 -11.5 17.5 -26.5q5 -15 5 -30q0 -28 -19 -49.5q-19 -21.5 -51 -28.5l96 -120h-41l-88 119h-52v-119h-34zM280 495q11 0 23 4q12 4 21.5 12q9.5 8 16 19.5q6.5 11.5 6.5 26.5q0 29 -19 45.5q-19 16.5 -54 16.5h-45l0 -124z" />
<glyph unicode="&#175;" horiz-adv-x="390" d="M60 645h248v-27l-248 0z" />
<glyph unicode="&#176;" horiz-adv-x="386" d="M194 433q-29 0 -53 10q-24 10 -42 28q-18 18 -28 42q-10 24 -10 52q0 28 10.5 52.5q10.5 24.5 28.5 42q18 17.5 42.5 27.5q24.5 10 51.5 10q28 0 52 -10q24 -10 42 -28q18 -18 28 -42q10 -24 10 -52q0 -28 -10 -52q-10 -24 -28 -42q-18 -18 -42 -28q-24 -10 -52 -10zt0 0zM194 463q43 0 70.5 28.5q27.5 28.5 27.5 73.5q0 21 -7 39.5q-7 18.5 -20 32.5q-13 14 -31 22.5q-18 8.5 -40 8.5q-46 0 -73 -30q-27 -30 -27 -72q0 -43 27.5 -73t72.5 -30z" />
<glyph unicode="&#177;" horiz-adv-x="593" d="M72 210h443v-31h-443zM276 452v205h34v-205h205v-31h-205v-151h-34v151h-204l0 31z" />
<glyph unicode="&#178;" horiz-adv-x="366" d="M56 365q28 19 63.5 45q35.5 26 67 56q31.5 30 53 63.5q21.5 33.5 21.5 68.5q0 16 -5 31q-5 15 -15 27q-10 12 -26.5 19q-16.5 7 -38.5 7q-31 0 -57 -16.5q-26 -16.5 -35 -42.5q14 1 25 -8.5q11 -9.5 11 -23.5q0 -11 -8 -20q-8 -9 -25 -9q-14 0 -23 10.5q-9 10.5 -9 27.5q0 15 9 33q9 18 26 34q17 16 41.5 27q24.5 11 55.5 11q34 0 57 -9.5q23 -9.5 37 -23.5q14 -14 20 -32.5q6 -18.5 6 -36.5q0 -37 -25 -73q-25 -36 -58.5 -66q-33.5 -30 -68 -52q-34.5 -22 -52.5 -32l205 0v56h23v-86l-275 0z" />
<glyph unicode="&#179;" horiz-adv-x="378" d="M187 538q38 0 59 21q21 21 21 54q0 35 -24.5 54.5q-24.5 19.5 -62.5 19.5q-28 0 -51 -13q-23 -13 -31 -30q14 -3 20 -12q6 -9 6 -20q0 -13 -9 -21.5q-9 -8.5 -24 -8.5q-12 0 -20.5 8.5q-8.5 8.5 -8.5 21.5q0 18 9.5 34.5q9.5 16.5 27 29q17.5 12.5 42 20.5q24.5 8 53.5 8q58 0 88 -22.5q30 -22.5 30 -64.5q0 -28 -18.5 -52q-18.5 -24 -55.5 -34l0 -1q45 -3 68.5 -27.5q23.5 -24.5 23.5 -55.5q0 -47 -36 -75.5q-36 -28.5 -97 -28.5q-34 0 -60 8q-26 8 -44 21q-18 13 -27 29q-9 16 -9 32q0 14 9 23.5q9 9.5 23 9.5q15 0 23 -9.5q8 -9.5 8 -22.5q0 -12 -7.5 -20q-7.5 -8 -18.5 -10q11 -17 34.5 -30q23.5 -13 58.5 -13q47 0 72 24q25 24 25 60q0 34 -24.5 54.5q-24.5 20.5 -69.5 20.5h-33l0 18z" />
<glyph unicode="&#180;" horiz-adv-x="299" d="M64 561l104 152l37 -29l-124 -134z" />
<glyph unicode="&#181;" horiz-adv-x="596" d="M102 420h-58v30h108v-277q0 -72 34 -111q34 -39 109 -39q27 0 52 7.5q25 7.5 46.5 19q21.5 11.5 38 25.5q16.5 14 26.5 28l0 317h-58v30h107v-423h60v-27h-108v80q-13 -17 -32 -33q-19 -16 -42.5 -28q-23.5 -12 -49 -19.5q-25.5 -7.5 -51.5 -7.5q-51 0 -83.5 18q-32.5 18 -48.5 57l0 -267l-50 0z" />
<glyph unicode="&#182;" horiz-adv-x="490" d="M257 263q-43 0 -80 15q-37 15 -64.5 43q-27.5 28 -43.5 68.5q-16 40.5 -16 91.5q0 103 56.5 161q56.5 58 159.5 58h131v-29h-94v-719q0 -35 -7 -64.5q-7 -29.5 -23.5 -50.5q-16.5 -21 -43 -33q-26.5 -12 -64.5 -12q-35 0 -63.5 13q-28.5 13 -42.5 35l16 15q14 -15 33.5 -24q19.5 -9 47.5 -9q29 0 48 9.5q19 9.5 30 26.5q11 17 15.5 41q4.5 24 4.5 53z" />
<glyph unicode="&#183;" horiz-adv-x="191" d="M55 379q0 17 11.5 30q11.5 13 31.5 13q18 0 30 -12q12 -12 12 -31q0 -17 -12 -29.5q-12 -12.5 -31 -12.5q-20 0 -31 12.5t-11 29.5z" />
<glyph unicode="&#184;" horiz-adv-x="362" d="M139 0h25v-52q51 -2 74.5 -22q23.5 -20 23.5 -53q0 -33 -28.5 -54q-28.5 -21 -79.5 -21q-28 0 -50.5 9q-22.5 9 -41.5 21l11 17q38 -22 73 -22q36 0 55 14q19 14 19 37q0 23 -16.5 37q-16.5 14 -58.5 14l-6 0z" />
<glyph unicode="&#185;" horiz-adv-x="284" d="M47 372h79v279q-12 -10 -33 -17.5q-21 -7.5 -45 -13.5l-3 21q42 11 69.5 25.5q27.5 14.5 41.5 36.5l13 0v-331h68v-22l-190 0z" />
<glyph unicode="&#186;" horiz-adv-x="491" d="M228 350q-37 0 -68 11.5q-31 11.5 -53.5 32q-22.5 20.5 -35.5 49q-13 28.5 -13 63.5q0 36 13 65q13 29 35.5 49.5q22.5 20.5 53.5 31.5q31 11 68 11q37 0 68 -11.5q31 -11.5 54 -32q23 -20.5 36 -49q13 -28.5 13 -63.5q0 -35 -13 -64q-13 -29 -36 -49.5q-23 -20.5 -54.5 -32q-31.5 -11.5 -67.5 -11.5zt0 0zM228 375q26 0 49.5 9q23.5 9 41 26.5q17.5 17.5 27.5 41.5q10 24 10 54q0 31 -10 55.5q-10 24.5 -27.5 41.5q-17.5 17 -41 26q-23.5 9 -49.5 9q-26 0 -49.5 -9q-23.5 -9 -41 -26q-17.5 -17 -27.5 -41.5q-10 -24.5 -10 -55.5q0 -30 10.5 -54q10.5 -24 28 -41q17.5 -17 40.5 -26.5t49 -9.5z" />
<glyph unicode="&#187;" horiz-adv-x="523" d="M70 57l136 193l-137 192l18 17l180 -207v-4l-177 -208zM238 57l136 193l-137 192l18 17l180 -207v-4l-177 -208z" />
<glyph unicode="&#188;" horiz-adv-x="748" d="M59 372h79v279q-12 -10 -33 -17.5q-21 -7.5 -45 -13.5l-3 21q42 11 69.5 25.5q27.5 14.5 41.5 36.5l13 0v-331h68v-22h-190zM544 111v94l34 20h8v-114h65v-23h-65v-88h-42v88h-204v17q29 22 55 50q26 28 48 59.5q22 31.5 38 66q16 34.5 25 69.5l54 0q-11 -35 -32 -71q-21 -36 -46.5 -68q-25.5 -32 -53 -58.5q-27.5 -26.5 -49.5 -41.5zM53 11l568 698l23 -19l-568 -699z" />
<glyph unicode="&#189;" horiz-adv-x="772" d="M59 372h79v279q-12 -10 -33 -17.5q-21 -7.5 -45 -13.5l-3 21q42 11 69.5 25.5q27.5 14.5 41.5 36.5l13 0v-331h68v-22h-190zM383 15q28 19 63.5 45q35.5 26 67 56q31.5 30 53 63.5q21.5 33.5 21.5 68.5q0 16 -5 31q-5 15 -15 27q-10 12 -26.5 19q-16.5 7 -38.5 7q-31 0 -57 -16.5q-26 -16.5 -35 -42.5q14 1 25 -8.5q11 -9.5 11 -23.5q0 -11 -8 -20q-8 -9 -25 -9q-14 0 -23 10.5q-9 10.5 -9 27.5q0 15 9 33q9 18 26 34q17 16 41.5 27q24.5 11 55.5 11q34 0 57 -9.5q23 -9.5 37 -23.5q14 -14 20 -32.5q6 -18.5 6 -36.5q0 -37 -25 -73q-25 -36 -58.5 -66q-33.5 -30 -68 -52q-34.5 -22 -52.5 -32l205 0v56h23v-86h-275zM22 11l568 698l23 -19l-568 -699z" />
<glyph unicode="&#190;" horiz-adv-x="799" d="M174 538q38 0 59 21q21 21 21 54q0 35 -24.5 54.5q-24.5 19.5 -62.5 19.5q-28 0 -51 -13q-23 -13 -31 -30q14 -3 20 -12q6 -9 6 -20q0 -13 -9 -21.5q-9 -8.5 -24 -8.5q-12 0 -20.5 8.5q-8.5 8.5 -8.5 21.5q0 18 9.5 34.5q9.5 16.5 27 29q17.5 12.5 42 20.5q24.5 8 53.5 8q58 0 88 -22.5q30 -22.5 30 -64.5q0 -28 -18.5 -52q-18.5 -24 -55.5 -34l0 -1q45 -3 68.5 -27.5q23.5 -24.5 23.5 -55.5q0 -47 -36 -75.5q-36 -28.5 -97 -28.5q-34 0 -60 8q-26 8 -44 21q-18 13 -27 29q-9 16 -9 32q0 14 9 23.5q9 9.5 23 9.5q15 0 23 -9.5q8 -9.5 8 -22.5q0 -12 -7.5 -20q-7.5 -8 -18.5 -10q11 -17 34.5 -30q23.5 -13 58.5 -13q47 0 72 24q25 24 25 60q0 34 -24.5 54.5q-24.5 20.5 -69.5 20.5h-33v18zM585 111v94l34 20h8v-114h65v-23h-65v-88h-42v88h-204v17q29 22 55 50q26 28 48 59.5q22 31.5 38 66q16 34.5 25 69.5l54 0q-11 -35 -32 -71q-21 -36 -46.5 -68q-25.5 -32 -53 -58.5q-27.5 -26.5 -49.5 -41.5zM99 11l568 698l23 -19l-568 -699z" />
<glyph unicode="&#191;" horiz-adv-x="476" d="M271 268q9 -30 9 -54q0 -35 -14 -60.5q-14 -25.5 -35 -46.5q-21 -21 -45.5 -40.5q-24.5 -19.5 -45.5 -42q-21 -22.5 -35 -50.5q-14 -28 -14 -67q0 -60 40 -97q40 -37 110 -37q56 0 95 26q39 26 49 60q-18 -1 -28.5 10.5q-10.5 11.5 -10.5 27.5q0 17 11 28.5q11 11.5 27 11.5q16 0 27 -12q11 -12 11 -27q0 -31 -15 -58.5q-15 -27.5 -41 -48.5q-26 -21 -61 -33.5q-35 -12.5 -76 -12.5q-47 0 -83.5 12q-36.5 12 -62.5 34q-26 22 -39.5 52q-13.5 30 -13.5 65q0 46 16.5 78q16.5 32 41 56.5q24.5 24.5 53 43q28.5 18.5 53 39q24.5 20.5 41 44.5q16.5 24 16.5 58q0 8 -1 18q-1 10 -3 21zM296 418q0 -17 -11.5 -30q-11.5 -13 -31.5 -13q-18 0 -30 12q-12 12 -12 31q0 17 12 29.5q12 12.5 31 12.5q20 0 31 -12.5t11 -29.5z" />
<glyph unicode="&#192;" horiz-adv-x="739" d="M7 29h60l268 673h64l276 -673h61v-29h-204v29h80l-96 237h-317l-95 -237h86v-29h-183zM505 294l-118 289q-8 21 -17 45q-9 24 -14 34l-2 0q-4 -11 -13 -34q-9 -23 -17 -45l-116 -289zM409 758l-9 -17l-184 79l23 42z" />
<glyph unicode="&#193;" horiz-adv-x="739" d="M7 29h60l268 673h64l276 -673h61v-29h-204v29h80l-96 237h-317l-95 -237h86v-29h-183zM505 294l-118 289q-8 21 -17 45q-9 24 -14 34l-2 0q-4 -11 -13 -34q-9 -23 -17 -45l-116 -289zM315 756l161 113l29 -44l-181 -84z" />
<glyph unicode="&#194;" horiz-adv-x="739" d="M7 29h60l268 673h64l276 -673h61v-29h-204v29h80l-96 237h-317l-95 -237h86v-29h-183zM505 294l-118 289q-8 21 -17 45q-9 24 -14 34l-2 0q-4 -11 -13 -34q-9 -23 -17 -45l-116 -289zM196 754l165 108h4l166 -107l-14 -14l-154 73l-156 -73z" />
<glyph unicode="&#195;" horiz-adv-x="739" d="M7 29h60l268 673h64l276 -673h61v-29h-204v29h80l-96 237h-317l-95 -237h86v-29h-183zM505 294l-118 289q-8 21 -17 45q-9 24 -14 34l-2 0q-4 -11 -13 -34q-9 -23 -17 -45l-116 -289zM531 804q-20 -25 -43 -39q-23 -14 -47 -14q-21 0 -40.5 7q-19.5 7 -39 15.5q-19.5 8.5 -40 15.5q-20.5 7 -41.5 7q-16 0 -33 -5.5q-17 -5.5 -34 -19.5l-13 16q19 20 41.5 33.5q22.5 13.5 43.5 13.5q22 0 42.5 -7q20.5 -7 40 -16q19.5 -9 38.5 -16q19 -7 39 -7q17 0 34.5 6.5q17.5 6.5 37.5 24.5z" />
<glyph unicode="&#196;" horiz-adv-x="739" d="M7 29h60l268 673h64l276 -673h61v-29h-204v29h80l-96 237h-317l-95 -237h86v-29h-183zM505 294l-118 289q-8 21 -17 45q-9 24 -14 34l-2 0q-4 -11 -13 -34q-9 -23 -17 -45l-116 -289zM263 758q-17 0 -29.5 11.5q-12.5 11.5 -12.5 30.5q0 17 12.5 28q12.5 11 29.5 11q17 0 29 -11q12 -11 12 -28q0 -19 -12 -30.5q-12 -11.5 -29 -11.5zt0 0zM477 759q-18 0 -30.5 11q-12.5 11 -12.5 30q0 17 12.5 28q12.5 11 30.5 11q16 0 28 -11q12 -11 12 -28q0 -19 -12 -30t-28 -11z" />
<glyph unicode="&#197;" horiz-adv-x="739" d="M7 29h60l268 673h64l276 -673h61v-29h-204v29h80l-96 237h-317l-95 -237h86v-29h-183zM505 294l-118 289q-8 21 -17 45q-9 24 -14 34l-2 0q-4 -11 -13 -34q-9 -23 -17 -45l-116 -289zM361 727q-45 0 -75.5 21.5q-30.5 21.5 -30.5 60.5q0 38 30.5 58.5q30.5 20.5 75.5 20.5q45 0 77 -20q32 -20 32 -59q0 -38 -32 -60q-32 -22 -77 -22zt0 0zM362 748q33 0 52.5 15.5q19.5 15.5 19.5 45.5q0 29 -20 44q-20 15 -52 15q-32 0 -51.5 -15q-19.5 -15 -19.5 -44q0 -30 19.5 -45.5t51.5 -15.5z" />
<glyph unicode="&#198;" horiz-adv-x="1014" d="M0 30h62l450 640h-81v30h516v-166h-33l-6 136h-314v-300h227v-28h-227v-312h322l6 148h33v-178h-502v30h86v243h-266l-169 -243h80v-30h-184zM539 301v356h-2q-2 -5 -9 -17.5q-7 -12.5 -14 -24.5l-224 -314z" />
<glyph unicode="&#199;" horiz-adv-x="701" d="M382 -8q-73 4 -133 30.5q-60 26.5 -103 73q-43 46.5 -67 110.5q-24 64 -24 144q0 75 25 140.5q25 65.5 70 114q45 48.5 108 76.5q63 28 140 28q66 0 117.5 -17q51.5 -17 93.5 -55l0 63h33v-178h-33l-3 78q-38 38 -84.5 57.5q-46.5 19.5 -108.5 19.5q-66 0 -119.5 -25q-53.5 -25 -92 -69q-38.5 -44 -59 -103.5q-20.5 -59.5 -20.5 -129.5q0 -74 22 -134q22 -60 61.5 -103q39.5 -43 94.5 -66.5q55 -23.5 121 -23.5q60 0 107.5 22q47.5 22 82.5 56l3 88h32v-189h-32v65q-39 -36 -94 -55q-55 -19 -112 -19h-2v-43q54 -2 77.5 -22q23.5 -20 23.5 -53q0 -33 -29.5 -54q-29.5 -21 -80.5 -21q-30 0 -53.5 9q-23.5 9 -41.5 20l11 17q18 -10 36.5 -15.5q18.5 -5.5 35.5 -5.5q35 0 56.5 14q21.5 14 21.5 38q0 23 -17 36.5q-17 13.5 -58 13.5l-6 0z" />
<glyph unicode="&#200;" horiz-adv-x="624" d="M57 29h86v642h-86v29h495v-178h-32l-7 149h-312v-301h233v-28h-233v-313h321l6 155h33v-184h-504zM408 758l-9 -17l-184 79l23 42z" />
<glyph unicode="&#201;" horiz-adv-x="624" d="M57 29h86v642h-86v29h495v-178h-32l-7 149h-312v-301h233v-28h-233v-313h321l6 155h33v-184h-504zM267 756l161 113l29 -44l-181 -84z" />
<glyph unicode="&#202;" horiz-adv-x="624" d="M57 29h86v642h-86v29h495v-178h-32l-7 149h-312v-301h233v-28h-233v-313h321l6 155h33v-184h-504zM171 754l165 108h4l166 -107l-14 -14l-154 73l-156 -73z" />
<glyph unicode="&#203;" horiz-adv-x="624" d="M57 29h86v642h-86v29h495v-178h-32l-7 149h-312v-301h233v-28h-233v-313h321l6 155h33v-184h-504zM219 758q-17 0 -29.5 11.5q-12.5 11.5 -12.5 30.5q0 17 12.5 28q12.5 11 29.5 11q17 0 29 -11q12 -11 12 -28q0 -19 -12 -30.5q-12 -11.5 -29 -11.5zt0 0zM433 759q-18 0 -30.5 11q-12.5 11 -12.5 30q0 17 12.5 28q12.5 11 30.5 11q16 0 28 -11q12 -11 12 -28q0 -19 -12 -30t-28 -11z" />
<glyph unicode="&#204;" horiz-adv-x="357" d="M63 29h87v642h-87v29h231v-29h-85v-642h85v-29h-231zM224 758l-9 -17l-184 79l23 42z" />
<glyph unicode="&#205;" horiz-adv-x="357" d="M63 29h87v642h-87v29h231v-29h-85v-642h85v-29h-231zM133 756l161 113l29 -44l-181 -84z" />
<glyph unicode="&#206;" horiz-adv-x="357" d="M63 29h87v642h-87v29h231v-29h-85v-642h85v-29h-231zM12 754l165 108h4l166 -107l-14 -14l-154 73l-156 -73z" />
<glyph unicode="&#207;" horiz-adv-x="357" d="M63 29h87v642h-87v29h231v-29h-85v-642h85v-29h-231zM71 758q-17 0 -29.5 11.5q-12.5 11.5 -12.5 30.5q0 17 12.5 28q12.5 11 29.5 11q17 0 29 -11q12 -11 12 -28q0 -19 -12 -30.5q-12 -11.5 -29 -11.5zt0 0zM285 759q-18 0 -30.5 11q-12.5 11 -12.5 30q0 17 12.5 28q12.5 11 30.5 11q16 0 28 -11q12 -11 12 -28q0 -19 -12 -30t-28 -11z" />
<glyph unicode="&#208;" horiz-adv-x="788" d="M143 29v315h-86v33h86v294h-86v29h97q39 0 85 1.5q46 1.5 96 1.5q107 0 182.5 -28q75.5 -28 123.5 -75.5q48 -47.5 70 -109.5q22 -62 22 -130q0 -75 -24.5 -141q-24.5 -66 -75 -115q-50.5 -49 -128 -77.5q-77.5 -28.5 -182.5 -28.5q-39 0 -85 1q-46 1 -88 1h-93v29zM379 377v-33h-178v-315q22 0 43.5 -0.5q21.5 -0.5 39 -0.5q17.5 0 28 -0.5q10.5 -0.5 12.5 -0.5q87 0 151 26.5q64 26.5 106.5 72q42.5 45.5 63.5 106q21 60.5 21 128.5q0 64 -19 121q-19 57 -59.5 100q-40.5 43 -104.5 68q-64 25 -154 25q-22 0 -38.5 -0.5q-16.5 -0.5 -31 -1q-14.5 -0.5 -28.5 -1q-14 -0.5 -30 -0.5l0 -294z" />
<glyph unicode="&#209;" horiz-adv-x="833" d="M57 29h83v642h-83v29h135l480 -623v594h-82v29h200v-29h-87v-671h-46l-486 629v-600h88v-29h-202zM589 804q-20 -25 -43 -39q-23 -14 -47 -14q-21 0 -40.5 7q-19.5 7 -39 15.5q-19.5 8.5 -40 15.5q-20.5 7 -41.5 7q-16 0 -33 -5.5q-17 -5.5 -34 -19.5l-13 16q19 20 41.5 33.5q22.5 13.5 43.5 13.5q22 0 42.5 -7q20.5 -7 40 -16q19.5 -9 38.5 -16q19 -7 39 -7q17 0 34.5 6.5q17.5 6.5 37.5 24.5z" />
<glyph unicode="&#210;" horiz-adv-x="819" d="M409 -12q-76 0 -140.5 25.5q-64.5 25.5 -112 72.5q-47.5 47 -74.5 114q-27 67 -27 150q0 81 26.5 147.5q26.5 66.5 74 114.5q47.5 48 112 74q64.5 26 141.5 26q77 0 142 -25.5q65 -25.5 112.5 -72.5q47.5 -47 74 -114q26.5 -67 26.5 -150q0 -82 -26.5 -148.5q-26.5 -66.5 -74 -114q-47.5 -47.5 -112.5 -73.5q-65 -26 -142 -26zt0 0zM411 19q64 0 116.5 24q52.5 24 90 67.5q37.5 43.5 58.5 104.5q21 61 21 135q0 75 -21.5 136q-21.5 61 -60 104.5q-38.5 43.5 -91 67q-52.5 23.5 -115.5 23.5q-63 0 -115.5 -23.5q-52.5 -23.5 -90.5 -67q-38 -43.5 -59.5 -104.5q-21.5 -61 -21.5 -136q0 -74 22 -135q22 -61 60.5 -104.5q38.5 -43.5 91.5 -67.5q53 -24 115 -24zt0 0zM492 758l-9 -17l-184 79l23 42z" />
<glyph unicode="&#211;" horiz-adv-x="819" d="M409 -12q-76 0 -140.5 25.5q-64.5 25.5 -112 72.5q-47.5 47 -74.5 114q-27 67 -27 150q0 81 26.5 147.5q26.5 66.5 74 114.5q47.5 48 112 74q64.5 26 141.5 26q77 0 142 -25.5q65 -25.5 112.5 -72.5q47.5 -47 74 -114q26.5 -67 26.5 -150q0 -82 -26.5 -148.5q-26.5 -66.5 -74 -114q-47.5 -47.5 -112.5 -73.5q-65 -26 -142 -26zt0 0zM411 19q64 0 116.5 24q52.5 24 90 67.5q37.5 43.5 58.5 104.5q21 61 21 135q0 75 -21.5 136q-21.5 61 -60 104.5q-38.5 43.5 -91 67q-52.5 23.5 -115.5 23.5q-63 0 -115.5 -23.5q-52.5 -23.5 -90.5 -67q-38 -43.5 -59.5 -104.5q-21.5 -61 -21.5 -136q0 -74 22 -135q22 -61 60.5 -104.5q38.5 -43.5 91.5 -67.5q53 -24 115 -24zt0 0zM353 756l161 113l29 -44l-181 -84z" />
<glyph unicode="&#212;" horiz-adv-x="819" d="M409 -12q-76 0 -140.5 25.5q-64.5 25.5 -112 72.5q-47.5 47 -74.5 114q-27 67 -27 150q0 81 26.5 147.5q26.5 66.5 74 114.5q47.5 48 112 74q64.5 26 141.5 26q77 0 142 -25.5q65 -25.5 112.5 -72.5q47.5 -47 74 -114q26.5 -67 26.5 -150q0 -82 -26.5 -148.5q-26.5 -66.5 -74 -114q-47.5 -47.5 -112.5 -73.5q-65 -26 -142 -26zt0 0zM411 19q64 0 116.5 24q52.5 24 90 67.5q37.5 43.5 58.5 104.5q21 61 21 135q0 75 -21.5 136q-21.5 61 -60 104.5q-38.5 43.5 -91 67q-52.5 23.5 -115.5 23.5q-63 0 -115.5 -23.5q-52.5 -23.5 -90.5 -67q-38 -43.5 -59.5 -104.5q-21.5 -61 -21.5 -136q0 -74 22 -135q22 -61 60.5 -104.5q38.5 -43.5 91.5 -67.5q53 -24 115 -24zt0 0zM246 754l165 108h4l166 -107l-14 -14l-154 73l-156 -73z" />
<glyph unicode="&#213;" horiz-adv-x="819" d="M409 -12q-76 0 -140.5 25.5q-64.5 25.5 -112 72.5q-47.5 47 -74.5 114q-27 67 -27 150q0 81 26.5 147.5q26.5 66.5 74 114.5q47.5 48 112 74q64.5 26 141.5 26q77 0 142 -25.5q65 -25.5 112.5 -72.5q47.5 -47 74 -114q26.5 -67 26.5 -150q0 -82 -26.5 -148.5q-26.5 -66.5 -74 -114q-47.5 -47.5 -112.5 -73.5q-65 -26 -142 -26zt0 0zM411 19q64 0 116.5 24q52.5 24 90 67.5q37.5 43.5 58.5 104.5q21 61 21 135q0 75 -21.5 136q-21.5 61 -60 104.5q-38.5 43.5 -91 67q-52.5 23.5 -115.5 23.5q-63 0 -115.5 -23.5q-52.5 -23.5 -90.5 -67q-38 -43.5 -59.5 -104.5q-21.5 -61 -21.5 -136q0 -74 22 -135q22 -61 60.5 -104.5q38.5 -43.5 91.5 -67.5q53 -24 115 -24zt0 0zM577 804q-20 -25 -43 -39q-23 -14 -47 -14q-21 0 -40.5 7q-19.5 7 -39 15.5q-19.5 8.5 -40 15.5q-20.5 7 -41.5 7q-16 0 -33 -5.5q-17 -5.5 -34 -19.5l-13 16q19 20 41.5 33.5q22.5 13.5 43.5 13.5q22 0 42.5 -7q20.5 -7 40 -16q19.5 -9 38.5 -16q19 -7 39 -7q17 0 34.5 6.5q17.5 6.5 37.5 24.5z" />
<glyph unicode="&#214;" horiz-adv-x="819" d="M409 -12q-76 0 -140.5 25.5q-64.5 25.5 -112 72.5q-47.5 47 -74.5 114q-27 67 -27 150q0 81 26.5 147.5q26.5 66.5 74 114.5q47.5 48 112 74q64.5 26 141.5 26q77 0 142 -25.5q65 -25.5 112.5 -72.5q47.5 -47 74 -114q26.5 -67 26.5 -150q0 -82 -26.5 -148.5q-26.5 -66.5 -74 -114q-47.5 -47.5 -112.5 -73.5q-65 -26 -142 -26zt0 0zM411 19q64 0 116.5 24q52.5 24 90 67.5q37.5 43.5 58.5 104.5q21 61 21 135q0 75 -21.5 136q-21.5 61 -60 104.5q-38.5 43.5 -91 67q-52.5 23.5 -115.5 23.5q-63 0 -115.5 -23.5q-52.5 -23.5 -90.5 -67q-38 -43.5 -59.5 -104.5q-21.5 -61 -21.5 -136q0 -74 22 -135q22 -61 60.5 -104.5q38.5 -43.5 91.5 -67.5q53 -24 115 -24zt0 0zM306 758q-17 0 -29.5 11.5q-12.5 11.5 -12.5 30.5q0 17 12.5 28q12.5 11 29.5 11q17 0 29 -11q12 -11 12 -28q0 -19 -12 -30.5q-12 -11.5 -29 -11.5zt0 0zM520 759q-18 0 -30.5 11q-12.5 11 -12.5 30q0 17 12.5 28q12.5 11 30.5 11q16 0 28 -11q12 -11 12 -28q0 -19 -12 -30t-28 -11z" />
<glyph unicode="&#215;" horiz-adv-x="592" d="M123 214l146 146l-144 145l24 23l145 -145l144 145l24 -23l-144 -145l146 -146l-24 -23l-146 146l-146 -146z" />
<glyph unicode="&#216;" horiz-adv-x="815" d="M130 114q-36 46 -56.5 105q-20.5 59 -20.5 131q0 81 27 147.5q27 66.5 74 114.5q47 48 112 74q65 26 141 26q78 0 142.5 -25q64.5 -25 112.5 -73l50 47l20 -22l-50 -47q38 -46 59 -107q21 -61 21 -135q0 -82 -26.5 -148.5q-26.5 -66.5 -74 -114q-47.5 -47.5 -112.5 -73.5q-65 -26 -142 -26q-78 0 -143.5 26q-65.5 26 -113.5 77l-53 -50l-20 24zM189 128q40 -52 96 -80.5q56 -28.5 124 -28.5q64 0 116.5 24q52.5 24 90 67.5q37.5 43.5 58.5 104.5q21 61 21 135q0 60 -15 110.5q-15 50.5 -41 91.5zM624 579q-39 49 -94.5 75.5q-55.5 26.5 -122.5 26.5q-62 0 -115 -23.5q-53 -23.5 -91 -67q-38 -43.5 -59.5 -104.5q-21.5 -61 -21.5 -136q0 -57 14 -106.5q14 -49.5 40 -88.5z" />
<glyph unicode="&#217;" horiz-adv-x="771" d="M626 671h-97v29h207v-29h-79v-374q0 -82 -20 -140q-20 -58 -54.5 -94.5q-34.5 -36.5 -82.5 -53.5q-48 -17 -103 -17q-63 0 -114.5 19.5q-51.5 19.5 -88 58q-36.5 38.5 -57 96q-20.5 57.5 -20.5 134.5v371h-82v29h230v-29h-89v-366q0 -66 17 -117q17 -51 47.5 -85.5q30.5 -34.5 73.5 -52.5q43 -18 94 -18q47 0 87 16q40 16 69 49q29 33 45.5 83.5q16.5 50.5 16.5 120.5zM467 758l-9 -17l-184 79l23 42z" />
<glyph unicode="&#218;" horiz-adv-x="771" d="M626 671h-97v29h207v-29h-79v-374q0 -82 -20 -140q-20 -58 -54.5 -94.5q-34.5 -36.5 -82.5 -53.5q-48 -17 -103 -17q-63 0 -114.5 19.5q-51.5 19.5 -88 58q-36.5 38.5 -57 96q-20.5 57.5 -20.5 134.5v371h-82v29h230v-29h-89v-366q0 -66 17 -117q17 -51 47.5 -85.5q30.5 -34.5 73.5 -52.5q43 -18 94 -18q47 0 87 16q40 16 69 49q29 33 45.5 83.5q16.5 50.5 16.5 120.5zM338 756l161 113l29 -44l-181 -84z" />
<glyph unicode="&#219;" horiz-adv-x="771" d="M626 671h-97v29h207v-29h-79v-374q0 -82 -20 -140q-20 -58 -54.5 -94.5q-34.5 -36.5 -82.5 -53.5q-48 -17 -103 -17q-63 0 -114.5 19.5q-51.5 19.5 -88 58q-36.5 38.5 -57 96q-20.5 57.5 -20.5 134.5v371h-82v29h230v-29h-89v-366q0 -66 17 -117q17 -51 47.5 -85.5q30.5 -34.5 73.5 -52.5q43 -18 94 -18q47 0 87 16q40 16 69 49q29 33 45.5 83.5q16.5 50.5 16.5 120.5zM230 754l165 108h4l166 -107l-14 -14l-154 73l-156 -73z" />
<glyph unicode="&#220;" horiz-adv-x="771" d="M626 671h-97v29h207v-29h-79v-374q0 -82 -20 -140q-20 -58 -54.5 -94.5q-34.5 -36.5 -82.5 -53.5q-48 -17 -103 -17q-63 0 -114.5 19.5q-51.5 19.5 -88 58q-36.5 38.5 -57 96q-20.5 57.5 -20.5 134.5v371h-82v29h230v-29h-89v-366q0 -66 17 -117q17 -51 47.5 -85.5q30.5 -34.5 73.5 -52.5q43 -18 94 -18q47 0 87 16q40 16 69 49q29 33 45.5 83.5q16.5 50.5 16.5 120.5zM279 758q-17 0 -29.5 11.5q-12.5 11.5 -12.5 30.5q0 17 12.5 28q12.5 11 29.5 11q17 0 29 -11q12 -11 12 -28q0 -19 -12 -30.5q-12 -11.5 -29 -11.5zt0 0zM493 759q-18 0 -30.5 11q-12.5 11 -12.5 30q0 17 12.5 28q12.5 11 30.5 11q16 0 28 -11q12 -11 12 -28q0 -19 -12 -30t-28 -11z" />
<glyph unicode="&#221;" horiz-adv-x="663" d="M205 29h96v279l-239 363h-57v29h199v-29h-77l214 -333l215 333h-84v29h186v-29h-60l-238 -363v-279h94v-29h-249zM285 756l161 113l29 -44l-181 -84z" />
<glyph unicode="&#222;" horiz-adv-x="654" d="M59 30h86v640h-86v30h236v-30h-92v-103q12 0 30.5 0.5q18.5 0.5 37 0.5q18.5 0 35 0.5q16.5 0.5 25.5 0.5q71 0 118.5 -16.5q47.5 -16.5 75.5 -44q28 -27.5 39.5 -63q11.5 -35.5 11.5 -72.5q0 -39 -14.5 -74.5q-14.5 -35.5 -44.5 -62.5q-30 -27 -77 -43q-47 -16 -112 -16q-26 0 -60 1q-34 1 -65 3l0 -151h111v-30h-255zM203 210q31 -2 56.5 -3.5q25.5 -1.5 54.5 -1.5q54 0 91.5 13.5q37.5 13.5 61.5 36.5q24 23 35 54q11 31 11 66q0 35 -10 65q-10 30 -32.5 51.5q-22.5 21.5 -58.5 34q-36 12.5 -88 12.5q-11 0 -27.5 0q-16.5 0 -33.5 -0.5q-17 -0.5 -33 -1q-16 -0.5 -27 -0.5z" />
<glyph unicode="&#223;" horiz-adv-x="554" d="M42 450h59v66q0 97 43 145q43 48 128 48q28 0 53.5 -8.5q25.5 -8.5 44.5 -24q19 -15.5 30 -36.5q11 -21 11 -46q0 -34 -17 -56q-17 -22 -37 -40q-20 -18 -37 -37q-17 -19 -17 -47q0 -29 16 -49q16 -20 40.5 -37.5q24.5 -17.5 53 -34q28.5 -16.5 53 -37q24.5 -20.5 40.5 -48q16 -27.5 16 -66.5q0 -34 -12.5 -62q-12.5 -28 -34.5 -47.5q-22 -19.5 -52 -30.5q-30 -11 -64 -11q-27 0 -49 6.5q-22 6.5 -39 16q-17 9.5 -28.5 21q-11.5 11.5 -16.5 21.5l14 23q4 -8 14.5 -18.5q10.5 -10.5 25.5 -19.5q15 -9 34 -15.5q19 -6.5 41 -6.5q23 0 44.5 8.5q21.5 8.5 37.5 23.5q16 15 25.5 36.5q9.5 21.5 9.5 47.5q0 32 -16 55.5q-16 23.5 -39.5 43q-23.5 19.5 -51 36q-27.5 16.5 -51 35.5q-23.5 19 -39.5 42q-16 23 -16 54q0 21 8.5 37.5q8.5 16.5 21 30q12.5 13.5 27 26.5q14.5 13 27 27q12.5 14 21 31.5q8.5 17.5 8.5 40.5q0 42 -30.5 65.5q-30.5 23.5 -69.5 23.5q-61 0 -92 -38.5q-31 -38.5 -31 -124.5v-520h-107v30h59v390l-59 0z" />
<glyph unicode="&#224;" horiz-adv-x="497" d="M355 306q0 64 -28.5 95.5q-28.5 31.5 -88.5 31.5q-46 0 -76 -13.5q-30 -13.5 -42 -26.5q12 -2 22 -12.5q10 -10.5 10 -27.5q0 -15 -10.5 -25q-10.5 -10 -26.5 -10q-16 0 -25.5 11.5q-9.5 11.5 -9.5 28.5q0 19 13.5 37q13.5 18 36.5 32q23 14 53.5 23q30.5 9 65.5 9q79 0 117 -40.5q38 -40.5 38 -116.5q0 -8 0 -32.5q0 -24.5 -0.5 -57q-0.5 -32.5 -1 -67q-0.5 -34.5 -0.5 -62.5q0 -21 3.5 -37q3.5 -16 23.5 -16q15 0 37 13l13 -25q-17 -16 -34.5 -21q-17.5 -5 -28.5 -5q-14 0 -28 5.5q-14 5.5 -23 22.5q-6 11 -8 25.5q-2 14.5 -2 33.5q-11 -16 -25.5 -31.5q-14.5 -15.5 -35 -28q-20.5 -12.5 -46.5 -20q-26 -7.5 -60 -7.5q-29 0 -55 8.5q-26 8.5 -45 25q-19 16.5 -30 40q-11 23.5 -11 53.5q0 31 12.5 56q12.5 25 35.5 41.5q23 16.5 55 25.5q32 9 71 9q14 0 32 -2q18 -2 36.5 -6q18.5 -4 35.5 -9.5q17 -5.5 29 -12.5q1 17 1 36q0 19 0 49zt0 0zM99 125q0 -24 9 -43q9 -19 24 -32q15 -13 35 -20q20 -7 42 -7q30 0 53 7.5q23 7.5 40.5 19q17.5 11.5 30 25.5q12.5 14 20.5 27l1 97q-26 14 -58.5 22q-32.5 8 -67.5 8q-25 0 -48 -6.5q-23 -6.5 -41 -20q-18 -13.5 -29 -33q-11 -19.5 -11 -44.5zt0 0zM143 683l37 30l104 -151l-19 -12z" />
<glyph unicode="&#225;" horiz-adv-x="497" d="M355 306q0 64 -28.5 95.5q-28.5 31.5 -88.5 31.5q-46 0 -76 -13.5q-30 -13.5 -42 -26.5q12 -2 22 -12.5q10 -10.5 10 -27.5q0 -15 -10.5 -25q-10.5 -10 -26.5 -10q-16 0 -25.5 11.5q-9.5 11.5 -9.5 28.5q0 19 13.5 37q13.5 18 36.5 32q23 14 53.5 23q30.5 9 65.5 9q79 0 117 -40.5q38 -40.5 38 -116.5q0 -8 0 -32.5q0 -24.5 -0.5 -57q-0.5 -32.5 -1 -67q-0.5 -34.5 -0.5 -62.5q0 -21 3.5 -37q3.5 -16 23.5 -16q15 0 37 13l13 -25q-17 -16 -34.5 -21q-17.5 -5 -28.5 -5q-14 0 -28 5.5q-14 5.5 -23 22.5q-6 11 -8 25.5q-2 14.5 -2 33.5q-11 -16 -25.5 -31.5q-14.5 -15.5 -35 -28q-20.5 -12.5 -46.5 -20q-26 -7.5 -60 -7.5q-29 0 -55 8.5q-26 8.5 -45 25q-19 16.5 -30 40q-11 23.5 -11 53.5q0 31 12.5 56q12.5 25 35.5 41.5q23 16.5 55 25.5q32 9 71 9q14 0 32 -2q18 -2 36.5 -6q18.5 -4 35.5 -9.5q17 -5.5 29 -12.5q1 17 1 36q0 19 0 49zt0 0zM99 125q0 -24 9 -43q9 -19 24 -32q15 -13 35 -20q20 -7 42 -7q30 0 53 7.5q23 7.5 40.5 19q17.5 11.5 30 25.5q12.5 14 20.5 27l1 97q-26 14 -58.5 22q-32.5 8 -67.5 8q-25 0 -48 -6.5q-23 -6.5 -41 -20q-18 -13.5 -29 -33q-11 -19.5 -11 -44.5zt0 0zM189 561l104 152l37 -29l-124 -134z" />
<glyph unicode="&#226;" horiz-adv-x="497" d="M355 306q0 64 -28.5 95.5q-28.5 31.5 -88.5 31.5q-46 0 -76 -13.5q-30 -13.5 -42 -26.5q12 -2 22 -12.5q10 -10.5 10 -27.5q0 -15 -10.5 -25q-10.5 -10 -26.5 -10q-16 0 -25.5 11.5q-9.5 11.5 -9.5 28.5q0 19 13.5 37q13.5 18 36.5 32q23 14 53.5 23q30.5 9 65.5 9q79 0 117 -40.5q38 -40.5 38 -116.5q0 -8 0 -32.5q0 -24.5 -0.5 -57q-0.5 -32.5 -1 -67q-0.5 -34.5 -0.5 -62.5q0 -21 3.5 -37q3.5 -16 23.5 -16q15 0 37 13l13 -25q-17 -16 -34.5 -21q-17.5 -5 -28.5 -5q-14 0 -28 5.5q-14 5.5 -23 22.5q-6 11 -8 25.5q-2 14.5 -2 33.5q-11 -16 -25.5 -31.5q-14.5 -15.5 -35 -28q-20.5 -12.5 -46.5 -20q-26 -7.5 -60 -7.5q-29 0 -55 8.5q-26 8.5 -45 25q-19 16.5 -30 40q-11 23.5 -11 53.5q0 31 12.5 56q12.5 25 35.5 41.5q23 16.5 55 25.5q32 9 71 9q14 0 32 -2q18 -2 36.5 -6q18.5 -4 35.5 -9.5q17 -5.5 29 -12.5q1 17 1 36q0 19 0 49zt0 0zM99 125q0 -24 9 -43q9 -19 24 -32q15 -13 35 -20q20 -7 42 -7q30 0 53 7.5q23 7.5 40.5 19q17.5 11.5 30 25.5q12.5 14 20.5 27l1 97q-26 14 -58.5 22q-32.5 8 -67.5 8q-25 0 -48 -6.5q-23 -6.5 -41 -20q-18 -13.5 -29 -33q-11 -19.5 -11 -44.5zt0 0zM106 568l127 142h4l125 -142l-16 -14l-111 109l-113 -109z" />
<glyph unicode="&#227;" horiz-adv-x="497" d="M355 306q0 64 -28.5 95.5q-28.5 31.5 -88.5 31.5q-46 0 -76 -13.5q-30 -13.5 -42 -26.5q12 -2 22 -12.5q10 -10.5 10 -27.5q0 -15 -10.5 -25q-10.5 -10 -26.5 -10q-16 0 -25.5 11.5q-9.5 11.5 -9.5 28.5q0 19 13.5 37q13.5 18 36.5 32q23 14 53.5 23q30.5 9 65.5 9q79 0 117 -40.5q38 -40.5 38 -116.5q0 -8 0 -32.5q0 -24.5 -0.5 -57q-0.5 -32.5 -1 -67q-0.5 -34.5 -0.5 -62.5q0 -21 3.5 -37q3.5 -16 23.5 -16q15 0 37 13l13 -25q-17 -16 -34.5 -21q-17.5 -5 -28.5 -5q-14 0 -28 5.5q-14 5.5 -23 22.5q-6 11 -8 25.5q-2 14.5 -2 33.5q-11 -16 -25.5 -31.5q-14.5 -15.5 -35 -28q-20.5 -12.5 -46.5 -20q-26 -7.5 -60 -7.5q-29 0 -55 8.5q-26 8.5 -45 25q-19 16.5 -30 40q-11 23.5 -11 53.5q0 31 12.5 56q12.5 25 35.5 41.5q23 16.5 55 25.5q32 9 71 9q14 0 32 -2q18 -2 36.5 -6q18.5 -4 35.5 -9.5q17 -5.5 29 -12.5q1 17 1 36q0 19 0 49zt0 0zM99 125q0 -24 9 -43q9 -19 24 -32q15 -13 35 -20q20 -7 42 -7q30 0 53 7.5q23 7.5 40.5 19q17.5 11.5 30 25.5q12.5 14 20.5 27l1 97q-26 14 -58.5 22q-32.5 8 -67.5 8q-25 0 -48 -6.5q-23 -6.5 -41 -20q-18 -13.5 -29 -33q-11 -19.5 -11 -44.5zt0 0zM384 626q-24 -31 -47.5 -45q-23.5 -14 -43.5 -14q-17 0 -30 7q-13 7 -25.5 16q-12.5 9 -25.5 16q-13 7 -30 7q-15 0 -33.5 -7.5q-18.5 -7.5 -41.5 -25.5l-11 13q49 56 91 56q18 0 31.5 -7.5q13.5 -7.5 26 -16q12.5 -8.5 25.5 -16q13 -7.5 28 -7.5q17 0 34.5 8q17.5 8 40.5 29z" />
<glyph unicode="&#228;" horiz-adv-x="497" d="M355 306q0 64 -28.5 95.5q-28.5 31.5 -88.5 31.5q-46 0 -76 -13.5q-30 -13.5 -42 -26.5q12 -2 22 -12.5q10 -10.5 10 -27.5q0 -15 -10.5 -25q-10.5 -10 -26.5 -10q-16 0 -25.5 11.5q-9.5 11.5 -9.5 28.5q0 19 13.5 37q13.5 18 36.5 32q23 14 53.5 23q30.5 9 65.5 9q79 0 117 -40.5q38 -40.5 38 -116.5q0 -8 0 -32.5q0 -24.5 -0.5 -57q-0.5 -32.5 -1 -67q-0.5 -34.5 -0.5 -62.5q0 -21 3.5 -37q3.5 -16 23.5 -16q15 0 37 13l13 -25q-17 -16 -34.5 -21q-17.5 -5 -28.5 -5q-14 0 -28 5.5q-14 5.5 -23 22.5q-6 11 -8 25.5q-2 14.5 -2 33.5q-11 -16 -25.5 -31.5q-14.5 -15.5 -35 -28q-20.5 -12.5 -46.5 -20q-26 -7.5 -60 -7.5q-29 0 -55 8.5q-26 8.5 -45 25q-19 16.5 -30 40q-11 23.5 -11 53.5q0 31 12.5 56q12.5 25 35.5 41.5q23 16.5 55 25.5q32 9 71 9q14 0 32 -2q18 -2 36.5 -6q18.5 -4 35.5 -9.5q17 -5.5 29 -12.5q1 17 1 36q0 19 0 49zt0 0zM99 125q0 -24 9 -43q9 -19 24 -32q15 -13 35 -20q20 -7 42 -7q30 0 53 7.5q23 7.5 40.5 19q17.5 11.5 30 25.5q12.5 14 20.5 27l1 97q-26 14 -58.5 22q-32.5 8 -67.5 8q-25 0 -48 -6.5q-23 -6.5 -41 -20q-18 -13.5 -29 -33q-11 -19.5 -11 -44.5zt0 0zM134 593q-16 0 -26.5 10q-10.5 10 -10.5 27q0 16 10.5 26q10.5 10 26.5 10q13 0 23.5 -10q10.5 -10 10.5 -26q0 -17 -10.5 -27q-10.5 -10 -23.5 -10zt0 0zM340 593q-15 0 -25.5 10q-10.5 10 -10.5 27q0 16 10.5 26q10.5 10 25.5 10q13 0 24 -10q11 -10 11 -26q0 -17 -11 -27t-24 -10z" />
<glyph unicode="&#229;" horiz-adv-x="497" d="M355 306q0 64 -28.5 95.5q-28.5 31.5 -88.5 31.5q-46 0 -76 -13.5q-30 -13.5 -42 -26.5q12 -2 22 -12.5q10 -10.5 10 -27.5q0 -15 -10.5 -25q-10.5 -10 -26.5 -10q-16 0 -25.5 11.5q-9.5 11.5 -9.5 28.5q0 19 13.5 37q13.5 18 36.5 32q23 14 53.5 23q30.5 9 65.5 9q79 0 117 -40.5q38 -40.5 38 -116.5q0 -8 0 -32.5q0 -24.5 -0.5 -57q-0.5 -32.5 -1 -67q-0.5 -34.5 -0.5 -62.5q0 -21 3.5 -37q3.5 -16 23.5 -16q15 0 37 13l13 -25q-17 -16 -34.5 -21q-17.5 -5 -28.5 -5q-14 0 -28 5.5q-14 5.5 -23 22.5q-6 11 -8 25.5q-2 14.5 -2 33.5q-11 -16 -25.5 -31.5q-14.5 -15.5 -35 -28q-20.5 -12.5 -46.5 -20q-26 -7.5 -60 -7.5q-29 0 -55 8.5q-26 8.5 -45 25q-19 16.5 -30 40q-11 23.5 -11 53.5q0 31 12.5 56q12.5 25 35.5 41.5q23 16.5 55 25.5q32 9 71 9q14 0 32 -2q18 -2 36.5 -6q18.5 -4 35.5 -9.5q17 -5.5 29 -12.5q1 17 1 36q0 19 0 49zt0 0zM99 125q0 -24 9 -43q9 -19 24 -32q15 -13 35 -20q20 -7 42 -7q30 0 53 7.5q23 7.5 40.5 19q17.5 11.5 30 25.5q12.5 14 20.5 27l1 97q-26 14 -58.5 22q-32.5 8 -67.5 8q-25 0 -48 -6.5q-23 -6.5 -41 -20q-18 -13.5 -29 -33q-11 -19.5 -11 -44.5zt0 0zM229 517q-43 0 -72.5 27.5q-29.5 27.5 -29.5 69.5q0 42 29.5 70q29.5 28 72.5 28q44 0 74 -26.5q30 -26.5 30 -71.5q0 -42 -30 -69.5q-30 -27.5 -74 -27.5zt0 0zM230 537q34 0 54 22q20 22 20 55q0 37 -21.5 57.5q-21.5 20.5 -52.5 20.5q-32 0 -53 -23q-21 -23 -21 -55q0 -32 21 -54.5t53 -22.5z" />
<glyph unicode="&#230;" horiz-adv-x="799" d="M743 67q-24 -31 -71.5 -53.5q-47.5 -22.5 -110.5 -22.5q-61 0 -111 23.5q-50 23.5 -81 70.5q-24 -39 -70.5 -66q-46.5 -27 -104.5 -27q-66 0 -106 34.5q-40 34.5 -40 94.5q0 63 46 97.5q46 34.5 123 34.5q15 0 34 -1.5q19 -1.5 38.5 -4q19.5 -2.5 36 -5.5q16.5 -3 25.5 -5q3 41 0.5 76.5q-2.5 35.5 -15.5 62q-13 26.5 -40 42q-27 15.5 -74 15.5q-40 0 -68 -16q-28 -16 -38 -31q12 -2 21 -12q9 -10 9 -26q0 -15 -10 -24.5q-10 -9.5 -26 -9.5q-16 0 -25.5 11.5q-9.5 11.5 -9.5 28.5q0 20 13 39q13 19 35 33.5q22 14.5 51.5 23.5q29.5 9 63.5 9q57 0 90 -20.5q33 -20.5 48 -59.5q29 37 72.5 58.5q43.5 21.5 103.5 21.5q49 0 88 -14.5q39 -14.5 66 -41q27 -26.5 41.5 -64q14.5 -37.5 14.5 -83.5q0 -11 -1 -18.5q-1 -7.5 -2 -15.5l-368 0v-58q11 -68 61.5 -104.5q50.5 -36.5 121.5 -36.5q51 0 88.5 18q37.5 18 60.5 45zM714 249q1 40 -8.5 73.5q-9.5 33.5 -30 57.5q-20.5 24 -50.5 37q-30 13 -69 13q-66 0 -109.5 -30.5q-43.5 -30.5 -58.5 -88.5q3 -18 3 -38v-24zM206 23q30 0 54.5 8q24.5 8 44 20.5q19.5 12.5 33 27q13.5 14.5 21.5 27.5q-3 29 -5 53q-2 24 -2 58q-29 7 -60 10.5q-31 3.5 -67 3.5q-24 0 -47 -6q-23 -6 -40 -18.5q-17 -12.5 -27.5 -32q-10.5 -19.5 -10.5 -47.5q0 -48 30.5 -76t75.5 -28z" />
<glyph unicode="&#231;" horiz-adv-x="502" d="M267 -8q-49 3 -89.5 21q-40.5 18 -69 48q-28.5 30 -44.5 71.5q-16 41.5 -16 92.5q0 49 17 92q17 43 48 74.5q31 31.5 73 49.5q42 18 93 18q37 0 70 -10q33 -10 57.5 -26.5q24.5 -16.5 38.5 -38q14 -21.5 14 -45.5q0 -21 -11.5 -32.5q-11.5 -11.5 -27.5 -11.5q-17 0 -27 11q-10 11 -10 26q0 13 10.5 25.5q10.5 12.5 27.5 13.5q-6 10 -18 20.5q-12 10.5 -29.5 19q-17.5 8.5 -39 14q-21.5 5.5 -46.5 5.5q-39 0 -73 -15q-34 -15 -59 -42q-25 -27 -39.5 -64q-14.5 -37 -14.5 -81q0 -48 15 -86q15 -38 41.5 -65q26.5 -27 63 -41q36.5 -14 80.5 -14q42 0 80.5 18.5q38.5 18.5 61.5 47.5l19 -13q-29 -42 -74.5 -62.5q-45.5 -20.5 -96.5 -21.5l0 -43q51 -2 74.5 -22q23.5 -20 23.5 -53q0 -33 -28.5 -54q-28.5 -21 -79.5 -21q-28 0 -50.5 9q-22.5 9 -41.5 21l11 17q38 -22 73 -22q36 0 55 14q19 14 19 37q0 23 -16.5 37q-16.5 14 -58.5 14l-6 0z" />
<glyph unicode="&#232;" horiz-adv-x="536" d="M102 222q0 -43 14 -79.5q14 -36.5 39 -63q25 -26.5 61 -41.5q36 -15 81 -15q51 0 90.5 18q39.5 18 62.5 45l17 -19q-25 -31 -72.5 -53.5q-47.5 -22.5 -110.5 -22.5q-53 0 -96 16.5q-43 16.5 -74.5 47.5q-31.5 31 -48.5 75.5q-17 44.5 -17 99.5q0 47 15 89q15 42 44.5 73q29.5 31 71.5 49q42 18 96 18q49 0 88 -14.5q39 -14.5 66.5 -41q27.5 -26.5 42 -64q14.5 -37.5 14.5 -83.5q0 -19 -3 -34zM437 249q2 81 -39 131q-41 50 -119 50q-41 0 -73 -14q-32 -14 -54.5 -38.5q-22.5 -24.5 -35 -57.5q-12.5 -33 -14.5 -71zM171 683l37 30l104 -151l-19 -12z" />
<glyph unicode="&#233;" horiz-adv-x="536" d="M102 222q0 -43 14 -79.5q14 -36.5 39 -63q25 -26.5 61 -41.5q36 -15 81 -15q51 0 90.5 18q39.5 18 62.5 45l17 -19q-25 -31 -72.5 -53.5q-47.5 -22.5 -110.5 -22.5q-53 0 -96 16.5q-43 16.5 -74.5 47.5q-31.5 31 -48.5 75.5q-17 44.5 -17 99.5q0 47 15 89q15 42 44.5 73q29.5 31 71.5 49q42 18 96 18q49 0 88 -14.5q39 -14.5 66.5 -41q27.5 -26.5 42 -64q14.5 -37.5 14.5 -83.5q0 -19 -3 -34zM437 249q2 81 -39 131q-41 50 -119 50q-41 0 -73 -14q-32 -14 -54.5 -38.5q-22.5 -24.5 -35 -57.5q-12.5 -33 -14.5 -71zM249 561l104 152l37 -29l-124 -134z" />
<glyph unicode="&#234;" horiz-adv-x="536" d="M102 222q0 -43 14 -79.5q14 -36.5 39 -63q25 -26.5 61 -41.5q36 -15 81 -15q51 0 90.5 18q39.5 18 62.5 45l17 -19q-25 -31 -72.5 -53.5q-47.5 -22.5 -110.5 -22.5q-53 0 -96 16.5q-43 16.5 -74.5 47.5q-31.5 31 -48.5 75.5q-17 44.5 -17 99.5q0 47 15 89q15 42 44.5 73q29.5 31 71.5 49q42 18 96 18q49 0 88 -14.5q39 -14.5 66.5 -41q27.5 -26.5 42 -64q14.5 -37.5 14.5 -83.5q0 -19 -3 -34zM437 249q2 81 -39 131q-41 50 -119 50q-41 0 -73 -14q-32 -14 -54.5 -38.5q-22.5 -24.5 -35 -57.5q-12.5 -33 -14.5 -71zM148 568l127 142h4l125 -142l-16 -14l-111 109l-113 -109z" />
<glyph unicode="&#235;" horiz-adv-x="536" d="M102 222q0 -43 14 -79.5q14 -36.5 39 -63q25 -26.5 61 -41.5q36 -15 81 -15q51 0 90.5 18q39.5 18 62.5 45l17 -19q-25 -31 -72.5 -53.5q-47.5 -22.5 -110.5 -22.5q-53 0 -96 16.5q-43 16.5 -74.5 47.5q-31.5 31 -48.5 75.5q-17 44.5 -17 99.5q0 47 15 89q15 42 44.5 73q29.5 31 71.5 49q42 18 96 18q49 0 88 -14.5q39 -14.5 66.5 -41q27.5 -26.5 42 -64q14.5 -37.5 14.5 -83.5q0 -19 -3 -34zM437 249q2 81 -39 131q-41 50 -119 50q-41 0 -73 -14q-32 -14 -54.5 -38.5q-22.5 -24.5 -35 -57.5q-12.5 -33 -14.5 -71zM174 593q-16 0 -26.5 10q-10.5 10 -10.5 27q0 16 10.5 26q10.5 10 26.5 10q13 0 23.5 -10q10.5 -10 10.5 -26q0 -17 -10.5 -27q-10.5 -10 -23.5 -10zt0 0zM380 593q-15 0 -25.5 10q-10.5 10 -10.5 27q0 16 10.5 26q10.5 10 25.5 10q13 0 24 -10q11 -10 11 -26q0 -17 -11 -27t-24 -10z" />
<glyph unicode="&#236;" horiz-adv-x="273" d="M53 30h63v390h-63v30h111v-420h66v-30h-177zM22 683l37 30l104 -151l-19 -12z" />
<glyph unicode="&#237;" horiz-adv-x="273" d="M53 30h63v390h-63v30h111v-420h66v-30h-177zM105 561l104 152l37 -29l-124 -134z" />
<glyph unicode="&#238;" horiz-adv-x="273" d="M53 30h63v390h-63v30h111v-420h66v-30h-177zM10 568l127 142h4l125 -142l-16 -14l-111 109l-113 -109z" />
<glyph unicode="&#239;" horiz-adv-x="273" d="M53 30h63v390h-63v30h111v-420h66v-30h-177zM36 593q-16 0 -26.5 10q-10.5 10 -10.5 27q0 16 10.5 26q10.5 10 26.5 10q13 0 23.5 -10q10.5 -10 10.5 -26q0 -17 -10.5 -27q-10.5 -10 -23.5 -10zt0 0zM242 593q-15 0 -25.5 10q-10.5 10 -10.5 27q0 16 10.5 26q10.5 10 25.5 10q13 0 24 -10q11 -10 11 -26q0 -17 -11 -27t-24 -10z" />
<glyph unicode="&#240;" horiz-adv-x="573" d="M303 625q-56 47 -116 73l24 12q66 -26 123 -71l109 53l11 -24l-95 -49q78 -69 123 -163.5q45 -94.5 45 -198.5q0 -62 -17.5 -111q-17.5 -49 -49 -83.5q-31.5 -34.5 -75.5 -53q-44 -18.5 -98 -18.5q-54 0 -98 17.5q-44 17.5 -75.5 49q-31.5 31.5 -49 74q-17.5 42.5 -17.5 93.5q0 51 17 93.5q17 42.5 48 74q31 31.5 74 49q43 17.5 94 17.5q67 0 111 -29.5q44 -29.5 72 -71.5q-13 74 -49.5 136q-36.5 62 -87.5 110l-121 -61l-12 26zM287 20q42 0 77 17q35 17 59.5 48.5q24.5 31.5 38 77.5q13.5 46 12.5 103q-5 31 -19.5 60.5q-14.5 29.5 -38.5 52.5q-24 23 -56.5 37q-32.5 14 -72.5 14q-41 0 -75 -14.5q-34 -14.5 -59.5 -41q-25.5 -26.5 -39.5 -64.5q-14 -38 -14 -85q0 -47 14 -85q14 -38 39 -64.5q25 -26.5 59.5 -41t75.5 -14.5z" />
<glyph unicode="&#241;" horiz-adv-x="611" d="M53 30h66v390h-66v30h115v-73q13 17 33 32q20 15 44.5 26q24.5 11 51 17q26.5 6 52.5 6q88 0 128.5 -47q40.5 -47 40.5 -139v-242h63v-30h-167v30h55v223q0 88 -34 129.5q-34 41.5 -117 41.5q-25 0 -48 -6.5q-23 -6.5 -42.5 -17q-19.5 -10.5 -35 -24q-15.5 -13.5 -24.5 -26.5l0 -320h54v-30h-169zM462 626q-24 -31 -47.5 -45q-23.5 -14 -43.5 -14q-17 0 -30 7q-13 7 -25.5 16q-12.5 9 -25.5 16q-13 7 -30 7q-15 0 -33.5 -7.5q-18.5 -7.5 -41.5 -25.5l-11 13q49 56 91 56q18 0 31.5 -7.5q13.5 -7.5 26 -16q12.5 -8.5 25.5 -16q13 -7.5 28 -7.5q17 0 34.5 8q17.5 8 40.5 29z" />
<glyph unicode="&#242;" horiz-adv-x="573" d="M287 -10q-56 0 -100.5 17.5q-44.5 17.5 -75.5 49q-31 31.5 -47.5 74.5q-16.5 43 -16.5 94q0 51 17 94q17 43 48 74.5q31 31.5 75.5 49q44.5 17.5 99.5 17.5q55 0 99 -17.5q44 -17.5 75.5 -49q31.5 -31.5 48.5 -74.5q17 -43 17 -94q0 -51 -17 -94q-17 -43 -48.5 -74.5q-31.5 -31.5 -75.5 -49q-44 -17.5 -99 -17.5zt0 0zM287 19q85 0 135 55q50 55 50 151q0 45 -13 83q-13 38 -37.5 65q-24.5 27 -58.5 42.5q-34 15.5 -76 15.5q-42 0 -76.5 -15q-34.5 -15 -58.5 -42.5q-24 -27.5 -37.5 -65.5q-13.5 -38 -13.5 -83q0 -45 13 -83q13 -38 37.5 -65q24.5 -27 59 -42.5q34.5 -15.5 76.5 -15.5zt0 0zM183 683l37 30l104 -151l-19 -12z" />
<glyph unicode="&#243;" horiz-adv-x="573" d="M287 -10q-56 0 -100.5 17.5q-44.5 17.5 -75.5 49q-31 31.5 -47.5 74.5q-16.5 43 -16.5 94q0 51 17 94q17 43 48 74.5q31 31.5 75.5 49q44.5 17.5 99.5 17.5q55 0 99 -17.5q44 -17.5 75.5 -49q31.5 -31.5 48.5 -74.5q17 -43 17 -94q0 -51 -17 -94q-17 -43 -48.5 -74.5q-31.5 -31.5 -75.5 -49q-44 -17.5 -99 -17.5zt0 0zM287 19q85 0 135 55q50 55 50 151q0 45 -13 83q-13 38 -37.5 65q-24.5 27 -58.5 42.5q-34 15.5 -76 15.5q-42 0 -76.5 -15q-34.5 -15 -58.5 -42.5q-24 -27.5 -37.5 -65.5q-13.5 -38 -13.5 -83q0 -45 13 -83q13 -38 37.5 -65q24.5 -27 59 -42.5q34.5 -15.5 76.5 -15.5zt0 0zM249 561l104 152l37 -29l-124 -134z" />
<glyph unicode="&#244;" horiz-adv-x="573" d="M287 -10q-56 0 -100.5 17.5q-44.5 17.5 -75.5 49q-31 31.5 -47.5 74.5q-16.5 43 -16.5 94q0 51 17 94q17 43 48 74.5q31 31.5 75.5 49q44.5 17.5 99.5 17.5q55 0 99 -17.5q44 -17.5 75.5 -49q31.5 -31.5 48.5 -74.5q17 -43 17 -94q0 -51 -17 -94q-17 -43 -48.5 -74.5q-31.5 -31.5 -75.5 -49q-44 -17.5 -99 -17.5zt0 0zM287 19q85 0 135 55q50 55 50 151q0 45 -13 83q-13 38 -37.5 65q-24.5 27 -58.5 42.5q-34 15.5 -76 15.5q-42 0 -76.5 -15q-34.5 -15 -58.5 -42.5q-24 -27.5 -37.5 -65.5q-13.5 -38 -13.5 -83q0 -45 13 -83q13 -38 37.5 -65q24.5 -27 59 -42.5q34.5 -15.5 76.5 -15.5zt0 0zM157 568l127 142h4l125 -142l-16 -14l-111 109l-113 -109z" />
<glyph unicode="&#245;" horiz-adv-x="573" d="M287 -10q-56 0 -100.5 17.5q-44.5 17.5 -75.5 49q-31 31.5 -47.5 74.5q-16.5 43 -16.5 94q0 51 17 94q17 43 48 74.5q31 31.5 75.5 49q44.5 17.5 99.5 17.5q55 0 99 -17.5q44 -17.5 75.5 -49q31.5 -31.5 48.5 -74.5q17 -43 17 -94q0 -51 -17 -94q-17 -43 -48.5 -74.5q-31.5 -31.5 -75.5 -49q-44 -17.5 -99 -17.5zt0 0zM287 19q85 0 135 55q50 55 50 151q0 45 -13 83q-13 38 -37.5 65q-24.5 27 -58.5 42.5q-34 15.5 -76 15.5q-42 0 -76.5 -15q-34.5 -15 -58.5 -42.5q-24 -27.5 -37.5 -65.5q-13.5 -38 -13.5 -83q0 -45 13 -83q13 -38 37.5 -65q24.5 -27 59 -42.5q34.5 -15.5 76.5 -15.5zt0 0zM430 626q-24 -31 -47.5 -45q-23.5 -14 -43.5 -14q-17 0 -30 7q-13 7 -25.5 16q-12.5 9 -25.5 16q-13 7 -30 7q-15 0 -33.5 -7.5q-18.5 -7.5 -41.5 -25.5l-11 13q49 56 91 56q18 0 31.5 -7.5q13.5 -7.5 26 -16q12.5 -8.5 25.5 -16q13 -7.5 28 -7.5q17 0 34.5 8q17.5 8 40.5 29z" />
<glyph unicode="&#246;" horiz-adv-x="573" d="M287 -10q-56 0 -100.5 17.5q-44.5 17.5 -75.5 49q-31 31.5 -47.5 74.5q-16.5 43 -16.5 94q0 51 17 94q17 43 48 74.5q31 31.5 75.5 49q44.5 17.5 99.5 17.5q55 0 99 -17.5q44 -17.5 75.5 -49q31.5 -31.5 48.5 -74.5q17 -43 17 -94q0 -51 -17 -94q-17 -43 -48.5 -74.5q-31.5 -31.5 -75.5 -49q-44 -17.5 -99 -17.5zt0 0zM287 19q85 0 135 55q50 55 50 151q0 45 -13 83q-13 38 -37.5 65q-24.5 27 -58.5 42.5q-34 15.5 -76 15.5q-42 0 -76.5 -15q-34.5 -15 -58.5 -42.5q-24 -27.5 -37.5 -65.5q-13.5 -38 -13.5 -83q0 -45 13 -83q13 -38 37.5 -65q24.5 -27 59 -42.5q34.5 -15.5 76.5 -15.5zt0 0zM185 593q-16 0 -26.5 10q-10.5 10 -10.5 27q0 16 10.5 26q10.5 10 26.5 10q13 0 23.5 -10q10.5 -10 10.5 -26q0 -17 -10.5 -27q-10.5 -10 -23.5 -10zt0 0zM391 593q-15 0 -25.5 10q-10.5 10 -10.5 27q0 16 10.5 26q10.5 10 25.5 10q13 0 24 -10q11 -10 11 -26q0 -17 -11 -27t-24 -10z" />
<glyph unicode="&#247;" horiz-adv-x="587" d="M256 197q0 17 11.5 27q11.5 10 27.5 10q15 0 26.5 -10q11.5 -10 11.5 -27q0 -20 -11.5 -30q-11.5 -10 -26.5 -10q-16 0 -27.5 10q-11.5 10 -11.5 30zt0 0zM256 525q0 18 11.5 28q11.5 10 27.5 10q15 0 26.5 -10q11.5 -10 11.5 -28q0 -19 -11.5 -29q-11.5 -10 -26.5 -10q-16 0 -27.5 10q-11.5 10 -11.5 29zt0 0zM72 376h443v-32l-443 0z" />
<glyph unicode="&#248;" horiz-adv-x="575" d="M57 8l52 51q-29 32 -45 74q-16 42 -16 92q0 51 17 94q17 43 48 74.5q31 31.5 75.5 49q44.5 17.5 99.5 17.5q53 0 95.5 -16.5q42.5 -16.5 73.5 -45.5l54 51l17 -16l-54 -52q54 -63 54 -156q0 -51 -17 -94q-17 -43 -48 -74.5q-31 -31.5 -75.5 -49q-44.5 -17.5 -99.5 -17.5q-99 0 -161 53l-54 -54zM427 368q-25 29 -60 46q-35 17 -79 17q-42 0 -76 -15q-34 -15 -58.5 -42q-24.5 -27 -38 -65q-13.5 -38 -13.5 -84q0 -40 11 -73.5q11 -33.5 30 -59.5zM158 72q50 -53 130 -53q85 0 135.5 54.5q50.5 54.5 50.5 151.5q0 36 -9 66.5q-9 30.5 -26 56.5z" />
<glyph unicode="&#249;" horiz-adv-x="585" d="M439 420h-62v30h111v-420h59v-30h-107v83q-13 -18 -31.5 -34.5q-18.5 -16.5 -41.5 -29q-23 -12.5 -49 -20.5q-26 -8 -53 -8q-88 0 -131 48.5q-43 48.5 -41 151.5q0 6 0 23.5q0 17.5 0 41q0 23.5 0.5 50q0.5 26.5 0.5 50q0 23.5 0 41q0 17.5 0 23.5l-59 0v30h109q0 -6 0 -26q0 -20 0 -46.5q0 -26.5 -0.5 -57q-0.5 -30.5 -0.5 -57q0 -26.5 0 -46q0 -19.5 0 -25.5q-1 -85 32 -127q33 -42 109 -42q26 0 50 7.5q24 7.5 44 19q20 11.5 35.5 25.5q15.5 14 25.5 28zM185 683l37 30l104 -151l-19 -12z" />
<glyph unicode="&#250;" horiz-adv-x="585" d="M439 420h-62v30h111v-420h59v-30h-107v83q-13 -18 -31.5 -34.5q-18.5 -16.5 -41.5 -29q-23 -12.5 -49 -20.5q-26 -8 -53 -8q-88 0 -131 48.5q-43 48.5 -41 151.5q0 6 0 23.5q0 17.5 0 41q0 23.5 0.5 50q0.5 26.5 0.5 50q0 23.5 0 41q0 17.5 0 23.5l-59 0v30h109q0 -6 0 -26q0 -20 0 -46.5q0 -26.5 -0.5 -57q-0.5 -30.5 -0.5 -57q0 -26.5 0 -46q0 -19.5 0 -25.5q-1 -85 32 -127q33 -42 109 -42q26 0 50 7.5q24 7.5 44 19q20 11.5 35.5 25.5q15.5 14 25.5 28zM253 561l104 152l37 -29l-124 -134z" />
<glyph unicode="&#251;" horiz-adv-x="585" d="M439 420h-62v30h111v-420h59v-30h-107v83q-13 -18 -31.5 -34.5q-18.5 -16.5 -41.5 -29q-23 -12.5 -49 -20.5q-26 -8 -53 -8q-88 0 -131 48.5q-43 48.5 -41 151.5q0 6 0 23.5q0 17.5 0 41q0 23.5 0.5 50q0.5 26.5 0.5 50q0 23.5 0 41q0 17.5 0 23.5l-59 0v30h109q0 -6 0 -26q0 -20 0 -46.5q0 -26.5 -0.5 -57q-0.5 -30.5 -0.5 -57q0 -26.5 0 -46q0 -19.5 0 -25.5q-1 -85 32 -127q33 -42 109 -42q26 0 50 7.5q24 7.5 44 19q20 11.5 35.5 25.5q15.5 14 25.5 28zM156 568l127 142h4l125 -142l-16 -14l-111 109l-113 -109z" />
<glyph unicode="&#252;" horiz-adv-x="585" d="M439 420h-62v30h111v-420h59v-30h-107v83q-13 -18 -31.5 -34.5q-18.5 -16.5 -41.5 -29q-23 -12.5 -49 -20.5q-26 -8 -53 -8q-88 0 -131 48.5q-43 48.5 -41 151.5q0 6 0 23.5q0 17.5 0 41q0 23.5 0.5 50q0.5 26.5 0.5 50q0 23.5 0 41q0 17.5 0 23.5l-59 0v30h109q0 -6 0 -26q0 -20 0 -46.5q0 -26.5 -0.5 -57q-0.5 -30.5 -0.5 -57q0 -26.5 0 -46q0 -19.5 0 -25.5q-1 -85 32 -127q33 -42 109 -42q26 0 50 7.5q24 7.5 44 19q20 11.5 35.5 25.5q15.5 14 25.5 28zM188 593q-16 0 -26.5 10q-10.5 10 -10.5 27q0 16 10.5 26q10.5 10 26.5 10q13 0 23.5 -10q10.5 -10 10.5 -26q0 -17 -10.5 -27q-10.5 -10 -23.5 -10zt0 0zM394 593q-15 0 -25.5 10q-10.5 10 -10.5 27q0 16 10.5 26q10.5 10 25.5 10q13 0 24 -10q11 -10 11 -26q0 -17 -11 -27t-24 -10z" />
<glyph unicode="&#253;" horiz-adv-x="518" d="M48 420h-38v30h156v-30h-61l148 -301q8 -19 18.5 -39.5q10.5 -20.5 15.5 -33.5q5 14 14 36.5q9 22.5 16 37.5l121 300h-67v30h138v-30h-37l-182 -438q-22 -54 -42.5 -89q-20.5 -35 -41 -55.5q-20.5 -20.5 -41.5 -29q-21 -8.5 -44 -8.5q-29 0 -51.5 14q-22.5 14 -22.5 42q0 17 10 27q10 10 27 10q17 0 25.5 -10.5q8.5 -10.5 8.5 -23.5q0 -10 -6 -18q-6 -8 -14 -11q5 -3 12 -4.5q7 -1.5 12 -1.5q37 -1 69 33.5q32 34.5 65 115.5l9 24zM219 561l104 152l37 -29l-124 -134z" />
<glyph unicode="&#254;" horiz-adv-x="584" d="M38 -170h67v840h-67v30h115v-306q25 28 70.5 46.5q45.5 18.5 94.5 18.5q52 0 93 -17q41 -17 69 -47q28 -30 42.5 -71.5q14.5 -41.5 14.5 -91.5q0 -53 -16 -97q-16 -44 -46.5 -76q-30.5 -32 -74 -50q-43.5 -18 -97.5 -18q-42 0 -81 10.5q-39 10.5 -68 31.5l0 -203h76v-30h-192zM154 66q36 -26 72.5 -35.5q36.5 -9.5 71.5 -9.5q43 0 77.5 15.5q34.5 15.5 58.5 43q24 27.5 37 66q13 38.5 13 83.5q0 90 -47 144q-47 54 -132 54q-25 0 -48 -6q-23 -6 -43 -15.5q-20 -9.5 -35.5 -21.5q-15.5 -12 -24.5 -24z" />
<glyph unicode="&#255;" horiz-adv-x="518" d="M48 420h-38v30h156v-30h-61l148 -301q8 -19 18.5 -39.5q10.5 -20.5 15.5 -33.5q5 14 14 36.5q9 22.5 16 37.5l121 300h-67v30h138v-30h-37l-182 -438q-22 -54 -42.5 -89q-20.5 -35 -41 -55.5q-20.5 -20.5 -41.5 -29q-21 -8.5 -44 -8.5q-29 0 -51.5 14q-22.5 14 -22.5 42q0 17 10 27q10 10 27 10q17 0 25.5 -10.5q8.5 -10.5 8.5 -23.5q0 -10 -6 -18q-6 -8 -14 -11q5 -3 12 -4.5q7 -1.5 12 -1.5q37 -1 69 33.5q32 34.5 65 115.5l9 24zM151 593q-16 0 -26.5 10q-10.5 10 -10.5 27q0 16 10.5 26q10.5 10 26.5 10q13 0 23.5 -10q10.5 -10 10.5 -26q0 -17 -10.5 -27q-10.5 -10 -23.5 -10zt0 0zM357 593q-15 0 -25.5 10q-10.5 10 -10.5 27q0 16 10.5 26q10.5 10 25.5 10q13 0 24 -10q11 -10 11 -26q0 -17 -11 -27t-24 -10z" />
<glyph unicode="&#256;" horiz-adv-x="739" d="M7 29h60l268 673h64l276 -673h61v-29h-204v29h80l-96 237h-317l-95 -237h86v-29h-183zM505 294l-118 289q-8 21 -17 45q-9 24 -14 34l-2 0q-4 -11 -13 -34q-9 -23 -17 -45l-116 -289zM213 813h299v-27l-299 0z" />
<glyph unicode="&#257;" horiz-adv-x="497" d="M355 306q0 64 -28.5 95.5q-28.5 31.5 -88.5 31.5q-46 0 -76 -13.5q-30 -13.5 -42 -26.5q12 -2 22 -12.5q10 -10.5 10 -27.5q0 -15 -10.5 -25q-10.5 -10 -26.5 -10q-16 0 -25.5 11.5q-9.5 11.5 -9.5 28.5q0 19 13.5 37q13.5 18 36.5 32q23 14 53.5 23q30.5 9 65.5 9q79 0 117 -40.5q38 -40.5 38 -116.5q0 -8 0 -32.5q0 -24.5 -0.5 -57q-0.5 -32.5 -1 -67q-0.5 -34.5 -0.5 -62.5q0 -21 3.5 -37q3.5 -16 23.5 -16q15 0 37 13l13 -25q-17 -16 -34.5 -21q-17.5 -5 -28.5 -5q-14 0 -28 5.5q-14 5.5 -23 22.5q-6 11 -8 25.5q-2 14.5 -2 33.5q-11 -16 -25.5 -31.5q-14.5 -15.5 -35 -28q-20.5 -12.5 -46.5 -20q-26 -7.5 -60 -7.5q-29 0 -55 8.5q-26 8.5 -45 25q-19 16.5 -30 40q-11 23.5 -11 53.5q0 31 12.5 56q12.5 25 35.5 41.5q23 16.5 55 25.5q32 9 71 9q14 0 32 -2q18 -2 36.5 -6q18.5 -4 35.5 -9.5q17 -5.5 29 -12.5q1 17 1 36q0 19 0 49zt0 0zM99 125q0 -24 9 -43q9 -19 24 -32q15 -13 35 -20q20 -7 42 -7q30 0 53 7.5q23 7.5 40.5 19q17.5 11.5 30 25.5q12.5 14 20.5 27l1 97q-26 14 -58.5 22q-32.5 8 -67.5 8q-25 0 -48 -6.5q-23 -6.5 -41 -20q-18 -13.5 -29 -33q-11 -19.5 -11 -44.5zt0 0zM112 645h248v-27l-248 0z" />
<glyph unicode="&#258;" horiz-adv-x="739" d="M7 29h60l268 673h64l276 -673h61v-29h-204v29h80l-96 237h-317l-95 -237h86v-29h-183zM505 294l-118 289q-8 21 -17 45q-9 24 -14 34l-2 0q-4 -11 -13 -34q-9 -23 -17 -45l-116 -289zM520 847q-10 -16 -25 -33q-15 -17 -34.5 -30.5q-19.5 -13.5 -43.5 -22q-24 -8.5 -52 -8.5q-32 0 -59 10q-27 10 -47.5 24.5q-20.5 14.5 -34 31q-13.5 16.5 -19.5 28.5l17 11q8 -10 20.5 -20.5q12.5 -10.5 30.5 -19.5q18 -9 40.5 -15q22.5 -6 51.5 -6q25 0 46 5.5q21 5.5 39 14.5q18 9 31.5 20q13.5 11 23.5 21z" />
<glyph unicode="&#259;" horiz-adv-x="497" d="M355 306q0 64 -28.5 95.5q-28.5 31.5 -88.5 31.5q-46 0 -76 -13.5q-30 -13.5 -42 -26.5q12 -2 22 -12.5q10 -10.5 10 -27.5q0 -15 -10.5 -25q-10.5 -10 -26.5 -10q-16 0 -25.5 11.5q-9.5 11.5 -9.5 28.5q0 19 13.5 37q13.5 18 36.5 32q23 14 53.5 23q30.5 9 65.5 9q79 0 117 -40.5q38 -40.5 38 -116.5q0 -8 0 -32.5q0 -24.5 -0.5 -57q-0.5 -32.5 -1 -67q-0.5 -34.5 -0.5 -62.5q0 -21 3.5 -37q3.5 -16 23.5 -16q15 0 37 13l13 -25q-17 -16 -34.5 -21q-17.5 -5 -28.5 -5q-14 0 -28 5.5q-14 5.5 -23 22.5q-6 11 -8 25.5q-2 14.5 -2 33.5q-11 -16 -25.5 -31.5q-14.5 -15.5 -35 -28q-20.5 -12.5 -46.5 -20q-26 -7.5 -60 -7.5q-29 0 -55 8.5q-26 8.5 -45 25q-19 16.5 -30 40q-11 23.5 -11 53.5q0 31 12.5 56q12.5 25 35.5 41.5q23 16.5 55 25.5q32 9 71 9q14 0 32 -2q18 -2 36.5 -6q18.5 -4 35.5 -9.5q17 -5.5 29 -12.5q1 17 1 36q0 19 0 49zt0 0zM99 125q0 -24 9 -43q9 -19 24 -32q15 -13 35 -20q20 -7 42 -7q30 0 53 7.5q23 7.5 40.5 19q17.5 11.5 30 25.5q12.5 14 20.5 27l1 97q-26 14 -58.5 22q-32.5 8 -67.5 8q-25 0 -48 -6.5q-23 -6.5 -41 -20q-18 -13.5 -29 -33q-11 -19.5 -11 -44.5zt0 0zM379 668q-10 -17 -23 -32.5q-13 -15.5 -29.5 -28.5q-16.5 -13 -37.5 -20.5q-21 -7.5 -46 -7.5q-29 0 -52 9.5q-23 9.5 -40 23q-17 13.5 -28.5 29q-11.5 15.5 -17.5 26.5l20 14q8 -9 18.5 -20.5q10.5 -11.5 25 -21.5q14.5 -10 33.5 -17q19 -7 43 -7q41 0 69 20.5q28 20.5 48 44.5z" />
<glyph unicode="&#260;" horiz-adv-x="739" d="M7 29h60l268 673h64l276 -673h61v-29h-204v29h80l-96 237h-317l-95 -237h86v-29h-183zM505 294l-118 289q-8 21 -17 45q-9 24 -14 34l-2 0q-4 -11 -13 -34q-9 -23 -17 -45l-116 -289zM712 0q-24 0 -46.5 -7.5q-22.5 -7.5 -39.5 -21q-17 -13.5 -27 -32.5q-10 -19 -10 -41q0 -20 7.5 -33q7.5 -13 18 -21q10.5 -8 22.5 -11q12 -3 22 -3q9 0 21 1.5q12 1.5 25 7.5l11 -18q-13 -8 -31 -14.5q-18 -6.5 -39 -6.5q-16 0 -34.5 4.5q-18.5 4.5 -34.5 15q-16 10.5 -26.5 28q-10.5 17.5 -10.5 43.5q0 29 15.5 51.5q15.5 22.5 40 38.5q24.5 16 55.5 24q31 8 61 8z" />
<glyph unicode="&#261;" horiz-adv-x="497" d="M464 30v-30h-1q-24 0 -47.5 -7.5q-23.5 -7.5 -42 -21.5q-18.5 -14 -29.5 -33q-11 -19 -11 -41q0 -21 8.5 -34.5q8.5 -13.5 20.5 -22q12 -8.5 25.5 -11.5q13.5 -3 24.5 -3q11 0 24 2.5q13 2.5 26 8.5l6 -17q-13 -8 -31.5 -14q-18.5 -6 -41.5 -6q-15 0 -33.5 4.5q-18.5 4.5 -34 15q-15.5 10.5 -26 28q-10.5 17.5 -10.5 43.5q0 40 28 68.5q28 28.5 68 42.5q-7 3 -19.5 14q-12.5 11 -12.5 43v20q-11 -16 -25.5 -31.5q-14.5 -15.5 -35 -28q-20.5 -12.5 -46.5 -20q-26 -7.5 -60 -7.5q-29 0 -55 8.5q-26 8.5 -45 25q-19 16.5 -30 40q-11 23.5 -11 53.5q0 31 12.5 56q12.5 25 35.5 41.5q23 16.5 55 25.5q32 9 71 9q14 0 32 -2q18 -2 36.5 -6q18.5 -4 35.5 -9.5q17 -5.5 29 -12.5q1 17 1 36q0 19 0 49q0 64 -28.5 95.5q-28.5 31.5 -88.5 31.5q-46 0 -76 -13.5q-30 -13.5 -42 -26.5q12 -2 22 -12.5q10 -10.5 10 -27.5q0 -15 -10.5 -25q-10.5 -10 -26.5 -10q-16 0 -25.5 11.5q-9.5 11.5 -9.5 28.5q0 19 13.5 37q13.5 18 36.5 32q23 14 53.5 23q30.5 9 65.5 9q79 0 117 -40.5q38 -40.5 38 -116.5q0 -9 -0.5 -37q-0.5 -28 -1 -63q-0.5 -35 -1 -71.5q-0.5 -36.5 -0.5 -61.5q0 -5 0 -12q0 -7 2.5 -13q2.5 -6 8.5 -10q6 -4 18 -4zM99 125q0 -24 9 -43q9 -19 24 -32q15 -13 35 -20q20 -7 42 -7q30 0 53 7.5q23 7.5 40.5 19q17.5 11.5 30 25.5q12.5 14 20.5 27l1 97q-26 14 -58.5 22q-32.5 8 -67.5 8q-25 0 -48 -6.5q-23 -6.5 -41 -20q-18 -13.5 -29 -33t-11 -44.5z" />
<glyph unicode="&#262;" horiz-adv-x="701" d="M614 189h32v-189h-32v65q-39 -36 -94 -55q-55 -19 -112 -19q-78 0 -143 25q-65 25 -111.5 71.5q-46.5 46.5 -72.5 113q-26 66.5 -26 149.5q0 75 25 140.5q25 65.5 70 114q45 48.5 108 76.5q63 28 140 28q66 0 117.5 -17q51.5 -17 93.5 -55l0 63h33v-178h-33l-3 78q-38 38 -84.5 57.5q-46.5 19.5 -108.5 19.5q-66 0 -119.5 -25q-53.5 -25 -92 -69q-38.5 -44 -59 -103.5q-20.5 -59.5 -20.5 -129.5q0 -74 22 -134q22 -60 61.5 -103q39.5 -43 94.5 -66.5q55 -23.5 121 -23.5q60 0 107.5 22q47.5 22 82.5 56zM333 756l161 113l29 -44l-181 -84z" />
<glyph unicode="&#263;" horiz-adv-x="502" d="M48 225q0 49 17 92q17 43 48 74.5q31 31.5 73 49.5q42 18 93 18q37 0 70 -10q33 -10 57.5 -26.5q24.5 -16.5 38.5 -38q14 -21.5 14 -45.5q0 -21 -11.5 -32.5q-11.5 -11.5 -27.5 -11.5q-17 0 -27 11q-10 11 -10 26q0 13 10.5 25.5q10.5 12.5 27.5 13.5q-6 10 -18 20.5q-12 10.5 -29.5 19q-17.5 8.5 -39 14q-21.5 5.5 -46.5 5.5q-39 0 -73 -15q-34 -15 -59 -42q-25 -27 -39.5 -64q-14.5 -37 -14.5 -81q0 -48 15 -86q15 -38 41.5 -65q26.5 -27 63 -41q36.5 -14 80.5 -14q42 0 80.5 18.5q38.5 18.5 61.5 47.5l19 -13q-29 -43 -76 -63.5q-47 -20.5 -99 -20.5q-53 0 -97.5 16.5q-44.5 16.5 -76 47q-31.5 30.5 -49 74q-17.5 43.5 -17.5 96.5zt0 0zM244 561l104 152l37 -29l-124 -134z" />
<glyph unicode="&#264;" horiz-adv-x="701" d="M614 189h32v-189h-32v65q-39 -36 -94 -55q-55 -19 -112 -19q-78 0 -143 25q-65 25 -111.5 71.5q-46.5 46.5 -72.5 113q-26 66.5 -26 149.5q0 75 25 140.5q25 65.5 70 114q45 48.5 108 76.5q63 28 140 28q66 0 117.5 -17q51.5 -17 93.5 -55l0 63h33v-178h-33l-3 78q-38 38 -84.5 57.5q-46.5 19.5 -108.5 19.5q-66 0 -119.5 -25q-53.5 -25 -92 -69q-38.5 -44 -59 -103.5q-20.5 -59.5 -20.5 -129.5q0 -74 22 -134q22 -60 61.5 -103q39.5 -43 94.5 -66.5q55 -23.5 121 -23.5q60 0 107.5 22q47.5 22 82.5 56zM232 754l165 108h4l166 -107l-14 -14l-154 73l-156 -73z" />
<glyph unicode="&#265;" horiz-adv-x="502" d="M48 225q0 49 17 92q17 43 48 74.5q31 31.5 73 49.5q42 18 93 18q37 0 70 -10q33 -10 57.5 -26.5q24.5 -16.5 38.5 -38q14 -21.5 14 -45.5q0 -21 -11.5 -32.5q-11.5 -11.5 -27.5 -11.5q-17 0 -27 11q-10 11 -10 26q0 13 10.5 25.5q10.5 12.5 27.5 13.5q-6 10 -18 20.5q-12 10.5 -29.5 19q-17.5 8.5 -39 14q-21.5 5.5 -46.5 5.5q-39 0 -73 -15q-34 -15 -59 -42q-25 -27 -39.5 -64q-14.5 -37 -14.5 -81q0 -48 15 -86q15 -38 41.5 -65q26.5 -27 63 -41q36.5 -14 80.5 -14q42 0 80.5 18.5q38.5 18.5 61.5 47.5l19 -13q-29 -43 -76 -63.5q-47 -20.5 -99 -20.5q-53 0 -97.5 16.5q-44.5 16.5 -76 47q-31.5 30.5 -49 74q-17.5 43.5 -17.5 96.5zt0 0zM150 568l127 142h4l125 -142l-16 -14l-111 109l-113 -109z" />
<glyph unicode="&#266;" horiz-adv-x="701" d="M614 189h32v-189h-32v65q-39 -36 -94 -55q-55 -19 -112 -19q-78 0 -143 25q-65 25 -111.5 71.5q-46.5 46.5 -72.5 113q-26 66.5 -26 149.5q0 75 25 140.5q25 65.5 70 114q45 48.5 108 76.5q63 28 140 28q66 0 117.5 -17q51.5 -17 93.5 -55l0 63h33v-178h-33l-3 78q-38 38 -84.5 57.5q-46.5 19.5 -108.5 19.5q-66 0 -119.5 -25q-53.5 -25 -92 -69q-38.5 -44 -59 -103.5q-20.5 -59.5 -20.5 -129.5q0 -74 22 -134q22 -60 61.5 -103q39.5 -43 94.5 -66.5q55 -23.5 121 -23.5q60 0 107.5 22q47.5 22 82.5 56zM387 759q-18 0 -30 11q-12 11 -12 29q0 17 12 28q12 11 30 11q16 0 28.5 -11q12.5 -11 12.5 -28q0 -18 -12.5 -29t-28.5 -11z" />
<glyph unicode="&#267;" horiz-adv-x="502" d="M48 225q0 49 17 92q17 43 48 74.5q31 31.5 73 49.5q42 18 93 18q37 0 70 -10q33 -10 57.5 -26.5q24.5 -16.5 38.5 -38q14 -21.5 14 -45.5q0 -21 -11.5 -32.5q-11.5 -11.5 -27.5 -11.5q-17 0 -27 11q-10 11 -10 26q0 13 10.5 25.5q10.5 12.5 27.5 13.5q-6 10 -18 20.5q-12 10.5 -29.5 19q-17.5 8.5 -39 14q-21.5 5.5 -46.5 5.5q-39 0 -73 -15q-34 -15 -59 -42q-25 -27 -39.5 -64q-14.5 -37 -14.5 -81q0 -48 15 -86q15 -38 41.5 -65q26.5 -27 63 -41q36.5 -14 80.5 -14q42 0 80.5 18.5q38.5 18.5 61.5 47.5l19 -13q-29 -43 -76 -63.5q-47 -20.5 -99 -20.5q-53 0 -97.5 16.5q-44.5 16.5 -76 47q-31.5 30.5 -49 74q-17.5 43.5 -17.5 96.5zt0 0zM285 596q-16 0 -27.5 11q-11.5 11 -11.5 29q0 17 11.5 28q11.5 11 27.5 11q15 0 27 -11q12 -11 12 -28q0 -18 -12 -29t-27 -11z" />
<glyph unicode="&#268;" horiz-adv-x="701" d="M614 189h32v-189h-32v65q-39 -36 -94 -55q-55 -19 -112 -19q-78 0 -143 25q-65 25 -111.5 71.5q-46.5 46.5 -72.5 113q-26 66.5 -26 149.5q0 75 25 140.5q25 65.5 70 114q45 48.5 108 76.5q63 28 140 28q66 0 117.5 -17q51.5 -17 93.5 -55l0 63h33v-178h-33l-3 78q-38 38 -84.5 57.5q-46.5 19.5 -108.5 19.5q-66 0 -119.5 -25q-53.5 -25 -92 -69q-38.5 -44 -59 -103.5q-20.5 -59.5 -20.5 -129.5q0 -74 22 -134q22 -60 61.5 -103q39.5 -43 94.5 -66.5q55 -23.5 121 -23.5q60 0 107.5 22q47.5 22 82.5 56zM405 787l155 75l12 -13l-165 -108h-4l-166 107l13 14z" />
<glyph unicode="&#269;" horiz-adv-x="502" d="M48 225q0 49 17 92q17 43 48 74.5q31 31.5 73 49.5q42 18 93 18q37 0 70 -10q33 -10 57.5 -26.5q24.5 -16.5 38.5 -38q14 -21.5 14 -45.5q0 -21 -11.5 -32.5q-11.5 -11.5 -27.5 -11.5q-17 0 -27 11q-10 11 -10 26q0 13 10.5 25.5q10.5 12.5 27.5 13.5q-6 10 -18 20.5q-12 10.5 -29.5 19q-17.5 8.5 -39 14q-21.5 5.5 -46.5 5.5q-39 0 -73 -15q-34 -15 -59 -42q-25 -27 -39.5 -64q-14.5 -37 -14.5 -81q0 -48 15 -86q15 -38 41.5 -65q26.5 -27 63 -41q36.5 -14 80.5 -14q42 0 80.5 18.5q38.5 18.5 61.5 47.5l19 -13q-29 -43 -76 -63.5q-47 -20.5 -99 -20.5q-53 0 -97.5 16.5q-44.5 16.5 -76 47q-31.5 30.5 -49 74q-17.5 43.5 -17.5 96.5zt0 0zM161 695l15 14l114 -108l111 108l16 -14l-126 -143l-4 0z" />
<glyph unicode="&#270;" horiz-adv-x="788" d="M201 29q23 0 44.5 -0.5q21.5 -0.5 38.5 -0.5q17 0 27.5 -0.5q10.5 -0.5 12.5 -0.5q87 0 151 26.5q64 26.5 106.5 72q42.5 45.5 63.5 106q21 60.5 21 128.5q0 64 -19 121q-19 57 -59.5 100q-40.5 43 -104.5 68q-64 25 -154 25q-22 0 -38.5 -0.5q-16.5 -0.5 -31 -1q-14.5 -0.5 -28.5 -1q-14 -0.5 -30 -0.5zM143 29v642h-86v29h97q39 0 85 1.5q46 1.5 96 1.5q107 0 182.5 -28q75.5 -28 123.5 -75.5q48 -47.5 70 -109.5q22 -62 22 -130q0 -75 -24.5 -141q-24.5 -66 -75 -115q-50.5 -49 -128 -77.5q-77.5 -28.5 -182.5 -28.5q-39 0 -85 1q-46 1 -88 1h-93v29zM374 787l155 75l12 -13l-165 -108h-4l-166 107l13 14z" />
</font>
</defs>
</svg>
