<?xml version="1.0" encoding="UTF-8" standalone="no"?>
<!DOCTYPE svg PUBLIC "-//W3C//DTD SVG 1.1//EN" "http://www.w3.org/Graphics/SVG/1.1/DTD/svg11.dtd" >
<svg xmlns="http://www.w3.org/2000/svg">
<metadata>
Generated by SVGconv.
Copyright   : Copyright  2000 ParaType Inc., ParaType Ltd. All rights reserved.
Designer    : Galina Bannikova, Lyubov Kuznetsova
Foundry     : ParaType Ltd
Foundry URL : http://www.paratype.com
</metadata>
<defs>
<font id="BannikovaWeb-Regular" horiz-adv-x="607" >
<font-face units-per-em="1000" ascent="971" descent="353" >
<font-face-src>
<font-face-name/>
</font-face-src>
</font-face>
<missing-glyph horiz-adv-x="500" />
<glyph unicode="&#13;" horiz-adv-x="233" />
<glyph unicode="&#32;" horiz-adv-x="233" />
<glyph unicode="&#33;" horiz-adv-x="342" d="M112 44q0 25 17 42q17 17 42 17q25 0 42 -17q17 -17 17 -42q0 -25 -17 -42q-17 -17 -42 -17q-25 0 -42 17q-17 17 -17 42zt0 0zM119 580q-2 23 -3.5 39.5q-1.5 16.5 -1.5 30.5q0 25 6.5 39q6.5 14 16 21q9.5 7 19 8.5q9.5 1.5 15.5 1.5q6 0 15.5 -1.5q9.5 -1.5 19 -8.5q9.5 -7 16 -21q6.5 -14 6.5 -39q0 -14 -1.5 -30.5q-1.5 -16.5 -3.5 -39.5l-32 -295q-2 -19 -3 -28.5q-1 -9.5 -2 -17.5q-2 -14 -3 -29q-1 -15 -12 -15q-11 0 -12 15q-1 15 -3 29q-1 8 -2 17.5q-1 9.5 -3 28.5z" />
<glyph unicode="&#34;" horiz-adv-x="459" d="M101 639q-3 27 1 43q4 16 11.5 24.5q7.5 8.5 16.5 11q9 2.5 17 2.5q8 0 17 -2.5q9 -2.5 16.5 -11q7.5 -8.5 11.5 -24.5q4 -16 1 -43l-22 -199q-2 -20 -7.5 -24.5q-5.5 -4.5 -16.5 -4.5q-11 0 -16.5 4.5q-5.5 4.5 -7.5 24.5zM266 639q-3 27 1 43q4 16 11.5 24.5q7.5 8.5 16.5 11q9 2.5 17 2.5q8 0 17 -2.5q9 -2.5 16.5 -11q7.5 -8.5 11.5 -24.5q4 -16 1 -43l-22 -199q-2 -20 -7.5 -24.5q-5.5 -4.5 -16.5 -4.5q-11 0 -16.5 4.5q-5.5 4.5 -7.5 24.5z" />
<glyph unicode="&#35;" horiz-adv-x="833" d="M61 268h204l35 164h-206l11 52h204l40 188h54l-40 -188h165l40 188h52l-40 -188h203l-11 -52h-203l-35 -164h206l-11 -52h-206l-40 -188h-52l40 188h-165l-40 -188h-52l40 188h-204zM482 268l35 164h-165l-35 -164z" />
<glyph unicode="&#36;" horiz-adv-x="540" d="M259 693q-25 3 -47 -3.5q-22 -6.5 -38.5 -21.5q-16.5 -15 -26 -36.5q-9.5 -21.5 -9.5 -47.5q0 -25 7 -43q7 -18 17 -31q10 -13 21 -21.5q11 -8.5 20 -14.5l56 -35zM289 420l116 -72q19 -12 37 -29.5q18 -17.5 32.5 -40.5q14.5 -23 23.5 -50.5q9 -27.5 9 -58.5q0 -48 -20 -80.5q-20 -32.5 -46 -53.5q-23 -19 -47.5 -29.5q-24.5 -10.5 -45.5 -15.5q-21 -5 -37 -6q-16 -1 -22 -1l0 -87h-30v89q-27 4 -45 6.5q-18 2.5 -28.5 3.5q-10.5 1 -15.5 1.5q-5 0.5 -6 0.5q-18 0 -28.5 -2.5q-10.5 -2.5 -17 -5q-6.5 -2.5 -13 -5q-6.5 -2.5 -17.5 -2.5q-10 0 -15.5 4.5q-5.5 4.5 -8.5 10.5q-3 6 -4 12.5q-1 6.5 -1 11.5q-1 16 -1 26q0 10 -2 21q-2 9 -3.5 14.5q-1.5 5.5 -4 11.5q-2.5 6 -5.5 14q-3 8 -7 22q-2 9 -3 20q-1 11 0 21q1 10 4.5 16.5q3.5 6.5 11.5 6.5q14 0 20.5 -10q6.5 -10 12.5 -21q23 -45 47 -68.5q24 -23.5 43 -37.5q27 -20 47.5 -29q20.5 -9 39.5 -14l0 309l-101 63q-42 26 -68 66q-26 40 -26 92q0 45 15.5 79q15.5 34 42 57q26.5 23 62 34q35.5 11 75.5 10l0 69h30v-70q15 -2 24.5 -3.5q9.5 -1.5 17 -3q7.5 -1.5 14.5 -2.5q7 -1 18 -1q11 0 18.5 2q7.5 2 14.5 4q12 5 22 5q6 0 14 -4q8 -4 11 -25q3 -18 2.5 -27q-0.5 -9 2.5 -24q3 -13 7.5 -24.5q4.5 -11.5 9.5 -24.5q3 -8 5.5 -17q2.5 -9 2.5 -19q0 -12 -5.5 -16.5q-5.5 -4.5 -10.5 -4.5q-10 0 -17 7.5q-7 7.5 -12 15.5q-10 15 -20.5 32q-10.5 17 -32.5 40q-22 23 -41 35.5q-19 12.5 -45 20.5zM289 10q21 0 45 6.5q24 6.5 44.5 20.5q20.5 14 33.5 37.5q13 23.5 13 57.5q0 5 -1.5 20q-1.5 15 -9 34.5q-7.5 19.5 -23.5 41.5q-16 22 -46 41l-56 35z" />
<glyph unicode="&#37;" horiz-adv-x="1018" d="M305 -71q-2 -3 -5 -6q-3 -3 -10 -3q-11 0 -21 8.5q-10 8.5 -3 22.5q73 128 181 320.5q108 192.5 252 458.5q2 5 6 7q4 2 7 2q4 0 9.5 -2q5.5 -2 10 -6q4.5 -4 6 -10q1.5 -6 -1.5 -13q-147 -254 -254.5 -451q-107.5 -197 -176.5 -328zt0 0zM727 -22q-45 0 -76 14.5q-31 14.5 -50 31.5q-17 15 -34.5 43q-17.5 28 -17.5 72q0 38 16.5 71.5q16.5 33.5 42.5 58.5q7 6 18.5 15q11.5 9 28 17.5q16.5 8.5 37.5 14q21 5.5 46 5.5q34 0 70.5 -13.5q36.5 -13.5 62.5 -39.5q21 -21 34 -50q13 -29 13 -63q0 -28 -11.5 -60q-11.5 -32 -43.5 -63q-30 -29 -63.5 -41.5q-33.5 -12.5 -72.5 -12.5zt0 0zM627 167q0 -22 5.5 -51.5q5.5 -29.5 17.5 -53.5q19 -36 44.5 -49.5q25.5 -13.5 46.5 -13.5q20 0 42 10q22 10 37 36q11 20 15.5 42q4.5 22 4.5 42q0 26 -6 55.5q-6 29.5 -18 53.5q-19 38 -44 50q-25 12 -45 12q-30 0 -47.5 -13.5q-17.5 -13.5 -26.5 -26.5q-26 -38 -26 -93zt0 0zM278 381q-45 0 -76 14.5q-31 14.5 -50 31.5q-17 15 -34.5 43q-17.5 28 -17.5 72q0 38 16.5 71.5q16.5 33.5 42.5 58.5q7 6 18.5 15q11.5 9 28 17.5q16.5 8.5 37.5 14q21 5.5 46 5.5q34 0 70.5 -13.5q36.5 -13.5 62.5 -39.5q21 -21 34 -50q13 -29 13 -63q0 -28 -11.5 -60q-11.5 -32 -43.5 -63q-30 -29 -63.5 -41.5q-33.5 -12.5 -72.5 -12.5zt0 0zM178 570q0 -22 5.5 -51.5q5.5 -29.5 17.5 -53.5q19 -36 44.5 -49.5q25.5 -13.5 46.5 -13.5q20 0 42 10q22 10 37 36q11 20 15.5 42q4.5 22 4.5 42q0 26 -6 55.5q-6 29.5 -18 53.5q-19 38 -44 50q-25 12 -45 12q-30 0 -47.5 -13.5q-17.5 -13.5 -26.5 -26.5q-26 -38 -26 -93z" />
<glyph unicode="&#38;" horiz-adv-x="791" d="M538 165q15 19 30 42q15 23 27 46.5q12 23.5 19.5 47.5q7.5 24 7.5 45q0 6 -2.5 16.5q-2.5 10.5 -13.5 18.5q-9 7 -16.5 8.5q-7.5 1.5 -7.5 6.5q0 6 4.5 7.5q4.5 1.5 8.5 1.5q13 0 29 -4.5q16 -4.5 45 -4.5q17 0 33.5 4q16.5 4 34.5 4q14 0 14 -7q0 -4 -3.5 -6q-3.5 -2 -5.5 -3q-28 -10 -46.5 -30q-18.5 -20 -32.5 -44.5q-14 -24.5 -26.5 -52q-12.5 -27.5 -27.5 -53.5q-4 -6 -7 -10.5q-3 -4.5 -7.5 -12q-4.5 -7.5 -12 -19.5q-7.5 -12 -20.5 -33q16 -22 30.5 -41.5q14.5 -19.5 29 -33.5q14.5 -14 30 -22.5q15.5 -8.5 34.5 -8.5q28 0 38.5 7.5q10.5 7.5 17.5 7.5q2 0 5 -2q3 -2 3 -7q0 -6 -7.5 -14q-7.5 -8 -31.5 -23q-15 -9 -29.5 -14q-14.5 -5 -34.5 -5q-24 0 -44 9q-20 9 -37.5 23q-17.5 14 -31 31q-13.5 17 -23.5 34q-33 -34 -64.5 -53.5q-31.5 -19.5 -58.5 -29q-27 -9.5 -48.5 -12q-21.5 -2.5 -35.5 -2.5q-50 0 -88 15.5q-38 15.5 -63.5 42q-25.5 26.5 -39 62q-13.5 35.5 -13.5 75.5q0 73 40 132q40 59 110 107q-37 46 -49 80q-12 34 -12 57q0 31 12.5 63q12.5 32 33 57q20.5 25 47.5 41q27 16 56 16q20 0 40 -7q20 -7 35.5 -20.5q15.5 -13.5 25.5 -35q10 -21.5 10 -49.5q0 -33 -11.5 -60.5q-11.5 -27.5 -29.5 -49q-18 -21.5 -39.5 -38.5q-21.5 -17 -42.5 -29zM306 682q-34 0 -52 -22q-18 -22 -18 -51q0 -18 7 -38.5q7 -20.5 18 -40.5q11 -20 24 -39q13 -19 24 -32q12 10 26 23q14 13 25.5 29.5q11.5 16.5 19 36q7.5 19.5 7.5 41.5q0 39 -21.5 66q-21.5 27 -59.5 27zt0 0zM268 385q-45 -35 -67 -81.5q-22 -46.5 -22 -91.5q0 -34 12.5 -64q12.5 -30 34.5 -52.5q22 -22.5 52.5 -36q30.5 -13.5 66.5 -13.5q31 0 66 13q35 13 75 47z" />
<glyph unicode="&#39;" horiz-adv-x="294" d="M101 639q-3 27 1 43q4 16 11.5 24.5q7.5 8.5 16.5 11q9 2.5 17 2.5q8 0 17 -2.5q9 -2.5 16.5 -11q7.5 -8.5 11.5 -24.5q4 -16 1 -43l-22 -199q-2 -20 -7.5 -24.5q-5.5 -4.5 -16.5 -4.5q-11 0 -16.5 4.5q-5.5 4.5 -7.5 24.5z" />
<glyph unicode="&#40;" horiz-adv-x="404" d="M187 256q0 -130 31.5 -243q31.5 -113 82.5 -198q13 -21 23 -35.5q10 -14.5 15 -21.5q7 -11 3.5 -16.5q-3.5 -5.5 -10.5 -5.5q-5 0 -14 5.5q-9 5.5 -30 27.5q-36 37 -67 83q-31 46 -51 86q-24 48 -37.5 93.5q-13.5 45.5 -21 86q-7.5 40.5 -9.5 75q-2 34.5 -2 60.5q0 27 2 62q2 35 9.5 75.5q7.5 40.5 21 86q13.5 45.5 37.5 93.5q20 40 51 86q31 46 67 83q21 22 30 27.5q9 5.5 14 5.5q7 0 10.5 -5.5q3.5 -5.5 -3.5 -16.5q-3 -5 -13 -17q-10 -12 -25 -40q-52 -97 -83 -203.5t-31 -233.5z" />
<glyph unicode="&#41;" horiz-adv-x="404" d="M217 252q0 82 -12 150.5q-12 68.5 -29 124q-17 55.5 -37 97q-20 41.5 -36 69.5q-8 14 -14 23q-6 9 -10.5 14.5q-4.5 5.5 -7.5 10q-3 4.5 -6 9.5q-7 11 -3.5 16.5q3.5 5.5 10.5 5.5q5 0 14 -5.5q9 -5.5 30 -27.5q36 -37 67 -83q31 -46 51 -86q24 -48 37.5 -93.5q13.5 -45.5 21 -86q7.5 -40.5 9.5 -75q2 -34.5 2 -60.5q0 -27 -2 -62q-2 -35 -9.5 -75.5q-7.5 -40.5 -21 -86q-13.5 -45.5 -37.5 -93.5q-20 -40 -51 -86q-31 -46 -67 -83q-21 -22 -30 -27.5q-9 -5.5 -14 -5.5q-7 0 -10.5 5.5q-3.5 5.5 3.5 16.5q3 5 5.5 8q2.5 3 6.5 8.5q4 5.5 10 14.5q6 9 16 26q16 28 36 70q20 42 37 96.5q17 54.5 29 122.5t12 148z" />
<glyph unicode="&#42;" horiz-adv-x="630" d="M324 534l48 24q18 9 36.5 28.5q18.5 19.5 38.5 34.5q9 7 20 12.5q11 5.5 24 5.5q17 0 25 -11q8 -11 8 -24q0 -15 -8.5 -23q-8.5 -8 -15.5 -12q-13 -7 -27.5 -10.5q-14.5 -3.5 -30 -6q-15.5 -2.5 -30.5 -6q-15 -3.5 -30 -10.5l-42 -21l46 -23q23 -11 49.5 -14.5q26.5 -3.5 46.5 -9.5q26 -8 37 -21.5q11 -13.5 11 -24.5q0 -13 -9.5 -23q-9.5 -10 -26.5 -10q-18 0 -43 18q-26 19 -42.5 37q-16.5 18 -33.5 27l-51 26v-56q0 -5 1 -14q1 -9 6 -25q6 -23 11.5 -42q5.5 -19 5.5 -37q0 -26 -12 -34.5q-12 -8.5 -24 -8.5q-12 0 -24 8.5q-12 8.5 -12 34.5q0 18 5.5 37q5.5 19 11.5 42q5 16 6 25q1 9 1 14v53l-48 -24q-18 -9 -36.5 -28.5q-18.5 -19.5 -38.5 -34.5q-8 -7 -19 -12.5q-11 -5.5 -25 -5.5q-20 0 -26.5 13q-6.5 13 -6.5 24q0 14 8 21.5q8 7.5 16 11.5q13 7 28 10.5q15 3.5 30.5 6.5q15.5 3 31 6q15.5 3 28.5 10l46 23l-42 21q-23 11 -49.5 14.5q-26.5 3.5 -47.5 9.5q-32 10 -39.5 23.5q-7.5 13.5 -7.5 19.5q0 12 10 24q10 12 28 12q17 0 31.5 -10q14.5 -10 28.5 -23.5q14 -13.5 28 -27q14 -13.5 29 -21.5l43 -22v52q0 5 -1 14q-1 9 -6 25q-6 23 -11.5 42q-5.5 19 -5.5 37q0 26 12 34.5q12 8.5 24 8.5q12 0 24 -8.5q12 -8.5 12 -34.5q0 -18 -5.5 -37q-5.5 -19 -11.5 -42q-5 -16 -6 -25q-1 -9 -1 -14z" />
<glyph unicode="&#43;" horiz-adv-x="820" d="M702 389q9 0 13 -8q4 -8 4 -17q0 -11 -5.5 -19q-5.5 -8 -12.5 -8h-265v-266q0 -7 -7.5 -12q-7.5 -5 -18.5 -5q-13 0 -19.5 5.5q-6.5 5.5 -6.5 11.5v266h-265q-7 0 -12.5 8q-5.5 8 -5.5 18q0 9 4.5 17.5q4.5 8.5 12.5 8.5h266v267q0 6 6.5 11.5q6.5 5.5 19.5 5.5q11 0 18.5 -5q7.5 -5 7.5 -12l0 -267z" />
<glyph unicode="&#44;" horiz-adv-x="263" d="M118 105q13 0 30 -7q17 -7 31 -28q18 -28 18 -66q0 -14 -2 -24.5q-2 -10.5 -5 -21.5q-6 -21 -14.5 -37.5q-8.5 -16.5 -19.5 -33.5q-3 -4 -11 -16q-8 -12 -18 -25q-10 -13 -21 -23q-11 -10 -18 -10q-3 0 -7 1.5q-4 1.5 -4 8.5q0 7 3.5 14q3.5 7 8.5 16q7 11 14 22.5q7 11.5 15 25.5q11 20 18 35.5q7 15.5 7 32.5q0 15 -4.5 22.5q-4.5 7.5 -8.5 9.5q-5 3 -10 4q-5 1 -10 3q-7 2 -13 3.5q-6 1.5 -11 5.5q-8 5 -14 14q-6 9 -6 23q0 21 13.5 36t38.5 15z" />
<glyph unicode="&#45;" horiz-adv-x="460" d="M343 264q6 0 11.5 -6.5q5.5 -6.5 5.5 -19.5q0 -11 -5 -18.5q-5 -7.5 -12 -7.5h-226q-7 0 -12 7.5q-5 7.5 -5 18.5q0 13 5.5 19.5q5.5 6.5 11.5 6.5z" />
<glyph unicode="&#46;" horiz-adv-x="258" d="M70 44q0 25 17 42q17 17 42 17q25 0 42 -17q17 -17 17 -42q0 -25 -17 -42q-17 -17 -42 -17q-25 0 -42 17t-17 42z" />
<glyph unicode="&#47;" horiz-adv-x="568" d="M512 757l-414 -990l-41 16l414 990z" />
<glyph unicode="&#48;" horiz-adv-x="540" d="M281 720q46 0 85.5 -20.5q39.5 -20.5 68.5 -63q29 -42.5 45.5 -108q16.5 -65.5 16.5 -155.5q0 -36 -4 -76q-4 -40 -12.5 -79q-8.5 -39 -21 -74.5q-12.5 -35.5 -30.5 -62.5q-34 -52 -77.5 -74q-43.5 -22 -85.5 -22q-17 0 -39.5 4q-22.5 4 -46 15.5q-23.5 11.5 -46.5 33q-23 21.5 -42 57.5q-14 25 -23 55q-9 30 -14.5 61q-5.5 31 -8 61.5q-2.5 30.5 -2.5 57.5q0 32 3 73.5q3 41.5 12.5 85q9.5 43.5 26.5 85q17 41.5 44 73.5q11 13 26.5 26q15.5 13 34 23.5q18.5 10.5 41.5 17q23 6.5 49 6.5zt0 0zM255 638q-12 0 -26.5 -3q-14.5 -3 -30.5 -11.5q-16 -8.5 -32 -24q-16 -15.5 -29 -39.5q-11 -19 -17.5 -41.5q-6.5 -22.5 -11 -45.5q-4.5 -23 -6 -45.5q-1.5 -22.5 -1.5 -41.5q0 -25 2.5 -52.5q2.5 -27.5 7 -55q4.5 -27.5 12 -53.5q7.5 -26 16.5 -47q15 -34 33.5 -55.5q18.5 -21.5 38.5 -34q20 -12.5 40 -17.5q20 -5 37 -5q45 0 74 23q29 23 48 64q17 37 23.5 77q6.5 40 6.5 85q0 53 -7 100.5q-7 47.5 -29 100.5q-8 18 -19.5 39.5q-11.5 21.5 -29.5 39.5q-18 18 -42.5 30.5t-57.5 12.5z" />
<glyph unicode="&#49;" horiz-adv-x="540" d="M314 111q0 -25 2.5 -40.5q2.5 -15.5 16.5 -29.5q14 -14 31.5 -19q17.5 -5 31.5 -7q3 -1 5.5 -1.5q2.5 -0.5 2.5 -4.5q0 -3 -3 -6q-3 -3 -13 -3q-16 0 -31 1q-15 1 -31 2q-13 1 -26 1.5q-13 0.5 -26 0.5q-13 0 -26 -0.5q-13 -0.5 -26 -1.5q-16 -1 -31 -2q-15 -1 -31 -1q-10 0 -13 3q-3 3 -3 6q0 4 2.5 4.5q2.5 0.5 5.5 1.5q14 2 31.5 7q17.5 5 31.5 19q14 14 16.5 29.5q2.5 15.5 2.5 40.5v440q0 4 -0.5 12q-0.5 8 -5 15.5q-4.5 7.5 -14 13q-9.5 5.5 -27.5 5.5h-55q-7 0 -7 6q0 8 12 10.5q12 2.5 22 7.5q17 8 32 17.5q15 9.5 23 15.5q21 16 30 26.5q9 10.5 20 22.5q10 11 14.5 16q4.5 5 9.5 5q10 0 15.5 -12.5q5.5 -12.5 7.5 -29q2 -16.5 2.5 -33q0.5 -16.5 0.5 -25.5z" />
<glyph unicode="&#50;" horiz-adv-x="540" d="M84 0q-11 0 -19.5 7.5q-8.5 7.5 -8.5 21.5q0 6 1 14.5q1 8.5 4.5 22q3.5 13.5 12 32q8.5 18.5 23.5 45.5q34 60 72 103q38 43 75 83q19 21 38 43.5q19 22.5 34 47q15 24.5 24.5 52q9.5 27.5 9.5 59.5q0 56 -33 86.5q-33 30.5 -78 30.5q-24 0 -43.5 -8.5q-19.5 -8.5 -34.5 -20.5q-15 -12 -26.5 -25.5q-11.5 -13.5 -18.5 -22.5q-8 -10 -16 -19.5q-8 -9.5 -20 -9.5q-8 0 -12.5 6.5q-4.5 6.5 -4.5 14.5q0 10 7.5 24q7.5 14 18.5 29q11 15 25 29.5q14 14.5 27 25.5q32 26 64 37.5q32 11.5 63 11.5q36 0 67.5 -12.5q31.5 -12.5 55 -36q23.5 -23.5 37 -56q13.5 -32.5 13.5 -71.5q0 -35 -11 -65.5q-11 -30.5 -28 -58.5q-24 -40 -47.5 -64q-23.5 -24 -52.5 -49q-19 -17 -32 -28.5q-13 -11.5 -24 -21q-11 -9.5 -22 -20q-11 -10.5 -26 -25.5q-23 -23 -38 -40q-15 -17 -23.5 -30q-8.5 -13 -11.5 -22.5q-3 -9.5 -3 -15.5q0 -16 10.5 -19.5q10.5 -3.5 18.5 -3.5h121q17 0 46 5.5q29 5.5 57 20.5q22 11 34 23q12 12 23 24q9 11 15.5 18.5q6.5 7.5 14.5 7.5q14 0 14 -18q0 -14 -7.5 -32q-7.5 -18 -10.5 -23q-4 -8 -7.5 -14q-3.5 -6 -13.5 -26q-5 -25 -7.5 -34q-2.5 -9 -4.5 -13q-6 -17 -15.5 -23.5q-9.5 -6.5 -17.5 -6.5q-6 0 -10.5 2q-4.5 2 -7.5 4q-8 4 -12 4q-4 0 -11 0z" />
<glyph unicode="&#51;" horiz-adv-x="540" d="M280 377q38 -3 71.5 -17.5q33.5 -14.5 59.5 -37.5q29 -26 41 -57q12 -31 12 -68q0 -41 -14.5 -75q-14.5 -34 -34.5 -58q-29 -34 -78 -56.5q-49 -22.5 -113 -22.5q-32 0 -69 8q-37 8 -62 23q-26 15 -36.5 34.5q-10.5 19.5 -10.5 36.5q0 20 12.5 32q12.5 12 31.5 12q22 0 37 -14q15 -14 29 -38q6 -11 12.5 -21.5q6.5 -10.5 15.5 -18.5q9 -8 21.5 -13.5q12.5 -5.5 30.5 -5.5q19 0 43 6q24 6 44 23q20 17 34 48q14 31 14 81q0 26 -6.5 56.5q-6.5 30.5 -33.5 58.5q-14 14 -30.5 24q-16.5 10 -34 16.5q-17.5 6.5 -33.5 10.5q-16 4 -29 7q-7 2 -14.5 4q-7.5 2 -7.5 10q0 8 7 11q7 3 15 6q19 6 42.5 17q23.5 11 44.5 29q21 18 35 45.5q14 27.5 14 66.5q0 31 -8 52.5q-8 21.5 -20 35.5q-13 14 -32.5 23q-19.5 9 -44.5 9q-21 0 -39 -6q-18 -6 -32 -15.5q-14 -9.5 -25.5 -21q-11.5 -11.5 -20.5 -21.5q-10 -11 -19.5 -23.5q-9.5 -12.5 -20.5 -12.5q-4 0 -9 3q-5 3 -5 12q0 8 6 19.5q6 11.5 15 24q9 12.5 18.5 23.5q9.5 11 16.5 18q7 6 20 16.5q13 10.5 31.5 20q18.5 9.5 42 16.5q23.5 7 51.5 7q38 0 71 -10.5q33 -10.5 60 -40.5q37 -40 37 -96q0 -38 -10.5 -69q-10.5 -31 -27.5 -51q-19 -23 -51 -44t-64 -32z" />
<glyph unicode="&#52;" horiz-adv-x="540" d="M46 214q-5 0 -11 4q-6 4 -6 13v31l285 423q11 16 20.5 27.5q9.5 11.5 24.5 11.5q11 0 17 -5q6 -5 9 -12.5q3 -7.5 3.5 -15.5q0.5 -8 0.5 -15v-402h102q8 0 9.5 -5q1.5 -5 1.5 -7v-36q0 -5 -2.5 -8.5q-2.5 -3.5 -8.5 -3.5h-102v-103q0 -25 2.5 -40.5q2.5 -15.5 16.5 -29.5q14 -14 31.5 -19q17.5 -5 31.5 -7q3 -1 5.5 -1.5q2.5 -0.5 2.5 -4.5q0 -3 -3 -6q-3 -3 -13 -3q-16 0 -31 1q-15 1 -31 2q-13 1 -26 1.5q-13 0.5 -26 0.5q-13 0 -26 -0.5q-13 -0.5 -26 -1.5q-16 -1 -31 -2q-15 -1 -31 -1q-10 0 -13 3q-3 3 -3 6q0 4 2.5 4.5q2.5 0.5 5.5 1.5q14 2 31.5 7q17.5 5 31.5 19q14 14 16.5 29.5q2.5 15.5 2.5 40.5v103zM87 274h222l0 330z" />
<glyph unicode="&#53;" horiz-adv-x="540" d="M215 611q-7 0 -18 -1q-11 -1 -21 -8.5q-10 -7.5 -17 -24q-7 -16.5 -7 -48.5q0 -29 2 -58q2 -29 9 -62q46 23 96 23q49 0 90.5 -16.5q41.5 -16.5 67.5 -44.5q23 -25 36.5 -62q13.5 -37 13.5 -79q0 -48 -17 -89q-17 -41 -44 -73q-34 -38 -82 -60.5q-48 -22.5 -103 -22.5q-12 0 -27.5 2q-15.5 2 -31.5 5.5q-16 3.5 -30.5 9.5q-14.5 6 -26.5 14q-18 12 -28.5 29q-10.5 17 -10.5 33q0 17 12.5 31q12.5 14 34.5 14q23 0 39 -14q16 -14 30 -33q13 -17 29.5 -33.5q16.5 -16.5 49.5 -16.5q22 0 43 9q21 9 37.5 28q16.5 19 27 47q10.5 28 10.5 67q0 42 -9.5 74.5q-9.5 32.5 -26.5 54.5q-20 27 -54 47q-34 20 -70 20q-17 0 -29.5 -4q-12.5 -4 -20.5 -8q-8 -5 -15 -9q-7 -4 -15 -4q-14 0 -20.5 14.5q-6.5 14.5 -9 36q-2.5 21.5 -2.5 45.5q0 24 0 44q0 62 3.5 103.5q3.5 41.5 13 66q9.5 24.5 28 35q18.5 10.5 48.5 10.5h140q27 0 43 5q16 5 28 16q8 7 12.5 11.5q4.5 4.5 10.5 4.5q9 0 10.5 -6.5q1.5 -6.5 1.5 -10.5q0 -13 -10.5 -34q-10.5 -21 -22.5 -36q-22 -26 -47.5 -34q-25.5 -8 -47.5 -8z" />
<glyph unicode="&#54;" horiz-adv-x="540" d="M48 292q0 48 10 99.5q10 51.5 28.5 99.5q18.5 48 44.5 89.5q26 41.5 58 70.5q35 32 81 50.5q46 18.5 89 18.5q24 0 40 -5.5q16 -5.5 25.5 -13.5q9.5 -8 13.5 -17q4 -9 4 -16q0 -14 -11.5 -26.5q-11.5 -12.5 -37.5 -12.5q-15 0 -27 6q-12 6 -23 12q-11 5 -21.5 9.5q-10.5 4.5 -25.5 4.5q-14 0 -32 -6q-18 -6 -36.5 -20.5q-18.5 -14.5 -36 -38.5q-17.5 -24 -29.5 -60q-8 -21 -13.5 -47q-5.5 -26 -9 -54.5q-3.5 -28.5 -5.5 -57.5q-2 -29 -2 -55q0 -87 15.5 -144q15.5 -57 39.5 -91q24 -34 53 -48q29 -14 56 -14q50 0 83 41q33 41 33 114q0 29 -7 66.5q-7 37.5 -26 63.5q-12 17 -34.5 32q-22.5 15 -57.5 15q-17 0 -28.5 -2.5q-11.5 -2.5 -19.5 -6.5q-13 -5 -20 -9.5q-7 -4.5 -15 -4.5q-5 0 -10.5 2.5q-5.5 2.5 -5.5 10.5q0 10 11.5 22.5q11.5 12.5 30 24q18.5 11.5 42.5 19q24 7.5 49 7.5q37 0 65 -11.5q28 -11.5 48 -28.5q34 -29 47 -66.5q13 -37.5 13 -82.5q0 -42 -14 -85q-14 -43 -40 -78q-26 -36 -65 -59.5q-39 -23.5 -95 -23.5q-23 0 -47.5 5q-24.5 5 -48.5 17.5q-24 12.5 -47 33.5q-23 21 -42 54q-27 46 -37 97t-10 100z" />
<glyph unicode="&#55;" horiz-adv-x="540" d="M280 629q-26 0 -50 -1.5q-24 -1.5 -47 -8.5q-41 -13 -61.5 -34.5q-20.5 -21.5 -38.5 -43.5q-4 -5 -8.5 -9q-4.5 -4 -10.5 -4q-3 0 -8.5 2q-5.5 2 -5.5 12q0 9 3 21q3 12 7 21q6 14 11.5 25q5.5 11 8.5 21q3 17 5 33q2 16 6.5 29q4.5 13 13 20.5q8.5 7.5 24.5 7.5q11 0 18.5 -3q7.5 -3 16.5 -7q12 -5 21 -5.5q9 -0.5 21 -0.5h172q17 0 29.5 0.5q12.5 0.5 26.5 2.5q14 2 25 4.5q11 2.5 24 2.5q19 0 23 -8.5q4 -8.5 4 -13.5q0 -4 -3 -12.5q-3 -8.5 -16 -28.5q-29 -47 -50 -84.5q-21 -37.5 -35 -67q-14 -29.5 -23 -50.5q-9 -21 -15 -36q-36 -94 -54 -177q-18 -83 -20 -151l0 -39q0 -7 0.5 -14q0.5 -7 0.5 -14q0 -33 -22 -33h-67q-8 0 -14 9q-6 9 -6 28q0 34 9.5 78.5q9.5 44.5 25 92q15.5 47.5 35.5 95.5q20 48 40 90q15 32 37 73.5q22 41.5 43 79q21 37.5 37.5 65q16.5 27.5 19.5 33.5z" />
<glyph unicode="&#56;" horiz-adv-x="540" d="M200 373q-61 34 -94.5 84q-33.5 50 -33.5 103q0 31 11 56.5q11 25.5 35 49.5q24 24 61.5 39q37.5 15 90.5 15q40 0 73.5 -11.5q33.5 -11.5 58 -32q24.5 -20.5 38 -48.5q13.5 -28 13.5 -51q0 -47 -29.5 -94q-29.5 -47 -103.5 -87q43 -23 74.5 -45.5q31.5 -22.5 52 -47q20.5 -24.5 30.5 -53q10 -28.5 10 -62.5q0 -40 -14 -76.5q-14 -36.5 -41 -64.5q-27 -28 -68 -45q-41 -17 -95 -17q-51 0 -91 14.5q-40 14.5 -67.5 40q-27.5 25.5 -42 59q-14.5 33.5 -14.5 71.5q0 28 9 58q9 30 27 57.5q18 27.5 45.5 50.5q27.5 23 64.5 37zt0 0zM293 414q41 27 64.5 68q23.5 41 23.5 84q0 34 -11.5 54.5q-11.5 20.5 -29.5 37q-18 16.5 -40 25q-22 8.5 -44 8.5q-26 0 -45.5 -11q-19.5 -11 -31.5 -25q-16 -18 -22.5 -33.5q-6.5 -15.5 -6.5 -38.5q0 -37 17 -65.5q17 -28.5 40.5 -49.5q23.5 -21 47.5 -34.5q24 -13.5 38 -19.5zt0 0zM227 356q-42 -28 -67.5 -71q-25.5 -43 -25.5 -96q0 -41 13.5 -71.5q13.5 -30.5 35.5 -51.5q22 -21 49.5 -31.5q27.5 -10.5 55.5 -10.5q48 0 83 35q35 35 35 102q0 20 -4.5 37q-4.5 17 -16.5 37q-17 27 -41.5 46q-24.5 19 -47.5 33z" />
<glyph unicode="&#57;" horiz-adv-x="540" d="M130 524q0 -10 1 -24q1 -14 4 -30.5q3 -16.5 9.5 -33q6.5 -16.5 17.5 -30.5q14 -19 36.5 -32q22.5 -13 54.5 -13q35 0 60 14q7 4 13 7q6 3 13 3q7 0 10.5 -4.5q3.5 -4.5 3.5 -10.5q0 -12 -15.5 -26.5q-15.5 -14.5 -38.5 -25.5q-38 -19 -83 -19q-45 0 -74.5 15q-29.5 15 -46.5 33q-15 16 -24.5 33.5q-9.5 17.5 -14 34.5q-4.5 17 -6 32.5q-1.5 15.5 -1.5 26.5q0 45 14 89.5q14 44.5 42 79.5q22 28 60.5 52.5q38.5 24.5 97.5 24.5q55 0 100 -25q45 -25 80 -82q26 -44 37.5 -93q11.5 -49 11.5 -105q0 -57 -12.5 -118q-12.5 -61 -31.5 -109q-26 -65 -58.5 -105q-32.5 -40 -66 -62q-33.5 -22 -65 -29q-31.5 -7 -54.5 -7q-30 0 -52 6.5q-22 6.5 -36.5 17q-14.5 10.5 -22 23.5q-7.5 13 -7.5 25q0 18 11 30.5q11 12.5 30 12.5q19 0 31.5 -8.5q12.5 -8.5 26.5 -20.5q12 -11 24.5 -19q12.5 -8 30.5 -8q17 0 36 7q19 7 37.5 22q18.5 15 35.5 39q17 24 29 59q9 24 14.5 52q5.5 28 9 56q3.5 28 5 54q1.5 26 1.5 46q0 67 -9.5 111.5q-9.5 44.5 -14.5 59.5q-12 37 -28 62q-16 25 -35 40q-19 15 -38.5 21.5q-19.5 6.5 -38.5 6.5q-31 0 -53 -14q-22 -14 -37 -40q-15 -26 -19.5 -52.5t-4.5 -49.5z" />
<glyph unicode="&#58;" horiz-adv-x="263" d="M131 432q10 0 20.5 -3.5q10.5 -3.5 19.5 -11q9 -7.5 14.5 -18.5q5.5 -11 5.5 -26q0 -26 -17 -43q-17 -17 -43 -17q-26 0 -42.5 17q-16.5 17 -16.5 43q0 29 19.5 44q19.5 15 39.5 15zt0 0zM72 46q0 25 17 42q17 17 42 17q25 0 42 -17q17 -17 17 -42q0 -25 -17 -42q-17 -17 -42 -17q-25 0 -42 17t-17 42z" />
<glyph unicode="&#59;" horiz-adv-x="263" d="M70 373q0 25 17 42q17 17 42 17q25 0 42 -17q17 -17 17 -42q0 -25 -17 -42q-17 -17 -42 -17q-25 0 -42 17q-17 17 -17 42zt0 0zM118 105q13 0 30 -7q17 -7 31 -28q18 -28 18 -66q0 -14 -2 -24.5q-2 -10.5 -5 -21.5q-6 -21 -14.5 -37.5q-8.5 -16.5 -19.5 -33.5q-3 -4 -11 -16q-8 -12 -18 -25q-10 -13 -21 -23q-11 -10 -18 -10q-3 0 -7 1.5q-4 1.5 -4 8.5q0 7 3.5 14q3.5 7 8.5 16q7 11 14 22.5q7 11.5 15 25.5q11 20 18 35.5q7 15.5 7 32.5q0 15 -4.5 22.5q-4.5 7.5 -8.5 9.5q-5 3 -10 4q-5 1 -10 3q-7 2 -13 3.5q-6 1.5 -11 5.5q-8 5 -14 14q-6 9 -6 23q0 21 13.5 36t38.5 15z" />
<glyph unicode="&#60;" horiz-adv-x="742" d="M619 594q9 2 13.5 -7q4.5 -9 4.5 -22q0 -5 -1.5 -12.5q-1.5 -7.5 -10.5 -10.5l-532 -193l540 -198q7 -2 8 -9.5q1 -7.5 1 -11.5q0 -11 -3 -20.5q-3 -9.5 -11 -9.5q-2 0 -7 1.5q-5 1.5 -7 2.5l-564 219l0 53z" />
<glyph unicode="&#61;" horiz-adv-x="820" d="M706 456q6 0 11.5 -6.5q5.5 -6.5 5.5 -19.5q0 -11 -5 -18.5q-5 -7.5 -12 -7.5h-593q-7 0 -12 7.5q-5 7.5 -5 18.5q0 13 5.5 19.5q5.5 6.5 11.5 6.5zM706 323q6 0 11.5 -6.5q5.5 -6.5 5.5 -19.5q0 -11 -5 -18.5q-5 -7.5 -12 -7.5h-593q-7 0 -12 7.5q-5 7.5 -5 18.5q0 13 5.5 19.5q5.5 6.5 11.5 6.5z" />
<glyph unicode="&#62;" horiz-adv-x="742" d="M692 376v-53l-564 -219q-2 -1 -7 -2.5q-5 -1.5 -7 -1.5q-8 0 -11 9.5q-3 9.5 -3 20.5q0 4 1 11.5q1 7.5 8 9.5l540 198l-532 193q-9 3 -10.5 10.5q-1.5 7.5 -1.5 12.5q0 13 4.5 22q4.5 9 13.5 7z" />
<glyph unicode="&#63;" horiz-adv-x="434" d="M216 720q36 0 62.5 -12q26.5 -12 43.5 -29q26 -26 33.5 -55q7.5 -29 7.5 -52q0 -42 -13 -69.5q-13 -27.5 -33 -54.5q-8 -10 -18.5 -22q-10.5 -12 -22 -25q-11.5 -13 -22.5 -25.5q-11 -12.5 -18 -22.5q-3 -5 -9 -13.5q-6 -8.5 -12 -19.5q-6 -11 -10.5 -24.5q-4.5 -13.5 -4.5 -27.5q0 -17 6 -26.5q6 -9.5 13 -16.5q8 -8 12.5 -11q4.5 -3 4.5 -9q0 -5 -3 -8.5q-3 -3.5 -11 -3.5q-11 0 -24.5 11q-13.5 11 -21.5 20q-11 14 -16 27.5q-5 13.5 -5 27.5q0 10 3.5 27.5q3.5 17.5 18.5 43.5q13 21 29 44q9 13 17.5 26q8.5 13 16.5 27q12 22 21.5 47q9.5 25 9.5 55q0 22 -6.5 43.5q-6.5 21.5 -19.5 36.5q-17 19 -36 24q-19 5 -36 5q-16 0 -27 -4q-11 -4 -25 -12q-13 -8 -21.5 -13.5q-8.5 -5.5 -15.5 -5.5q-14 0 -14 13q0 11 17 28q17 17 39 31q20 12 41 18.5q21 6.5 49 6.5zt0 0zM152 44q0 25 17 42q17 17 42 17q25 0 42 -17q17 -17 17 -42q0 -25 -17 -42q-17 -17 -42 -17q-25 0 -42 17t-17 42z" />
<glyph unicode="&#64;" horiz-adv-x="892" d="M640 538q-25 -64 -39 -103.5q-14 -39.5 -23 -67q-9 -27.5 -15 -50q-6 -22.5 -14 -51.5q-2 -7 -3 -13.5q-1 -6.5 -1 -16.5q0 -13 4 -20.5q4 -7.5 9.5 -11.5q5.5 -4 12 -5.5q6.5 -1.5 12.5 -1.5q19 0 37 9q18 9 33.5 22q15.5 13 27.5 28q12 15 20 28q15 25 26 60q11 35 11 80q0 72 -31.5 123.5q-31.5 51.5 -79.5 79.5q-29 17 -66 26q-37 9 -77 8q-47 -1 -94 -14.5q-47 -13.5 -88 -41.5q-36 -24 -63.5 -58q-27.5 -34 -47 -74q-19.5 -40 -29 -84q-9.5 -44 -9.5 -88q0 -80 37 -151q37 -68 95 -97q58 -29 139 -29q35 0 70 5.5q35 5.5 71 18.5l34 -41q-43 -18 -91 -27.5q-48 -9.5 -96 -9.5q-44 0 -85 8.5q-41 8.5 -74 26.5q-27 14 -54 38q-27 24 -49 59.5q-22 35.5 -36 84q-14 48.5 -14 112.5q0 89 27 165.5q27 76.5 77.5 132q50.5 55.5 122.5 87q72 31.5 161 31.5q65 0 121 -19.5q56 -19.5 96.5 -56q40.5 -36.5 63.5 -89.5q23 -53 23 -120q0 -63 -21 -117q-21 -54 -54 -94q-33 -40 -73.5 -63q-40.5 -23 -79.5 -23q-31 0 -46.5 13q-15.5 13 -21.5 23q-9 16 -11.5 37.5q-2.5 21.5 3.5 42.5q-13 -16 -30.5 -34q-17.5 -18 -38.5 -33q-21 -15 -44.5 -25q-23.5 -10 -47.5 -10q-39 0 -63.5 28.5q-24.5 28.5 -24.5 74.5q0 29 8 61q8 32 22.5 63q14.5 31 33.5 59.5q19 28.5 41 50.5q28 28 64 46.5q36 18.5 82 18.5q32 0 61 -15q6 -3 15.5 -8.5q9.5 -5.5 15.5 -10.5q13 4 31 23zM549 460q-9 18 -20 29q-11 11 -22.5 17q-11.5 6 -22.5 8q-11 2 -19 2q-23 0 -49.5 -15.5q-26.5 -15.5 -52.5 -47.5q-27 -35 -42 -77.5q-15 -42.5 -15 -77.5q0 -26 6 -44.5q6 -18.5 16 -29.5q10 -11 22 -16q12 -5 24 -5q23 0 44.5 14q21.5 14 35.5 26q11 10 20.5 19q9.5 9 20.5 24q4 19 9 36.5q5 17.5 11.5 38q6.5 20.5 14.5 44.5t19 55z" />
<glyph unicode="&#65;" horiz-adv-x="766" d="M228 273l-42 -105q-12 -29 -15 -43.5q-3 -14.5 -3 -26.5q0 -15 7 -32q7 -17 31 -31q11 -6 18 -9q7 -3 13 -5q4 -2 6.5 -4q2.5 -2 2.5 -7q0 -8 -7 -9q-7 -1 -13 -1q-18 0 -30 1q-12 1 -23 2q-11 1 -24.5 1.5q-13.5 0.5 -34.5 0.5q-30 0 -50 -2q-20 -2 -48 -3q-5 0 -10 1.5q-5 1.5 -5 9.5q0 8 12 14q11 5 22.5 11q11.5 6 24.5 18q14 13 27 33q13 20 20 36l255 585q5 11 10.5 18.5q5.5 7.5 13.5 7.5q8 0 13 -7q5 -7 10 -17l268 -598q6 -14 16 -29q10 -15 18 -26q8 -10 16.5 -17.5q8.5 -7.5 21.5 -14.5q9 -5 12.5 -6.5q3.5 -1.5 3.5 -8.5q0 -4 -3.5 -7q-3.5 -3 -16.5 -3q-28 1 -60 3q-32 2 -58 2q-14 0 -27 0q-13 0 -27 -2q-11 -1 -21 -2q-10 -1 -21 -1q-10 0 -19 1.5q-9 1.5 -9 11.5q0 5 3 8q3 3 7 5q12 6 23 9.5q11 3.5 21 13.5q14 14 13 28.5q-1 14.5 -4 22.5l-74 173zM244 315h231l-114 270z" />
<glyph unicode="&#66;" horiz-adv-x="674" d="M148 578q0 29 -5.5 50q-5.5 21 -29.5 34q-11 6 -20 7.5q-9 1.5 -22 5.5q-5 2 -8 4q-3 2 -3 8q0 10 8.5 11.5q8.5 1.5 12.5 1.5q9 0 17.5 -0.5q8.5 -0.5 16.5 -1.5q16 -2 31 -3q15 -1 31 -1q19 0 40.5 2.5q21.5 2.5 47.5 5.5q18 2 35 4q17 2 46 2q14 0 36.5 -1q22.5 -1 48.5 -6q26 -5 51.5 -15q25.5 -10 46.5 -28q21 -18 34 -45q13 -27 13 -66q0 -35 -14.5 -65q-14.5 -30 -39.5 -52.5q-25 -22.5 -58 -36.5q-33 -14 -69 -17q46 0 89 -15q43 -15 73 -39q28 -23 44.5 -54.5q16.5 -31.5 16.5 -75.5q0 -35 -13 -69q-13 -34 -43.5 -61q-30.5 -27 -80 -44q-49.5 -17 -121.5 -18q-36 -1 -58 0q-22 1 -39 2.5q-17 1.5 -33.5 2.5q-16.5 1 -40.5 1q-14 0 -27.5 -0.5q-13.5 -0.5 -27.5 -1.5q-19 -2 -30 -3q-11 -1 -23 -1q-4 0 -12.5 1.5q-8.5 1.5 -8.5 11.5q0 6 3 8q3 2 8 4q13 4 22 5.5q9 1.5 20 7.5q24 13 29.5 34q5.5 21 5.5 50zM240 400q30 -10 76 -10q46 0 77 15q31 15 50.5 37.5q19.5 22.5 28 49q8.5 26.5 8.5 49.5q0 35 -11.5 58.5q-11.5 23.5 -27.5 38.5q-29 27 -60 32q-31 5 -59 5q-45 0 -63.5 -9q-18.5 -9 -18.5 -25zM240 87q23 -25 55 -39.5q32 -14.5 70 -14.5q36 0 64.5 13q28.5 13 47.5 34q19 21 29 48.5q10 27.5 10 56.5q0 29 -12.5 60q-12.5 31 -38 56q-25.5 25 -65 41q-39.5 16 -92.5 16q-8 0 -19.5 -1q-11.5 -1 -22.5 -5q-11 -4 -18.5 -12q-7.5 -8 -7.5 -22z" />
<glyph unicode="&#67;" horiz-adv-x="743" d="M635 663q0 -17 2 -29q2 -12 4 -23q3 -12 5 -22.5q2 -10.5 2 -26.5q0 -26 -8.5 -32.5q-8.5 -6.5 -12.5 -6.5q-11 0 -17 10.5q-6 10.5 -9 17.5q-29 64 -83 103.5q-54 39.5 -119 39.5q-48 0 -95 -22.5q-47 -22.5 -81 -67.5q-32 -42 -49.5 -101.5q-17.5 -59.5 -17.5 -128.5q0 -47 7.5 -85.5q7.5 -38.5 19.5 -69q12 -30.5 27 -54.5q15 -24 30 -41q42 -48 100 -73.5q58 -25.5 121 -25.5q13 0 47 5.5q34 5.5 75 26.5q29 15 48 31q19 16 38 32q6 5 14 10.5q8 5.5 16 5.5q6 0 13 -4q7 -4 7 -13q0 -12 -15 -27.5q-15 -15.5 -35 -30.5q-20 -15 -40 -27.5q-20 -12.5 -30 -17.5q-41 -21 -81.5 -30q-40.5 -9 -83.5 -9q-73 0 -141.5 24q-68.5 24 -121.5 70q-53 47 -87 117q-34 70 -34 160q0 92 30.5 164q30.5 72 78.5 117q45 42 110 68.5q65 26.5 146 26.5q22 0 38.5 -1.5q16.5 -1.5 36.5 -6.5q20 -4 37.5 -7.5q17.5 -3.5 31.5 -3.5q11 0 18.5 1.5q7.5 1.5 13.5 3.5q6 2 11 4q5 2 11 2q15 0 18.5 -9q3.5 -9 3.5 -14z" />
<glyph unicode="&#68;" horiz-adv-x="826" d="M149 578q0 29 -4.5 49.5q-4.5 20.5 -30.5 34.5q-12 6 -21.5 8.5q-9.5 2.5 -16.5 4q-7 1.5 -11 4q-4 2.5 -4 8.5q0 5 4 9q4 4 17 4q17 0 28.5 -0.5q11.5 -0.5 22 -1.5q10.5 -1 23 -1.5q12.5 -0.5 31.5 -0.5q34 0 60.5 2q26.5 2 51 4q24.5 2 48.5 4q24 2 53 2q84 0 153 -22.5q69 -22.5 117.5 -65q48.5 -42.5 75 -103.5q26.5 -61 26.5 -137q0 -62 -22 -128.5q-22 -66.5 -68.5 -122q-46.5 -55.5 -118.5 -92q-72 -36.5 -171 -37.5q-27 0 -44.5 1q-17.5 1 -37 2q-19.5 1 -46 2q-26.5 1 -69.5 1q-46 0 -71 -3q-25 -3 -42 -3q-22 0 -22 13q0 6 4 8.5q4 2.5 11 4q7 1.5 17 4q10 2.5 22 8.5q26 14 30.5 34.5q4.5 20.5 4.5 49.5zM241 86q26 -19 67 -36q41 -17 101 -17q66 0 117 25q51 25 87 79q8 12 17 29q9 17 17 40.5q8 23.5 13.5 53q5.5 29.5 5.5 65.5q0 49 -12.5 106q-12.5 57 -43.5 105q-17 25 -41.5 49.5q-24.5 24.5 -58.5 44q-34 19.5 -77 31.5q-43 12 -96 12q-27 0 -50.5 -3.5q-23.5 -3.5 -45.5 -8.5z" />
<glyph unicode="&#69;" horiz-adv-x="678" d="M309 667q-24 0 -37.5 -7.5q-13.5 -7.5 -20.5 -18q-7 -10.5 -8.5 -22.5q-1.5 -12 -1.5 -20v-206h92q35 0 68.5 17q33.5 17 54.5 48q5 7 8 15q3 8 6 14.5q3 6.5 6.5 11q3.5 4.5 9.5 4.5q8 0 12.5 -7.5q4.5 -7.5 4.5 -19.5q0 -12 -1.5 -27.5q-1.5 -15.5 -3.5 -29.5q-2 -14 -3.5 -26q-1.5 -12 -1.5 -16q0 -8 1 -22q1 -14 6 -43q3 -18 3 -31q0 -10 -3 -20q-3 -10 -14 -10q-11 0 -15.5 15q-4.5 15 -14.5 30q-21 31 -54.5 48q-33.5 17 -68.5 17h-92v-279q21 -18 41.5 -27.5q20.5 -9.5 40.5 -14.5q20 -5 40.5 -6q20.5 -1 40.5 -1q13 0 26.5 0.5q13.5 0.5 28 4.5q14.5 4 30 12q15.5 8 32.5 22q20 17 37.5 39q17.5 22 28.5 45q8 15 12.5 24.5q4.5 9.5 16.5 9.5q11 0 13.5 -8q2.5 -8 2.5 -13q0 -14 -4 -28.5q-4 -14.5 -8 -32.5q-6 -27 -6 -48.5q0 -21.5 -2 -37q-2 -15.5 -10 -24q-8 -8.5 -30 -8.5q-23 0 -44 5q-21 5 -44 5h-402q-22 0 -22 13q0 6 4 8.5q4 2.5 11 4q7 1.5 17 4q10 2.5 22 8.5q26 14 30.5 34.5q4.5 20.5 4.5 49.5v456q0 29 -4.5 49.5q-4.5 20.5 -30.5 34.5q-12 6 -22 8.5q-10 2.5 -17 4q-7 1.5 -11 4q-4 2.5 -4 8.5q0 5 5.5 9q5.5 4 16.5 4h368q19 0 31 3q12 3 21 6.5q9 3.5 16.5 6.5q7.5 3 17.5 3q14 0 21 -6.5q7 -6.5 10.5 -17q3.5 -10.5 4 -25.5q0.5 -15 2.5 -31q1 -17 5 -30.5q4 -13.5 8 -25.5q4 -12 7 -23q3 -11 3 -23q0 -12 -3.5 -19.5q-3.5 -7.5 -13.5 -7.5q-6 0 -14 9.5q-8 9.5 -17 23.5q-9 14 -19 29.5q-10 15.5 -20 28.5q-30 37 -65 51.5q-35 14.5 -63 14.5z" />
<glyph unicode="&#70;" horiz-adv-x="637" d="M309 667q-24 0 -37.5 -7.5q-13.5 -7.5 -20.5 -18q-7 -10.5 -8.5 -22.5q-1.5 -12 -1.5 -20v-211h85q34 0 68.5 17q34.5 17 54.5 48q5 7 8 15.5q3 8.5 6 15q3 6.5 6.5 11q3.5 4.5 9.5 4.5q8 0 12.5 -7.5q4.5 -7.5 4.5 -19.5q0 -14 -1.5 -29.5q-1.5 -15.5 -3.5 -29.5q-2 -14 -3.5 -25q-1.5 -11 -1.5 -15q0 -5 1.5 -16q1.5 -11 3.5 -25q2 -14 3.5 -29.5q1.5 -15.5 1.5 -28.5q0 -12 -4.5 -19.5q-4.5 -7.5 -12.5 -7.5q-6 0 -9.5 4.5q-3.5 4.5 -6.5 11q-3 6.5 -6 14.5q-3 8 -8 16q-20 31 -54.5 48q-34.5 17 -68.5 17h-85v-236q0 -29 4.5 -49.5q4.5 -20.5 30.5 -34.5q12 -6 21.5 -8.5q9.5 -2.5 16.5 -4q7 -1.5 11 -4q4 -2.5 4 -8.5q0 -13 -21 -13q-17 0 -45.5 3q-28.5 3 -67.5 3q-39 0 -67.5 -3q-28.5 -3 -45.5 -3q-22 0 -22 13q0 6 4 8.5q4 2.5 11 4q7 1.5 17 4q10 2.5 22 8.5q26 14 30.5 34.5q4.5 20.5 4.5 49.5v456q0 29 -4.5 49.5q-4.5 20.5 -30.5 34.5q-12 6 -22 8.5q-10 2.5 -17 4q-7 1.5 -11 4q-4 2.5 -4 8.5q0 5 5.5 9q5.5 4 16.5 4h368q19 0 31 3q12 3 21 6.5q9 3.5 16.5 6.5q7.5 3 17.5 3q20 0 28.5 -16.5q8.5 -16.5 8.5 -39.5q0 -9 0 -15.5q0 -6.5 1.5 -14.5q1.5 -8 5 -20.5q3.5 -12.5 9.5 -34.5q3 -10 5.5 -20.5q2.5 -10.5 2.5 -23.5q0 -9 -3 -18q-3 -9 -14 -9q-8 0 -14.5 8.5q-6.5 8.5 -14 22q-7.5 13.5 -17 29.5q-9.5 16 -22.5 32q-25 29 -60.5 48.5q-35.5 19.5 -69.5 19.5z" />
<glyph unicode="&#71;" horiz-adv-x="813" d="M656 663q0 -17 2 -29q2 -12 4 -23q3 -12 5 -22.5q2 -10.5 2 -26.5q0 -26 -8.5 -32.5q-8.5 -6.5 -12.5 -6.5q-9 0 -14.5 8.5q-5.5 8.5 -11.5 19.5q-13 24 -30.5 49q-17.5 25 -42 45.5q-24.5 20.5 -56 33q-31.5 12.5 -71.5 12.5q-54 0 -103.5 -25q-49.5 -25 -87.5 -70q-35 -43 -55 -99q-20 -56 -20 -121q0 -62 18 -124.5q18 -62.5 53 -113.5q25 -36 54 -60.5q29 -24.5 60 -39.5q31 -15 62.5 -21.5q31.5 -6.5 62.5 -6.5q12 0 28.5 1.5q16.5 1.5 35.5 7.5q19 6 39 17.5q20 11.5 39 32.5l0 102q0 29 -4.5 49.5q-4.5 20.5 -30.5 34.5q-20 11 -33 11.5q-13 0.5 -18 6.5q-5 6 -0.5 13q4.5 7 19.5 7q12 0 23 -1q11 -1 30 -3q14 -1 28 -1.5q14 -0.5 32 -0.5q18 0 32 0.5q14 0.5 28 1.5q19 2 30 3q11 1 23 1q15 0 19.5 -7q4.5 -7 -0.5 -13q-5 -6 -18 -6.5q-13 -0.5 -33 -11.5q-26 -14 -30.5 -34.5q-4.5 -20.5 -4.5 -49.5v-98q0 -15 -2 -23.5q-2 -8.5 -7.5 -14.5q-5.5 -6 -15 -11q-9.5 -5 -23.5 -11q-15 -7 -39.5 -13.5q-24.5 -6.5 -53 -11.5q-28.5 -5 -58.5 -8q-30 -3 -56 -3q-98 0 -169.5 30.5q-71.5 30.5 -121.5 80.5q-32 32 -52.5 66.5q-20.5 34.5 -32 67.5q-11.5 33 -15.5 64.5q-4 31.5 -4 57.5q0 57 11.5 103.5q11.5 46.5 30.5 83q19 36.5 43 64q24 27.5 48 47.5q48 38 113.5 60q65.5 22 137.5 22q41 0 86 -9q14 -3 29 -6.5q15 -3.5 31 -3.5q10 0 17.5 1.5q7.5 1.5 13.5 3.5q7 2 12.5 4q5.5 2 10.5 2q15 0 18.5 -9q3.5 -9 3.5 -14z" />
<glyph unicode="&#72;" horiz-adv-x="902" d="M661 578q0 29 -4.5 49.5q-4.5 20.5 -30.5 34.5q-20 11 -33 11.5q-13 0.5 -18 6.5q-5 6 -0.5 13q4.5 7 19.5 7q12 0 23 -1q11 -1 30 -3q14 -1 27.5 -1.5q13.5 -0.5 31.5 -0.5q19 0 33 0.5q14 0.5 28 1.5q19 2 30 3q11 1 23 1q15 0 19.5 -7q4.5 -7 -0.5 -13q-5 -6 -18 -6.5q-13 -0.5 -33 -11.5q-26 -14 -30.5 -34.5q-4.5 -20.5 -4.5 -49.5v-456q0 -29 4.5 -49.5q4.5 -20.5 30.5 -34.5q20 -11 33 -11.5q13 -0.5 18 -6.5q5 -6 0.5 -13q-4.5 -7 -19.5 -7q-12 0 -23 1q-11 1 -30 3q-14 1 -28 1.5q-14 0.5 -33 0.5q-18 0 -31.5 -0.5q-13.5 -0.5 -27.5 -1.5q-19 -2 -30 -3q-11 -1 -23 -1q-15 0 -19.5 7q-4.5 7 0.5 13q5 6 18 6.5q13 0.5 33 11.5q26 14 30.5 34.5q4.5 20.5 4.5 49.5v221h-420v-221q0 -29 4.5 -49.5q4.5 -20.5 30.5 -34.5q20 -11 33 -11.5q13 -0.5 18 -6.5q5 -6 0.5 -13q-4.5 -7 -19.5 -7q-12 0 -23 1q-11 1 -30 3q-14 1 -28 1.5q-14 0.5 -33 0.5q-18 0 -31.5 -0.5q-13.5 -0.5 -27.5 -1.5q-19 -2 -30 -3q-11 -1 -23 -1q-15 0 -19.5 7q-4.5 7 0.5 13q5 6 18 6.5q13 0.5 33 11.5q26 14 30.5 34.5q4.5 20.5 4.5 49.5v456q0 29 -4.5 49.5q-4.5 20.5 -30.5 34.5q-20 11 -33 11.5q-13 0.5 -18 6.5q-5 6 -0.5 13q4.5 7 19.5 7q12 0 23 -1q11 -1 30 -3q14 -1 27.5 -1.5q13.5 -0.5 31.5 -0.5q19 0 33 0.5q14 0.5 28 1.5q19 2 30 3q11 1 23 1q15 0 19.5 -7q4.5 -7 -0.5 -13q-5 -6 -18 -6.5q-13 -0.5 -33 -11.5q-26 -14 -30.5 -34.5q-4.5 -20.5 -4.5 -49.5v-193l420 0z" />
<glyph unicode="&#73;" horiz-adv-x="390" d="M241 122q0 -32 5 -52q5 -20 30 -32q19 -10 32.5 -11q13.5 -1 18.5 -7q5 -6 0.5 -13q-4.5 -7 -19.5 -7q-12 0 -23 1q-11 1 -30 3q-14 1 -28 1.5q-14 0.5 -33 0.5q-18 0 -31.5 -0.5q-13.5 -0.5 -27.5 -1.5q-19 -2 -30 -3q-11 -1 -23 -1q-15 0 -19.5 7q-4.5 7 0.5 13q5 6 18 6.5q13 0.5 33 11.5q26 14 30.5 34.5q4.5 20.5 4.5 49.5v456q0 29 -4.5 49.5q-4.5 20.5 -30.5 34.5q-20 11 -33 11.5q-13 0.5 -18 6.5q-5 6 -0.5 13q4.5 7 19.5 7q12 0 23 -1q11 -1 30 -3q14 -1 27.5 -1.5q13.5 -0.5 31.5 -0.5q19 0 33 0.5q14 0.5 28 1.5q19 2 30 3q11 1 23 1q15 0 19.5 -7q4.5 -7 -0.5 -13q-5 -6 -18 -6.5q-13 -0.5 -33 -11.5q-26 -14 -30.5 -34.5q-4.5 -20.5 -4.5 -49.5z" />
<glyph unicode="&#74;" horiz-adv-x="437" d="M197 578q0 29 -5 49.5q-5 20.5 -31 34.5q-20 11 -33 11.5q-13 0.5 -18 6.5q-5 6 -0.5 13q4.5 7 19.5 7q12 0 23 -1q11 -1 30 -3q14 -1 27.5 -1.5q13.5 -0.5 31.5 -0.5q19 0 33 0.5q14 0.5 28 1.5q19 2 30 3q11 1 23 1q15 0 19.5 -7q4.5 -7 -0.5 -13q-5 -6 -18 -6.5q-13 -0.5 -33 -11.5q-14 -7 -20.5 -14.5q-6.5 -7.5 -9.5 -17.5q-3 -10 -3.5 -22.5q-0.5 -12.5 -1.5 -29.5q-2 -61 -1.5 -122q0.5 -61 -2.5 -129q-2 -45 -7 -83q-5 -38 -14 -72q-9 -34 -21.5 -65.5q-12.5 -31.5 -30.5 -63.5q-8 -14 -19.5 -31.5q-11.5 -17.5 -28 -33.5q-16.5 -16 -38 -26.5q-21.5 -10.5 -48.5 -10.5q-27 0 -37 13.5q-10 13.5 -10 27.5q0 15 6.5 24q6.5 9 16 14q9.5 5 20.5 7q11 2 20 3q11 2 23.5 3.5q12.5 1.5 26.5 7.5q20 9 31.5 22.5q11.5 13.5 17.5 27.5q8 20 9.5 47.5q1.5 27.5 1.5 75.5q0 52 -2 104.5q-2 52.5 -3 111.5z" />
<glyph unicode="&#75;" horiz-adv-x="731" d="M241 122q0 -29 4.5 -49.5q4.5 -20.5 30.5 -34.5q20 -11 33 -11.5q13 -0.5 18 -6.5q5 -6 0.5 -13q-4.5 -7 -19.5 -7q-12 0 -23 1q-11 1 -30 3q-14 1 -28 1.5q-14 0.5 -33 0.5q-18 0 -31.5 -0.5q-13.5 -0.5 -27.5 -1.5q-19 -2 -30 -3q-11 -1 -23 -1q-15 0 -19.5 7q-4.5 7 0.5 13q5 6 18 6.5q13 0.5 33 11.5q26 14 30.5 34.5q4.5 20.5 4.5 49.5v456q0 29 -4.5 49.5q-4.5 20.5 -30.5 34.5q-20 11 -33 11.5q-13 0.5 -18 6.5q-5 6 -0.5 13q4.5 7 19.5 7q12 0 23 -1q11 -1 30 -3q14 -1 27.5 -1.5q13.5 -0.5 31.5 -0.5q19 0 33 0.5q14 0.5 28 1.5q19 2 30 3q11 1 23 1q15 0 19.5 -7q4.5 -7 -0.5 -13q-5 -6 -18 -6.5q-13 -0.5 -33 -11.5q-26 -14 -30.5 -34.5q-4.5 -20.5 -4.5 -49.5v-191q29 17 71.5 47q42.5 30 100.5 86q30 29 46 49.5q16 20.5 23.5 34q7.5 13.5 9 21q1.5 7.5 1.5 10.5q0 10 -7.5 19q-7.5 9 -18.5 14q-14 6 -20.5 6q-6.5 0 -14.5 4q-9 5 -9 12q0 8 8.5 9q8.5 1 13.5 1q17 -1 34.5 -1q17.5 0 34.5 -2q13 -1 25 -2q12 -1 25 -1q14 0 28.5 1q14.5 1 34.5 3q20 1 31.5 1.5q11.5 0.5 21.5 0.5q14 0 14 -10q0 -8 -6 -11.5q-6 -3.5 -11 -5.5q-11 -4 -20.5 -7.5q-9.5 -3.5 -20 -9q-10.5 -5.5 -22 -13q-11.5 -7.5 -25.5 -18.5q-32 -25 -80 -68.5q-48 -43.5 -101 -88.5q-29 -25 -53.5 -45q-24.5 -20 -57.5 -46q51 -8 95.5 -29q44.5 -21 76.5 -50q29 -26 52.5 -61.5q23.5 -35.5 52.5 -81.5q25 -40 44 -64q19 -24 38 -39q21 -16 38.5 -21q17.5 -5 30 -5.5q12.5 -0.5 19.5 -1.5q7 -1 7 -9q0 -6 -10 -12q-10 -6 -26 -10.5q-16 -4.5 -36 -7.5q-20 -3 -39 -3q-29 0 -54.5 10q-25.5 10 -51.5 38q-27 29 -47.5 69q-20.5 40 -40.5 78q-21 39 -47.5 77q-26.5 38 -64.5 66q-29 21 -51.5 27.5q-22.5 6.5 -41.5 6.5z" />
<glyph unicode="&#76;" horiz-adv-x="673" d="M241 82q15 -15 32.5 -24.5q17.5 -9.5 36 -15q18.5 -5.5 36.5 -7.5q18 -2 34 -2q31 0 61.5 8q30.5 8 60.5 30q29 22 49.5 52.5q20.5 30.5 34.5 60.5q4 8 10.5 20.5q6.5 12.5 17.5 12.5q4 0 11.5 -5q7.5 -5 7.5 -22q0 -14 -4 -29.5q-4 -15.5 -11 -36.5q-7 -22 -9 -36q-2 -14 -2.5 -23.5q-0.5 -9.5 -0.5 -18q0 -8.5 -1 -19.5q-4 -26 -14.5 -31.5q-10.5 -5.5 -24.5 -5.5q-13 0 -20.5 1.5q-7.5 1.5 -18.5 3.5q-14 2 -25 3.5q-11 1.5 -26 1.5h-394q-15 0 -19.5 7q-4.5 7 0.5 13q5 6 18 6.5q13 0.5 33 11.5q26 14 30.5 34.5q4.5 20.5 4.5 49.5v456q0 29 -4.5 49.5q-4.5 20.5 -30.5 34.5q-20 11 -33 11.5q-13 0.5 -18 6.5q-5 6 -0.5 13q4.5 7 19.5 7q12 0 23 -1q11 -1 30 -3q14 -1 27.5 -1.5q13.5 -0.5 31.5 -0.5q20 0 33 0.5q13 0.5 28 1.5q16 2 31 3q15 1 32 1q18 0 19.5 -8q1.5 -8 -0.5 -12q-3 -4 -8 -4.5q-5 -0.5 -12 -1q-7 -0.5 -17.5 -3q-10.5 -2.5 -23.5 -9.5q-26 -14 -30.5 -34.5q-4.5 -20.5 -4.5 -49.5z" />
<glyph unicode="&#77;" horiz-adv-x="972" d="M726 605l-242 -449q-4 -6 -8.5 -14q-4.5 -8 -11.5 -8q-6 0 -12 10q-6 10 -15 25l-221 390l2 -437q0 -19 6.5 -45q6.5 -26 30.5 -39q19 -11 32 -11.5q13 -0.5 18 -6.5q5 -6 0.5 -13q-4.5 -7 -19.5 -7q-15 0 -26 1q-11 1 -21.5 2q-10.5 1 -22 2q-11.5 1 -27.5 1q-14 0 -29 -1q-15 -1 -29 -3q-8 -1 -16.5 -1.5q-8.5 -0.5 -17.5 -0.5q-15 0 -19.5 7q-4.5 7 0.5 13q5 7 17.5 6.5q12.5 -0.5 32.5 11.5q22 14 28.5 36.5q6.5 22.5 7.5 47.5l11 479q-11 17 -22 27.5q-11 10.5 -25 18.5q-14 10 -26 14.5q-12 4.5 -29 8.5q-6 2 -11.5 4q-5.5 2 -5.5 11q0 4 3 9.5q3 5.5 14 5.5q20 0 33 -1q13 -1 23.5 -1.5q10.5 -0.5 21 -1.5q10.5 -1 25.5 -1q6 0 14.5 0.5q8.5 0.5 17.5 1.5q9 1 17 2q8 1 13 1l259 -437l229 437q32 -3 56 -3.5q24 -0.5 43 0q19 0.5 34.5 2q15.5 1.5 30.5 1.5q15 0 19.5 -7q4.5 -7 -0.5 -13q-5 -6 -18.5 -7q-13.5 -1 -32.5 -11q-25 -12 -30 -32q-5 -20 -5 -52v-456q0 -29 4.5 -49.5q4.5 -20.5 30.5 -34.5q20 -11 33 -11.5q13 -0.5 18 -6.5q5 -6 0.5 -13q-4.5 -7 -19.5 -7q-12 0 -23 1q-11 1 -30 3q-14 1 -28 1.5q-14 0.5 -33 0.5q-18 0 -31.5 -0.5q-13.5 -0.5 -27.5 -1.5q-19 -2 -30 -3q-11 -1 -23 -1q-15 0 -19.5 7q-4.5 7 0.5 13q5 6 18 6.5q13 0.5 33 11.5q26 14 30.5 34.5q4.5 20.5 4.5 49.5l0 483z" />
<glyph unicode="&#78;" horiz-adv-x="880" d="M683 578q0 28 -8 50.5q-8 22.5 -28 33.5q-19 11 -32 11.5q-13 0.5 -18 6.5q-5 6 -0.5 13q4.5 7 19.5 7q9 0 17.5 -0.5q8.5 -0.5 16.5 -1.5q15 -2 30 -3q15 -1 30 -1q15 0 30 1q15 1 30 3q8 1 16.5 1.5q8.5 0.5 17.5 0.5q15 0 19.5 -7q4.5 -7 -0.5 -13q-5 -6 -18 -6.5q-13 -0.5 -32 -11.5q-16 -9 -25.5 -27.5q-9.5 -18.5 -10.5 -56.5l-10 -563q0 -19 -7.5 -26q-7.5 -7 -15.5 -7q-8 0 -14.5 7.5q-6.5 7.5 -10.5 12.5l-441 554l2 -434q0 -43 12 -60.5q12 -17.5 24 -23.5q18 -10 31.5 -11q13.5 -1 18.5 -7q5 -6 0.5 -13q-4.5 -7 -19.5 -7q-9 0 -17.5 0.5q-8.5 0.5 -16.5 1.5q-16 2 -31 3q-15 1 -31 1q-14 0 -29 -1q-15 -1 -29 -3q-8 -1 -16.5 -1.5q-8.5 -0.5 -17.5 -0.5q-15 0 -19.5 7q-4.5 7 0.5 13q5 7 17.5 6.5q12.5 -0.5 32.5 11.5q22 14 28.5 36.5q6.5 22.5 7.5 47.5l10 473q-14 18 -33 33.5q-19 15.5 -46 27.5q-13 6 -21.5 8.5q-8.5 2.5 -14.5 4q-6 1.5 -10.5 3q-4.5 1.5 -9.5 4.5q-7 4 -7 12q0 4 3 8q3 4 13 4q31 0 61 -2.5q30 -2.5 49 -2.5q17 0 32.5 1q15.5 1 32.5 4l440 -553z" />
<glyph unicode="&#79;" horiz-adv-x="886" d="M836 357q0 -47 -10.5 -87q-10.5 -40 -27 -73q-16.5 -33 -36.5 -59.5q-20 -26.5 -39 -45.5q-57 -58 -125.5 -86.5q-68.5 -28.5 -155.5 -28.5q-58 0 -105 10.5q-47 10.5 -84 28q-37 17.5 -65 40q-28 22.5 -49 46.5q-17 19 -33 43.5q-16 24.5 -28.5 55q-12.5 30.5 -20 66.5q-7.5 36 -7.5 78q0 52 11 94.5q11 42.5 28 76.5q17 34 38 60q21 26 42 45q35 32 71.5 52q36.5 20 72 31.5q35.5 11.5 68.5 15.5q33 4 62 4q102 0 175 -32q73 -32 124 -89q48 -53 71 -117q23 -64 23 -129zt0 0zM730 320q0 25 -2.5 54.5q-2.5 29.5 -10.5 61q-8 31.5 -22 64.5q-14 33 -36 66q-46 66 -102 95.5q-56 29.5 -126 29.5q-41 0 -73.5 -9.5q-32.5 -9.5 -58.5 -24.5q-26 -15 -45.5 -33q-19.5 -18 -32.5 -36q-32 -42 -48.5 -98.5q-16.5 -56.5 -16.5 -110.5q0 -32 5.5 -66.5q5.5 -34.5 16 -68q10.5 -33.5 25.5 -65q15 -31.5 35 -56.5q45 -59 103.5 -86q58.5 -27 121.5 -27q26 0 55 5.5q29 5.5 57.5 20q28.5 14.5 55.5 38.5q27 24 49 62q25 42 37.5 90t12.5 94z" />
<glyph unicode="&#80;" horiz-adv-x="665" d="M149 578q0 29 -4.5 49.5q-4.5 20.5 -30.5 34.5q-20 11 -33 11.5q-13 0.5 -18 6.5q-5 6 -0.5 13q4.5 7 19.5 7q12 0 23 -1q11 -1 30 -3q14 -1 27 -1.5q13 -0.5 27 -0.5q29 0 49 2.5q20 2.5 40 4.5q25 3 48 5q23 2 45 2q52 0 95.5 -13q43.5 -13 75 -37q31.5 -24 49.5 -59q18 -35 18 -79q0 -56 -25 -97q-25 -41 -65.5 -68.5q-40.5 -27.5 -91.5 -41q-51 -13.5 -103 -13.5q-24 0 -44 3.5q-20 3.5 -39 9.5l0 -191q0 -32 7 -52.5q7 -20.5 28 -31.5q21 -11 36.5 -11q15.5 0 20.5 -7q2 -4 0.5 -12q-1.5 -8 -19.5 -8q-14 0 -28.5 1q-14.5 1 -30.5 3q-14 1 -27.5 1.5q-13.5 0.5 -33.5 0.5q-18 0 -31.5 -0.5q-13.5 -0.5 -27.5 -1.5q-19 -2 -30 -3q-11 -1 -23 -1q-15 0 -19.5 7q-4.5 7 0.5 13q5 6 18 6.5q13 0.5 33 11.5q26 14 30.5 34.5q4.5 20.5 4.5 49.5zM241 372q31 -26 61 -32.5q30 -6.5 49 -6.5q35 0 65 11q30 11 51.5 31.5q21.5 20.5 33.5 49.5q12 29 12 66q0 41 -14.5 75.5q-14.5 34.5 -40.5 59q-26 24.5 -61.5 38q-35.5 13.5 -78.5 13.5q-26 0 -41.5 -7.5q-15.5 -7.5 -23.5 -18q-8 -10.5 -10 -23.5q-2 -13 -2 -23z" />
<glyph unicode="&#81;" horiz-adv-x="897" d="M466 -23q43 -7 77.5 -16q34.5 -9 62.5 -19.5q28 -10.5 51.5 -22q23.5 -11.5 46.5 -23.5q28 -14 51.5 -22.5q23.5 -8.5 60.5 -8.5q17 0 28.5 1.5q11.5 1.5 20.5 3.5q15 3 21 3q11 0 11 -10q0 -5 -4 -11q-4 -6 -10 -11q-6 -5 -12 -9.5q-6 -4.5 -10 -7.5q-26 -16 -53 -23q-27 -7 -53 -7q-34 0 -76 11.5q-42 11.5 -77 31.5q-33 19 -55 38.5q-22 19.5 -43.5 37.5q-21.5 18 -46.5 34.5q-25 16.5 -64 30.5q-74 6 -135.5 35q-61.5 29 -104.5 73q-18 18 -36 43q-18 25 -33 57.5q-15 32.5 -24.5 72.5q-9.5 40 -9.5 88q0 78 28 147q28 69 91 129q54 51 120.5 76q66.5 25 158.5 25q90 0 163.5 -29q73.5 -29 130.5 -92q28 -30 46 -61.5q18 -31.5 28.5 -63q10.5 -31.5 15 -61.5q4.5 -30 4.5 -58q0 -85 -32 -153q-32 -68 -80 -116q-20 -20 -45.5 -39q-25.5 -19 -57.5 -34.5q-32 -15.5 -70.5 -26q-38.5 -10.5 -84.5 -12.5zM730 320q0 25 -2.5 54.5q-2.5 29.5 -10.5 61q-8 31.5 -22 64.5q-14 33 -36 66q-41 58 -93.5 91.5q-52.5 33.5 -124.5 33.5q-75 0 -131.5 -30q-56.5 -30 -88.5 -73q-31 -42 -48 -99q-17 -57 -17 -113q0 -31 5.5 -65q5.5 -34 16 -67q10.5 -33 25.5 -64.5q15 -31.5 35 -56.5q45 -60 103.5 -86.5q58.5 -26.5 118.5 -26.5q71 0 125 30.5q54 30.5 93 95.5q52 86 52 184z" />
<glyph unicode="&#82;" horiz-adv-x="707" d="M241 122q0 -29 4.5 -49.5q4.5 -20.5 30.5 -34.5q20 -11 33 -11.5q13 -0.5 18 -6.5q5 -6 0.5 -13q-4.5 -7 -19.5 -7q-12 0 -23 1q-11 1 -30 3q-14 1 -28 1.5q-14 0.5 -33 0.5q-18 0 -31.5 -0.5q-13.5 -0.5 -27.5 -1.5q-19 -2 -30 -3q-11 -1 -23 -1q-15 0 -19.5 7q-4.5 7 0.5 13q5 6 18 6.5q13 0.5 33 11.5q26 14 30.5 34.5q4.5 20.5 4.5 49.5v456q0 29 -4.5 49.5q-4.5 20.5 -30.5 34.5q-20 11 -33 11.5q-13 0.5 -18 6.5q-5 6 -0.5 13q4.5 7 19.5 7q21 0 34 -1q13 -1 24.5 -2q11.5 -1 23.5 -2q12 -1 30 -1q26 0 47.5 3q21.5 3 38.5 6q16 2 31.5 3.5q15.5 1.5 37.5 1.5q38 0 83.5 -8q45.5 -8 81.5 -31q30 -20 53 -55.5q23 -35.5 23 -86.5q0 -38 -18.5 -76q-18.5 -38 -60.5 -66q-34 -23 -80.5 -33q-46.5 -10 -83.5 -11q44 -14 86.5 -37.5q42.5 -23.5 74.5 -55.5q18 -18 34 -39.5q16 -21.5 29.5 -43.5q13.5 -22 25.5 -43q12 -21 23 -38q13 -20 25.5 -35q12.5 -15 29.5 -26q13 -8 23.5 -12.5q10.5 -4.5 20.5 -7.5q8 -2 8 -8q0 -9 -15 -11q-15 -2 -29 -2q-46 0 -77 10.5q-31 10.5 -53 27.5q-22 17 -36.5 39.5q-14.5 22.5 -26.5 46.5q-20 40 -42.5 83q-22.5 43 -57.5 81q-29 32 -63.5 50q-34.5 18 -85.5 15zM241 370q58 -6 107 4q49 10 88 42q32 26 45 56q13 30 13 63q0 61 -45 100.5q-45 39.5 -136 39.5q-25 0 -39 -6.5q-14 -6.5 -21.5 -16.5q-7.5 -10 -9.5 -22.5q-2 -12.5 -2 -23.5z" />
<glyph unicode="&#83;" horiz-adv-x="584" d="M180 386q-11 7 -27 19.5q-16 12.5 -31 32q-15 19.5 -25.5 46q-10.5 26.5 -10.5 60.5q0 86 54 133q54 47 148 47q18 0 29 -1.5q11 -1.5 25 -3.5q10 -2 21 -4q11 -2 22 -2q11 0 18.5 2q7.5 2 14.5 4q12 5 22 5q6 0 14 -4q8 -4 11 -25q3 -18 2.5 -27q-0.5 -9 2.5 -24q3 -13 7.5 -24.5q4.5 -11.5 9.5 -24.5q3 -8 5.5 -17q2.5 -9 2.5 -19q0 -12 -5.5 -16.5q-5.5 -4.5 -10.5 -4.5q-11 0 -17 7.5q-6 7.5 -11 15.5q-11 19 -22.5 35q-11.5 16 -30.5 36q-22 23 -53 42.5q-31 19.5 -77 19.5q-46 0 -77 -29.5q-31 -29.5 -31 -80.5q0 -25 7 -43q7 -18 17 -31.5q10 -13.5 21 -22q11 -8.5 20 -13.5l202 -126q18 -12 36.5 -28.5q18.5 -16.5 33.5 -38.5q15 -22 24 -50q9 -28 9 -62q0 -27 -7 -48.5q-7 -21.5 -17 -38q-10 -16.5 -21.5 -28.5q-11.5 -12 -21.5 -20q-29 -23 -71 -37q-42 -14 -82 -14q-31 0 -61 7q-30 7 -63 7q-28 0 -44 -7q-8 -3 -15.5 -5.5q-7.5 -2.5 -16.5 -2.5q-10 0 -15.5 4.5q-5.5 4.5 -8.5 10.5q-3 6 -4 12.5q-1 6.5 -1 11.5q-1 16 -1 26q0 10 -2 21q-4 23 -14 45.5q-10 22.5 -10 48.5q0 13 4.5 22.5q4.5 9.5 13.5 9.5q14 0 20 -10q6 -10 12 -21q11 -21 32 -50.5q21 -29.5 56 -55.5q28 -20 59 -33.5q31 -13.5 63 -13.5q22 0 46 6.5q24 6.5 43 21.5q19 15 31.5 38q12.5 23 12.5 56q0 36 -15.5 71q-15.5 35 -64.5 66z" />
<glyph unicode="&#84;" horiz-adv-x="742" d="M555 700q13 0 26 2q13 2 27 8q8 3 15 6q7 3 16 3q28 0 36 -29q4 -13 3 -27q-1 -14 1 -25q2 -10 4.5 -20.5q2.5 -10.5 10.5 -36.5q3 -10 5.5 -20q2.5 -10 2.5 -24q0 -17 -5.5 -23.5q-5.5 -6.5 -10.5 -6.5q-11 0 -17 9.5q-6 9.5 -8 12.5q-8 17 -21 37.5q-13 20.5 -25 34.5q-9 10 -21.5 21.5q-12.5 11.5 -29 21.5q-16.5 10 -37.5 16.5q-21 6.5 -46 6.5q-22 0 -35 -6.5q-13 -6.5 -19.5 -16q-6.5 -9.5 -8 -19.5q-1.5 -10 -1.5 -16v-487q0 -29 4.5 -49.5q4.5 -20.5 30.5 -34.5q20 -11 33 -11.5q13 -0.5 18 -6.5q5 -6 0.5 -13q-4.5 -7 -19.5 -7q-12 0 -23 1q-11 1 -30 3q-14 1 -28 1.5q-14 0.5 -33 0.5q-18 0 -31.5 -0.5q-13.5 -0.5 -27.5 -1.5q-19 -2 -30 -3q-11 -1 -23 -1q-15 0 -19.5 7q-4.5 7 0.5 13q5 6 18 6.5q13 0.5 33 11.5q26 14 30.5 34.5q4.5 20.5 4.5 49.5v487q0 6 -1.5 16q-1.5 10 -8 19.5q-6.5 9.5 -19.5 16q-13 6.5 -35 6.5q-25 0 -46 -6.5q-21 -6.5 -37.5 -16.5q-16.5 -10 -29 -21.5q-12.5 -11.5 -21.5 -21.5q-12 -14 -25 -34.5q-13 -20.5 -21 -37.5q-2 -3 -8 -12.5q-6 -9.5 -17 -9.5q-5 0 -10.5 6.5q-5.5 6.5 -5.5 23.5q0 14 2.5 24q2.5 10 5.5 20q8 26 10.5 36.5q2.5 10.5 4.5 20.5q2 11 1 25q-1 14 3 27q8 29 36 29q9 0 16 -3q7 -3 15 -6q14 -6 27 -8q13 -2 26 -2z" />
<glyph unicode="&#85;" horiz-adv-x="895" d="M759 316q0 -29 -4 -74.5q-4 -45.5 -21 -89.5q-8 -22 -22 -46q-14 -24 -35 -46.5q-21 -22.5 -50.5 -41q-29.5 -18.5 -69.5 -29.5q-39 -10 -89 -12q-34 -1 -70 3.5q-36 4.5 -70.5 16q-34.5 11.5 -65 30q-30.5 18.5 -52.5 45.5q-26 31 -43.5 83q-17.5 52 -17.5 127v296q0 29 -4.5 49.5q-4.5 20.5 -30.5 34.5q-20 11 -33 11.5q-13 0.5 -18 6.5q-5 6 -0.5 13q4.5 7 19.5 7q12 0 23 -1q11 -1 30 -3q14 -1 27.5 -1.5q13.5 -0.5 31.5 -0.5q19 0 33 0.5q14 0.5 28 1.5q19 2 30 3q11 1 23 1q15 0 19.5 -7q4.5 -7 -0.5 -13q-5 -6 -18 -6.5q-13 -0.5 -33 -11.5q-26 -14 -30.5 -34.5q-4.5 -20.5 -4.5 -49.5v-293q0 -28 4 -65.5q4 -37.5 21 -77.5q27 -63 78 -95q51 -32 130 -32q46 0 81.5 13.5q35.5 13.5 61 33.5q25.5 20 42 43q16.5 23 25.5 43q14 32 20 73q6 41 6 71l1 267q0 14 -3 30q-3 16 -10 31.5q-7 15.5 -19 29.5q-12 14 -31 23q-12 6 -17.5 7q-5.5 1 -14.5 3q-7 2 -7 9q0 7 6.5 7.5q6.5 0.5 11.5 0.5q8 0 21 -1q13 -1 28 -1.5q15 -0.5 30.5 -1.5q15.5 -1 28.5 -1q28 0 49 2.5q21 2.5 51 2.5q14 0 20 -1q6 -1 6 -7q0 -6 -7 -9q-5 -2 -11 -2q-6 0 -20 -8q-9 -5 -19.5 -13q-10.5 -8 -20.5 -21.5q-10 -13.5 -16.5 -33q-6.5 -19.5 -6.5 -46.5z" />
<glyph unicode="&#86;" horiz-adv-x="767" d="M408 100l174 422q3 6 6.5 15.5q3.5 9.5 6.5 20.5q3 11 5.5 21q2.5 10 2.5 18q0 16 -7 33.5q-7 17.5 -21 27.5q-8 6 -19.5 9.5q-11.5 3.5 -25.5 8.5q-2 1 -7 3.5q-5 2.5 -5 9.5q0 8 10 9.5q10 1.5 16 1.5q12 0 24 -0.5q12 -0.5 24 -1.5q17 -1 32.5 -2q15.5 -1 32.5 -1q12 0 23.5 0.5q11.5 0.5 23.5 1.5q13 1 25.5 2q12.5 1 26.5 1q15 0 18 -5q3 -5 3 -7q0 -6 -5.5 -8.5q-5.5 -2.5 -10.5 -3.5q-4 -1 -23 -8.5q-19 -7.5 -38 -25.5q-14 -14 -22.5 -28.5q-8.5 -14.5 -13.5 -25.5l-261 -605q-5 -10 -9 -17q-4 -7 -12 -7q-8 0 -11.5 6.5q-3.5 6.5 -8.5 17.5l-277 627q-10 24 -29 40q-9 8 -20.5 13q-11.5 5 -25.5 12q-8 4 -9 8.5q-1 4.5 -1 6.5q0 4 3.5 6q3.5 2 8.5 3q5 1 9.5 1q4.5 0 7.5 0q26 -1 51.5 -3q25.5 -2 51.5 -2q28 0 55.5 2.5q27.5 2.5 55.5 2.5q8 0 16.5 -2q8.5 -2 8.5 -13q0 -6 -4 -8q-4 -2 -7 -3q-11 -4 -20.5 -6q-9.5 -2 -20.5 -8q-13 -8 -19 -17.5q-6 -9.5 -6 -25.5q0 -14 4 -26q4 -12 12 -29l195 -462z" />
<glyph unicode="&#87;" horiz-adv-x="1007" d="M510 674q3 8 6 17q3 9 13 9q14 0 20 -7.5q6 -7.5 9 -16.5l179 -506l120 381q4 11 7 29.5q3 18.5 3 29.5q0 22 -12 39q-12 18 -39 26q-5 2 -12 4q-7 2 -7 9q0 10 7.5 11q7.5 1 10.5 1q13 -1 31 -3q18 -2 50 -2q15 0 26.5 0.5q11.5 0.5 22 1.5q10.5 1 23 2q12.5 1 29.5 1q20 0 20 -12q0 -12 -10.5 -14.5q-10.5 -2.5 -22.5 -8.5q-27 -14 -43 -35q-7 -10 -13 -24q-6 -14 -14 -37l-183 -553q-3 -8 -7 -16q-4 -8 -16 -8q-9 0 -13.5 6.5q-4.5 6.5 -8.5 17.5l-179 505l-168 -510q-6 -19 -22 -19q-11 0 -15.5 9q-4.5 9 -6.5 16l-207 582q-5 14 -11.5 25q-6.5 11 -20.5 23q-9 8 -19 12.5q-10 4.5 -18 8q-8 3.5 -13.5 7.5q-5.5 4 -5.5 12q0 11 9.5 12q9.5 1 14.5 1q20 -1 34.5 -2q14.5 -1 26 -1.5q11.5 -0.5 21 -1q9.5 -0.5 19.5 -0.5q12 0 24.5 0.5q12.5 0.5 24.5 1.5q14 1 29 2q15 1 29 1q6 0 16 -2q10 -2 10 -11q0 -7 -9 -11q-11 -5 -19 -5q-8 0 -19 -7q-6 -4 -13 -13.5q-7 -9.5 -7 -27.5q0 -6 3.5 -22.5q3.5 -16.5 17.5 -56.5l133 -374z" />
<glyph unicode="&#88;" horiz-adv-x="764" d="M182 573q-5 6 -23 28q-18 22 -49 43q-17 11 -32.5 16.5q-15.5 5.5 -32.5 9.5q-5 2 -11 4q-6 2 -6 9q0 12 15.5 14.5q15.5 2.5 29.5 2.5q21 0 36 -1q15 -1 26.5 -2q11.5 -1 21.5 -1.5q10 -0.5 23 -0.5q15 0 25.5 1q10.5 1 19 1.5q8.5 0.5 16 1.5q7.5 1 17.5 1q14 0 18.5 -5q4.5 -5 4.5 -11q0 -6 -3 -8.5q-3 -2.5 -8 -6.5q-3 -3 -5.5 -8q-2.5 -5 -2.5 -14q0 -8 2.5 -19.5q2.5 -11.5 17.5 -32.5l114 -162l85 120q4 5 8.5 13.5q4.5 8.5 9 17.5q4.5 9 7.5 18q3 9 3 17q0 16 -6.5 25.5q-6.5 9.5 -16 15.5q-9.5 6 -20.5 9q-11 3 -21 6q-4 1 -9 4q-5 3 -5 9q0 8 5.5 10q5.5 2 10.5 2q13 1 25 0q12 -1 24.5 -2q12.5 -1 27 -2q14.5 -1 34.5 -1q19 0 37 1q18 1 37 2q12 1 24 1.5q12 0.5 24 0.5q8 0 17.5 -1q9.5 -1 9.5 -9q0 -7 -6 -10q-6 -3 -10 -5q-13 -4 -25 -7.5q-12 -3.5 -26 -12.5q-10 -6 -25.5 -19.5q-15.5 -13.5 -36.5 -39.5q-12 -15 -23.5 -30.5q-11.5 -15.5 -22.5 -30.5q-27 -37 -55 -72.5q-28 -35.5 -56 -70.5l189 -265q24 -34 47 -51.5q23 -17.5 38 -25.5q22 -12 33.5 -14q11.5 -2 23.5 -6q2 -1 7 -3.5q5 -2.5 5 -7.5q0 -7 -5.5 -11q-5.5 -4 -13.5 -5.5q-8 -1.5 -16.5 -2q-8.5 -0.5 -15.5 -0.5q-23 0 -46.5 2.5q-23.5 2.5 -48.5 2.5q-17 0 -27.5 -0.5q-10.5 -0.5 -18.5 -1.5q-8 -1 -15.5 -2q-7.5 -1 -18.5 -1q-17 0 -21.5 6q-4.5 6 -4.5 10q0 5 3 9q3 4 5 6q4 5 7.5 11q3.5 6 3.5 14q0 14 -10 33.5q-10 19.5 -18 31.5l-139 196l-114 -160q-3 -5 -8.5 -13.5q-5.5 -8.5 -10.5 -18.5q-5 -10 -8.5 -20.5q-3.5 -10.5 -3.5 -19.5q0 -11 9 -27.5q9 -16.5 40 -27.5q9 -3 19 -5.5q10 -2.5 10 -12.5q0 -10 -9.5 -11q-9.5 -1 -13.5 -1q-11 0 -21.5 1q-10.5 1 -23 2q-12.5 1 -29 1.5q-16.5 0.5 -39.5 0.5q-25 0 -41.5 -1q-16.5 -1 -29.5 -1.5q-13 -0.5 -25.5 -1.5q-12.5 -1 -28.5 -1q-11 0 -18.5 1.5q-7.5 1.5 -7.5 11.5q0 6 3.5 8.5q3.5 2.5 8.5 4.5q13 6 26.5 11q13.5 5 29.5 15q16 10 35.5 27.5q19.5 17.5 31.5 33.5l190 245z" />
<glyph unicode="&#89;" horiz-adv-x="672" d="M85 611q-20 35 -39 47.5q-19 12.5 -33 17.5q-4 2 -8.5 4.5q-4.5 2.5 -4.5 7.5q0 8 6 10q6 2 11 2q14 0 27.5 -0.5q13.5 -0.5 33.5 -2.5q17 -1 26 -1.5q9 -0.5 17 -0.5q11 0 20 0.5q9 0.5 31 2.5q22 1 31.5 1.5q9.5 0.5 21.5 0.5q7 0 15 -2q8 -2 8 -10q0 -6 -3 -8q-3 -2 -7 -4q-7 -2 -14.5 -4.5q-7.5 -2.5 -16.5 -8.5q-5 -4 -10.5 -11.5q-5.5 -7.5 -5.5 -24.5q0 -14 7.5 -31q7.5 -17 19.5 -39l157 -293l142 290q7 14 14.5 34q7.5 20 7.5 36q0 26 -19 38q-10 6 -20.5 8q-10.5 2 -19.5 6q-3 2 -7 4q-4 2 -4 7q0 3 3 8q3 5 17 5q17 0 36 -2.5q19 -2.5 48 -2.5q20 0 43.5 2q23.5 2 40.5 3q5 0 10 -1q5 -1 5 -8q0 -8 -7.5 -12q-7.5 -4 -10.5 -6q-11 -4 -20 -9q-9 -5 -18 -16q-6 -7 -16 -23q-10 -16 -16 -28l-159 -326q-7 -14 -11.5 -27q-4.5 -13 -6.5 -30q-2 -17 -3 -41.5q-1 -24.5 0 -60.5q0 -15 1 -27q1 -12 4 -22.5q3 -10.5 10 -19q7 -8.5 20 -15.5q20 -11 33 -11.5q13 -0.5 18 -6.5q5 -6 0.5 -13q-4.5 -7 -19.5 -7q-11 0 -20.5 1q-9.5 1 -32.5 2q-22 1 -35.5 2q-13.5 1 -25.5 1q-11 0 -24 -1q-13 -1 -35 -2q-23 -1 -32.5 -2q-9.5 -1 -20.5 -1q-15 0 -19.5 7q-4.5 7 0.5 13q5 6 18 6.5q13 0.5 33 11.5q13 7 20 15.5q7 8.5 10 19q3 10.5 4 22.5q1 12 1 27q1 27 0.5 47.5q-0.5 20.5 -2.5 35.5q-2 15 -6 27q-4 12 -10 23z" />
<glyph unicode="&#90;" horiz-adv-x="691" d="M169 33h107q93 0 153.5 21q60.5 21 95.5 49q14 11 34 32.5q20 21.5 46 62.5q2 3 9 11.5q7 8.5 15 8.5q5 0 10.5 -7q5.5 -7 5.5 -21q0 -13 -3.5 -23.5q-3.5 -10.5 -8.5 -21.5q-7 -14 -14.5 -26.5q-7.5 -12.5 -15.5 -35.5q-4 -11 -6 -18.5q-2 -7.5 -3.5 -14q-1.5 -6.5 -3 -13q-1.5 -6.5 -4.5 -16.5q-3 -10 -9.5 -20.5q-6.5 -10.5 -22.5 -10.5q-12 0 -19 2q-7 2 -16 4q-7 2 -19.5 3q-12.5 1 -35.5 1h-381q-18 0 -23.5 5.5q-5.5 5.5 -5.5 9.5q0 9 14 29l426 623h-194q-36 0 -72.5 -18q-36.5 -18 -61.5 -46q-13 -14 -24 -32.5q-11 -18.5 -22 -41.5q-2 -5 -7.5 -12.5q-5.5 -7.5 -15.5 -7.5q-6 0 -12 5.5q-6 5.5 -6 22.5q0 13 2.5 24q2.5 11 5.5 21q5 20 9 32.5q4 12.5 6 23.5q2 11 1 25q-1 14 3 27q8 29 36 29q9 0 16 -3q7 -3 15 -6q14 -6 27 -8q13 -2 26 -2h353q11 0 20 -3q9 -3 9 -11q0 -2 -1.5 -8q-1.5 -6 -12.5 -22z" />
<glyph unicode="&#91;" horiz-adv-x="366" d="M100 717q0 9 2 18.5q2 9.5 11 17.5q9 9 20.5 10.5q11.5 1.5 20.5 1.5h151q3 0 6.5 -1q3.5 -1 4.5 -6l0 -5q0 -2 -1.5 -6.5q-1.5 -4.5 -9.5 -4.5h-78q-6 0 -17 -2q-11 -2 -19 -11q-8 -8 -9.5 -17.5q-1.5 -9.5 -1.5 -17.5v-879q0 -8 1.5 -17.5q1.5 -9.5 9.5 -17.5q8 -9 19 -11q11 -2 17 -2h78q8 0 9.5 -4.5q1.5 -4.5 1.5 -6.5v-5q-1 -5 -4.5 -6q-3.5 -1 -6.5 -1h-151q-9 0 -20.5 1.5q-11.5 1.5 -20.5 10.5q-9 8 -11 17.5q-2 9.5 -2 18.5z" />
<glyph unicode="&#92;" horiz-adv-x="568" d="M98 773l414 -990l-41 -16l-414 990z" />
<glyph unicode="&#93;" horiz-adv-x="366" d="M266 -208q0 -9 -2 -18.5q-2 -9.5 -11 -17.5q-9 -9 -20.5 -10.5q-11.5 -1.5 -20.5 -1.5h-151q-3 0 -6.5 1q-3.5 1 -4.5 6l0 5q0 2 1.5 6.5q1.5 4.5 9.5 4.5h78q6 0 17 2q11 2 19 11q8 8 9.5 17.5q1.5 9.5 1.5 17.5v879q0 8 -1.5 17.5q-1.5 9.5 -9.5 17.5q-8 9 -19 11q-11 2 -17 2h-78q-8 0 -9.5 4.5q-1.5 4.5 -1.5 6.5v5q1 5 4.5 6q3.5 1 6.5 1h151q9 0 20.5 -1.5q11.5 -1.5 20.5 -10.5q9 -8 11 -17.5q2 -9.5 2 -18.5z" />
<glyph unicode="&#94;" horiz-adv-x="556" d="M154 546h-54l178 194l178 -194h-54l-124 92z" />
<glyph unicode="&#95;" horiz-adv-x="458" d="M458 -89v-52h-458l0 52z" />
<glyph unicode="&#96;" horiz-adv-x="186" d="M60 656q11 0 22 2.5q11 2.5 22 1.5q8 0 11.5 -5q3.5 -5 12.5 -24q4 -11 7 -18q3 -7 13 -24q8 -15 12.5 -21.5q4.5 -6.5 11.5 -17.5q7 -11 3 -15.5q-4 -4.5 -11 -4.5q-6 0 -13.5 4q-7.5 4 -16 9.5q-8.5 5.5 -17 12q-8.5 6.5 -15.5 11.5q-17 12 -31 22.5q-14 10.5 -32 26.5q-18 15 -23.5 22.5q-5.5 7.5 -5.5 13.5q0 6 3 7q3 1 6 1q11 0 21 -2t20 -2z" />
<glyph unicode="&#97;" horiz-adv-x="491" d="M305 358q0 6 -1.5 19.5q-1.5 13.5 -9.5 27.5q-8 14 -24 24.5q-16 10.5 -45 10.5q-16 0 -29.5 -4q-13.5 -4 -25.5 -18q-5 -6 -7.5 -11q-2.5 -5 -5 -10.5q-2.5 -5.5 -5.5 -11.5q-3 -6 -8 -14q-15 -25 -44 -25q-17 0 -23.5 10.5q-6.5 10.5 -6.5 21.5q0 17 12 34q12 17 35 30q22 12 51 18.5q29 6.5 58 6.5q31 0 58 -6.5q27 -6.5 50 -23.5q26 -19 35 -42q9 -23 9 -54v-252q0 -7 2 -20.5q2 -13.5 12 -24.5q8 -8 17.5 -10q9.5 -2 17.5 -2q12 0 18.5 3q6.5 3 10.5 6q4 3 7.5 6q3.5 3 8.5 3q7 0 7 -7q0 -5 -2.5 -11q-2.5 -6 -11.5 -16q-16 -17 -32 -24q-16 -7 -39 -7q-16 0 -31 5q-15 5 -26 13q-21 16 -27 45q-12 -10 -27 -21q-15 -11 -33.5 -20.5q-18.5 -9.5 -40 -15.5q-21.5 -6 -45.5 -6q-29 0 -50.5 9q-21.5 9 -36 23.5q-14.5 14.5 -22 33.5q-7.5 19 -7.5 40q0 18 4.5 36q4.5 18 16 35.5q11.5 17.5 31.5 34q20 16.5 50 30.5q38 17 80.5 27q42.5 10 74.5 14zM305 245q-26 -4 -57 -13.5q-31 -9.5 -54 -24.5q-32 -20 -47 -48.5q-15 -28.5 -15 -55.5q0 -28 20 -52q20 -24 58 -24q22 0 48.5 13.5q26.5 13.5 46.5 33.5z" />
<glyph unicode="&#98;" horiz-adv-x="565" d="M173 407q29 23 70.5 41.5q41.5 18.5 92.5 18.5q38 0 71 -15q33 -15 57.5 -42.5q24.5 -27.5 38.5 -65q14 -37.5 14 -82.5q0 -75 -27 -131.5q-27 -56.5 -66 -88.5q-26 -21 -67 -39q-41 -18 -98 -18q-24 0 -47.5 4q-23.5 4 -47.5 18l-7 0q-17 -16 -26.5 -19q-9.5 -3 -14.5 -3q-11 0 -13.5 8.5q-2.5 8.5 -2.5 15.5v619q0 6 -1.5 13q-1.5 7 -7.5 12q-6 5 -15 6q-9 1 -16 1q-7 0 -13.5 -0.5q-6.5 -0.5 -14.5 -0.5q-10 0 -12.5 3.5q-2.5 3.5 -2.5 6.5q0 6 6.5 8.5q6.5 2.5 11.5 4.5q35 8 56.5 18.5q21.5 10.5 32.5 18.5q14 9 20.5 13q6.5 4 11.5 4q13 0 15 -13.5q2 -13.5 2 -28.5zM173 91q2 -3 11 -14q9 -11 24.5 -23q15.5 -12 37 -21.5q21.5 -9.5 48.5 -9.5q15 0 32 3.5q17 3.5 33.5 11.5q16.5 8 31.5 22.5q15 14.5 27 35.5q12 23 19.5 56q7.5 33 7.5 65q0 40 -12 79q-12 39 -39 71q-25 29 -51.5 39.5q-26.5 10.5 -59.5 10.5q-18 0 -47.5 -6q-29.5 -6 -62.5 -31z" />
<glyph unicode="&#99;" horiz-adv-x="513" d="M307 467q18 0 40.5 -4q22.5 -4 42.5 -18q8 -5 16 -11.5q8 -6.5 20 -6.5q15 0 26 11q2 2 4 4q2 2 5 2q3 0 7 -2q4 -3 4 -8q0 -3 -4 -11q-11 -22 -27 -35q-11 -9 -24 -15q-13 -6 -31 -6q-23 0 -37.5 10q-14.5 10 -23.5 20q-9 10 -23.5 21.5q-14.5 11.5 -40.5 11.5q-29 0 -55 -15q-26 -15 -43 -41q-11 -16 -16.5 -34.5q-5.5 -18.5 -8.5 -36.5q-3 -18 -3.5 -33.5q-0.5 -15.5 -0.5 -26.5q0 -25 5.5 -56q5.5 -31 27.5 -66q29 -46 70 -66q41 -20 80 -20q29 0 51.5 8q22.5 8 39.5 18q13 8 27 18q14 10 22 20q3 4 7.5 8.5q4.5 4.5 10.5 4.5q6 0 9 -3.5q3 -3.5 3 -8.5q0 -8 -12 -21.5q-12 -13.5 -19 -20.5q-48 -45 -91 -59q-43 -14 -85 -14q-16 0 -37 2q-21 2 -44 8q-23 6 -46 18.5q-23 12.5 -44 33.5q-23 23 -42 62.5q-19 39.5 -19 94.5q0 71 26 120q26 49 61 78q33 28 78.5 46.5t93.5 18.5z" />
<glyph unicode="&#100;" horiz-adv-x="581" d="M403 628q0 6 -1.5 13q-1.5 7 -7.5 12q-6 5 -15 6q-9 1 -16 1q-7 0 -13.5 -0.5q-6.5 -0.5 -14.5 -0.5q-10 0 -12.5 3.5q-2.5 3.5 -2.5 6.5q0 6 6.5 8.5q6.5 2.5 11.5 4.5q36 9 56 19q20 10 34 19q23 16 31 16q13 0 15 -13.5q2 -13.5 2 -28.5v-588q0 -26 3.5 -43q3.5 -17 20.5 -28q7 -5 18 -8.5q11 -3.5 19 -4.5q3 -1 8.5 -2q5.5 -1 5.5 -7q0 -6 -6.5 -8.5q-6.5 -2.5 -15.5 -4q-9 -1.5 -19.5 -2.5q-10.5 -1 -18.5 -3q-10 -4 -23 -7q-13 -3 -23 -3q-25 0 -33 24q-2 5 -3 12.5q-1 7.5 -4 21.5q-70 -58 -162 -58q-37 0 -74 15.5q-37 15.5 -66 45.5q-20 21 -37.5 57.5q-17.5 36.5 -17.5 90.5q0 42 10 75q10 33 24.5 58.5q14.5 25.5 29.5 43q15 17.5 26 27.5q44 40 90.5 54.5q46.5 14.5 87.5 14.5q26 0 47.5 -5.5q21.5 -5.5 39.5 -13.5zM403 361q-4 6 -12.5 16.5q-8.5 10.5 -23.5 20.5q-15 10 -37 17.5q-22 7.5 -52 7.5q-54 0 -84.5 -23.5q-30.5 -23.5 -45.5 -55q-15 -31.5 -18.5 -62.5q-3.5 -31 -3.5 -46q0 -15 1 -34q1 -19 6 -39q5 -20 14.5 -40q9.5 -20 26.5 -38q20 -22 52 -37.5q32 -15.5 71 -15.5q43 0 68.5 14q25.5 14 37.5 25z" />
<glyph unicode="&#101;" horiz-adv-x="532" d="M141 267q-2 -13 -2.5 -32.5q-0.5 -19.5 2.5 -42.5q3 -23 10.5 -47.5q7.5 -24.5 22.5 -46.5q29 -44 68 -57.5q39 -13.5 82 -13.5q26 0 47.5 4q21.5 4 45.5 16q19 9 30 17q11 8 18 14q7 6 11.5 9.5q4.5 3.5 9.5 3.5q13 0 13 -13q0 -6 -5.5 -11.5q-5.5 -5.5 -10.5 -10.5q-18 -15 -34 -27q-16 -12 -42 -23q-29 -13 -54.5 -17q-25.5 -4 -58.5 -4q-22 0 -46 2.5q-24 2.5 -48 10q-24 7.5 -48 21.5q-24 14 -45 37q-24 26 -41.5 65q-17.5 39 -17.5 90q0 45 17 95q17 50 53 88q35 37 80.5 55q45.5 18 90.5 18q35 0 71 -11.5q36 -11.5 61 -31.5q24 -20 40.5 -53.5q16.5 -33.5 16.5 -74.5q0 -14 -6.5 -21.5q-6.5 -7.5 -16.5 -7.5zM356 294q10 0 15.5 4q5.5 4 8 9q2.5 5 3 10q0.5 5 0.5 8q0 23 -7.5 43.5q-7.5 20.5 -21.5 35.5q-14 15 -33.5 25.5q-19.5 10.5 -48.5 10.5q-33 0 -57 -14.5q-24 -14.5 -40 -37.5q-13 -19 -21 -44.5q-8 -25.5 -10 -49.5z" />
<glyph unicode="&#102;" horiz-adv-x="328" d="M186 101q0 -32 9 -48.5q9 -16.5 37 -25.5q12 -4 23 -5q11 -1 15 -3q2 -1 5.5 -2.5q3.5 -1.5 3.5 -6.5q0 -2 -2 -6q-2 -4 -13 -4q-14 0 -31 1q-17 1 -30 2q-3 0 -10.5 0.5q-7.5 0.5 -15.5 1q-8 0.5 -16 0.5q-8 0 -12 0q-8 0 -26.5 -0.5q-18.5 -0.5 -26.5 -1.5q-17 -1 -26 -2q-9 -1 -17 -1q-9 0 -12 3.5q-3 3.5 -3 6.5q0 4 3.5 5.5q3.5 1.5 5.5 2.5q6 2 12.5 3.5q6.5 1.5 15.5 4.5q18 6 28 19.5q10 13.5 10 55.5v323h-67q-11 0 -13 5q-2 5 -2 8q0 6 1.5 13q1.5 7 13.5 7h67v30q0 27 10 54q10 27 22.5 49q12.5 22 25 38q12.5 16 17.5 22q10 12 23.5 25q13.5 13 28.5 24q15 11 32.5 18q17.5 7 37.5 7q25 0 35.5 -10q10.5 -10 10.5 -22q0 -13 -10.5 -25.5q-10.5 -12.5 -42.5 -12.5q-20 0 -27.5 2q-7.5 2 -20.5 2q-12 0 -28.5 -7q-16.5 -7 -27.5 -30q-9 -18 -11 -44.5q-2 -26.5 -2 -64.5v-55h115q12 0 13.5 -7q1.5 -7 1.5 -13q0 -3 -2 -8q-2 -5 -13 -5l-115 0z" />
<glyph unicode="&#103;" horiz-adv-x="524" d="M175 -8q-29 -13 -42 -37.5q-13 -24.5 -13 -51.5q0 -32 15.5 -50q15.5 -18 36 -26.5q20.5 -8.5 40 -10.5q19.5 -2 28.5 -2q45 0 81.5 11q36.5 11 61.5 28q25 17 38.5 38q13.5 21 13.5 42q0 7 -2.5 18q-2.5 11 -11.5 21.5q-9 10.5 -25.5 17.5q-16.5 7 -44.5 7q-27 0 -46.5 -2q-19.5 -2 -38 -4q-18.5 -2 -40 -2q-21.5 0 -51.5 3zt0 0zM142 176q-30 20 -44 54q-14 34 -14 65q0 28 10.5 63.5q10.5 35.5 47.5 66.5q20 17 50.5 29.5q30.5 12.5 72.5 12.5q21 0 39.5 -4q18.5 -4 35.5 -10q6 20 16.5 38q10.5 18 30.5 27q17 8 27.5 9.5q10.5 1.5 21.5 9.5q11 8 11 13.5q0 5.5 6 13.5q3 5 8 5q3 0 7 -5q5 -5 7 -15.5q2 -10.5 2 -19.5q0 -40 -29 -54q-13 -7 -25.5 -7q-12.5 0 -23.5 0q-9 0 -22 -3q-13 -3 -18 -18q22 -11 37 -25q15 -14 24 -29q13 -20 18.5 -42.5q5.5 -22.5 5.5 -42.5q0 -29 -13 -61q-13 -32 -42 -58q-23 -20 -57.5 -33.5q-34.5 -13.5 -80.5 -13.5q-28 0 -50.5 6q-22.5 6 -41.5 16q-11 -10 -18 -23q-7 -13 -7 -26q0 -6 2.5 -15q2.5 -9 11 -17.5q8.5 -8.5 25.5 -14.5q17 -6 46 -6q30 0 62 3q16 2 32 3q16 1 32 1q19 0 48.5 -3.5q29.5 -3.5 55.5 -18.5q23 -14 34 -34q11 -20 11 -50q0 -43 -22.5 -76q-22.5 -33 -59 -55.5q-36.5 -22.5 -82 -34.5q-45.5 -12 -91.5 -12q-37 0 -75.5 6q-38.5 6 -66.5 20q-19 10 -36 27q-17 17 -17 49q0 38 27.5 69.5q27.5 31.5 76.5 42.5q-27 7 -46.5 27q-19.5 20 -19.5 55q0 29 17 54.5q17 25.5 43 40.5zt0 0zM157 309q0 -14 4 -37.5q4 -23.5 19 -49.5q19 -32 43.5 -44.5q24.5 -12.5 47.5 -12.5q19 0 41.5 11q22.5 11 39.5 44q9 19 13.5 42q4.5 23 4.5 41q0 34 -9.5 60q-9.5 26 -25.5 44q-16 18 -36 27.5q-20 9.5 -42 9.5q-51 0 -77 -42q-12 -19 -17.5 -43.5t-5.5 -49.5z" />
<glyph unicode="&#104;" horiz-adv-x="622" d="M186 101q0 -21 2.5 -34q2.5 -13 7.5 -21q5 -8 12 -12.5q7 -4.5 16 -7.5q10 -4 18 -5.5q8 -1.5 10 -2.5q2 -1 5.5 -2.5q3.5 -1.5 3.5 -5.5q0 -3 -3 -6.5q-3 -3.5 -12 -3.5q-12 0 -21.5 1q-9.5 1 -19 1.5q-9.5 0.5 -22.5 1.5q-13 1 -33 1q-20 0 -32 -1q-12 -1 -21.5 -1.5q-9.5 -0.5 -19 -1.5q-9.5 -1 -24.5 -1q-9 0 -12 3.5q-3 3.5 -3 6.5q0 4 3.5 5.5q3.5 1.5 5.5 2.5q5 2 14 4q9 2 14 4q17 6 27.5 19.5q10.5 13.5 10.5 55.5v527q0 6 -1.5 13q-1.5 7 -7.5 12q-6 5 -15 6q-9 1 -16 1q-7 0 -13.5 -0.5q-6.5 -0.5 -14.5 -0.5q-10 0 -12.5 3.5q-2.5 3.5 -2.5 6.5q0 6 6.5 8.5q6.5 2.5 11.5 4.5q8 2 19.5 6q11.5 4 24.5 9q13 5 25 11q12 6 20 11q12 8 19 12.5q7 4.5 13 4.5q13 0 15 -13.5q2 -13.5 2 -28.5v-302q33 23 61.5 38q28.5 15 53.5 23.5q25 8.5 47.5 11.5q22.5 3 43.5 3q37 0 61 -7q24 -7 38 -19q20 -18 24 -43q4 -25 4 -53v-245q0 -42 10 -55.5q10 -13.5 28 -19.5q14 -5 20 -6q6 -1 8 -2q9 -2 9 -8q0 -3 -3 -6.5q-3 -3.5 -12 -3.5q-12 0 -22.5 1q-10.5 1 -21.5 1.5q-11 0.5 -23.5 1.5q-12.5 1 -28.5 1q-18 0 -30.5 -1q-12.5 -1 -23 -1.5q-10.5 -0.5 -20.5 -1.5q-10 -1 -23 -1q-9 0 -12 3.5q-3 3.5 -3 6.5q0 4 3.5 5.5q3.5 1.5 5.5 2.5q5 2 12.5 4q7.5 2 15.5 4q18 5 28 19q10 14 10 56v242q0 12 -2.5 25.5q-2.5 13.5 -11.5 25q-9 11.5 -25.5 19q-16.5 7.5 -44.5 7.5q-24 0 -48.5 -5q-24.5 -5 -47.5 -13.5q-23 -8.5 -43.5 -18q-20.5 -9.5 -36.5 -18.5z" />
<glyph unicode="&#105;" horiz-adv-x="301" d="M196 101q0 -21 2.5 -34q2.5 -13 7.5 -21q5 -8 12 -12.5q7 -4.5 16 -7.5q10 -4 16.5 -5q6.5 -1 11.5 -3q2 -1 5.5 -2.5q3.5 -1.5 3.5 -5.5q0 -3 -3 -6.5q-3 -3.5 -12 -3.5q-8 0 -17 1q-9 1 -26 2q-8 1 -26.5 1.5q-18.5 0.5 -26.5 0.5q-5 0 -12 0q-7 0 -15 -0.5q-8 -0.5 -15.5 -1q-7.5 -0.5 -11.5 -0.5q-17 -1 -26 -2q-9 -1 -17 -1q-9 0 -12 3.5q-3 3.5 -3 6.5q0 4 3.5 5.5q3.5 1.5 5.5 2.5q4 2 12 4q8 2 16 4q18 5 28 19q10 14 10 56v271q0 6 -1.5 13q-1.5 7 -7.5 12q-6 5 -15 6q-9 1 -16 1q-7 0 -13.5 -0.5q-6.5 -0.5 -14.5 -0.5q-10 0 -12.5 3.5q-2.5 3.5 -2.5 6.5q0 6 6.5 9q6.5 3 11.5 4q20 5 42.5 13q22.5 8 46.5 24q11 8 18.5 12.5q7.5 4.5 13.5 4.5q13 0 15 -13.5q2 -13.5 2 -28.5zM105 627q0 21 15 36q15 15 36 15q21 0 36 -15q15 -15 15 -36q0 -21 -15 -36q-15 -15 -36 -15q-21 0 -36 15t-15 36z" />
<glyph unicode="&#106;" horiz-adv-x="280" d="M194 58q0 -42 -6 -88q-6 -46 -22 -83q-12 -27 -30.5 -53q-18.5 -26 -38.5 -46q-17 -17 -37.5 -30q-20.5 -13 -47.5 -13q-15 0 -28.5 6.5q-13.5 6.5 -13.5 25.5q0 25 26 33q13 4 26 4q13 0 33 2q20 2 35.5 11.5q15.5 9.5 25.5 32.5q2 4 4 11.5q2 7.5 3.5 19.5q1.5 12 3 30.5q1.5 18.5 2.5 46.5q0 15 0 38q0 23 -0.5 67q-0.5 44 -2 115.5q-1.5 71.5 -4.5 183.5q0 6 -1 13q-1 7 -8 12q-6 5 -15 6q-9 1 -16 1q-7 0 -13.5 -0.5q-6.5 -0.5 -14.5 -0.5q-10 0 -12.5 3.5q-2.5 3.5 -2.5 6.5q0 6 6.5 9q6.5 3 11.5 4q20 5 42.5 13q22.5 8 46.5 24q11 8 18.5 12.5q7.5 4.5 13.5 4.5q13 0 15 -13.5q2 -13.5 2 -28.5zM98 627q0 21 15 36q15 15 36 15q21 0 36 -15q15 -15 15 -36q0 -21 -15 -36q-15 -15 -36 -15q-21 0 -36 15t-15 36z" />
<glyph unicode="&#107;" horiz-adv-x="560" d="M186 101q0 -32 9.5 -49q9.5 -17 36.5 -25q11 -4 22 -5q11 -1 16 -3q2 -1 5.5 -2.5q3.5 -1.5 3.5 -6.5q0 -2 -2 -6q-2 -4 -13 -4q-28 0 -55.5 2.5q-27.5 2.5 -59.5 2.5q-18 0 -30 -1q-12 -1 -22 -1.5q-10 -0.5 -20 -1.5q-10 -1 -24 -1q-9 0 -12 3.5q-3 3.5 -3 6.5q0 4 3.5 5.5q3.5 1.5 5.5 2.5q7 2 15 4q8 2 13 4q9 3 16 7.5q7 4.5 12 12.5q5 8 7.5 21q2.5 13 2.5 34v527q0 6 -1.5 13q-1.5 7 -7.5 12q-6 5 -15 6q-9 1 -16 1q-7 0 -13.5 -0.5q-6.5 -0.5 -14.5 -0.5q-10 0 -12.5 3.5q-2.5 3.5 -2.5 6.5q0 6 6.5 9q6.5 3 11.5 4q20 5 42.5 13q22.5 8 46.5 24q11 8 18.5 12.5q7.5 4.5 13.5 4.5q13 0 15 -13.5q2 -13.5 2 -28.5v-442q28 14 58.5 35.5q30.5 21.5 69.5 63.5q8 8 16 19q8 11 8 23q0 8 -6.5 19.5q-6.5 11.5 -29.5 19.5q-10 3 -16.5 3.5q-6.5 0.5 -6.5 8.5q0 6 5.5 7.5q5.5 1.5 9.5 1.5q29 0 57.5 -3.5q28.5 -3.5 61.5 -3.5q22 0 43.5 3.5q21.5 3.5 45.5 3.5q15 0 17.5 -4q2.5 -4 2.5 -6q0 -5 -8.5 -9q-8.5 -4 -15.5 -6q-22 -8 -38.5 -17q-16.5 -9 -36.5 -23q-9 -6 -18.5 -14q-9.5 -8 -21.5 -17.5q-12 -9.5 -28.5 -22.5q-16.5 -13 -39.5 -29l-89 -63q25 -3 45 -9.5q20 -6.5 41 -17.5q28 -14 51 -31q23 -17 47 -44q17 -19 29 -36q12 -17 27 -36q15 -17 28.5 -28q13.5 -11 34.5 -12q5 0 7.5 0.5q2.5 0.5 6.5 0.5q3 0 6 -1q3 -1 3 -6q0 -8 -18.5 -18q-18.5 -10 -52.5 -10q-24 0 -42 4.5q-18 4.5 -30 12.5q-22 13 -37.5 34q-15.5 21 -27.5 42q-15 26 -31.5 53q-16.5 27 -43.5 50q-39 32 -83 35z" />
<glyph unicode="&#108;" horiz-adv-x="290" d="M185 101q0 -19 1.5 -32q1.5 -13 6 -21.5q4.5 -8.5 12 -13.5q7.5 -5 18.5 -8q5 -2 15 -4.5q10 -2.5 13 -3.5q2 -1 5.5 -2.5q3.5 -1.5 3.5 -5.5q0 -3 -3 -6.5q-3 -3.5 -12 -3.5q-12 0 -20.5 1q-8.5 1 -18 1.5q-9.5 0.5 -22.5 1.5q-13 1 -35 1q-20 0 -33.5 -1q-13.5 -1 -24 -1.5q-10.5 -0.5 -19.5 -1.5q-9 -1 -20 -1q-9 0 -12 3.5q-3 3.5 -3 6.5q0 6 9 8q3 1 10.5 2.5q7.5 1.5 17.5 5.5q9 3 16 7.5q7 4.5 12 12.5q5 8 7.5 21q2.5 13 2.5 34v531q0 8 -1.5 14q-1.5 6 -9.5 11q-8 5 -17.5 6q-9.5 1 -18.5 1h-20q-9 0 -12 2q-3 2 -3 6q0 8 5.5 10q5.5 2 11.5 4q18 4 34 10q16 6 28 12q29 14 39 23q10 9 19 9q14 0 16 -14q2 -14 2 -28z" />
<glyph unicode="&#109;" horiz-adv-x="869" d="M123 372q0 6 -1.5 13q-1.5 7 -7.5 12q-6 5 -15 6q-9 1 -16 1q-7 0 -13.5 -0.5q-6.5 -0.5 -14.5 -0.5q-10 0 -12.5 3.5q-2.5 3.5 -2.5 6.5q0 6 6.5 9q6.5 3 11.5 4q20 5 42.5 13q22.5 8 46.5 24q11 8 18.5 12.5q7.5 4.5 13.5 4.5q13 0 15 -13.5q2 -13.5 2 -28.5v-47q50 46 93.5 61q43.5 15 75.5 15q31 0 53.5 -7.5q22.5 -7.5 36.5 -21.5q7 -7 14 -19q7 -12 9 -30q12 11 29 24.5q17 13.5 38.5 25.5q21.5 12 48 20q26.5 8 56.5 8q31 0 53.5 -7.5q22.5 -7.5 36.5 -21.5q20 -20 23 -45.5q3 -25.5 3 -46.5v-245q0 -42 10 -55.5q10 -13.5 28 -19.5q14 -5 21.5 -6.5q7.5 -1.5 9.5 -2.5q6 -2 6 -7q0 -3 -3 -6.5q-3 -3.5 -12 -3.5q-11 0 -19.5 1q-8.5 1 -19 1.5q-10.5 0.5 -24 1.5q-13.5 1 -33.5 1q-35 0 -56.5 -2.5q-21.5 -2.5 -40.5 -2.5q-9 0 -12 3.5q-3 3.5 -3 6.5q0 4 3.5 5.5q3.5 1.5 5.5 2.5q3 1 10 2.5q7 1.5 18 5.5q18 6 28 19.5q10 13.5 10 55.5v242q0 12 -2 26q-2 14 -12 26q-12 15 -27.5 18.5q-15.5 3.5 -29.5 3.5q-12 0 -25.5 -1.5q-13.5 -1.5 -30.5 -7q-17 -5.5 -38.5 -16.5q-21.5 -11 -48.5 -30l2 -16v-245q0 -42 10 -55.5q10 -13.5 28 -19.5q13 -5 19.5 -6q6.5 -1 8.5 -2q2 -1 5.5 -2.5q3.5 -1.5 3.5 -5.5q0 -3 -3 -6.5q-3 -3.5 -12 -3.5q-14 0 -24.5 1q-10.5 1 -21 1.5q-10.5 0.5 -22.5 1.5q-12 1 -28 1q-21 0 -35 -1q-14 -1 -24 -1.5q-10 -0.5 -18.5 -1.5q-8.5 -1 -19.5 -1q-9 0 -12 3.5q-3 3.5 -3 6.5q0 4 3.5 5.5q3.5 1.5 5.5 2.5q3 1 9.5 2q6.5 1 18.5 6q9 3 16 7.5q7 4.5 12 12.5q5 8 7.5 21q2.5 13 2.5 34v242q0 12 -2 26.5q-2 14.5 -12 25.5q-7 8 -20.5 15q-13.5 7 -36.5 7q-12 0 -26 -2q-14 -2 -31 -7.5q-17 -5.5 -37.5 -16q-20.5 -10.5 -46.5 -27.5l0 -263q0 -38 7.5 -52.5q7.5 -14.5 30.5 -22.5q11 -4 18 -5.5q7 -1.5 10 -2.5q2 -1 5.5 -2.5q3.5 -1.5 3.5 -5.5q0 -3 -3 -6.5q-3 -3.5 -12 -3.5q-14 0 -23.5 1q-9.5 1 -19 1.5q-9.5 0.5 -21.5 1.5q-12 1 -32 1q-20 0 -32 -1q-12 -1 -21.5 -1.5q-9.5 -0.5 -19 -1.5q-9.5 -1 -24.5 -1q-9 0 -12 3.5q-3 3.5 -3 6.5q0 4 3.5 5.5q3.5 1.5 5.5 2.5q3 1 10 3q7 2 18 5q17 5 27.5 19q10.5 14 10.5 56z" />
<glyph unicode="&#110;" horiz-adv-x="635" d="M123 372q0 6 -1.5 13q-1.5 7 -7.5 12q-6 5 -15 6q-9 1 -16 1q-7 0 -13.5 -0.5q-6.5 -0.5 -14.5 -0.5q-10 0 -12.5 3.5q-2.5 3.5 -2.5 6.5q0 6 6.5 9q6.5 3 11.5 4q20 5 42.5 13q22.5 8 46.5 24q11 8 18.5 12.5q7.5 4.5 13.5 4.5q13 0 15 -13.5q2 -13.5 2 -28.5v-47q16 12 34.5 23.5q18.5 11.5 41.5 22.5q37 17 68.5 23.5q31.5 6.5 70.5 6.5q23 0 51 -5q28 -5 49 -30q15 -18 18 -39.5q3 -21.5 3 -46.5v-245q0 -21 2.5 -34q2.5 -13 7.5 -21q5 -8 12 -12.5q7 -4.5 16 -7.5q12 -5 18.5 -6q6.5 -1 9.5 -2q9 -2 9 -8q0 -3 -3 -6.5q-3 -3.5 -12 -3.5q-12 0 -21 1q-9 1 -19 1.5q-10 0.5 -23 1.5q-13 1 -33 1q-21 0 -34 -1q-13 -1 -22.5 -1.5q-9.5 -0.5 -18.5 -1.5q-9 -1 -22 -1q-9 0 -12 3.5q-3 3.5 -3 6.5q0 4 3.5 5.5q3.5 1.5 5.5 2.5q2 1 8.5 2q6.5 1 19.5 6q18 6 28 19.5q10 13.5 10 55.5v242q0 12 -2.5 25.5q-2.5 13.5 -14.5 27.5q-8 10 -25.5 18q-17.5 8 -47.5 8q-21 0 -44.5 -5q-23.5 -5 -46 -13.5q-22.5 -8.5 -43.5 -19q-21 -10.5 -39 -20.5l0 -263q0 -38 7.5 -52.5q7.5 -14.5 30.5 -22.5q10 -4 18 -5.5q8 -1.5 10 -2.5q2 -1 5.5 -2.5q3.5 -1.5 3.5 -5.5q0 -3 -3 -6.5q-3 -3.5 -12 -3.5q-14 0 -25 1q-11 1 -21.5 1.5q-10.5 0.5 -22 1.5q-11.5 1 -27.5 1q-20 0 -32 -1q-12 -1 -21.5 -1.5q-9.5 -0.5 -19 -1.5q-9.5 -1 -24.5 -1q-9 0 -12 3.5q-3 3.5 -3 6.5q0 4 3.5 5.5q3.5 1.5 5.5 2.5q2 1 8.5 2q6.5 1 19.5 6q18 6 28 19.5q10 13.5 10 55.5z" />
<glyph unicode="&#111;" horiz-adv-x="612" d="M308 467q57 0 105.5 -18q48.5 -18 81.5 -49q32 -30 50.5 -73q18.5 -43 18.5 -94q0 -43 -13.5 -84q-13.5 -41 -39.5 -73q-22 -28 -48.5 -45.5q-26.5 -17.5 -54 -27.5q-27.5 -10 -54.5 -14q-27 -4 -49 -4q-35 0 -64 6q-29 6 -51.5 15.5q-22.5 9.5 -39 21q-16.5 11.5 -27.5 21.5q-29 26 -52 67q-23 41 -23 101q0 63 20.5 106q20.5 43 47.5 70q35 35 82 54.5q47 19.5 110 19.5zt0 0zM286 440q-35 0 -68.5 -16q-33.5 -16 -56.5 -58q-17 -29 -21 -60q-4 -31 -4 -57q0 -76 35 -139q18 -33 39.5 -52.5q21.5 -19.5 42 -29.5q20.5 -10 38.5 -13q18 -3 30 -3q27 0 54 10.5q27 10.5 48.5 34q21.5 23.5 35 60q13.5 36.5 13.5 89.5q0 51 -11.5 87q-11.5 36 -24.5 58q-16 27 -34.5 44q-18.5 17 -38.5 27q-20 10 -39.5 14t-37.5 4z" />
<glyph unicode="&#112;" horiz-adv-x="587" d="M184 409q23 20 48.5 31.5q25.5 11.5 48.5 17.5q23 6 41.5 7.5q18.5 1.5 26.5 1.5q44 0 77 -16q33 -16 59 -45q20 -23 37 -60.5q17 -37.5 17 -94.5q0 -40 -11.5 -78.5q-11.5 -38.5 -33.5 -70.5q-38 -57 -98.5 -87q-60.5 -30 -134.5 -30q-22 0 -41 3q-19 3 -36 8l0 -150q0 -32 9 -48.5q9 -16.5 37 -25.5q13 -4 23 -5q4 -1 8 -1.5q4 -0.5 7 -1.5q2 -1 5.5 -2.5q3.5 -1.5 3.5 -6.5q0 -2 -2 -6q-2 -4 -13 -4q-21 0 -34.5 1q-13.5 1 -26.5 2q-3 0 -10.5 0.5q-7.5 0.5 -15.5 1q-8 0.5 -16 0.5q-8 0 -12 0q-8 0 -26.5 -0.5q-18.5 -0.5 -26.5 -1.5q-17 -1 -26 -2q-9 -1 -17 -1q-9 0 -12 3.5q-3 3.5 -3 6.5q0 4 3 5.5q3 1.5 6 2.5q3 1 11.5 3q8.5 2 16.5 5q9 3 16 7.5q7 4.5 12 12.5q5 8 7.5 21q2.5 13 2.5 34v526q0 6 -1.5 13q-1.5 7 -7.5 12q-6 5 -15 6q-9 1 -16 1q-7 0 -13.5 -0.5q-6.5 -0.5 -14.5 -0.5q-10 0 -12.5 3.5q-2.5 3.5 -2.5 6.5q0 6 6.5 9q6.5 3 11.5 4q20 5 42.5 13q22.5 8 46.5 24q11 8 18.5 12.5q7.5 4.5 13.5 4.5q13 0 15 -13.5q2 -13.5 2 -28.5zM184 94q23 -30 56.5 -48.5q33.5 -18.5 73.5 -18.5q40 0 70 16q30 16 53 53q18 30 23.5 59.5q5.5 29.5 5.5 58.5q0 30 -7.5 65q-7.5 35 -30.5 68q-27 38 -63 55q-36 17 -73 17q-25 0 -53 -8.5q-28 -8.5 -55 -28.5z" />
<glyph unicode="&#113;" horiz-adv-x="558" d="M393 43q-70 -58 -161 -58q-37 0 -74 15.5q-37 15.5 -66 45.5q-20 21 -37.5 57.5q-17.5 36.5 -17.5 90.5q0 42 10.5 75q10.5 33 25.5 58.5q15 25.5 30.5 43q15.5 17.5 26.5 27.5q44 40 89 54.5q45 14.5 86 14.5q26 0 47.5 -5.5q21.5 -5.5 39.5 -13.5q8 0 21 7q13 7 18 9q7 4 13 7q6 3 12 3q10 0 13 -5.5q3 -5.5 3 -13.5q0 -4 -1 -8q-1 -4 -2 -11.5q-1 -7.5 -2 -19.5q-1 -12 -1 -32v-538q0 -21 2.5 -34q2.5 -13 7.5 -21q5 -8 12 -12.5q7 -4.5 16 -7.5q12 -5 18.5 -6q6.5 -1 9.5 -2q3 -1 6 -2.5q3 -1.5 3 -5.5q0 -3 -3 -6.5q-3 -3.5 -12 -3.5q-22 0 -41.5 2.5q-19.5 2.5 -54.5 2.5q-11 0 -23.5 -0.5q-12.5 -0.5 -32.5 -2.5q-19 -1 -33 -1.5q-14 -0.5 -26 -0.5q-11 0 -13 4q-2 4 -2 6q0 5 3.5 6.5q3.5 1.5 5.5 2.5q3 1 7 1.5q4 0.5 8 1.5q10 1 23 5q28 9 37 25.5q9 16.5 9 48.5zM392 361q-4 6 -12.5 16.5q-8.5 10.5 -23.5 20.5q-15 10 -37 17.5q-22 7.5 -52 7.5q-33 0 -60.5 -10.5q-27.5 -10.5 -48 -33q-20.5 -22.5 -32 -58q-11.5 -35.5 -11.5 -85.5q0 -15 1 -34q1 -19 6 -39q5 -20 14.5 -40q9.5 -20 26.5 -38q20 -22 52 -37.5q32 -15.5 71 -15.5q43 0 68.5 14q25.5 14 37.5 25z" />
<glyph unicode="&#114;" horiz-adv-x="406" d="M196 101q0 -32 9 -49q9 -17 37 -25q6 -2 11.5 -3q5.5 -1 11.5 -2q4 -1 8 -1.5q4 -0.5 7 -1.5q2 -1 5.5 -2.5q3.5 -1.5 3.5 -6.5q0 -2 -2 -6q-2 -4 -13 -4q-12 0 -26 0.5q-14 0.5 -33 1.5q-20 2 -32.5 2.5q-12.5 0.5 -23.5 0.5q-18 0 -30 -1q-12 -1 -22.5 -1.5q-10.5 -0.5 -20.5 -1.5q-10 -1 -23 -1q-9 0 -12 3.5q-3 3.5 -3 6.5q0 4 3 5.5q3 1.5 6 2.5q3 1 9 2q6 1 19 6q21 7 29.5 21.5q8.5 14.5 8.5 53.5v271q0 6 -1.5 13q-1.5 7 -7.5 12q-6 5 -15 6q-9 1 -16 1q-7 0 -13.5 -0.5q-6.5 -0.5 -14.5 -0.5q-10 0 -12.5 3.5q-2.5 3.5 -2.5 6.5q0 6 6.5 9q6.5 3 11.5 4q20 5 42.5 13q22.5 8 46.5 24q11 8 18.5 12.5q7.5 4.5 13.5 4.5q13 0 15 -13.5q2 -13.5 2 -28.5v-58q24 25 41 42q17 17 32 27q15 10 29.5 14q14.5 4 33.5 4q19 0 31 -4.5q12 -4.5 18 -11.5q6 -7 8 -14.5q2 -7.5 2 -13.5q0 -16 -10 -26q-10 -10 -27 -10q-7 0 -15 2q-8 2 -19 5q-11 3 -20.5 5q-9.5 2 -20.5 2q-20 0 -41.5 -10q-21.5 -10 -41.5 -38z" />
<glyph unicode="&#115;" horiz-adv-x="460" d="M171 218q-9 4 -25.5 13.5q-16.5 9.5 -32 24.5q-15.5 15 -27 36q-11.5 21 -11.5 50q0 31 12 54q12 23 30 38q17 14 42 23.5q25 9.5 59 9.5q27 0 43 -3q16 -3 39 -3q11 0 16 0.5q5 0.5 9 1.5q5 1 10 2.5q5 1.5 14 1.5q18 0 20 -14q2 -14 1 -41q3 -20 10 -40q4 -12 6 -19q2 -7 2 -12q0 -8 -4.5 -11.5q-4.5 -3.5 -8.5 -3.5q-9 0 -15 9q-6 9 -12 17q-8 12 -21.5 28.5q-13.5 16.5 -22.5 25.5q-23 23 -48 30.5q-25 7.5 -43 7.5q-38 0 -56.5 -23q-18.5 -23 -18.5 -52q0 -28 18 -47q18 -19 41 -30l104 -48q20 -9 39.5 -20.5q19.5 -11.5 34.5 -27q15 -15.5 24 -36q9 -20.5 9 -47.5q0 -11 -5 -34.5q-5 -23.5 -27 -47.5q-16 -17 -46 -31.5q-30 -14.5 -80 -14.5q-41 0 -63 5q-22 5 -44 5q-11 0 -17.5 -2q-6.5 -2 -11.5 -4q-5 -2 -9.5 -3q-4.5 -1 -10.5 -1q-17 0 -22 17q-3 8 -2 18.5q1 10.5 -1 25.5q-1 8 -3.5 21.5q-2.5 13.5 -5.5 21.5q-3 8 -5.5 15.5q-2.5 7.5 -2.5 15.5q0 12 4.5 16q4.5 4 7.5 4q7 0 12 -6q5 -6 8 -11q12 -20 27.5 -41.5q15.5 -21.5 41.5 -39.5q25 -17 49 -23.5q24 -6.5 45 -6.5q47 0 68 23.5q21 23.5 21 54.5q0 18 -6.5 31q-6.5 13 -15.5 22.5q-9 9.5 -19.5 16q-10.5 6.5 -19.5 10.5z" />
<glyph unicode="&#116;" horiz-adv-x="334" d="M33 420q-12 0 -13.5 6.5q-1.5 6.5 -1.5 9.5q0 8 5.5 10.5q5.5 2.5 30.5 11.5q32 12 50.5 30q18.5 18 28.5 39q10 21 14 42.5q4 21.5 7 39.5q1 6 3.5 13q2.5 7 11.5 7q11 0 15 -9.5q4 -9.5 5 -16.5q2 -12 3 -28q1 -16 1 -35q0 -20 -1 -42.5q-1 -22.5 -3 -44.5l99 0q3 0 9 -2q6 -2 6 -13q0 -8 -4.5 -13q-4.5 -5 -10.5 -5h-99v-338q0 -10 2 -21q2 -11 10 -20q12 -14 33 -14q23 0 34.5 10.5q11.5 10.5 16.5 16.5q4 6 8 11q4 5 8 5q7 0 7 -10q0 -6 -3.5 -14q-3.5 -8 -8.5 -15.5q-5 -7.5 -11 -14q-6 -6.5 -10 -10.5q-11 -9 -28 -15q-17 -6 -39 -6q-27 0 -44 8.5q-17 8.5 -25 18.5q-16 18 -19.5 41q-3.5 23 -3.5 37l0 330z" />
<glyph unicode="&#117;" horiz-adv-x="611" d="M183 132q0 -29 6.5 -45.5q6.5 -16.5 14.5 -24.5q14 -16 32.5 -20q18.5 -4 35.5 -4q27 0 51.5 6.5q24.5 6.5 44.5 16.5q20 10 36.5 21.5q16.5 11.5 27.5 21.5l0 272q0 11 -4.5 25q-4.5 14 -24.5 22q-10 4 -19 5q-9 1 -20 4q-3 1 -7.5 3.5q-4.5 2.5 -4.5 7.5q0 6 6.5 7.5q6.5 1.5 13.5 1.5q16 0 26 1q10 1 22 3q31 5 42 8q11 3 21 3q5 0 13.5 -3q8.5 -3 10.5 -17q1 -3 0.5 -6q-0.5 -3 -0.5 -6q-1 -9 -1.5 -17.5q-0.5 -8.5 -0.5 -16.5v-295q0 -29 5 -46q5 -17 20 -26q6 -4 17 -7.5q11 -3.5 19 -4.5q3 -1 8.5 -2q5.5 -1 5.5 -7q0 -7 -8 -9q-8 -2 -15 -3q-10 -1 -18 -2q-8 -1 -21 -4q-6 -2 -18 -6q-12 -4 -22 -4q-19 0 -26 10.5q-7 10.5 -11 26.5q-3 14 -4.5 29q-1.5 15 -2.5 26q-40 -39 -93 -65.5q-53 -26.5 -107 -26.5q-25 0 -48 7q-23 7 -39 21q-17 16 -27 43.5q-10 27.5 -10 61.5v258q0 13 -4.5 25.5q-4.5 12.5 -24.5 21.5q-14 6 -22.5 6.5q-8.5 0.5 -16.5 2.5q-12 4 -12 11q0 6 6.5 7.5q6.5 1.5 13.5 1.5q16 0 26 1q10 1 22 3q31 5 42 8q11 3 21 3q5 0 13.5 -3q8.5 -3 10.5 -17q1 -3 0.5 -6q-0.5 -3 -0.5 -6q-1 -9 -1.5 -17.5q-0.5 -8.5 -0.5 -16.5z" />
<glyph unicode="&#118;" horiz-adv-x="576" d="M403 285q3 7 7 19q4 12 7.5 25q3.5 13 6 25.5q2.5 12.5 2.5 20.5q0 17 -6.5 28q-6.5 11 -15.5 17q-9 6 -18 9q-9 3 -14 4q-5 1 -10.5 3q-5.5 2 -5.5 8q0 7 7 8q7 1 15 1q12 0 24.5 -1.5q12.5 -1.5 24.5 -2.5q9 -1 17.5 -1q8.5 0 17.5 0q20 0 31 0.5q11 0.5 24 1.5q22 3 36 3q11 0 14.5 -3q3.5 -3 3.5 -5q0 -4 -5.5 -6.5q-5.5 -2.5 -10.5 -4.5q-12 -4 -27 -10.5q-15 -6.5 -32 -28.5q-13 -16 -21.5 -35.5q-8.5 -19.5 -19.5 -42.5l-145 -325q-2 -3 -6 -8.5q-4 -5.5 -12 -5.5q-8 0 -11.5 6.5q-3.5 6.5 -5.5 8.5l-186 368q-11 21 -24 40.5q-13 19.5 -36 28.5q-6 2 -12.5 5q-6.5 3 -6.5 10q0 8 13 8q14 0 44 -2.5q30 -2.5 61 -2.5q14 0 24.5 0.5q10.5 0.5 21.5 2.5q11 1 21.5 1.5q10.5 0.5 26.5 0.5q4 0 9 -1q5 -1 5 -7q0 -5 -6 -7q-6 -2 -14 -5q-5 -2 -12 -4.5q-7 -2.5 -14 -8q-7 -5.5 -11.5 -14.5q-4.5 -9 -4.5 -22q0 -5 1.5 -13.5q1.5 -8.5 9.5 -25.5l125 -278z" />
<glyph unicode="&#119;" horiz-adv-x="765" d="M92 354q-11 27 -25.5 47q-14.5 20 -36.5 28q-5 2 -12.5 4.5q-7.5 2.5 -7.5 10.5q0 4 5 6.5q5 2.5 19 2.5q17 0 40.5 -3q23.5 -3 49.5 -3q32 0 51 3q19 3 31 3q10 0 13 -3.5q3 -3.5 3 -6.5q0 -5 -6 -7q-6 -2 -12 -4q-12 -5 -25 -15q-13 -10 -13 -34q0 -10 2.5 -18.5q2.5 -8.5 4.5 -13.5l89 -248h8l115 338q2 7 5 11.5q3 4.5 12 4.5q9 0 12 -4.5q3 -4.5 5 -11.5l126 -338h6l71 218q4 11 6.5 26.5q2.5 15.5 2.5 26.5q0 6 -2 14.5q-2 8.5 -7 17.5q-5 9 -15 16.5q-10 7.5 -26 11.5q-5 1 -9 3q-4 2 -4 7q0 6 6.5 7.5q6.5 1.5 14.5 1.5q11 0 21.5 -1q10.5 -1 21.5 -2q9 -1 18.5 -1.5q9.5 -0.5 18.5 -0.5q11 0 22 0.5q11 0.5 24 1.5q12 2 18.5 2.5q6.5 0.5 11.5 0.5q9 0 12 -3q3 -3 3 -5q0 -5 -6 -7q-6 -2 -10 -4q-20 -8 -31.5 -19q-11.5 -11 -21.5 -28q-11 -20 -18 -37.5q-7 -17.5 -12 -32.5l-116 -323q-2 -5 -5.5 -10.5q-3.5 -5.5 -12.5 -5.5q-10 0 -12.5 5.5q-2.5 5.5 -4.5 10.5l-128 331l-118 -331q-2 -5 -5.5 -10.5q-3.5 -5.5 -11.5 -5.5q-8 0 -11.5 5.5q-3.5 5.5 -5.5 10.5z" />
<glyph unicode="&#120;" horiz-adv-x="528" d="M132 371q-21 29 -42.5 40.5q-21.5 11.5 -37.5 18.5q-13 5 -15 7q-3 5 1.5 10.5q4.5 5.5 24.5 5.5q6 0 12 -0.5q6 -0.5 12 -1.5q18 -3 37 -3q9 0 18 1q9 1 18 2q7 1 13 1.5q6 0.5 13 0.5q9 0 16 -3.5q7 -3.5 3 -10.5q-3 -6 -7 -9q-4 -3 -4 -11q0 -8 4.5 -17q4.5 -9 8.5 -14l74 -106l48 56q11 12 22 29.5q11 17.5 11 30.5q0 9 -8 19.5q-8 10.5 -25 15.5q-7 2 -14 3q-7 1 -7 8q0 6 6 7.5q6 1.5 14 1.5q6 0 12.5 -1q6.5 -1 14.5 -2q10 -2 17.5 -2q7.5 0 27.5 0q19 0 32 1q13 1 22.5 1.5q9.5 0.5 18 1.5q8.5 1 19.5 1q9 0 12 -4q3 -4 3 -7q0 -5 -5 -7.5q-5 -2.5 -9 -3.5q-30 -8 -56 -29q-20 -14 -31.5 -27q-11.5 -13 -21.5 -24l-85 -96l105 -151q13 -19 30.5 -37q17.5 -18 35.5 -29q14 -9 25 -12.5q11 -3.5 21 -6.5q8 -2 8 -8q0 -4 -5 -7.5q-5 -3.5 -19 -3.5q-13 0 -20.5 1q-7.5 1 -15 1.5q-7.5 0.5 -16.5 1.5q-9 1 -24 1q-7 0 -13.5 -0.5q-6.5 -0.5 -13.5 -1.5q-7 -1 -14 -2q-7 -1 -14 -1q-11 0 -15 3.5q-4 3.5 -4 7.5q0 3 2.5 5.5q2.5 2.5 4.5 4.5q5 5 5 12q0 8 -3.5 14q-3.5 6 -11.5 18l-94 137q-28 -27 -44 -47.5q-16 -20.5 -33 -43.5q-2 -3 -7 -10q-5 -7 -10 -15.5q-5 -8.5 -9 -17q-4 -8.5 -4 -15.5q0 -18 14.5 -25.5q14.5 -7.5 34.5 -10.5q3 -1 6.5 -2q3.5 -1 3.5 -6q0 -3 -2.5 -6q-2.5 -3 -12.5 -3q-5 0 -10.5 0.5q-5.5 0.5 -25.5 1.5q-16 1 -28.5 2q-12.5 1 -38.5 1q-14 0 -23.5 -0.5q-9.5 -0.5 -17.5 -1.5q-7 -1 -14.5 -2q-7.5 -1 -13.5 -1q-14 0 -14 9q0 8 4 10q4 2 9 4q21 8 43 23.5q22 15.5 54 48.5q12 13 23.5 26q11.5 13 25.5 29q14 16 31 35q17 19 40 43z" />
<glyph unicode="&#121;" horiz-adv-x="531" d="M99 337q-6 14 -16 34q-10 20 -21 33q-7 9 -15.5 14.5q-8.5 5.5 -16 9.5q-7.5 4 -12.5 7q-5 3 -5 8q0 10 27 10q21 0 41.5 -2.5q20.5 -2.5 41.5 -2.5q14 0 23.5 1q9.5 1 17 1.5q7.5 0.5 14.5 1.5q7 1 17 1q5 0 11 -1.5q6 -1.5 6 -6.5q0 -6 -4.5 -9q-4.5 -3 -8.5 -5q-19 -8 -25 -22q-6 -14 -6 -25q0 -13 5.5 -26q5.5 -13 8.5 -21l110 -258l93 223q11 26 14.5 41.5q3.5 15.5 3.5 27.5q0 17 -6 31q-6 14 -24 24q-10 5 -21.5 6q-11.5 1 -11.5 9q0 2 3 7q3 5 18 5q8 0 16.5 -0.5q8.5 -0.5 16.5 -1.5q10 -1 19 -2q9 -1 19 -1q18 0 35.5 2.5q17.5 2.5 35.5 2.5q16 0 22 -3q6 -3 6 -7q0 -5 -4 -8q-4 -3 -9.5 -5.5q-5.5 -2.5 -12 -5.5q-6.5 -3 -12.5 -8q-9 -8 -19 -25q-10 -17 -27 -52l-179 -395q-6 -14 -15 -31q-9 -17 -19.5 -35q-10.5 -18 -21 -34.5q-10.5 -16.5 -19.5 -27.5q-26 -32 -61 -51.5q-35 -19.5 -83 -19.5q-35 0 -50 15q-15 15 -15 31q0 15 12 28.5q12 13.5 38 13.5q18 0 33.5 -5.5q15.5 -5.5 35.5 -5.5q17 0 31 6q14 6 25 15.5q11 9.5 20.5 21q9.5 11.5 17.5 22.5q30 42 53 99z" />
<glyph unicode="&#122;" horiz-adv-x="456" d="M242 27q42 0 67 10.5q25 10.5 45 29.5q11 11 22 25.5q11 14.5 18 28.5q2 5 6.5 13.5q4.5 8.5 12.5 8.5q9 0 11 -9.5q2 -9.5 2 -17.5q0 -19 -7 -35q-7 -16 -10 -30q-2 -9 -3.5 -20.5q-1.5 -11.5 -5 -21.5q-3.5 -10 -10 -17q-6.5 -7 -17.5 -7q-5 0 -11 2q-6 2 -16 6q-19 7 -29 7q-10 0 -25 0h-244q-1 0 -4.5 0.5q-3.5 0.5 -3.5 4.5q0 2 0.5 4.5q0.5 2.5 2.5 4.5l291 412h-92q-23 0 -48.5 -4.5q-25.5 -4.5 -51.5 -22.5q-20 -14 -30.5 -28.5q-10.5 -14.5 -17 -26.5q-6.5 -12 -11.5 -20q-5 -8 -14 -8q-10 0 -11.5 8.5q-1.5 8.5 -1.5 14.5q0 11 2 20.5q2 9.5 7 22.5q3 8 5 13.5q2 5.5 4 17.5q1 7 2.5 16q1.5 9 5.5 17.5q4 8.5 10 14.5q6 6 16 6q5 0 11 -2q6 -2 20 -6q8 -2 17 -4q9 -2 20 -2h233q2 0 6.5 -0.5q4.5 -0.5 4.5 -5.5q0 -2 -1.5 -4.5q-1.5 -2.5 -2.5 -4.5l-291 -411z" />
<glyph unicode="&#123;" horiz-adv-x="459" d="M171 259q22 -8 45.5 -22.5q23.5 -14.5 43 -39.5q19.5 -25 31.5 -61q12 -36 10 -86l-5 -131q-1 -17 0 -36.5q1 -19.5 16 -40.5q11 -14 23 -22q12 -8 24 -13q13 -5 21.5 -9q8.5 -4 8.5 -13q0 -4 -3.5 -9q-3.5 -5 -15.5 -5q-7 0 -16.5 2.5q-9.5 2.5 -15.5 4.5q-29 9 -55 26q-26 17 -41 40q-14 22 -20 50.5q-6 28.5 -5 54.5l4 127q1 29 -6 57.5q-7 28.5 -21 48.5q-14 19 -33.5 32q-19.5 13 -37.5 21q-17 7 -20 12q-3 5 -3 15q0 11 3.5 15.5q3.5 4.5 20.5 11.5q16 6 37 20.5q21 14.5 33 31.5q14 20 21 49q7 29 6 58l-4 127q-1 26 5 54.5q6 28.5 20 50.5q15 23 41 40q26 17 55 26q6 2 15.5 4.5q9.5 2.5 16.5 2.5q12 0 15.5 -5q3.5 -5 3.5 -9q0 -11 -10.5 -14q-10.5 -3 -21.5 -8q-11 -5 -25 -15q-14 -10 -21 -19q-13 -17 -14.5 -37.5q-1.5 -20.5 -0.5 -40.5l5 -131q3 -75 -26 -128q-29 -53 -104 -81z" />
<glyph unicode="&#124;" horiz-adv-x="260" d="M100 876h60v-1052l-60 0z" />
<glyph unicode="&#125;" horiz-adv-x="459" d="M288 265q-75 28 -104 81q-29 53 -26 128l5 131q1 20 -0.5 40.5q-1.5 20.5 -14.5 37.5q-7 9 -21 19q-14 10 -25 15q-11 5 -21.5 8q-10.5 3 -10.5 14q0 4 3.5 9q3.5 5 15.5 5q7 0 16.5 -2.5q9.5 -2.5 15.5 -4.5q29 -9 55 -26q26 -17 41 -40q14 -22 20 -50.5q6 -28.5 5 -54.5l-4 -127q-1 -29 6 -58q7 -29 21 -49q12 -17 33 -31.5q21 -14.5 37 -20.5q17 -7 20.5 -11.5q3.5 -4.5 3.5 -15.5q0 -10 -3 -15q-3 -5 -20 -12q-18 -8 -37.5 -21q-19.5 -13 -33.5 -32q-14 -20 -21 -48.5q-7 -28.5 -6 -57.5l4 -127q1 -26 -5 -54.5q-6 -28.5 -20 -50.5q-15 -23 -41 -40q-26 -17 -55 -26q-6 -2 -15.5 -4.5q-9.5 -2.5 -16.5 -2.5q-12 0 -15.5 5q-3.5 5 -3.5 9q0 9 8.5 13q8.5 4 21.5 9q12 5 24 13q12 8 23 22q15 21 16 40.5q1 19.5 0 36.5l-5 131q-2 50 10 86q12 36 31.5 61q19.5 25 43 39.5q23.5 14.5 45.5 22.5z" />
<glyph unicode="&#126;" horiz-adv-x="620" d="M333 446q21 -9 46.5 -20q25.5 -11 52.5 -11q11 0 24.5 4q13.5 4 31.5 15q8 5 12.5 8q4.5 3 9.5 3q10 0 10 -7q0 -6 -7.5 -12.5q-7.5 -6.5 -18 -13q-10.5 -6.5 -20.5 -11.5q-10 -5 -14 -7q-23 -11 -44 -16q-21 -5 -44 -5q-32 0 -53.5 8.5q-21.5 8.5 -43.5 19.5q-17 8 -37.5 16q-20.5 8 -42.5 8q-17 0 -30.5 -5.5q-13.5 -5.5 -30.5 -14.5q-8 -5 -14 -7.5q-6 -2.5 -12 -2.5q-2 0 -5 1q-3 1 -3 6q0 5 6.5 11q6.5 6 15.5 12q9 6 19.5 11.5q10.5 5.5 18.5 9.5q22 11 44.5 16q22.5 5 43.5 5q24 0 44.5 -6t40.5 -15z" />
<glyph unicode="&#160;" horiz-adv-x="233" />
<glyph unicode="&#161;" horiz-adv-x="342" d="M230 421q0 -25 -17 -42q-17 -17 -42 -17q-25 0 -42 17q-17 17 -17 42q0 25 17 42q17 17 42 17q25 0 42 -17q17 -17 17 -42zt0 0zM223 -115q2 -23 3.5 -39.5q1.5 -16.5 1.5 -30.5q0 -25 -6.5 -39q-6.5 -14 -16 -21q-9.5 -7 -19 -8.5q-9.5 -1.5 -15.5 -1.5q-6 0 -15.5 1.5q-9.5 1.5 -19 8.5q-9.5 7 -16 21q-6.5 14 -6.5 39q0 14 1.5 30.5q1.5 16.5 3.5 39.5l32 295q2 19 3 28.5q1 9.5 2 17.5q2 14 3 29q1 15 12 15q11 0 12 -15q1 -15 3 -29q1 -8 2 -17.5q1 -9.5 3 -28.5z" />
<glyph unicode="&#162;" horiz-adv-x="540" d="M315 577q35 0 53 -6.5q18 -6.5 33 -15.5q14 -9 24 -16q10 -7 21 -7q5 0 9 2q4 2 8 4q6 4 9.5 7q3.5 3 8.5 3q4 0 7.5 -3.5q3.5 -3.5 3.5 -8.5q0 -4 -4 -9.5q-4 -5.5 -10 -11.5q-6 -6 -12.5 -11.5q-6.5 -5.5 -11.5 -8.5q-14 -9 -29.5 -15q-15.5 -6 -28.5 -6q-17 0 -32.5 10q-15.5 10 -28.5 23q-8 8 -18.5 17.5q-10.5 9.5 -29.5 13.5l0 -388q17 -5 36 -5q20 0 45.5 6.5q25.5 6.5 57.5 26.5q9 6 15 10q6 4 10.5 7.5q4.5 3.5 8.5 6.5q4 3 9 7q4 3 9.5 5.5q5.5 2.5 11.5 2.5q6 0 9.5 -4.5q3.5 -4.5 3.5 -9.5q0 -6 -7.5 -15q-7.5 -9 -18 -18q-10.5 -9 -23 -18q-12.5 -9 -21.5 -15q-20 -13 -37.5 -21q-17.5 -8 -34.5 -12.5q-17 -4.5 -35 -6.5q-18 -2 -39 -2l0 -110h-30v113q-51 7 -84 28q-33 21 -51 41q-27 29 -44.5 67.5q-17.5 38.5 -17.5 86.5q0 46 18.5 97q18.5 51 67.5 93q50 42 111 58l0 116h30v-110q7 1 14 1.5q7 0.5 14 0.5zt0 0zM257 539q-20 -3 -45 -14.5q-25 -11.5 -45 -41.5q-15 -22 -22 -50q-7 -28 -7 -60q0 -35 10 -72.5q10 -37.5 32 -70.5q21 -32 42 -47.5q21 -15.5 35 -21.5z" />
<glyph unicode="&#163;" horiz-adv-x="540" d="M391 381q5 -3 6 -7q1 -4 1 -7q0 -9 -7 -16l-138 0q4 -20 7.5 -50q3.5 -30 3.5 -65q0 -36 -7 -70.5q-7 -34.5 -26 -69.5q61 -23 104 -37.5q43 -14.5 75 -14.5q17 0 31.5 5q14.5 5 28.5 17q12 10 20.5 19q8.5 9 15.5 9q5 0 9.5 -5q4.5 -5 4.5 -12q0 -5 -5 -12.5q-5 -7.5 -12 -15.5q-7 -8 -14.5 -15q-7.5 -7 -12.5 -11q-28 -22 -52 -30q-24 -8 -51 -8q-15 0 -32 3q-17 3 -37 10.5q-20 7.5 -44.5 20.5q-24.5 13 -54.5 33q-17 -29 -44 -44.5q-27 -15.5 -61 -15.5q-29 0 -49.5 17q-20.5 17 -20.5 50q0 19 7 32.5q7 13.5 17.5 22q10.5 8.5 24 12q13.5 3.5 25.5 3.5q17 0 38 -5.5q21 -5.5 38 -13.5q7 29 7 59q0 34 -8 75.5q-8 41.5 -21 106.5l-114 0q-6 7 -6 15q0 3 1 7q1 4 5 8l105 0q-2 9 -4 22.5q-2 13.5 -3.5 28.5q-1.5 15 -3 29.5q-1.5 14.5 -1.5 26.5q0 51 14 94.5q14 43.5 39 72.5q10 13 25 25q15 12 34.5 22q19.5 10 44 16q24.5 6 55.5 6q60 0 85 -17.5q25 -17.5 25 -38.5q0 -17 -12 -28.5q-12 -11.5 -32 -11.5q-23 0 -56 19q-22 12 -38.5 21q-16.5 9 -30.5 9q-6 0 -16.5 -3.5q-10.5 -3.5 -20.5 -15.5q-10 -12 -17.5 -34.5q-7.5 -22.5 -7.5 -61.5q0 -15 2 -38q2 -23 5 -48.5q3 -25.5 6.5 -50.5q3.5 -25 6.5 -44zM174 72q-12 11 -28 16.5q-16 5.5 -28 5.5q-17 0 -27 -10q-10 -10 -10 -27q0 -16 10 -24q10 -8 23 -8q14 0 31.5 11t28.5 36z" />
<glyph unicode="&#164;" horiz-adv-x="540" d="M129 514q33 29 69.5 39q36.5 10 69.5 10q30 0 53 -5.5q23 -5.5 40.5 -13.5q17.5 -8 29.5 -16.5q12 -8.5 19 -14.5l82 79l33 -33l-83 -74q23 -32 37 -70.5q14 -38.5 14 -76.5q0 -44 -16 -83q-16 -39 -35 -65l79 -79l-33 -34l-79 87q-34 -28 -71 -39.5q-37 -11.5 -70 -11.5q-33 0 -69.5 11.5q-36.5 11.5 -69.5 37.5l-77 -85l-33 34l79 79q-29 35 -41.5 73.5q-12.5 38.5 -12.5 74.5q0 9 1.5 25q1.5 16 7 35.5q5.5 19.5 16 42q10.5 22.5 29.5 44.5l-83 74l33 33zM87 338q0 -38 14 -71q14 -33 38.5 -57.5q24.5 -24.5 57.5 -39q33 -14.5 71 -14.5q37 0 70.5 14.5q33.5 14.5 58 39.5q24.5 25 39 58q14.5 33 14.5 70q0 37 -14.5 70q-14.5 33 -39 58q-24.5 25 -58 39.5q-33.5 14.5 -70.5 14.5q-38 0 -71 -14.5q-33 -14.5 -57.5 -39q-24.5 -24.5 -38.5 -58t-14 -70.5z" />
<glyph unicode="&#165;" horiz-adv-x="540" d="M450 552q5 11 12 32q7 21 7 35q0 18 -12 36q-12 18 -35 25q-7 2 -13.5 3.5q-6.5 1.5 -6.5 7.5q0 7 7.5 8q7.5 1 12.5 1q12 0 24 -0.5q12 -0.5 23 -1.5q12 -1 24 -2q12 -1 24 -1q24 0 42 3q18 3 36 2q2 0 7 -1q5 -1 5 -6q0 -6 -8 -9.5q-8 -3.5 -14 -6.5q-20 -9 -35 -29.5q-15 -20.5 -30 -52.5l-134 -285h122q8 0 8 -15q0 -15 -8 -15h-135l-23 -56v-50h158q8 0 8 -15q0 -15 -8 -15h-158v-33q0 -25 2.5 -40.5q2.5 -15.5 16.5 -29.5q14 -14 31.5 -19q17.5 -5 31.5 -7q3 -1 5.5 -1.5q2.5 -0.5 2.5 -4.5q0 -3 -3 -6q-3 -3 -13 -3q-31 0 -62 3q-14 2 -29 3q-15 1 -29 1q-14 0 -29 -1q-15 -1 -29 -3q-32 -3 -62 -3q-10 0 -13 3q-3 3 -3 6q0 4 2.5 4.5q2.5 0.5 5.5 1.5q14 2 31.5 7q17.5 5 31.5 19q14 14 16.5 29.5q2.5 15.5 2.5 40.5v33h-160q-8 0 -8 16q0 14 8 14h160v50l-32 56h-128q-8 0 -8 15q0 6 2 10.5q2 4.5 6 4.5h111l-171 301q-5 9 -14 21q-9 12 -16 19q-12 11 -23.5 16.5q-11.5 5.5 -22.5 9.5q-4 2 -8 4.5q-4 2.5 -4 7.5q0 8 8.5 9.5q8.5 1.5 15.5 1.5q24 0 39 -1q15 -1 25.5 -2q10.5 -1 20 -1.5q9.5 -0.5 22.5 -0.5q22 0 44 2.5q22 2.5 47 2.5q8 0 17 -1.5q9 -1.5 9 -8.5q0 -7 -6 -10.5q-6 -3.5 -13 -5.5q-4 -1 -10.5 -3.5q-6.5 -2.5 -12.5 -7.5q-6 -5 -10.5 -13.5q-4.5 -8.5 -4.5 -21.5q0 -14 5.5 -28q5.5 -14 21.5 -42l152 -274l5 0z" />
<glyph unicode="&#166;" horiz-adv-x="260" d="M160 790v-370h-60v370zM160 230v-370h-60l0 370z" />
<glyph unicode="&#167;" horiz-adv-x="586" d="M163 128q-23 21 -35.5 40.5q-12.5 19.5 -18.5 37.5q-6 18 -7.5 33.5q-1.5 15.5 -1.5 27.5q0 12 3 36.5q3 24.5 16.5 55.5q13.5 31 40 65q26.5 34 74.5 63q-18 18 -28.5 36q-10.5 18 -16.5 35.5q-6 17.5 -8 32.5q-2 15 -2 27q0 23 5.5 51.5q5.5 28.5 31.5 57.5q21 24 53.5 38.5q32.5 14.5 67.5 14.5q24 0 40 -5q16 -5 25 -12q9 -7 13 -15.5q4 -8.5 4 -14.5q0 -11 -9 -23q-9 -12 -28 -12q-17 0 -27.5 5.5q-10.5 5.5 -21.5 12.5q-11 6 -19.5 9q-8.5 3 -22.5 3q-19 0 -31 -7q-12 -7 -19 -18q-7 -11 -10 -23.5q-3 -12.5 -3 -22.5q0 -38 22 -67.5q22 -29.5 48 -52.5l127 -112q40 -35 50.5 -71q10.5 -36 10.5 -70q0 -38 -10.5 -68q-10.5 -30 -29.5 -59q-18 -27 -43 -51q-25 -24 -52 -42q22 -23 33.5 -44.5q11.5 -21.5 16.5 -40q5 -18.5 5.5 -32q0.5 -13.5 0.5 -19.5q0 -28 -8 -49.5q-8 -21.5 -25 -43.5q-27 -35 -59 -49q-32 -14 -71 -14q-23 0 -38.5 4.5q-15.5 4.5 -24.5 11.5q-9 7 -12.5 15q-3.5 8 -3.5 15q0 14 11 25q11 11 30 11q13 0 22.5 -5.5q9.5 -5.5 17.5 -10.5q11 -7 21 -11.5q10 -4.5 24 -4.5q26 0 45.5 18q19.5 18 19.5 52q0 22 -7 40q-7 18 -17.5 33q-10.5 15 -23 26.5q-12.5 11.5 -23.5 22.5zM253 464q-45 -33 -66.5 -75q-21.5 -42 -21.5 -81q0 -5 1 -18q1 -13 7 -30q6 -17 18 -37q12 -20 34 -40l106 -96q48 35 68 72.5q20 37.5 20 89.5q0 6 -1.5 18.5q-1.5 12.5 -7 28.5q-5.5 16 -17.5 34.5q-12 18.5 -33 37.5z" />
<glyph unicode="&#168;" horiz-adv-x="312" d="M10 595q0 24 15.5 39.5q15.5 15.5 39.5 15.5q24 0 39.5 -15.5q15.5 -15.5 15.5 -39.5q0 -24 -15.5 -39.5q-15.5 -15.5 -39.5 -15.5q-24 0 -39.5 15.5q-15.5 15.5 -15.5 39.5zt0 0zM192 595q0 24 15.5 39.5q15.5 15.5 39.5 15.5q24 0 39.5 -15.5q15.5 -15.5 15.5 -39.5q0 -24 -15.5 -39.5q-15.5 -15.5 -39.5 -15.5q-24 0 -39.5 15.5t-15.5 39.5z" />
<glyph unicode="&#169;" horiz-adv-x="934" d="M153 350q0 -42 11 -82q11 -40 31 -75q20 -35 49.5 -64.5q29.5 -29.5 65.5 -50.5q73 -42 155 -42q41 0 80.5 10q39.5 10 75 30q35.5 20 66 49.5q30.5 29.5 52.5 67.5q22 38 32 77.5q10 39.5 10 80.5q0 40 -10.5 79.5q-10.5 39.5 -30.5 74.5q-20 35 -49.5 65q-29.5 30 -66.5 52q-77 44 -161 42q-81 -1 -152.5 -41.5q-71.5 -40.5 -115.5 -115.5q-20 -35 -31 -75q-11 -40 -11 -82zt0 0zM100 350q0 49 12.5 96q12.5 47 36.5 88q24 41 58 75.5q34 34.5 76 58.5q42 24 87 36q45 12 91 13q48 1 95 -11q47 -12 89.5 -35q42.5 -23 78 -57.5q35.5 -34.5 61.5 -79.5q25 -43 37 -88.5q12 -45.5 12 -92.5q0 -48 -12 -94.5q-12 -46.5 -35 -88.5q-23 -42 -57.5 -77.5q-34.5 -35.5 -78.5 -60.5q-45 -26 -92 -38q-47 -12 -95 -11q-47 0 -93 12.5q-46 12.5 -87 36q-41 23.5 -75.5 57q-34.5 33.5 -59.5 77.5q-49 86 -49 184zt0 0zM599 528q0 -7 -0.5 -11q-0.5 -4 1.5 -11q1 -8 3 -18.5q2 -10.5 2 -21.5q0 -8 -2.5 -16.5q-2.5 -8.5 -8.5 -8.5q-6 0 -9 5q-3 5 -5 10q-12 24 -26 39.5q-14 15.5 -28.5 24.5q-14.5 9 -29.5 12q-15 3 -28 3q-32 0 -56.5 -14q-24.5 -14 -40.5 -35q-17 -23 -27 -55.5q-10 -32.5 -10 -60.5q0 -32 12 -67.5q12 -35.5 33 -61.5q20 -23 50.5 -39q30.5 -16 71.5 -16q19 0 36.5 4.5q17.5 4.5 32.5 12.5q13 7 25.5 16.5q12.5 9.5 21.5 18.5q3 3 6.5 6q3.5 3 8.5 3q13 0 13 -15q0 -6 -4.5 -12.5q-4.5 -6.5 -11.5 -13.5q-7 -7 -15.5 -13.5q-8.5 -6.5 -15.5 -10.5q-33 -21 -66 -27q-33 -6 -59 -6q-33 0 -58.5 6.5q-25.5 6.5 -44.5 15.5q-19 9 -31.5 18.5q-12.5 9.5 -19.5 15.5q-27 26 -43.5 65q-16.5 39 -16.5 87q0 49 17 88q17 39 43 64q18 17 37 27.5q19 10.5 38.5 16q19.5 5.5 38.5 7.5q19 2 35 2q20 0 33 -1.5q13 -1.5 23 -4q10 -2.5 17.5 -4q7.5 -1.5 16.5 -1.5q11 0 17.5 3.5q6.5 3.5 11.5 3.5q6 0 9 -4.5q3 -4.5 3 -8.5z" />
<glyph unicode="&#170;" horiz-adv-x="450" d="M266 647q0 24 -15.5 39.5q-15.5 15.5 -38.5 15.5q-28 0 -40 -17q-9 -12 -10 -19q-1 -7 -11 -16q-10 -10 -27 -10q-13 0 -19.5 8q-6.5 8 -6.5 17q0 8 7 20q7 12 27 22q21 11 43.5 14q22.5 3 42.5 3q20 0 39.5 -3q19.5 -3 38.5 -17q17 -13 24 -28q7 -15 7 -36v-169q0 -23 9 -30q3 -3 10.5 -5.5q7.5 -2.5 12.5 -2.5q5 0 9.5 2q4.5 2 8.5 4q9 6 14 6q5 0 5 -4q0 -4 -8.5 -12.5q-8.5 -8.5 -13.5 -11.5q-11 -8 -19.5 -11.5q-8.5 -3.5 -22.5 -3.5q-12 0 -23.5 3q-11.5 3 -20.5 10q-6 5 -11 12q-5 7 -7 18q-23 -20 -52 -31.5q-29 -11.5 -58 -11.5q-20 0 -36.5 6q-16.5 6 -27.5 17q-11 11 -16 25q-5 14 -5 27q0 20 15 45.5q15 25.5 56 45.5q25 12 57.5 19q32.5 7 62.5 9zM266 581q-7 0 -31.5 -4q-24.5 -4 -49.5 -21q-20 -13 -30.5 -30q-10.5 -17 -10.5 -42q0 -28 18.5 -39.5q18.5 -11.5 38.5 -11.5q20 0 37 9.5q17 9.5 28 19.5zM92 326q-12 0 -15 6q-3 6 -3 9q0 3 3 9q3 6 15 6h266q12 0 15 -6q3 -6 3 -9q0 -3 -3 -9q-3 -6 -15 -6z" />
<glyph unicode="&#171;" horiz-adv-x="547" d="M157 230q0 -13 9.5 -24q9.5 -11 17.5 -20q29 -30 58.5 -65q29.5 -35 61.5 -71q11 -13 11 -21q0 -13 -15 -13q-4 0 -9 2q-5 2 -13.5 8q-8.5 6 -21.5 15.5q-13 9.5 -33 24.5q-27 21 -43.5 34q-16.5 13 -28.5 23q-12 10 -22.5 19.5q-10.5 9.5 -25.5 22.5q-16 14 -29.5 29q-13.5 15 -13.5 36q0 22 13.5 37q13.5 15 28.5 28q29 24 60.5 51q31.5 27 74.5 61q32 25 44.5 32q12.5 7 18.5 7q5 0 10 -3q5 -3 5 -11q0 -6 -4 -12q-4 -6 -8 -10q-6 -6 -24.5 -26q-18.5 -20 -38.5 -43q-20 -23 -37 -41.5q-17 -18.5 -20 -21.5q-9 -10 -17.5 -21q-8.5 -11 -8.5 -27zt0 0zM361 230q0 -8 6 -16.5q6 -8.5 17 -20.5q3 -3 15.5 -17q12.5 -14 27.5 -31q15 -17 29.5 -33.5q14.5 -16.5 21.5 -24.5q3 -4 6 -8q3 -4 3 -9q0 -8 -4.5 -9.5q-4.5 -1.5 -7.5 -1.5q-8 0 -24 12q-22 16 -39.5 29.5q-17.5 13.5 -32.5 26q-15 12.5 -29.5 25.5q-14.5 13 -30.5 27q-11 10 -23.5 23.5q-12.5 13.5 -12.5 27.5q0 16 11.5 29.5q11.5 13.5 22.5 22.5q10 9 21.5 19.5q11.5 10.5 26.5 23.5q15 13 35.5 28.5q20.5 15.5 47.5 35.5q11 8 17 11q6 3 10 3q3 0 7.5 -1.5q4.5 -1.5 4.5 -9.5q0 -5 -3 -10.5q-3 -5.5 -11 -14.5q-1 -1 -12 -13q-11 -12 -25.5 -27.5q-14.5 -15.5 -29 -31.5q-14.5 -16 -23.5 -26q-8 -8 -15 -18t-7 -21z" />
<glyph unicode="&#172;" horiz-adv-x="820" d="M683 390v-212q0 -7 -7.5 -12q-7.5 -5 -18.5 -5q-13 0 -19.5 5.5q-6.5 5.5 -6.5 11.5v160h-514q-7 0 -12 7.5q-5 7.5 -5 18.5q0 13 5.5 19.5q5.5 6.5 11.5 6.5z" />
<glyph unicode="&#173;" horiz-adv-x="460" d="M343 264q6 0 11.5 -6.5q5.5 -6.5 5.5 -19.5q0 -11 -5 -18.5q-5 -7.5 -12 -7.5h-226q-7 0 -12 7.5q-5 7.5 -5 18.5q0 13 5.5 19.5q5.5 6.5 11.5 6.5z" />
<glyph unicode="&#174;" horiz-adv-x="935" d="M154 350q0 -42 11 -82q11 -40 31 -75q20 -35 49.5 -64.5q29.5 -29.5 65.5 -50.5q38 -22 77.5 -32q39.5 -10 80.5 -10q40 0 79.5 10.5q39.5 10.5 74.5 30.5q35 20 65 49q30 29 52 67q42 73 42 155q0 41 -10 80.5q-10 39.5 -30 75q-20 35.5 -49.5 66q-29.5 30.5 -67.5 52.5q-38 22 -78 32q-40 10 -81 10q-41 0 -80 -10.5q-39 -10.5 -74 -30.5q-35 -20 -64.5 -49.5q-29.5 -29.5 -51.5 -66.5q-20 -35 -31 -75q-11 -40 -11 -82zt0 0zM100 350q0 100 48.5 184q48.5 84 135.5 134q45 26 92 38q47 12 95 11q47 0 93 -12.5q46 -12.5 87 -36q41 -23.5 75.5 -57.5q34.5 -34 59.5 -77q26 -47 38.5 -96.5q12.5 -49.5 10.5 -99.5q-3 -93 -50 -174.5q-47 -81.5 -133 -131.5q-45 -26 -92.5 -38q-47.5 -12 -96.5 -11q-47 1 -92.5 13q-45.5 12 -86.5 35.5q-41 23.5 -75.5 57q-34.5 33.5 -59.5 77.5q-24 42 -36.5 89q-12.5 47 -12.5 95zt0 0zM401 234q0 -13 3 -21q3 -8 7 -13q5 -6 15 -9.5q10 -3.5 20 -5.5q7 0 7 -8q0 -6 -6.5 -7q-6.5 -1 -8.5 -1q-8 0 -15.5 1q-7.5 1 -15.5 2q-8 1 -16 1.5q-8 0.5 -16 0.5q-9 0 -18 -0.5q-9 -0.5 -18 -1.5q-8 -1 -15.5 -2q-7.5 -1 -15.5 -1q-2 0 -8.5 1q-6.5 1 -6.5 7q0 8 7 8q10 2 20 5.5q10 3.5 15 9.5q4 5 7 13q3 8 3 21v256q0 13 -3 21q-3 8 -7 13q-5 6 -15.5 9.5q-10.5 3.5 -19.5 5.5q-3 1 -5 2q-2 1 -2 6q0 5 5 6.5q5 1.5 10 1.5q17 0 30.5 -1.5q13.5 -1.5 28.5 -1.5q17 0 31.5 1.5q14.5 1.5 24.5 3.5q10 2 18 2.5q8 0.5 19 0.5q18 0 44.5 -3.5q26.5 -3.5 48.5 -17.5q12 -8 27 -26.5q15 -18.5 15 -52.5q0 -32 -15.5 -50.5q-15.5 -18.5 -29.5 -26.5q-19 -11 -43 -16q-24 -5 -44 -5q73 -20 117 -89q8 -14 15.5 -28q7.5 -14 19.5 -32q5 -8 11 -15.5q6 -7.5 14 -13.5q6 -5 10 -6.5q4 -1.5 9 -4.5q8 -5 3 -9.5q-5 -4.5 -16 -4.5q-12 0 -24.5 1.5q-12.5 1.5 -23.5 5.5q-10 3 -26 13.5q-16 10.5 -31 33.5q-18 29 -28.5 55q-10.5 26 -33.5 51q-14 16 -34.5 26.5q-20.5 10.5 -43.5 9.5zM402 380q12 -2 27 -1.5q15 0.5 29.5 2.5q14.5 2 28 7q13.5 5 22.5 12q11 9 20 24.5q9 15.5 9 38.5q0 25 -11.5 39.5q-11.5 14.5 -27 22q-15.5 7.5 -31 9q-15.5 1.5 -22.5 1.5q-3 0 -10.5 -0.5q-7.5 -0.5 -15 -3.5q-7.5 -3 -13 -9q-5.5 -6 -5.5 -17z" />
<glyph unicode="&#175;" horiz-adv-x="304" d="M25 557q-12 0 -13.5 6.5q-1.5 6.5 -1.5 9.5q0 5 2 11q2 6 13 6h254q11 0 13 -6q2 -6 2 -11q0 -3 -1.5 -9.5q-1.5 -6.5 -13.5 -6.5z" />
<glyph unicode="&#176;" horiz-adv-x="498" d="M100 581q0 31 11.5 58q11.5 27 32 47.5q20.5 20.5 47.5 32q27 11.5 58 11.5q31 0 58 -11.5q27 -11.5 47.5 -32q20.5 -20.5 32 -47.5q11.5 -27 11.5 -58q0 -31 -11.5 -58q-11.5 -27 -32 -47.5q-20.5 -20.5 -47.5 -32q-27 -11.5 -58 -11.5q-31 0 -58 11.5q-27 11.5 -47.5 32q-20.5 20.5 -32 47.5q-11.5 27 -11.5 58zt0 0zM150 581q0 -42 28.5 -70.5q28.5 -28.5 70.5 -28.5q42 0 70.5 28.5q28.5 28.5 28.5 70.5q0 42 -28.5 70.5q-28.5 28.5 -70.5 28.5q-42 0 -70.5 -28.5t-28.5 -70.5z" />
<glyph unicode="&#177;" horiz-adv-x="820" d="M702 449q9 0 13 -8q4 -8 4 -17q0 -11 -5.5 -19q-5.5 -8 -12.5 -8h-265v-207q0 -7 -7.5 -12q-7.5 -5 -18.5 -5q-13 0 -19.5 5.5q-6.5 5.5 -6.5 11.5v207h-265q-7 0 -12.5 7.5q-5.5 7.5 -5.5 18.5q0 11 5 18.5q5 7.5 12 7.5h266v207q0 6 6.5 11.5q6.5 5.5 19.5 5.5q11 0 18.5 -5q7.5 -5 7.5 -12v-207zM702 112q6 0 11.5 -6.5q5.5 -6.5 5.5 -19.5q0 -11 -5 -18.5q-5 -7.5 -12 -7.5h-583q-7 0 -12.5 8q-5.5 8 -5.5 18q0 10 5.5 18q5.5 8 12.5 8z" />
<glyph unicode="&#178;" horiz-adv-x="371" d="M73 300q-7 0 -15 5.5q-8 5.5 -8 17.5q0 5 3 17.5q3 12.5 19 38.5q6 10 16.5 24q10.5 14 22 28.5q11.5 14.5 23.5 28q12 13.5 21 23.5q12 13 22.5 25q10.5 12 19 25q8.5 13 13 28q4.5 15 4.5 34q0 19 -6 32q-6 13 -15 20q-9 7 -19 10q-10 3 -19 3q-22 0 -36.5 -13q-14.5 -13 -22.5 -22q-8 -9 -13 -16.5q-5 -7.5 -12 -7.5q-10 0 -10 12q0 6 5 14.5q5 8.5 12 17q7 8.5 15 16q8 7.5 13 12.5q20 17 39 22q19 5 39 5q48 0 72 -26.5q24 -26.5 24 -68.5q0 -20 -5.5 -36q-5.5 -16 -15.5 -31q-11 -17 -25 -32.5q-14 -15.5 -31 -30.5q-17 -15 -30.5 -26q-13.5 -11 -28.5 -27q-25 -26 -33 -39q-8 -13 -8 -21q0 -9 5.5 -11q5.5 -2 10.5 -2h58q11 0 30.5 4q19.5 4 27.5 9q3 2 9 6q6 4 16 15q5 5 11 13q6 8 12 8q5 0 6.5 -3.5q1.5 -3.5 1.5 -6.5q0 -8 -3 -16q-3 -8 -8 -20q-2 -4 -5 -10q-3 -6 -6 -11q-4 -14 -5 -18.5q-1 -4.5 -2 -6.5q-2 -5 -6 -11.5q-4 -6.5 -12 -6.5q-6 0 -10 3q-3 2 -6 2.5q-3 0.5 -9 0.5z" />
<glyph unicode="&#179;" horiz-adv-x="370" d="M188 509q20 -2 39.5 -10q19.5 -8 33.5 -20q13 -12 21 -30q8 -18 8 -41q0 -20 -8.5 -39.5q-8.5 -19.5 -22.5 -35.5q-21 -23 -47.5 -32.5q-26.5 -9.5 -57.5 -9.5q-17 0 -39 4q-22 4 -39 14q-17 10 -21.5 21q-4.5 11 -4.5 18q0 10 5.5 17.5q5.5 7.5 16.5 7.5q14 0 23 -9.5q9 -9.5 17 -20.5q8 -12 17 -23q9 -11 27 -11q24 0 46 21q22 21 22 69q0 15 -3.5 32q-3.5 17 -18.5 33q-17 17 -36 22q-19 5 -34 9q-5 2 -9 3q-4 1 -4 5q0 8 8 9.5q8 1.5 18 4.5q15 4 29 13.5q14 9.5 22 20.5q8 10 12.5 23.5q4.5 13.5 4.5 25.5q0 27 -14.5 47q-14.5 20 -42.5 20q-24 0 -41 -13q-17 -13 -25 -23q-5 -7 -10.5 -13.5q-5.5 -6.5 -11.5 -6.5q-2 0 -5 2q-3 2 -3 6q0 4 3.5 11q3.5 7 8.5 14q5 7 10.5 13.5q5.5 6.5 8.5 9.5q26 24 50.5 28.5q24.5 4.5 36.5 4.5q22 0 40.5 -5.5q18.5 -5.5 33.5 -22.5q21 -22 21 -54q0 -37 -21 -64q-11 -15 -28 -26.5t-36 -18.5z" />
<glyph unicode="&#180;" horiz-adv-x="186" d="M126 656q10 0 20 2q10 2 21 2q3 0 6 -1q3 -1 3 -7q0 -6 -5.5 -13.5q-5.5 -7.5 -23.5 -22.5q-21 -18 -35 -28q-14 -10 -28 -21q-5 -4 -13 -10q-8 -6 -17 -12q-9 -6 -17.5 -10.5q-8.5 -4.5 -14.5 -4.5q-7 0 -11 4.5q-4 4.5 3 15.5q3 5 5 8q2 3 4.5 7q2.5 4 6 9.5q3.5 5.5 8.5 14.5q7 13 12 22.5q5 9.5 9 17.5q8 20 11 25q3 5 12 6q11 1 22 -1.5t22 -2.5z" />
<glyph unicode="&#181;" horiz-adv-x="588" d="M177 -144q1 -6 1.5 -20q0.5 -14 -2 -28.5q-2.5 -14.5 -10.5 -25.5q-8 -11 -24 -11q-20 0 -31 18q-11 18 -7 67l16 216v304q0 13 -4.5 25.5q-4.5 12.5 -24.5 21.5q-14 6 -22.5 6.5q-8.5 0.5 -16.5 2.5q-12 4 -12 11q0 6 6.5 7.5q6.5 1.5 13.5 1.5q16 0 26 1q10 1 22 3q31 5 42 8q11 3 21 3q17 0 20.5 -10q3.5 -10 3.5 -18q0 -5 -0.5 -9q-0.5 -4 -0.5 -9q-1 -5 -1 -10q0 -5 0 -10v-251q0 -17 4 -40.5q4 -23.5 21 -46.5q30 -40 85 -40q30 0 51.5 12q21.5 12 38.5 32q11 14 18.5 29.5q7.5 15.5 7.5 30.5l-1 249q0 11 -4.5 25q-4.5 14 -24.5 22q-10 4 -19.5 5q-9.5 1 -19.5 4q-3 1 -7.5 3.5q-4.5 2.5 -4.5 7.5q0 6 6.5 7.5q6.5 1.5 13.5 1.5q16 0 26 1q10 1 22 3q31 5 42 8q11 3 21 3q5 0 13.5 -3q8.5 -3 10.5 -17q1 -3 0.5 -6q-0.5 -3 -0.5 -6q-1 -9 -1.5 -17.5q-0.5 -8.5 -0.5 -16.5v-295q0 -35 6 -49q6 -14 19 -22q8 -5 17.5 -8.5q9.5 -3.5 18.5 -4.5q3 0 8.5 -1.5q5.5 -1.5 5.5 -7.5q0 -7 -8 -9q-8 -2 -15 -3q-10 -1 -18 -2q-8 -1 -21 -4q-6 -2 -18 -6q-12 -4 -22 -4q-18 0 -26 10.5q-8 10.5 -11 26.5q-2 6 -2.5 15q-0.5 9 -2.5 26l-6 0q-7 -12 -15 -22q-8 -10 -20 -21q-20 -17 -41 -26q-21 -9 -49 -9q-47 0 -77 22q-30 22 -47 48l-9 0z" />
<glyph unicode="&#182;" horiz-adv-x="692" d="M434 670h-92v-882h-133q-2 0 -9 1q-7 1 -7 6q0 2 0.5 4q0.5 2 5.5 4q12 4 30 6q18 2 35 19q13 13 16.5 30.5q3.5 17.5 3.5 31.5v366q-31 4 -65 15.5q-34 11.5 -63 31.5q-30 20 -48.5 43.5q-18.5 23.5 -29 47.5q-10.5 24 -14.5 47.5q-4 23.5 -4 43.5q0 18 2 39q2 21 9 43.5q7 22.5 20.5 44.5q13.5 22 36.5 41q20 17 41.5 26.5q21.5 9.5 43 14q21.5 4.5 43.5 5.5q22 1 43 1h277q11 0 13.5 -3.5q2.5 -3.5 2.5 -5.5q0 -4 -2.5 -4.5q-2.5 -0.5 -5.5 -1.5q-28 -5 -44 -9q-16 -4 -29 -16q-14 -13 -16.5 -26q-2.5 -13 -2.5 -27v-729q0 -23 8.5 -37q8.5 -14 20.5 -21.5q12 -7.5 25 -11q13 -3.5 22 -4.5q12 -1 12 -7q0 -2 -2.5 -5.5q-2.5 -3.5 -13.5 -3.5h-130zM284 670q-8 0 -21 -2q-13 -2 -28 -8.5q-15 -6.5 -30.5 -18q-15.5 -11.5 -28.5 -31.5q-18 -26 -26.5 -64q-8.5 -38 -8.5 -73q0 -49 18 -88q18 -39 46 -63q15 -13 35 -22.5q20 -9.5 44 -13.5z" />
<glyph unicode="&#183;" horiz-adv-x="318" d="M100 247q0 25 17 42q17 17 42 17q25 0 42 -17q17 -17 17 -42q0 -25 -17 -42q-17 -17 -42 -17q-25 0 -42 17t-17 42z" />
<glyph unicode="&#184;" horiz-adv-x="207" d="M123 0l-12 -42q12 0 26.5 -3q14.5 -3 28 -12q13.5 -9 22.5 -24q9 -15 9 -39q0 -19 -8.5 -38.5q-8.5 -19.5 -34.5 -35.5q-15 -9 -36.5 -15q-21.5 -6 -54.5 -6q-18 0 -29.5 0.5q-11.5 0.5 -16.5 1.5q-7 1 -7 10v9q0 6 3 7.5q3 1.5 5 1.5q2 0 7 -0.5q5 -0.5 13 -0.5q18 0 39 4q21 4 38 18q11 8 18 21q7 13 7 28q0 15 -6 24q-6 9 -15 14.5q-9 5.5 -20 7.5q-11 2 -20 2q-5 0 -8.5 -0.5q-3.5 -0.5 -5.5 -0.5l20 68z" />
</font>
</defs>
</svg>
