<?xml version="1.0" standalone="no"?>
<!DOCTYPE svg PUBLIC "-//W3C//DTD SVG 1.1//EN" "http://www.w3.org/Graphics/SVG/1.1/DTD/svg11.dtd" >
<svg xmlns="http://www.w3.org/2000/svg">
<metadata>
Generated by SVGconv.
Copyright   : Copyright  1998 ParaType Inc., ParaType Ltd. All rights reserved.
Designer    : Lyubov Kuznetsova
Foundry     : ParaType Ltd
Foundry URL : http://www.paratype.com
</metadata>
<defs>
<font id="AcademyWeb-Italic" horiz-adv-x="536" >
<font-face units-per-em="1000" ascent="989" descent="325" />
<missing-glyph horiz-adv-x="500" />
<glyph unicode="&#32;" horiz-adv-x="233" />
<glyph unicode="&#33;" horiz-adv-x="392" d="M209 700h113l-157 -551h-40zM70 48q0 23 16.5 39.5q16.5 16.5 39.5 16.5q23 0 39.5 -16.5q16.5 -16.5 16.5 -39.5q0 -23 -16.5 -39.5q-16.5 -16.5 -39.5 -16.5q-23 0 -39.5 16.5t-16.5 39.5z" />
<glyph unicode="&#34;" horiz-adv-x="447" d="M106 496h-36l52 204h90zM271 496h-36l52 204l90 0z" />
<glyph unicode="&#35;" horiz-adv-x="518" d="M286 40l26 157h-131l-26 -157h-49l25 157h-107l6 39h107l30 182h-109l6 39h109l24 149h50l-25 -149h131l24 149h50l-24 -149h102l-7 -39h-102l-29 -182h104l-6 -39h-104l-26 -157zM317 236l29 182h-130l-29 -182z" />
<glyph unicode="&#36;" horiz-adv-x="518" d="M465 534q-7 18 -20 42.5q-13 24.5 -30 44.5q-17 18 -31 26q-14 8 -23 11l-47 -226q22 -20 37 -33.5q15 -13.5 25.5 -23.5q10.5 -10 17.5 -16.5q7 -6.5 13 -12.5q15 -16 27.5 -31q12.5 -15 20.5 -31.5q8 -16.5 12.5 -36q4.5 -19.5 4.5 -43.5q0 -38 -10.5 -68q-10.5 -30 -25.5 -53q-31 -48 -79 -69.5q-48 -21.5 -98 -21.5q-19 0 -37 3l-15 -71h-37l16 78q-11 4 -23.5 7q-12.5 3 -23.5 8q-14 6 -21.5 10q-7.5 4 -15.5 4q-10 0 -21.5 -7q-11.5 -7 -17.5 -24l-20 0l-20 191h30q5 -18 15.5 -38.5q10.5 -20.5 32.5 -46.5q24 -29 45.5 -44q21.5 -15 47.5 -23l66 315q-24 21 -47 42.5q-23 21.5 -40 45.5q-17 24 -27.5 51q-10.5 27 -10.5 59q0 29 11 57q11 28 32 50.5q21 22.5 50.5 36q29.5 13.5 67.5 13.5q9 0 18.5 -1q9.5 -1 19.5 -3l15 71h37l-16 -78l5 -2q29 -12 40 -16.5q11 -4.5 16 -4.5q8 0 16.5 7q8.5 7 12.5 18l22 0l13 -166zM230 32q14 -2 30.5 0q16.5 2 32.5 7q16 5 31 13q15 8 27 19q20 19 30.5 45q10.5 26 10.5 51q0 21 -8.5 43.5q-8.5 22.5 -23 43.5q-14.5 21 -32.5 39.5q-18 18.5 -37 32.5zM326 667q-20 3 -41 0.5q-21 -2.5 -38 -13q-17 -10.5 -28 -29.5q-11 -19 -11 -47q0 -22 14 -49.5q14 -27.5 61 -67.5z" />
<glyph unicode="&#37;" horiz-adv-x="930" d="M252 708q35 0 58 -13q23 -13 35 -21q14 -10 45.5 -23.5q31.5 -13.5 82.5 -13.5q32 0 58 11q26 11 50 28q14 10 23 19.5q9 9.5 16 17q7 7.5 13 12q6 4.5 13 4.5q12 0 22.5 -9q10.5 -9 10.5 -20q0 -7 -4 -14.5q-4 -7.5 -11.5 -19.5q-7.5 -12 -18.5 -30.5q-11 -18.5 -24 -46.5q-25 -52 -52 -107.5q-27 -55.5 -62 -125.5q-32 -62 -61 -120.5q-29 -58.5 -63 -131.5q-6 -12 -12 -26.5q-6 -14.5 -15 -34q-9 -19.5 -21 -46q-12 -26.5 -29 -64.5l-110 -46q24 40 37 61.5q13 21.5 24 39q11 17.5 23.5 38.5q12.5 21 35.5 60q89 155 158 290.5q69 135.5 125 257.5l-5 4q-8 -5 -21 -11.5q-13 -6.5 -29 -13.5q-16 -7 -33.5 -11.5q-17.5 -4.5 -34.5 -4.5q-16 0 -39.5 2q-23.5 2 -58.5 13l-7 -4q5 -32 3 -62.5q-2 -30.5 -8.5 -58q-6.5 -27.5 -17 -51q-10.5 -23.5 -22.5 -41.5q-23 -35 -54.5 -56q-31.5 -21 -68.5 -21q-41 0 -68 20q-27 20 -41 43q-9 15 -13.5 31q-4.5 16 -7 30q-2.5 14 -3 24q-0.5 10 -0.5 13q0 38 11.5 75.5q11.5 37.5 29.5 66.5q16 26 34.5 43q18.5 17 37 26.5q18.5 9.5 36.5 13.5q18 4 33 4zt0 0zM265 662q-9 0 -20.5 -3.5q-11.5 -3.5 -24 -12.5q-12.5 -9 -25 -25.5q-12.5 -16.5 -23.5 -41.5q-17 -38 -22 -74.5q-5 -36.5 -5 -57.5q0 -26 7 -42.5q7 -16.5 17 -26q10 -9.5 21 -13q11 -3.5 19 -3.5q20 0 45.5 17.5q25.5 17.5 46.5 68.5q12 29 20 62.5q8 33.5 8 62.5q0 28 -7 45.5q-7 17.5 -16.5 27.5q-9.5 10 -20.5 13q-11 3 -20 3zt0 0zM738 353q32 0 53.5 -12q21.5 -12 33.5 -26q24 -27 29.5 -58q5.5 -31 5.5 -54q0 -42 -13.5 -85.5q-13.5 -43.5 -35.5 -77.5q-9 -14 -21 -27.5q-12 -13.5 -27 -24.5q-15 -11 -33.5 -18q-18.5 -7 -40.5 -7q-41 0 -68 19.5q-27 19.5 -41 43.5q-9 15 -13.5 31q-4.5 16 -7 30q-2.5 14 -3 24q-0.5 10 -0.5 13q0 38 11.5 75.5q11.5 37.5 29.5 66.5q16 26 34.5 43q18.5 17 37 26.5q18.5 9.5 36.5 13.5q18 4 33 4zt0 0zM751 307q-9 0 -20.5 -3.5q-11.5 -3.5 -24 -12.5q-12.5 -9 -25 -25.5q-12.5 -16.5 -23.5 -41.5q-17 -38 -22 -74.5q-5 -36.5 -5 -57.5q0 -26 7 -42.5q7 -16.5 17 -26q10 -9.5 21 -13q11 -3.5 19 -3.5q20 0 45.5 17.5q25.5 17.5 46.5 68.5q12 29 19.5 56q7.5 27 7.5 56q0 32 -6 52q-6 20 -15.5 31q-9.5 11 -20.5 15t-21 4z" />
<glyph unicode="&#38;" horiz-adv-x="872" d="M783 402q-15 -3 -34 -11q-19 -8 -40 -28q-26 -23 -44.5 -53.5q-18.5 -30.5 -41.5 -66.5q-21 -32 -44 -62q-23 -30 -48 -58q9 -13 22.5 -27q13.5 -14 31.5 -26q18 -12 40.5 -19.5q22.5 -7.5 49.5 -7.5q29 0 57 10q28 10 54 27l16 -26q-47 -38 -91 -50q-44 -12 -82 -12q-39 0 -80 15.5q-41 15.5 -80 59.5q-15 -11 -36 -24q-21 -13 -46.5 -24.5q-25.5 -11.5 -54 -19q-28.5 -7.5 -58.5 -7.5q-36 0 -72.5 12.5q-36.5 12.5 -65.5 37.5q-29 25 -47.5 61.5q-18.5 36.5 -18.5 84.5q0 52 20.5 92.5q20.5 40.5 56 72q35.5 31.5 83.5 55.5q48 24 104 44q-3 22 -3 46q0 54 14 93.5q14 39.5 37.5 65.5q23.5 26 53.5 38.5q30 12.5 63 12.5q28 0 51 -9.5q23 -9.5 39.5 -25q16.5 -15.5 25 -36.5q8.5 -21 8.5 -44q0 -35 -17 -60.5q-17 -25.5 -45 -44q-28 -18.5 -64.5 -31q-36.5 -12.5 -74.5 -19.5q18 -115 43.5 -182.5q25.5 -67.5 40.5 -96.5q19 18 41 45.5q22 27.5 41 56q19 28.5 32 55q13 26.5 13 43.5q0 16 -13 29.5q-13 13.5 -28 13.5h-12l6 28h203zM511 670q-14 0 -31.5 -5.5q-17.5 -5.5 -32.5 -20.5q-15 -15 -25 -41q-10 -26 -10 -68q0 -15 0.5 -30.5q0.5 -15.5 2.5 -30.5q33 5 61 19q28 14 47.5 33.5q19.5 19.5 30.5 42q11 22.5 11 44.5q0 26 -17 41.5q-17 15.5 -37 15.5zt0 0zM334 416q-31 -11 -60.5 -30q-29.5 -19 -53 -44.5q-23.5 -25.5 -37.5 -57.5q-14 -32 -14 -69q0 -35 12 -62.5q12 -27.5 32 -46.5q20 -19 47 -29.5q27 -10.5 57 -10.5q28 0 59.5 9q31.5 9 61.5 31q-14 24 -29 53.5q-15 29.5 -28.5 67.5q-13.5 38 -25.5 85t-21 104z" />
<glyph unicode="&#39;" horiz-adv-x="282" d="M106 496h-36l52 204l90 0z" />
<glyph unicode="&#40;" horiz-adv-x="452" d="M257 -184q-11 0 -27.5 9q-16.5 9 -33.5 22.5q-17 13.5 -33 28.5q-16 15 -26 27q-45 52 -71 110.5q-26 58.5 -26 127.5q0 45 8.5 96.5q8.5 51.5 31 105.5q22.5 54 61.5 109q39 55 100 107q16 13 44.5 33q28.5 20 59 39q30.5 19 58 32q27.5 13 41.5 13q9 0 9 -9l-1 -12q0 -3 -5 -7q-5 -4 -18 -13q-23 -16 -55.5 -41.5q-32.5 -25.5 -67.5 -61.5q-35 -36 -69.5 -82.5q-34.5 -46.5 -59.5 -103.5q-23 -53 -30.5 -103.5q-7.5 -50.5 -7.5 -104.5q0 -48 10 -87.5q10 -39.5 23 -69.5q13 -30 26.5 -49.5q13.5 -19.5 19.5 -28.5q8 -12 18 -23q10 -11 18.5 -20.5q8.5 -9.5 14 -17q5.5 -7.5 5.5 -12.5q0 -5 -4.5 -9.5t-12.5 -4.5z" />
<glyph unicode="&#41;" horiz-adv-x="502" d="M245 676q7 0 23.5 -6.5q16.5 -6.5 49.5 -33.5q17 -14 42 -41q25 -27 47.5 -66q22.5 -39 38.5 -91q16 -52 16 -117q0 -90 -31.5 -164.5q-31.5 -74.5 -78.5 -132.5q-47 -58 -101 -100q-54 -42 -99 -69q-10 -6 -23.5 -13q-13.5 -7 -26.5 -12.5q-13 -5.5 -25 -9.5q-12 -4 -19 -4q-9 0 -9 9l1 12q0 8 17 17q17 9 46 32q37 28 81 71.5q44 43.5 81.5 99.5q37.5 56 62.5 124.5q25 68.5 25 147.5q0 20 -2.5 49.5q-2.5 29.5 -10.5 64q-8 34.5 -23.5 72q-15.5 37.5 -42.5 74.5q-8 12 -18 23q-10 11 -18.5 20.5q-8.5 9.5 -14 17q-5.5 7.5 -5.5 12.5q0 5 4.5 9.5t12.5 4.5z" />
<glyph unicode="&#42;" horiz-adv-x="474" d="M181 653q3 14 9.5 23q6.5 9 15 14.5q8.5 5.5 17 7.5q8.5 2 14.5 2q6 0 14.5 -2q8.5 -2 17 -7.5q8.5 -5.5 15 -14.5q6.5 -9 9.5 -23q-12 -12 -20 -31q-8 -19 -13.5 -39.5q-5.5 -20.5 -7.5 -40q-2 -19.5 -2 -33.5q3 -1 9 -5q17 4 35.5 13q18.5 9 35 20.5q16.5 11.5 30.5 24.5q14 13 23 27l5 0q17 0 28.5 -6q11.5 -6 18.5 -14q7 -8 10 -17.5q3 -9.5 3 -15.5q0 -34 -30 -55q-18 8 -33.5 9.5q-15.5 1.5 -38.5 1.5q-7 0 -17.5 -1q-10.5 -1 -21.5 -2.5q-11 -1.5 -21.5 -4.5q-10.5 -3 -18.5 -6q0 -7 -2 -10q5 -9 9 -13.5q4 -4.5 10 -10.5q5 -5 14.5 -15q9.5 -10 22.5 -20q13 -10 29 -19q16 -9 34 -13q7 -16 5.5 -31q-1.5 -15 -9.5 -26.5q-8 -11.5 -21.5 -18.5q-13.5 -7 -28.5 -7q-8 0 -17.5 3.5q-9.5 3.5 -19.5 12.5q1 16 -2.5 35q-3.5 19 -10.5 38.5q-7 19.5 -16.5 37.5q-9.5 18 -20.5 31q-6 -2 -12 0q-11 -13 -20.5 -31q-9.5 -18 -16.5 -37.5q-7 -19.5 -11 -38.5q-4 -19 -2 -35q-10 -9 -19.5 -12.5q-9.5 -3.5 -17.5 -3.5q-15 0 -28.5 7q-13.5 7 -21.5 18.5q-8 11.5 -10 26.5q-2 15 6 31q18 4 34 13q16 9 29 19q13 10 22.5 20q9.5 10 14.5 15q6 6 10 10.5q4 4.5 9 13.5q-2 3 -2 10q-8 3 -18.5 6q-10.5 3 -21.5 4.5q-11 1.5 -21.5 2.5q-10.5 1 -17.5 1q-23 0 -38.5 -1.5q-15.5 -1.5 -33.5 -9.5q-30 21 -30 55q0 6 3 15.5q3 9.5 10 17.5q7 8 18.5 14q11.5 6 28.5 6h5q9 -14 23 -27q14 -13 30.5 -24.5q16.5 -11.5 35 -20.5q18.5 -9 35.5 -13q6 4 9 5q0 14 -2 33.5q-2 19.5 -7.5 40q-5.5 20.5 -13.5 39.5t-20 31z" />
<glyph unicode="&#43;" horiz-adv-x="626" d="M288 355v218h50v-218h218v-50h-218v-218h-50v218h-218l0 50z" />
<glyph unicode="&#44;" horiz-adv-x="252" d="M76 -68q37 21 61 58l-3 3q-8 -2 -12 -2q-20 0 -36 15q-16 15 -16 41q0 26 18 41q18 15 38 15q20 0 38 -15.5q18 -15.5 18 -51.5q0 -74 -94 -126z" />
<glyph unicode="&#45;" horiz-adv-x="370" d="M91 253h134q11 0 27.5 3q16.5 3 23.5 24l24 0l-18 -93h-137q-10 0 -21 -0.5q-11 -0.5 -19 -7.5q-3 -2 -5.5 -6q-2.5 -4 -8.5 -13l-21 0z" />
<glyph unicode="&#46;" horiz-adv-x="252" d="M70 47q0 23 16.5 39.5q16.5 16.5 39.5 16.5q23 0 39.5 -16.5q16.5 -16.5 16.5 -39.5q0 -23 -16.5 -39.5q-16.5 -16.5 -39.5 -16.5q-23 0 -39.5 16.5t-16.5 39.5z" />
<glyph unicode="&#47;" horiz-adv-x="548" d="M31 -184l535 884h59l-535 -884z" />
<glyph unicode="&#48;" horiz-adv-x="518" d="M183 -8q-69 0 -108 59.5q-39 59.5 -39 167.5q0 71 14 132q14 61 38 121q31 75 65 121.5q34 46.5 67 72q33 25.5 63 34q30 8.5 52 8.5q13 0 37.5 -5.5q24.5 -5.5 49 -28.5q24.5 -23 42.5 -69.5q18 -46.5 18 -128.5q0 -45 -7 -87.5q-7 -42.5 -16 -77q-9 -34.5 -17.5 -58q-8.5 -23.5 -11.5 -29.5q-25 -64 -56 -108.5q-31 -44.5 -63.5 -72q-32.5 -27.5 -65.5 -39.5q-33 -12 -62 -12zt0 0zM191 29q27 0 48.5 13.5q21.5 13.5 38.5 37.5q16 22 30.5 56.5q14.5 34.5 26.5 72.5q12 38 21.5 76q9.5 38 15.5 66q21 102 23.5 154.5q2.5 52.5 2.5 63.5q0 28 -6 47.5q-6 19.5 -16 31.5q-10 12 -23 17.5q-13 5.5 -26 5.5q-41 0 -70.5 -33q-29.5 -33 -51 -82q-21.5 -49 -36 -105q-14.5 -56 -24.5 -102q-11 -54 -18.5 -103q-7.5 -49 -7.5 -99q0 -17 2 -37.5q2 -20.5 9.5 -38.5q7.5 -18 21.5 -30t39 -12z" />
<glyph unicode="&#49;" horiz-adv-x="518" d="M99 34q37 5 52 22q15 17 23 55l100 481q-40 -24 -71 -38q-31 -14 -47 -21l7 41q29 15 54.5 28.5q25.5 13.5 49 29q23.5 15.5 46 34q22.5 18.5 45.5 42.5l30 0l-124 -597q-7 -33 0.5 -52.5q7.5 -19.5 40.5 -24.5l-6 -34l-206 0z" />
<glyph unicode="&#50;" horiz-adv-x="518" d="M372 0h-392l8 38q23 21 51 48q28 27 56.5 55.5q28.5 28.5 55 56q26.5 27.5 46.5 48.5q71 75 107.5 123q36.5 48 55.5 79q20 34 29.5 61q9.5 27 9.5 57q0 37 -20.5 59q-20.5 22 -57.5 22q-13 0 -30 -3q-17 -3 -38 -12.5q-21 -9.5 -45.5 -27q-24.5 -17.5 -51.5 -46.5l-26 19q34 41 65.5 66.5q31.5 25.5 60.5 40q29 14.5 55 19.5q26 5 49 5q41 0 68.5 -11q27.5 -11 44.5 -28.5q17 -17.5 24 -39.5q7 -22 7 -45q0 -22 -6.5 -43.5q-6.5 -21.5 -16 -41q-9.5 -19.5 -20.5 -36q-11 -16.5 -19 -27.5q-13 -18 -34.5 -43.5q-21.5 -25.5 -59.5 -65q-38 -39.5 -98 -97q-60 -57.5 -151 -140.5l-1 -4h174q27 0 47 3.5q20 3.5 35.5 11.5q15.5 8 28 21q12.5 13 26.5 33l34 0z" />
<glyph unicode="&#51;" horiz-adv-x="518" d="M121 613q54 53 108.5 74q54.5 21 98.5 21q66 0 100.5 -33q34.5 -33 34.5 -79q0 -33 -10 -57.5q-10 -24.5 -28.5 -43.5q-18.5 -19 -46 -35.5q-27.5 -16.5 -62.5 -33.5l0 -6q14 -3 32.5 -10q18.5 -7 35.5 -21.5q17 -14.5 29 -38q12 -23.5 12 -59.5q0 -43 -22 -95q-22 -52 -67 -97.5q-45 -45.5 -112.5 -76q-67.5 -30.5 -158.5 -30.5q-29 0 -50.5 3q-21.5 3 -36.5 8l6 28q43 -6 79 -1.5q36 4.5 63 12.5q27 8 45 16.5q18 8.5 24 12.5q30 18 56 44q26 26 43 56q11 20 21 48q10 28 10 54q0 34 -12.5 54q-12.5 20 -29 30q-16.5 10 -33.5 12.5q-17 2.5 -26 2.5q-17 0 -34 -3.5q-17 -3.5 -25 -5.5l-9 24q44 18 84.5 38.5q40.5 20.5 72 45.5q31.5 25 50.5 55q19 30 19 67q0 26 -19.5 47q-19.5 21 -61.5 21q-21 0 -43.5 -6q-22.5 -6 -44 -15.5q-21.5 -9.5 -41 -21.5q-19.5 -12 -34.5 -25z" />
<glyph unicode="&#52;" horiz-adv-x="518" d="M441 191h-87l-40 -191h-86l40 191h-248l14 81l343 436h83l-90 -439h13q26 0 39 18.5q13 18.5 18 39.5l31 0zM353 606h-8l-259 -330v-7l197 0z" />
<glyph unicode="&#53;" horiz-adv-x="518" d="M34 35q28 -7 61 -7q36 0 67.5 9q31.5 9 64.5 31q28 19 51.5 44.5q23.5 25.5 40 55q16.5 29.5 25.5 62.5q9 33 9 66q0 60 -30 93q-30 33 -81 33q-30 0 -52 -9q-22 -9 -46 -29l-18 8l99 308h149q23 0 37.5 3.5q14.5 3.5 19.5 17.5l31 0l-24 -99h-197l-55 -172q29 10 51.5 14.5q22.5 4.5 45.5 4.5q33 0 64 -9q31 -9 55.5 -27.5q24.5 -18.5 39 -47.5q14.5 -29 14.5 -69q0 -45 -18 -92q-18 -47 -49 -88q-31 -41 -72 -73.5q-41 -32.5 -87 -48.5q-9 -3 -29 -8.5q-20 -5.5 -47.5 -9.5q-27.5 -4 -60.5 -3.5q-33 0.5 -67 9.5z" />
<glyph unicode="&#54;" horiz-adv-x="518" d="M483 681q-26 -9 -52.5 -25.5q-26.5 -16.5 -51.5 -36q-25 -19.5 -47 -41q-22 -21.5 -40 -40.5q-38 -42 -63 -81.5q-25 -39.5 -42 -76.5l6 0q12 11 28 20q16 9 33 15q17 6 33.5 9q16.5 3 29.5 3q3 0 26 -2.5q23 -2.5 50 -17q27 -14.5 49 -46.5q22 -32 22 -91q0 -43 -17 -95q-17 -52 -49 -92q-12 -15 -29 -31q-17 -16 -38.5 -29.5q-21.5 -13.5 -48 -22q-26.5 -8.5 -56.5 -8.5q-39 0 -76 15q-37 15 -61 45q-14 18 -26.5 49q-12.5 31 -12.5 81q0 42 9.5 86.5q9.5 44.5 27.5 88q18 43.5 43.5 85q25.5 41.5 56.5 78.5q9 10 33.5 36.5q24.5 26.5 62 56.5q37.5 30 85.5 57.5q48 27.5 103 39.5zM299 392q-45 0 -83 -35q-38 -35 -61 -97q-5 -14 -10 -30.5q-5 -16.5 -8.5 -34q-3.5 -17.5 -5.5 -33.5q-2 -16 -2 -29q0 -51 24 -79q24 -28 62 -28q48 0 79 33.5q31 33.5 53 84.5q13 31 23.5 71q10.5 40 10.5 75q0 56 -24.5 79t-57.5 23z" />
<glyph unicode="&#55;" horiz-adv-x="518" d="M161 700h357l-6 -31l-285 -669h-117v15l339 605h-210q-11 0 -23.5 -2q-12.5 -2 -24.5 -10.5q-12 -8.5 -23 -25.5q-11 -17 -20 -47l-30 0z" />
<glyph unicode="&#56;" horiz-adv-x="518" d="M206 404q-13 11 -24.5 26q-11.5 15 -19.5 30q-9 17 -14.5 37.5q-5.5 20.5 -5.5 40.5q0 44 18 76q18 32 46 53q28 21 62 31q34 10 65 10q40 0 69 -12.5q29 -12.5 48 -33q19 -20.5 28.5 -46.5q9.5 -26 9.5 -53q0 -56 -38 -103q-17 -21 -39 -38q-22 -17 -48 -29q26 -21 46 -40q20 -19 34 -39q14 -20 21.5 -44.5q7.5 -24.5 7.5 -55.5q0 -26 -9.5 -60q-9.5 -34 -37.5 -72q-11 -15 -27 -31q-16 -16 -38 -29q-22 -13 -50 -21.5q-28 -8.5 -63 -8.5q-46 0 -81 14q-35 14 -61 37q-42 37 -54.5 77q-12.5 40 -12.5 68q0 33 9.5 63q9.5 30 26.5 55q23 35 54 56q31 21 76 39zM338 415q35 21 60 57.5q25 36.5 25 84.5q0 21 -5.5 41q-5.5 20 -17.5 36q-12 16 -30.5 25.5q-18.5 9.5 -44.5 9.5q-23 0 -43 -8q-20 -8 -35 -21.5q-15 -13.5 -24 -32.5q-9 -19 -9 -40q0 -32 16.5 -57q16.5 -25 38.5 -45q19 -17 38.5 -30q19.5 -13 30.5 -20zt0 0zM237 374q-56 -25 -89 -77q-33 -52 -33 -112q0 -47 16 -75.5q16 -28.5 34 -44.5q14 -12 35.5 -23q21.5 -11 53.5 -11q27 0 52.5 9q25.5 9 45 25.5q19.5 16.5 31.5 40q12 23.5 12 51.5q0 21 -6 46.5q-6 25.5 -23.5 53q-17.5 27.5 -48.5 57.5t-80 60z" />
<glyph unicode="&#57;" horiz-adv-x="518" d="M50 21q48 21 93 55q45 34 84 74.5q39 40.5 69.5 85q30.5 44.5 49.5 86.5l-6 0q-25 -23 -58.5 -34.5q-33.5 -11.5 -62.5 -11.5q-27 0 -53 9.5q-26 9.5 -46.5 29q-20.5 19.5 -33 49q-12.5 29.5 -12.5 70.5q0 44 17.5 92.5q17.5 48.5 50.5 89.5q12 15 29.5 31.5q17.5 16.5 39 30q21.5 13.5 48 22q26.5 8.5 57.5 8.5q38 0 68 -15q30 -15 51 -41q21 -26 32 -61.5q11 -35.5 11 -76.5q0 -45 -10.5 -87q-10.5 -42 -24.5 -76.5q-14 -34.5 -28.5 -60q-14.5 -25.5 -21.5 -37.5q-18 -29 -48.5 -67q-30.5 -38 -72 -75q-41.5 -37 -94.5 -69q-53 -32 -116 -50zM234 310q18 0 38 6.5q20 6.5 39.5 21.5q19.5 15 36.5 40q17 25 31 62q11 30 18 66q7 36 7 63q0 29 -7.5 49.5q-7.5 20.5 -20 33q-12.5 12.5 -27.5 18.5q-15 6 -30 6q-34 0 -69.5 -24.5q-35.5 -24.5 -64.5 -92.5q-14 -32 -23.5 -72.5q-9.5 -40.5 -9.5 -77.5q0 -53 24 -76t58 -23z" />
<glyph unicode="&#58;" horiz-adv-x="312" d="M130 339q0 23 16.5 39.5q16.5 16.5 39.5 16.5q23 0 39.5 -16.5q16.5 -16.5 16.5 -39.5q0 -23 -16.5 -39.5q-16.5 -16.5 -39.5 -16.5q-23 0 -39.5 16.5q-16.5 16.5 -16.5 39.5zt0 0zM70 48q0 23 16.5 39.5q16.5 16.5 39.5 16.5q23 0 39.5 -16.5q16.5 -16.5 16.5 -39.5q0 -23 -16.5 -39.5q-16.5 -16.5 -39.5 -16.5q-23 0 -39.5 16.5t-16.5 39.5z" />
<glyph unicode="&#59;" horiz-adv-x="309" d="M127 339q0 23 16.5 39.5q16.5 16.5 39.5 16.5q23 0 39.5 -16.5q16.5 -16.5 16.5 -39.5q0 -23 -16.5 -39.5q-16.5 -16.5 -39.5 -16.5q-23 0 -39.5 16.5q-16.5 16.5 -16.5 39.5zt0 0zM76 -68q37 21 61 58l-3 3q-6 -2 -8 -2q-20 0 -38 14.5q-18 14.5 -18 41.5q0 26 18 41q18 15 38 15q19 0 37.5 -15.5q18.5 -15.5 18.5 -52.5q0 -38 -23 -68q-23 -30 -71 -57z" />
<glyph unicode="&#60;" horiz-adv-x="727" d="M657 128l-17 -46l-570 244l570 244l17 -46l-462 -198z" />
<glyph unicode="&#61;" horiz-adv-x="757" d="M70 413h617v-50h-617zM70 293h617v-50l-617 0z" />
<glyph unicode="&#62;" horiz-adv-x="727" d="M70 524l17 46l570 -244l-570 -244l-17 46l462 198z" />
<glyph unicode="&#63;" horiz-adv-x="498" d="M150 318h22q14 -14 31.5 -22.5q17.5 -8.5 33.5 -8.5q9 0 28.5 5q19.5 5 39 25.5q19.5 20.5 34 61.5q14.5 41 14.5 112q0 44 -7 75q-7 31 -16.5 50.5q-9.5 19.5 -20.5 28.5q-11 9 -20 9q-11 0 -15 -9q-4 -9 -7 -15q-5 -9 -12 -14.5q-7 -5.5 -19 -5.5q-15 0 -30 8.5q-15 8.5 -15 29.5q0 27 18 41q18 14 41 14q18 0 43.5 -8.5q25.5 -8.5 54.5 -38.5q38 -38 59 -95.5q21 -57.5 21 -123.5q0 -60 -15.5 -101.5q-15.5 -41.5 -38 -67q-22.5 -25.5 -48 -36.5q-25.5 -11 -45.5 -11q-26 0 -56 11.5q-30 11.5 -53 33.5l-24 -114h-33zM70 51q0 23 16.5 39.5q16.5 16.5 39.5 16.5q23 0 39.5 -16.5q16.5 -16.5 16.5 -39.5q0 -23 -16.5 -39.5q-16.5 -16.5 -39.5 -16.5q-23 0 -39.5 16.5t-16.5 39.5z" />
<glyph unicode="&#64;" horiz-adv-x="993" d="M678 274q-2 -5 -4.5 -14.5q-2.5 -9.5 -5.5 -21q-3 -11.5 -5 -23q-2 -11.5 -2 -20.5q0 -33 14 -46q14 -13 31 -13q23 0 53.5 13.5q30.5 13.5 58.5 43.5q28 30 47 78q19 48 19 117q0 71 -26 132q-26 61 -72 105.5q-46 44.5 -109.5 70q-63.5 25.5 -138.5 25.5q-85 0 -157.5 -29.5q-72.5 -29.5 -126 -82q-53.5 -52.5 -83.5 -124q-30 -71.5 -30 -155.5q0 -72 26 -143q26 -71 74.5 -127.5q48.5 -56.5 118.5 -91q70 -34.5 158 -34.5q34 0 69 5.5q35 5.5 68 16.5q33 11 62.5 27.5q29.5 16.5 52.5 37.5l29 -49q-36 -26 -67.5 -43.5q-31.5 -17.5 -63.5 -28q-32 -10.5 -66 -15q-34 -4.5 -74 -4.5q-95 0 -176.5 33q-81.5 33 -142 91.5q-60.5 58.5 -95 138.5q-34.5 80 -34.5 173q0 96 33.5 178.5q33.5 82.5 93.5 143q60 60.5 144 95q84 34.5 185 34.5q91 0 166 -30.5q75 -30.5 128.5 -82.5q53.5 -52 83 -121q29.5 -69 29.5 -146q0 -77 -23.5 -133q-23.5 -56 -60 -93.5q-36.5 -37.5 -80 -55.5q-43.5 -18 -83.5 -18q-31 0 -62 18q-31 18 -48 56q-29 -22 -60.5 -36q-31.5 -14 -71.5 -14q-29 0 -56 11q-27 11 -48 33q-21 22 -34 55.5q-13 33.5 -13 78.5q0 52 19 99q19 47 52.5 82.5q33.5 35.5 79 56.5q45.5 21 99.5 21q8 0 21 -1.5q13 -1.5 28.5 -8q15.5 -6.5 31.5 -18.5q16 -12 30 -33l15 43h77zM642 429q-7 40 -32.5 65q-25.5 25 -58.5 25q-28 0 -54.5 -18q-26.5 -18 -47.5 -49.5q-21 -31.5 -36 -75q-15 -43.5 -19 -94.5q-3 -27 0 -54q3 -27 13 -43.5q10 -16.5 22 -25q12 -8.5 24 -11q12 -2.5 20 -2.5q21 0 38.5 6.5q17.5 6.5 31 16q13.5 9.5 22 19.5q8.5 10 13.5 16z" />
<glyph unicode="&#65;" horiz-adv-x="672" d="M-43 34q30 3 51.5 15.5q21.5 12.5 38 29q16.5 16.5 28.5 34.5q12 18 23 32l428 563h36l-8 -605q0 -21 3.5 -34q3.5 -13 11.5 -20.5q8 -7.5 21 -11q13 -3.5 32 -3.5l-7 -34h-207l7 34q18 1 29 5q11 4 17 11.5q6 7.5 8 19q2 11.5 2 27.5l3 116h-272l-88 -116q-11 -14 -16.5 -23q-5.5 -9 -5.5 -17q0 -6 6.5 -14.5q6.5 -8.5 28.5 -8.5h6l-6 -34h-177zM478 570h-6l-238 -314v-4l237 0z" />
<glyph unicode="&#66;" horiz-adv-x="648" d="M387 700q26 0 59 -6q33 -6 62.5 -23q29.5 -17 49.5 -48q20 -31 20 -81q0 -32 -9.5 -61.5q-9.5 -29.5 -28 -53q-18.5 -23.5 -45.5 -40q-27 -16.5 -61 -23.5l0 -10q43 -11 69.5 -30.5q26.5 -19.5 40.5 -42.5q14 -23 18.5 -46q4.5 -23 4.5 -40q0 -30 -9.5 -60.5q-9.5 -30.5 -30 -56.5q-20.5 -26 -53 -45.5q-32.5 -19.5 -77.5 -26.5q-23 -4 -50 -5q-27 -1 -46 -1h-291l7 34q18 2 31 10q13 8 21.5 19.5q8.5 11.5 13 25q4.5 13.5 7.5 26.5l99 473q1 5 2.5 9.5q1.5 4.5 2.5 16.5q0 4 0.5 7q0.5 3 -0.5 7q0 4 -2 10q-2 6 -7 12q-5 6 -14 10.5q-9 4.5 -23 5.5l7 34zM234 373h85q42 0 71 10q29 10 48.5 28q19.5 18 31.5 44.5q12 26.5 18 59.5q2 8 3 16.5q1 8.5 1 17.5q0 24 -7 44.5q-7 20.5 -23.5 35.5q-16.5 15 -44 23.5q-27.5 8.5 -67.5 8.5h-56zM294 39q64 0 99.5 21.5q35.5 21.5 53 50q17.5 28.5 21.5 57q4 28.5 4 42.5q0 43 -20.5 67.5q-20.5 24.5 -49.5 37q-29 12.5 -62 16q-33 3.5 -58 3.5h-56l-62 -295z" />
<glyph unicode="&#67;" horiz-adv-x="668" d="M628 545h-30q-14 36 -33.5 59.5q-19.5 23.5 -42 38q-22.5 14.5 -47.5 20.5q-25 6 -50 6q-55 0 -104 -28.5q-49 -28.5 -86 -77q-37 -48.5 -58.5 -114q-21.5 -65.5 -21.5 -140.5q0 -73 19 -123q19 -50 49.5 -81q30.5 -31 70 -45q39.5 -14 81.5 -14q34 0 64 7.5q30 7.5 53.5 17q23.5 9.5 39 18.5q15.5 9 20.5 12l20 -25q-53 -38 -109.5 -61q-56.5 -23 -120.5 -23q-41 0 -75 9.5q-34 9.5 -61.5 25.5q-27.5 16 -49 36.5q-21.5 20.5 -37.5 41.5q-8 10 -18 26.5q-10 16.5 -19 39q-9 22.5 -15.5 51q-6.5 28.5 -6.5 63.5q0 89 29.5 166.5q29.5 77.5 79 134.5q49.5 57 114 89.5q64.5 32.5 135.5 32.5q19 0 37.5 -2.5q18.5 -2.5 37.5 -6.5q34 -7 47.5 -10.5q13.5 -3.5 23.5 -3.5q8 0 18.5 5q10.5 5 15.5 18l23 0z" />
<glyph unicode="&#68;" horiz-adv-x="768" d="M363 700q52 0 100 -7q48 -7 90 -26q42 -19 76 -51.5q34 -32.5 58 -83.5q16 -34 23.5 -70q7.5 -36 7.5 -73q0 -65 -17 -121q-17 -56 -46 -100.5q-29 -44.5 -67.5 -78q-38.5 -33.5 -82.5 -53.5q-51 -23 -98 -29.5q-47 -6.5 -96 -6.5h-301l7 34q32 4 49.5 22q17.5 18 25.5 55l99 477q2 8 2.5 13q0.5 5 1.5 13q0 4 0.5 7q0.5 3 -0.5 7q-2 20 -15 28q-13 8 -30 10l7 34zM167 39h139q20 0 42 1.5q22 1.5 45 7q23 5.5 47 16.5q24 11 48 30q30 24 55 58q25 34 43 76q18 42 27.5 89.5q9.5 47.5 9.5 97.5q0 30 -5.5 59.5q-5.5 29.5 -16.5 57.5q-18 43 -46 69q-28 26 -60.5 39q-32.5 13 -67 17q-34.5 4 -65.5 4l-65 0z" />
<glyph unicode="&#69;" horiz-adv-x="646" d="M442 700q5 0 11 0q6 0 18 1q12 1 31.5 2q19.5 1 52.5 3q17 1 27.5 1.5q10.5 0.5 28.5 0.5l-29 -134h-30q0 34 -9.5 52q-9.5 18 -23.5 26q-14 8 -31 8.5q-17 0.5 -31 0.5h-160l-60 -283h108q14 0 31 1.5q17 1.5 32.5 7.5q15.5 6 29 19q13.5 13 21.5 36l30 0l-39 -176h-30q1 25 -6 40q-7 15 -19.5 22q-12.5 7 -28.5 9q-16 2 -32 2h-105l-63 -300h139q33 0 64 3.5q31 3.5 60 15q29 11.5 55.5 34q26.5 22.5 51.5 60.5l30 0l-47 -152h-509l7 34q33 4 50 22q17 18 25 55l100 477q2 9 3 14.5q1 5.5 1 16.5q0 6 -1 13.5q-1 7.5 -5.5 14q-4.5 6.5 -14 12q-9.5 5.5 -25.5 7.5l7 34z" />
<glyph unicode="&#70;" horiz-adv-x="591" d="M412 700q42 0 84.5 4q42.5 4 84.5 4l-29 -134h-30q0 34 -9.5 52q-9.5 18 -23.5 26q-14 8 -31 8.5q-17 0.5 -31 0.5h-128l-59 -283h75q14 0 31 1.5q17 1.5 32.5 7.5q15.5 6 29 19q13.5 13 21.5 36l28 0l-37 -175h-30q1 24 -4 38.5q-5 14.5 -14 22q-9 7.5 -20.5 9.5q-11.5 2 -23.5 2h-96l-46 -220q-2 -9 -4 -19q-2 -10 -2 -21q0 -18 8.5 -29.5q8.5 -11.5 34.5 -15.5l-7 -34h-206l7 34q33 4 50 22q17 18 25 55l102 477q2 9 3 15q1 6 1 16q0 6 -1 13.5q-1 7.5 -5.5 14q-4.5 6.5 -14 12q-9.5 5.5 -25.5 7.5l7 34z" />
<glyph unicode="&#71;" horiz-adv-x="718" d="M648 527q-10 33 -30.5 59.5q-20.5 26.5 -47.5 45q-27 18.5 -60 28q-33 9.5 -68 9.5q-61 0 -113.5 -26.5q-52.5 -26.5 -91 -72.5q-38.5 -46 -60.5 -108.5q-22 -62.5 -22 -133.5q0 -35 3.5 -70.5q3.5 -35.5 15.5 -68.5q13 -36 36 -65.5q23 -29.5 52 -50q29 -20.5 62.5 -31.5q33.5 -11 69.5 -11q20 0 41 4q21 4 40.5 11.5q19.5 7.5 35.5 18q16 10.5 25 24.5q7 10 11.5 22.5q4.5 12.5 4.5 25.5q0 11 -5 22q-5 11 -16 18q-8 5 -17.5 7q-9.5 2 -17.5 3l6 34h159l-40 -192h-11l-24 21q-57 -32 -107.5 -45q-50.5 -13 -93.5 -13q-57 0 -115 19.5q-58 19.5 -104.5 60.5q-46.5 41 -76 103.5q-29.5 62.5 -29.5 148.5q0 81 30 151.5q30 70.5 82 122q52 51.5 122 81q70 29.5 151 29.5q40 0 68.5 -6.5q28.5 -6.5 60.5 -18.5q13 -5 23 -8.5q10 -3.5 20 -3.5q18 0 35 17l19 0l7 -161z" />
<glyph unicode="&#72;" horiz-adv-x="768" d="M423 34q33 4 50 22q17 18 25 55l50 240h-316l-50 -240q-2 -8 -3 -15.5q-1 -7.5 -1 -16.5q0 -39 45 -45l-7 -34h-206l7 34q33 4 50 22q17 18 25 55l100 477q2 8 3 15.5q1 7.5 1 18.5q0 26 -15.5 34q-15.5 8 -31.5 10l7 34h206l-7 -34q-23 -4 -36 -13q-13 -9 -20.5 -20q-7.5 -11 -11 -23.5q-3.5 -12.5 -5.5 -22.5l-42 -197h316l42 198q2 8 3 15.5q1 7.5 1 18.5q0 26 -15.5 34q-15.5 8 -31.5 10l7 34h206l-7 -34q-20 -3 -33 -11q-13 -8 -21 -18.5q-8 -10.5 -12 -23q-4 -12.5 -7 -26.5l-100 -476q-2 -8 -3 -15.5q-1 -7.5 -1 -16.5q0 -39 45 -45l-7 -34l-206 0z" />
<glyph unicode="&#73;" horiz-adv-x="362" d="M17 34q33 4 50 22q17 18 25 55l100 477q2 8 3 15.5q1 7.5 1 18.5q0 26 -15.5 34q-15.5 8 -31.5 10l7 34h206l-7 -34q-20 -3 -33 -11q-13 -8 -21 -18.5q-8 -10.5 -12 -23q-4 -12.5 -7 -26.5l-100 -476q-2 -8 -3 -15.5q-1 -7.5 -1 -16.5q0 -39 45 -45l-7 -34l-206 0z" />
<glyph unicode="&#74;" horiz-adv-x="383" d="M375 666q-29 -3 -49.5 -20.5q-20.5 -17.5 -28.5 -56.5l-99 -478q-8 -38 -18.5 -86q-10.5 -48 -27.5 -90q-17 -42 -44 -71q-27 -29 -67 -29q-30 0 -50.5 17q-20.5 17 -20.5 42q0 13 7 27q7 14 26 14q17 0 26.5 -9q9.5 -9 9.5 -20q0 -2 -0.5 -5q-0.5 -3 -0.5 -5q0 -8 5.5 -14.5q5.5 -6.5 14.5 -6.5q12 0 19 9.5q7 9.5 10.5 24q3.5 14.5 4.5 32.5q1 18 1 35q0 22 0.5 36.5q0.5 14.5 2 30q1.5 15.5 6 38.5q4.5 23 12.5 63l93 444q2 8 2 18.5q0 10.5 0 17.5q0 20 -14 30q-14 10 -34 12l7 34l215 0z" />
<glyph unicode="&#75;" horiz-adv-x="702" d="M17 34q33 4 50 22q17 18 25 55l100 477q2 8 3 15.5q1 7.5 1 18.5q0 26 -15.5 34q-15.5 8 -31.5 10l7 34h206l-7 -34q-23 -4 -36 -13q-13 -9 -20.5 -20q-7.5 -11 -11 -23.5q-3.5 -12.5 -5.5 -22.5l-42 -199h7l228 207q9 8 20 18.5q11 10.5 11 22.5q0 16 -14.5 22.5q-14.5 6.5 -28.5 7.5l7 34h222l-7 -34q-31 -3 -54.5 -10q-23.5 -7 -44 -18q-20.5 -11 -39 -26.5q-18.5 -15.5 -39.5 -34.5l-195 -180l199 -239q29 -35 53.5 -57.5q24.5 -22.5 46 -37q21.5 -14.5 41 -21q19.5 -6.5 38.5 -8.5l-7 -34h-259l7 34q16 -1 25.5 2q9.5 3 14.5 7.5q5 4.5 6 9q1 4.5 1 6.5q0 10 -10 21.5q-10 11.5 -21 25.5l-196 236l-27 -26l-43 -205q-2 -8 -3 -15.5q-1 -7.5 -1 -16.5q0 -39 45 -45l-7 -34l-206 0z" />
<glyph unicode="&#76;" horiz-adv-x="632" d="M17 34q33 4 50 22q17 18 25 55l100 477q2 8 3 15.5q1 7.5 1 18.5q0 26 -15.5 34q-15.5 8 -31.5 10l7 34h206l-7 -34q-20 -3 -33 -11q-13 -8 -21 -18.5q-8 -10.5 -12 -23q-4 -12.5 -7 -26.5l-114 -548h169q80 0 136 27q56 27 88 93l31 0l-42 -159l-540 0z" />
<glyph unicode="&#77;" horiz-adv-x="868" d="M304 700l123 -420h9l275 420h157l-7 -34q-20 -3 -33 -11q-13 -8 -21 -18.5q-8 -10.5 -12 -23q-4 -12.5 -7 -26.5l-100 -476q-2 -8 -3 -15.5q-1 -7.5 -1 -16.5q0 -39 45 -45l-7 -34h-206l7 34q33 4 50 22q17 18 25 55l107 498h-6l-303 -458h-21l-132 458h-7l-103 -490q-2 -12 -5 -23q-3 -11 -3 -22q0 -12 5 -20q5 -8 12.5 -12.5q7.5 -4.5 16 -6q8.5 -1.5 16.5 -1.5v-34h-165l8 34q22 0 35.5 9q13.5 9 21.5 23q8 14 12 32.5q4 18.5 8 36.5l94 445q3 14 5 24.5q2 10.5 2 19.5q0 21 -12 30.5q-12 9.5 -35 11.5l7 34z" />
<glyph unicode="&#78;" horiz-adv-x="705" d="M299 700l194 -516h9l1 10l79 387q2 13 5 23.5q3 10.5 3 21.5q0 12 -5 20q-5 8 -12.5 12.5q-7.5 4.5 -16 6q-8.5 1.5 -16.5 1.5v34h165l-8 -34q-23 0 -36 -9q-13 -9 -21 -23q-8 -14 -12 -32.5q-4 -18.5 -8 -36.5l-118 -565h-30l-229 609h-7l-103 -490q-2 -12 -5 -23q-3 -11 -3 -22q0 -12 5 -20q5 -8 12.5 -12.5q7.5 -4.5 16 -6q8.5 -1.5 16.5 -1.5v-34h-165l8 34q22 0 35.5 9q13.5 9 21.5 23q8 14 12 32.5q4 18.5 8 36.5l94 446q3 14 5 24q2 10 2 20q0 35 -47 41l7 34z" />
<glyph unicode="&#79;" horiz-adv-x="776" d="M432 708q73 0 128 -27q55 -27 92 -70q37 -43 55.5 -97q18.5 -54 18.5 -109q0 -69 -23 -142q-23 -73 -69.5 -133q-46.5 -60 -117.5 -99q-71 -39 -166 -39q-63 0 -116 22.5q-53 22.5 -92 62.5q-39 40 -60.5 95q-21.5 55 -21.5 120q0 70 24.5 144q24.5 74 71.5 134.5q47 60.5 116.5 99q69.5 38.5 159.5 38.5zt0 0zM429 671q-55 0 -104.5 -29q-49.5 -29 -87 -81.5q-37.5 -52.5 -60 -126.5q-22.5 -74 -22.5 -164q0 -63 18 -109q18 -46 47 -75q29 -29 65 -43q36 -14 71 -14q62 0 112.5 35q50.5 35 86.5 90.5q36 55.5 56 125q20 69.5 20 138.5q0 56 -15 102.5q-15 46.5 -42 80q-27 33.5 -64 52t-81 18.5z" />
<glyph unicode="&#80;" horiz-adv-x="634" d="M385 700q16 0 35 -1.5q19 -1.5 38.5 -4.5q19.5 -3 38.5 -8q19 -5 34 -13q17 -9 34 -22.5q17 -13.5 30 -32.5q13 -19 21 -43.5q8 -24.5 8 -53.5q0 -15 -3.5 -36.5q-3.5 -21.5 -15.5 -45q-12 -23.5 -34.5 -46.5q-22.5 -23 -60.5 -40q-45 -20 -90.5 -23q-45.5 -3 -90.5 -3h-112l-45 -216q-2 -8 -3 -16q-1 -8 -1 -16q0 -23 12.5 -33q12.5 -10 32.5 -12l-7 -34h-206l7 34q33 4 50 22q17 18 25 55l100 477q2 8 3 15.5q1 7.5 1 18.5q0 26 -15.5 34q-15.5 8 -31.5 10l7 34zM322 366q18 0 38.5 1.5q20.5 1.5 41 5.5q20.5 4 40 11.5q19.5 7.5 34.5 19.5q20 16 36.5 46.5q16.5 30.5 16.5 78.5q0 22 -7 50.5q-7 28.5 -35 51.5q-27 22 -62 26q-35 4 -68 4h-69l-62 -295z" />
<glyph unicode="&#81;" horiz-adv-x="774" d="M733 -46q-5 -28 -14 -52.5q-9 -24.5 -24 -43q-15 -18.5 -36 -29q-21 -10.5 -50 -10.5q-39 0 -66.5 15.5q-27.5 15.5 -47 40.5q-19.5 25 -32.5 56q-13 31 -25 62q-1 2 -1.5 4q-0.5 2 -1.5 4q-21 -5 -42.5 -7q-21.5 -2 -42.5 -2q-47 0 -84.5 11q-37.5 11 -66.5 29q-29 18 -50.5 40.5q-21.5 22.5 -36.5 44.5q-26 38 -39 83.5q-13 45.5 -13 91.5q0 39 7.5 79q7.5 40 21.5 79q14 39 34.5 75q20.5 36 47.5 66q30 33 62.5 55.5q32.5 22.5 66 36q33.5 13.5 67 19.5q33.5 6 65.5 6q70 0 132 -30q33 -16 62 -42q29 -26 51.5 -60.5q22.5 -34.5 35.5 -77q13 -42.5 13 -93.5q0 -46 -10.5 -99.5q-10.5 -53.5 -36.5 -106q-26 -52.5 -69 -98.5q-43 -46 -108 -77q35 -54 66 -85.5q31 -31.5 68 -31.5q48 0 66 47zM216 94q20 26 45.5 40.5q25.5 14.5 62.5 14.5q41 0 82 -21.5q41 -21.5 68 -61.5q47 36 77.5 83q30.5 47 48 96q17.5 49 24.5 95q7 46 7 78q0 56 -15 102.5q-15 46.5 -42 80q-27 33.5 -64 52q-37 18.5 -81 18.5q-54 0 -107.5 -29.5q-53.5 -29.5 -95.5 -92.5q-19 -29 -32.5 -63q-13.5 -34 -22 -70.5q-8.5 -36.5 -12.5 -73.5q-4 -37 -4 -72q0 -61 16 -101q16 -40 45 -75zt0 0zM419 39q-12 32 -38.5 54q-26.5 22 -60.5 22q-26 0 -44 -14q-18 -14 -27 -34q12 -13 35.5 -25.5q23.5 -12.5 71.5 -12.5q33 0 63 10z" />
<glyph unicode="&#82;" horiz-adv-x="678" d="M395 700q67 0 113 -15.5q46 -15.5 74 -41q28 -25.5 40.5 -57q12.5 -31.5 12.5 -63.5q0 -30 -9.5 -57q-9.5 -27 -25.5 -47q-15 -19 -37 -32.5q-22 -13.5 -46 -23q-24 -9.5 -48.5 -14.5q-24.5 -5 -44.5 -7l0 -7q19 -18 27 -29.5q8 -11.5 11 -16.5l97 -182q19 -35 40 -52q21 -17 59 -21l-7 -34h-136l-123 233q-12 24 -22.5 43q-10.5 19 -23 32.5q-12.5 13.5 -29.5 21q-17 7.5 -42 7.5h-46l-47 -226q-2 -8 -3 -16q-1 -8 -1 -16q0 -23 12.5 -33q12.5 -10 32.5 -12l-7 -34h-206l7 34q33 4 50 22q17 18 25 55l100 477q2 8 3 15.5q1 7.5 1 18.5q0 26 -15.5 34q-15.5 8 -31.5 10l7 34zM332 376q33 0 71.5 3.5q38.5 3.5 72.5 26.5q24 17 43.5 48q19.5 31 19.5 74q0 51 -19.5 78q-19.5 27 -46.5 39q-27 12 -56.5 14q-29.5 2 -49.5 2h-69l-60 -285z" />
<glyph unicode="&#83;" horiz-adv-x="531" d="M450 534q-11 29 -25.5 53.5q-14.5 24.5 -34 42.5q-19.5 18 -44.5 28.5q-25 10.5 -58 10.5q-26 0 -44 -8.5q-18 -8.5 -29 -21.5q-11 -13 -16 -29.5q-5 -16.5 -5 -32.5q0 -19 7 -36q7 -17 23.5 -36.5q16.5 -19.5 43 -43.5q26.5 -24 64.5 -58q31 -27 54.5 -50q23.5 -23 39.5 -45q16 -22 24 -45q8 -23 8 -51q0 -55 -19 -96.5q-19 -41.5 -49 -69q-30 -27.5 -67.5 -41q-37.5 -13.5 -74.5 -13.5q-30 0 -63.5 7.5q-33.5 7.5 -59.5 17.5q-16 7 -23.5 10.5q-7.5 3.5 -15.5 3.5q-10 0 -20.5 -8.5q-10.5 -8.5 -15.5 -22.5l-20 0l-20 191h30q12 -38 33 -68q21 -30 47 -50.5q26 -20.5 55.5 -31q29.5 -10.5 57.5 -10.5q39 0 66.5 14q27.5 14 45 35q17.5 21 25.5 46q8 25 8 48q0 24 -10 45.5q-10 21.5 -25 40.5q-15 19 -34 36.5q-19 17.5 -37 34.5q-32 29 -59.5 54q-27.5 25 -48 50.5q-20.5 25.5 -32 53.5q-11.5 28 -11.5 63q0 27 10 55q10 28 31 50.5q21 22.5 52.5 36.5q31.5 14 74.5 14q18 0 36.5 -3.5q18.5 -3.5 35.5 -8.5q21 -7 35 -14q14 -7 23 -7q9 0 16.5 8q7.5 8 10.5 17l22 0l13 -166z" />
<glyph unicode="&#84;" horiz-adv-x="622" d="M117 34q33 4 50 22q17 18 25 55l115 550h-107q-8 0 -24.5 -2q-16.5 -2 -35.5 -13.5q-19 -11.5 -38 -37q-19 -25.5 -32 -72.5l-30 0l50 172q37 -4 68 -5.5q31 -1.5 59 -2q28 -0.5 55 -0.5q27 0 58 0h158q13 0 32 0.5q19 0.5 38.5 2q19.5 1.5 37.5 2.5q18 1 31 3l-11 -172h-30q1 17 -3.5 39q-4.5 22 -17.5 41q-13 19 -36.5 32q-23.5 13 -60.5 13h-69l-117 -550q-2 -8 -3 -15.5q-1 -7.5 -1 -16.5q0 -39 45 -45l-7 -34l-206 0z" />
<glyph unicode="&#85;" horiz-adv-x="687" d="M334 700l-7 -34q-20 -3 -33 -11q-13 -8 -21 -18.5q-8 -10.5 -12 -23q-4 -12.5 -7 -26.5l-64 -310q-6 -29 -10.5 -55q-4.5 -26 -4.5 -49q0 -29 9 -52.5q9 -23.5 32 -43.5q18 -16 43.5 -26q25.5 -10 60.5 -10q62 0 100 25.5q38 25.5 60.5 62q22.5 36.5 33 76.5q10.5 40 16.5 70l64 306q5 23 6 32.5q1 9.5 1 11.5q0 26 -16.5 33.5q-16.5 7.5 -32.5 7.5l8 34h157l-8 -34q-23 0 -36 -9q-13 -9 -21 -23q-8 -14 -12 -32.5q-4 -18.5 -8 -36.5l-66 -320q-7 -32 -20 -75.5q-13 -43.5 -40.5 -83q-27.5 -39.5 -73.5 -67q-46 -27.5 -118 -27.5q-51 0 -100 18q-49 18 -81 54q-26 29 -36 61q-10 32 -10 63q0 33 6.5 62.5q6.5 29.5 11.5 50.5l59 287q2 8 3 15q1 7 1 19q0 26 -15.5 34q-15.5 8 -31.5 10l7 34z" />
<glyph unicode="&#86;" horiz-adv-x="655" d="M254 666q-19 -2 -28.5 -9.5q-9.5 -7.5 -13.5 -18q-4 -10.5 -4 -22.5q0 -12 2 -24l61 -461h5l271 444q16 26 21 36.5q5 10.5 5 17.5q0 25 -18 31.5q-18 6.5 -39 5.5l7 34h182l-7 -34q-21 -2 -37.5 -11.5q-16.5 -9.5 -29 -23q-12.5 -13.5 -22.5 -28.5q-10 -15 -18 -28l-353 -583h-39l-79 607q-1 8 -4 20q-3 12 -10.5 23q-7.5 11 -20.5 18.5q-13 7.5 -35 7.5l7 32l204 0z" />
<glyph unicode="&#87;" horiz-adv-x="1003" d="M1046 666q-23 -2 -45 -20q-22 -18 -54 -68l-378 -586h-27l-63 319h-3l-202 -319h-31l-121 603q-5 28 -19 49q-14 21 -53 22l7 34h222l-7 -34q-9 0 -19 -2.5q-10 -2.5 -18.5 -8.5q-8.5 -6 -14.5 -15.5q-6 -9.5 -6 -24.5q0 -8 1.5 -18.5q1.5 -10.5 3.5 -17.5l95 -450h3l151 238l-50 240q-2 7 -4.5 16.5q-2.5 9.5 -8.5 18.5q-6 9 -16.5 15.5q-10.5 6.5 -27.5 8.5l7 34h386l-7 -34q-25 -4 -48.5 -22.5q-23.5 -18.5 -53.5 -65.5l-96 -152l66 -299h2l277 438q10 16 19 37.5q9 21.5 9 36.5q0 16 -14.5 22.5q-14.5 6.5 -28.5 4.5l7 34h167zM618 603q9 14 13.5 22.5q4.5 8.5 4.5 16.5q0 10 -8 17q-8 7 -22 7h-47q-18 0 -28 -5q-10 -5 -14.5 -12q-4.5 -7 -5 -14q-0.5 -7 -0.5 -11q0 -14 1 -18q1 -4 3 -12l23 -108l5 0z" />
<glyph unicode="&#88;" horiz-adv-x="724" d="M326 700l-7 -34q-15 1 -24 -1.5q-9 -2.5 -13.5 -7q-4.5 -4.5 -5.5 -9.5q-1 -5 -1 -8q0 -7 4.5 -16.5q4.5 -9.5 6.5 -14.5l97 -186h6l145 166q15 17 22 27.5q7 10.5 7 19.5q0 13 -14.5 21q-14.5 8 -38.5 9l7 34h197l-6 -34q-26 -6 -43 -12.5q-17 -6.5 -30 -16q-13 -9.5 -25 -22q-12 -12.5 -27 -30.5l-178 -204l132 -252q7 -15 17.5 -30q10.5 -15 25 -28q14.5 -13 35 -23q20.5 -10 49.5 -14l-7 -34h-231l7 34q13 -1 26 5.5q13 6.5 13 20.5q0 8 -5.5 20q-5.5 12 -8.5 18l-110 207h-6l-166 -194q-17 -19 -22.5 -28.5q-5.5 -9.5 -5.5 -16.5q0 -18 15 -24q15 -6 32 -8l-8 -34h-197l7 34q27 5 47.5 14.5q20.5 9.5 37 23q16.5 13.5 32 31q15.5 17.5 33.5 38.5l178 207l-125 240q-20 39 -47 56q-27 17 -74 22l7 34z" />
<glyph unicode="&#89;" horiz-adv-x="655" d="M128 609q-9 23 -26.5 40.5q-17.5 17.5 -51.5 16.5l7 34h211l-7 -34q-6 0 -13.5 -1.5q-7.5 -1.5 -15 -5q-7.5 -3.5 -12.5 -10.5q-5 -7 -5 -18q0 -9 3 -15.5q3 -6.5 6 -13.5l116 -276h4l197 261q20 26 24 36.5q4 10.5 4 15.5q0 12 -13.5 21q-13.5 9 -37.5 6l7 34h180l-7 -34q-18 0 -33.5 -7.5q-15.5 -7.5 -28 -19q-12.5 -11.5 -23.5 -25.5q-11 -14 -21 -27l-237 -315l-35 -161q-2 -8 -3 -15.5q-1 -7.5 -1 -16.5q0 -39 45 -45l-7 -34h-206l7 34q33 4 50 22q17 18 25 55l34 160z" />
<glyph unicode="&#90;" horiz-adv-x="711" d="M671 700l-5 -37l-526 -613v-11h229q26 0 58.5 2.5q32.5 2.5 65.5 14q33 11.5 63.5 34.5q30.5 23 51.5 65l31 0l-48 -155h-581l5 37l531 616v8h-183q-20 0 -46.5 -2.5q-26.5 -2.5 -54.5 -12.5q-28 -10 -55 -30.5q-27 -20.5 -48 -56.5l-31 0l40 141z" />
<glyph unicode="&#91;" horiz-adv-x="489" d="M431 661h-124l-169 -806h140l-9 -39h-229l185 884l214 0z" />
<glyph unicode="&#92;" horiz-adv-x="548" d="M217 700h59l163 -884l-59 0z" />
<glyph unicode="&#93;" horiz-adv-x="474" d="M434 700l-185 -884h-199l8 39h109l169 806h-125l9 39z" />
<glyph unicode="&#94;" horiz-adv-x="528" d="M148 505h-78l194 195l194 -195h-78l-116 116z" />
<glyph unicode="&#95;" horiz-adv-x="543" d="M0 -183h543v-50l-543 0z" />
<glyph unicode="&#96;" horiz-adv-x="341" d="M276 503l-114 76q-16 11 -21.5 15q-5.5 4 -7.5 6q-13 13 -13 28q0 17 12 29q12 12 29 12q9 0 19.5 -4q10.5 -4 18.5 -16l92 -130z" />
<glyph unicode="&#97;" horiz-adv-x="435" d="M311 78q-1 -5 -2 -9.5q-1 -4.5 -1 -10.5q0 -16 8.5 -18.5q8.5 -2.5 13.5 -2.5q10 0 20.5 4.5q10.5 4.5 29.5 16.5l15 -16q-20 -20 -47.5 -35q-27.5 -15 -57.5 -15q-26 0 -40 9.5q-14 9.5 -14 38.5l-3 0q-23 -24 -52 -36q-29 -12 -54 -12q-18 0 -35.5 6q-17.5 6 -31 19.5q-13.5 13.5 -22 34q-8.5 20.5 -8.5 50.5q0 57 20 109.5q20 52.5 52 93q32 40.5 71.5 64.5q39.5 24 78.5 24q30 0 46.5 -11q16.5 -11 22.5 -17l27 20h27zM286 294q2 6 3.5 17.5q1.5 11.5 1.5 18.5q0 20 -13.5 26q-13.5 6 -27.5 6q-7 0 -19.5 -2.5q-12.5 -2.5 -27.5 -12.5q-15 -10 -32 -30.5q-17 -20.5 -33 -55.5q-15 -33 -24 -75q-9 -42 -9 -73q0 -23 5.5 -38q5.5 -15 14 -24q8.5 -9 19.5 -12.5q11 -3.5 22 -3.5q32 0 53 21.5q21 21.5 27 50.5z" />
<glyph unicode="&#98;" horiz-adv-x="450" d="M84 655q50 2 79 10.5q29 8.5 53 24.5l9 0l-72 -347h9q35 26 66 38q31 12 58 12q54 0 89 -36.5q35 -36.5 35 -99.5q0 -40 -19 -80.5q-19 -40.5 -51 -77.5q-33 -37 -65 -58.5q-32 -21.5 -60 -32q-28 -10.5 -51 -13.5q-23 -3 -36 -3q-34 0 -53.5 8q-19.5 8 -29.5 20q-10 12 -12.5 25.5q-2.5 13.5 -2.5 24.5q0 11 1.5 20q1.5 9 3.5 20l97 472q2 11 3.5 17.5q1.5 6.5 1.5 11.5q0 14 -8.5 18q-8.5 4 -16.5 4h-33l5 22zM156 23q36 0 68 25q32 25 57 62.5q25 37.5 39.5 81q14.5 43.5 14.5 79.5q0 42 -21.5 63.5q-21.5 21.5 -47.5 21.5q-18 0 -35.5 -6q-17.5 -6 -33.5 -15q-16 -9 -30 -19.5q-14 -10.5 -24 -19.5l-37 -175q-5 -23 -5 -42q0 -32 16 -44t39 -12z" />
<glyph unicode="&#99;" horiz-adv-x="378" d="M333 83q-32 -37 -74 -64q-42 -27 -95 -27q-42 0 -71 19q-29 19 -43 44q-13 21 -16.5 46q-3.5 25 -3.5 50q0 63 28 115q28 52 72 86q52 41 108 41q23 0 39.5 -5.5q16.5 -5.5 27.5 -14.5q11 -9 16.5 -20q5.5 -11 5.5 -21q0 -15 -9 -24q-9 -9 -22 -9q-12 0 -24 8q-12 8 -14 26q-2 10 -4.5 19.5q-2.5 9.5 -22.5 9.5q-16 0 -32 -8q-41 -20 -67.5 -69q-26.5 -49 -26.5 -114q0 -47 11.5 -73.5q11.5 -26.5 27.5 -40q16 -13.5 32.5 -16.5q16.5 -3 26.5 -3q34 0 62 19q28 19 54 41z" />
<glyph unicode="&#100;" horiz-adv-x="464" d="M326 655q50 2 79 10.5q29 8.5 53 24.5l9 0l-127 -612q-1 -5 -2 -9.5q-1 -4.5 -1 -10.5q0 -16 8.5 -18.5q8.5 -2.5 13.5 -2.5q10 0 20.5 4.5q10.5 4.5 29.5 16.5l15 -16q-37 -36 -64.5 -43q-27.5 -7 -40.5 -7q-18 0 -29 4.5q-11 4.5 -17 11.5q-6 7 -7.5 15.5q-1.5 8.5 -1.5 17.5q0 3 0 6.5q0 3.5 1 6.5l-3 0q-24 -23 -57.5 -42.5q-33.5 -19.5 -68.5 -19.5q-18 0 -36.5 7.5q-18.5 7.5 -34 22q-15.5 14.5 -25.5 37q-10 22.5 -10 52.5q0 30 7 57.5q7 27.5 17 50q10 22.5 20 38.5q10 16 15 24q45 62 95 87q50 25 87 25q21 0 35 -7q14 -7 22 -13l3 0l43 209q2 11 3.5 17.5q1.5 6.5 1.5 11.5q0 14 -8.5 18q-8.5 4 -16.5 4h-33l5 22zM317 305q3 12 3 23q0 14 -9 24q-9 10 -36 10q-32 0 -65 -23.5q-33 -23.5 -59 -63.5q-18 -28 -32 -65.5q-14 -37.5 -14 -75.5q0 -26 6 -43.5q6 -17.5 16 -28.5q10 -11 22.5 -15.5q12.5 -4.5 25.5 -4.5q32 0 57.5 19.5q25.5 19.5 42.5 44.5z" />
<glyph unicode="&#101;" horiz-adv-x="370" d="M330 94q-10 -15 -25.5 -32.5q-15.5 -17.5 -36 -33q-20.5 -15.5 -45.5 -26q-25 -10.5 -55 -10.5q-39 0 -65 15q-26 15 -42.5 38q-16.5 23 -23.5 51q-7 28 -7 55q0 17 3.5 32.5q3.5 15.5 8.5 31.5q12 39 33.5 71.5q21.5 32.5 48.5 56.5q27 24 57.5 37q30.5 13 60.5 13q38 0 61 -21q23 -21 23 -49q0 -17 -6.5 -36q-6.5 -19 -22 -36q-15.5 -17 -40 -28q-24.5 -11 -60.5 -11q-13 0 -25 1q-12 1 -25 4l6 26q7 -1 13.5 -1.5q6.5 -0.5 13.5 -0.5q38 0 65 21.5q27 21.5 27 56.5q0 14 -5.5 22.5q-5.5 8.5 -13 13q-7.5 4.5 -15.5 6q-8 1.5 -12 1.5q-35 0 -68.5 -32.5q-33.5 -32.5 -48.5 -88.5q-9 -35 -9 -70q0 -68 27.5 -97.5q27.5 -29.5 63.5 -29.5q35 0 66.5 19.5q31.5 19.5 53.5 45.5z" />
<glyph unicode="&#102;" horiz-adv-x="335" d="M311 354h-77l-40 -188q-17 -79 -32.5 -133q-15.5 -54 -33.5 -87.5q-18 -33.5 -40 -48.5q-22 -15 -52 -15q-29 0 -40 16q-11 16 -11 31q0 19 10 30.5q10 11.5 25 11.5q19 0 26 -11.5q7 -11.5 7 -22.5q0 -6 -1 -8l-1 -4q0 -2 2.5 -5q2.5 -3 7.5 -3q11 0 20 12q10 13 14 45.5q4 32.5 11 86.5q4 28 7.5 49.5q3.5 21.5 8 41.5q4.5 20 9 41q4.5 21 10.5 49l22 112h-88l6 31q28 1 47 5.5q19 4.5 31.5 12.5q12.5 8 20 20q7.5 12 14.5 29q7 17 10.5 29.5q3.5 12.5 7 27q3.5 14.5 9 34.5q5.5 20 15.5 51q3 9 9.5 25.5q6.5 16.5 18 32q11.5 15.5 28.5 27q17 11.5 41 11.5q24 0 38 -12.5q14 -12.5 14 -27.5q0 -18 -8 -33.5q-8 -15.5 -27 -15.5q-12 0 -18.5 5q-6.5 5 -9.5 11.5q-3 6.5 -3.5 13q-0.5 6.5 -0.5 10.5v2q0 6 -1 9q-1 3 -8 3q-9 0 -15 -7q-6 -7 -9.5 -17.5q-3.5 -10.5 -6 -23q-2.5 -12.5 -3.5 -22.5q-3 -18 -4 -30q-1 -12 -3.5 -30q-2.5 -18 -8 -50q-5.5 -32 -17.5 -90l76 0z" />
<glyph unicode="&#103;" horiz-adv-x="411" d="M211 386q40 0 63.5 -13.5q23.5 -13.5 34.5 -24.5q13 17 30 32q17 15 38 15q17 0 26.5 -10.5q9.5 -10.5 9.5 -22.5q0 -13 -9 -22.5q-9 -9.5 -23 -9.5q-10 0 -14.5 3.5q-4.5 3.5 -9.5 8.5q-4 4 -9 4q-4 0 -9 -4.5q-5 -4.5 -12 -15.5q23 -30 23 -80q0 -27 -13 -56q-19 -44 -58 -69q-39 -25 -90 -25q-22 0 -38.5 4.5q-16.5 4.5 -29.5 10.5l-33 -65l4 -5q23 6 45 8.5q22 2.5 45 2.5q45 0 73.5 -10.5q28.5 -10.5 45.5 -27q17 -16.5 23.5 -35.5q6.5 -19 6.5 -36q0 -27 -13.5 -52q-13.5 -25 -37 -44.5q-23.5 -19.5 -56.5 -31.5q-33 -12 -72 -12q-28 0 -53 4.5q-25 4.5 -44.5 13q-19.5 8.5 -31 21q-11.5 12.5 -11.5 27.5q0 20 10.5 33.5q10.5 13.5 30.5 13.5q15 0 25.5 -9.5q10.5 -9.5 13.5 -26.5q1 -8 2.5 -16.5q1.5 -8.5 7.5 -15.5q6 -7 18.5 -12q12.5 -5 34.5 -5q27 0 53 10.5q26 10.5 44 29.5q12 13 18 26.5q6 13.5 6 25.5q0 26 -22 43q-22 17 -70 17q-24 0 -44 -2.5q-20 -2.5 -38.5 -7q-18.5 -4.5 -37.5 -9.5q-19 -5 -41 -10l-13 13l88 158q-26 23 -36 50q-10 27 -10 56q0 26 10 53.5q10 27.5 29.5 50q19.5 22.5 49.5 37q30 14.5 70 14.5zt0 0zM210 355q-25 0 -42 -15.5q-17 -15.5 -27 -38q-10 -22.5 -14.5 -48q-4.5 -25.5 -4.5 -46.5q0 -39 18.5 -59.5q18.5 -20.5 44.5 -20.5q11 0 23 3q12 3 24 12q12 9 22.5 25.5q10.5 16.5 17.5 44.5q3 14 5.5 27q2.5 13 2.5 27q0 32 -8.5 50q-8.5 18 -19.5 26.5q-11 8.5 -23 10.5t-19 2z" />
<glyph unicode="&#104;" horiz-adv-x="481" d="M103 655q50 2 79 10.5q29 8.5 53 24.5l9 0l-75 -359h5q31 27 71.5 44.5q40.5 17.5 80.5 17.5q35 0 58 -19.5q23 -19.5 23 -56.5q0 -10 -3 -28q-3 -18 -5 -28l-42 -183q-3 -11 -3 -20q0 -5 2.5 -13q2.5 -8 19.5 -8q10 0 20.5 4.5q10.5 4.5 29.5 16.5l15 -16q-37 -36 -64.5 -43q-27.5 -7 -40.5 -7q-18 0 -28.5 4.5q-10.5 4.5 -16.5 12q-6 7.5 -7.5 16q-1.5 8.5 -1.5 16.5q0 10 1.5 18.5q1.5 8.5 3.5 18.5l42 189q4 17 5 26.5q1 9.5 1 13.5v1q0 3 -1 9.5q-1 6.5 -5.5 13q-4.5 6.5 -14 11q-9.5 4.5 -26.5 4.5q-21 0 -41 -7q-20 -7 -38 -18q-18 -11 -32 -25q-14 -14 -21 -28l-56 -268h-70l121 582q2 11 3.5 17.5q1.5 6.5 1.5 11.5q0 14 -8.5 18q-8.5 4 -16.5 4h-33l5 22z" />
<glyph unicode="&#105;" horiz-adv-x="233" d="M193 42q-37 -36 -64.5 -43q-27.5 -7 -40.5 -7q-20 0 -31 5q-11 5 -16 12q-5 7 -6 15.5q-1 8.5 -1 14.5v2q0 10 1.5 18.5q1.5 8.5 3.5 18.5l44 207q2 11 3.5 17.5q1.5 6.5 1.5 11.5q0 14 -8.5 18q-8.5 4 -16.5 4h-33l5 22q50 2 79 10.5q29 8.5 53 24.5l9 0l-67 -315q-1 -5 -2 -9.5q-1 -4.5 -1 -10.5q0 -16 8.5 -18.5q8.5 -2.5 13.5 -2.5q10 0 20.5 4.5q10.5 4.5 29.5 16.5l15 -16zM79 565q0 20 15 35q15 15 35 15q20 0 35 -15q15 -15 15 -35q0 -20 -15 -35q-15 -15 -35 -15q-20 0 -35 15t-15 35z" />
<glyph unicode="&#106;" horiz-adv-x="270" d="M79 358q50 2 79 10.5q29 8.5 53 24.5l9 0l-79 -393l-11 -60q-8 -40 -15 -67.5q-7 -27.5 -23 -45.5q-14 -16 -28 -20q-14 -4 -28 -4q-27 0 -39 15.5q-12 15.5 -12 31.5q0 19 10 30.5q10 11.5 25 11.5q19 0 26 -11.5q7 -11.5 7 -22.5q0 -6 -1 -8l-1 -4q0 -2 2.5 -5q2.5 -3 7.5 -3q9 0 19.5 13q10.5 13 10.5 45q0 23 -7 51l-1 3q-4 16 -6.5 31q-2.5 15 -2.5 32q0 13 3 30l50 242q2 11 3.5 17.5q1.5 6.5 1.5 11.5q0 14 -8.5 18q-8.5 4 -16.5 4h-33l5 22zM117 565q0 20 15 35q15 15 35 15q20 0 35 -15q15 -15 15 -35q0 -20 -15 -35q-15 -15 -35 -15q-20 0 -35 15t-15 35z" />
<glyph unicode="&#107;" horiz-adv-x="451" d="M102 655q50 2 79 10.5q29 8.5 53 24.5l9 0l-70 -336q42 25 76 32q34 7 60 7q31 0 51 -7.5q20 -7.5 31 -19q11 -11.5 15.5 -24.5q4.5 -13 4.5 -24q0 -20 -11 -40q-11 -20 -31.5 -37.5q-20.5 -17.5 -51 -31.5q-30.5 -14 -69.5 -21l0 -3q36 -11 51.5 -34q15.5 -23 23.5 -52q5 -17 8.5 -32q3.5 -15 10 -26q6.5 -11 17.5 -17.5q11 -6.5 32 -6.5l0 -18q-8 -2 -22 -4.5q-14 -2.5 -28 -2.5q-23 0 -38.5 7q-15.5 7 -25 16.5q-9.5 9.5 -14.5 20.5q-5 11 -8 20q-7 21 -10.5 35.5q-3.5 14.5 -6 25q-2.5 10.5 -5 18q-2.5 7.5 -7.5 15.5q-12 20 -32 25q-20 5 -43 5h-14l-37 -180h-70l120 582q2 11 3.5 17.5q1.5 6.5 1.5 11.5q0 14 -8.5 18q-8.5 4 -16.5 4h-33l5 22zM143 211h19q48 0 81 8.5q33 8.5 54 22q21 13.5 30 30.5q9 17 9 34q0 23 -16.5 37.5q-16.5 14.5 -43.5 14.5q-25 0 -57.5 -12q-32.5 -12 -53.5 -32z" />
<glyph unicode="&#108;" horiz-adv-x="239" d="M199 42q-37 -36 -64.5 -43q-27.5 -7 -40.5 -7q-20 0 -31 5q-11 5 -16 12q-5 7 -6 15.5q-1 8.5 -1 14.5v2q0 10 1.5 18.5q1.5 8.5 3.5 18.5l104 504q2 11 3.5 17.5q1.5 6.5 1.5 11.5q0 14 -8.5 18q-8.5 4 -16.5 4h-33l5 22q50 2 79 10.5q29 8.5 53 24.5l9 0l-127 -612q-1 -5 -2 -9.5q-1 -4.5 -1 -10.5q0 -16 8.5 -18.5q8.5 -2.5 13.5 -2.5q10 0 20.5 4.5q10.5 4.5 29.5 16.5l15 -16z" />
<glyph unicode="&#109;" horiz-adv-x="727" d="M42 358q50 2 79 10.5q29 8.5 53 24.5l9 0l-13 -62h3q38 27 74.5 44.5q36.5 17.5 80.5 17.5q34 0 55 -17q21 -17 26 -45l6 0q50 38 86.5 50q36.5 12 66.5 12q25 0 41.5 -7.5q16.5 -7.5 26 -18.5q9.5 -11 13.5 -24.5q4 -13.5 4 -25.5q0 -4 -1 -11.5q-1 -7.5 -2 -15.5q-1 -8 -2.5 -16q-1.5 -8 -2.5 -13l-42 -183q-3 -11 -3 -20q0 -16 8.5 -18.5q8.5 -2.5 13.5 -2.5q10 0 20.5 4.5q10.5 4.5 29.5 16.5l15 -16q-37 -36 -64.5 -43q-27.5 -7 -40.5 -7q-18 0 -29 5q-11 5 -16.5 11.5q-5.5 6.5 -7 14.5q-1.5 8 -1.5 14q0 11 1.5 20.5q1.5 9.5 3.5 20.5l42 189q4 17 5 26.5q1 9.5 1 13.5q0 1 -0.5 7.5q-0.5 6.5 -4.5 13.5q-4 7 -14 12.5q-10 5.5 -28 5.5q-15 0 -36 -6.5q-21 -6.5 -41.5 -18q-20.5 -11.5 -36 -27q-15.5 -15.5 -19.5 -33.5l-57 -261h-70l57 267q2 11 4 21q2 10 2 19q0 2 -0.5 8.5q-0.5 6.5 -4.5 13q-4 6.5 -14 12q-10 5.5 -28 5.5q-21 0 -40.5 -7q-19.5 -7 -39.5 -20q-17 -11 -27 -19q-10 -8 -15.5 -13.5q-5.5 -5.5 -7.5 -9.5q-2 -4 -3 -7l-57 -270h-70l60 285q2 11 3.5 17.5q1.5 6.5 1.5 11.5q0 14 -8.5 18q-8.5 4 -16.5 4h-33l5 22z" />
<glyph unicode="&#110;" horiz-adv-x="483" d="M42 358q50 2 79 10.5q29 8.5 53 24.5l9 0l-13 -62h3q38 27 74.5 44.5q36.5 17.5 80.5 17.5q42 0 61.5 -22q19.5 -22 19.5 -54q0 -10 -3 -28q-3 -18 -5 -28l-42 -183q-3 -11 -3 -20q0 -16 8.5 -18.5q8.5 -2.5 13.5 -2.5q10 0 20.5 4.5q10.5 4.5 29.5 16.5l15 -16q-18 -18 -34.5 -28q-16.5 -10 -30 -15q-13.5 -5 -24 -6q-10.5 -1 -16.5 -1q-20 0 -31 5.5q-11 5.5 -16 13q-5 7.5 -6 16q-1 8.5 -1 14.5q0 10 1.5 18.5q1.5 8.5 3.5 18.5l42 189q4 17 5 26.5q1 9.5 1 13.5q0 2 -0.5 8.5q-0.5 6.5 -4.5 13q-4 6.5 -14 12q-10 5.5 -28 5.5q-17 0 -37 -6q-20 -6 -43 -20q-34 -21 -43 -33q-9 -12 -10 -17l-57 -270h-70l60 285q2 11 3.5 17.5q1.5 6.5 1.5 11.5q0 14 -8.5 18q-8.5 4 -16.5 4h-33l5 22z" />
<glyph unicode="&#111;" horiz-adv-x="435" d="M235 393q32 0 60 -10.5q28 -10.5 51 -33.5q26 -26 37.5 -58q11.5 -32 11.5 -72q0 -46 -14.5 -84q-14.5 -38 -36.5 -66q-11 -14 -26 -27.5q-15 -13.5 -34.5 -24.5q-19.5 -11 -43.5 -18q-24 -7 -53 -7q-68 0 -112 47q-25 26 -35 58.5q-10 32.5 -10 72.5q0 41 14 76q14 35 39 67q38 48 78 64q40 16 74 16zt0 0zM235 362q-32 0 -59 -21q-27 -21 -46 -67q-14 -33 -19.5 -71.5q-5.5 -38.5 -5.5 -68.5q0 -17 2 -33.5q2 -16.5 9 -32.5q11 -26 31.5 -35.5q20.5 -9.5 39.5 -9.5q21 0 37.5 6.5q16.5 6.5 29 16.5q12.5 10 21 22.5q8.5 12.5 14.5 25.5q18 38 24.5 81.5q6.5 43.5 6.5 78.5q0 25 -4 43.5q-4 18.5 -17 35.5q-8 11 -23 20t-41 9z" />
<glyph unicode="&#112;" horiz-adv-x="426" d="M71 285q2 9 3.5 16.5q1.5 7.5 1.5 12.5q0 14 -8.5 18q-8.5 4 -16.5 4h-33l6 22q25 1 44 3.5q19 2.5 34 7q15 4.5 27.5 10.5q12.5 6 23.5 14l9 0l-7 -37q20 20 47 28.5q27 8.5 52 8.5q56 0 91 -42q22 -26 31.5 -61.5q9.5 -35.5 9.5 -70.5q0 -35 -11 -75.5q-11 -40.5 -36 -75.5q-19 -27 -39.5 -42q-20.5 -15 -39.5 -22.5q-19 -7.5 -35 -9.5q-16 -2 -25 -2q-32 0 -59 13.5q-27 13.5 -44 42.5l-2 0l-45 -232h-70zM114 141q-4 -21 -2.5 -43q1.5 -22 12.5 -39q8 -12 25 -21.5q17 -9.5 39 -9.5q23 0 40 10q17 10 29.5 26.5q12.5 16.5 21.5 37q9 20.5 15 42.5q8 26 12.5 55q4.5 29 4.5 58q0 16 -3 38q-3 22 -17 41q-11 15 -24 20.5q-13 5.5 -29 5.5q-32 0 -51 -14.5q-19 -14.5 -29 -29.5q-11 -17 -15.5 -34.5q-4.5 -17.5 -7.5 -31.5z" />
<glyph unicode="&#113;" horiz-adv-x="480" d="M281 42h-8q-32 -23 -61 -36.5q-29 -13.5 -63 -13.5q-23 0 -44.5 8q-21.5 8 -38 23.5q-16.5 15.5 -26.5 38.5q-10 23 -10 52q0 46 23.5 95q23.5 49 60.5 90q37 41 82 67.5q45 26.5 89 26.5q16 0 27.5 -3.5q11.5 -3.5 23.5 -9.5q9 -5 17.5 -7.5q8.5 -2.5 22.5 -2.5q4 0 16 3q12 3 23 20l15 0l-128 -577h-70zM331 263q3 12 4 22.5q1 10.5 1 18.5q0 20 -6 31.5q-6 11.5 -14 17.5q-8 6 -16.5 7.5q-8.5 1.5 -14.5 1.5q-22 0 -47 -14.5q-25 -14.5 -48.5 -40.5q-23.5 -26 -43.5 -61.5q-20 -35.5 -32 -78.5q-4 -14 -6.5 -27q-2.5 -13 -2.5 -27q0 -38 20.5 -58.5q20.5 -20.5 53.5 -20.5q29 0 59 18.5q30 18.5 52 41.5z" />
<glyph unicode="&#114;" horiz-adv-x="303" d="M32 357q28 5 50.5 11q22.5 6 47.5 25l12 0q10 -29 10 -61q0 -5 0 -11q0 -6 -1 -11l2 0q14 27 29 43.5q15 16.5 28.5 25q13.5 8.5 25 11.5q11.5 3 20.5 3q15 0 25.5 -5.5q10.5 -5.5 17.5 -14q7 -8.5 10.5 -18q3.5 -9.5 3.5 -16.5q0 -13 -10 -28q-10 -15 -31 -15q-2 0 -7 0q-5 0 -11 2.5q-6 2.5 -12.5 7.5q-6.5 5 -10.5 15q-2 3 -5 8.5q-3 5.5 -11 5.5q-7 0 -14 -7q-14 -12 -29 -39.5q-15 -27.5 -28 -88.5l-44 -200h-70l51 244q1 3 2.5 10q1.5 7 3 15q1.5 8 2.5 16q1 8 1 13q0 12 -8 24.5q-8 12.5 -39 12.5l-11 0z" />
<glyph unicode="&#115;" horiz-adv-x="342" d="M196 393q50 0 78 -21.5q28 -21.5 28 -43.5q0 -14 -9 -24q-9 -10 -23 -10q-11 0 -18 4q-7 4 -11 10q-4 6 -6.5 12.5q-2.5 6.5 -3.5 11.5q-9 30 -45 30q-24 0 -37 -11.5q-13 -11.5 -16 -24.5q-3 -14 3 -27.5q6 -13.5 17 -25q11 -11.5 23 -21q12 -9.5 21 -16.5q34 -28 59.5 -61q25.5 -33 23.5 -73q-1 -21 -11 -41q-10 -20 -28 -35q-18 -15 -43.5 -24.5q-25.5 -9.5 -57.5 -9.5q-27 0 -48.5 8q-21.5 8 -36.5 20.5q-15 12.5 -22.5 28q-7.5 15.5 -7.5 30.5q0 17 10 29q10 12 30 12q20 0 29 -16.5q9 -16.5 1 -35.5q-3 -8 -5 -15.5q-2 -7.5 9 -17.5q8 -8 22 -10q14 -2 25 -2q18 0 31.5 5.5q13.5 5.5 22 14.5q8.5 9 12.5 19.5q4 10.5 5 19.5q1 16 -6 29.5q-7 13.5 -19 26.5q-12 13 -26.5 25q-14.5 12 -27.5 24q-29 26 -47 49q-18 23 -18 52q0 13 5.5 31.5q5.5 18.5 19.5 34.5q14 16 37.5 27.5t60.5 11.5z" />
<glyph unicode="&#116;" horiz-adv-x="243" d="M188 32q-17 -15 -40 -27.5q-23 -12.5 -50 -12.5q-21 0 -32.5 5q-11.5 5 -17.5 12.5q-6 7.5 -7 16q-1 8.5 -1 15.5q0 10 1.5 18.5q1.5 8.5 3.5 18.5l60 276h-58l6 31h58l32 158h70l-32 -158h52l-6 -31h-52l-60 -276q-1 -5 -2 -9.5q-1 -4.5 -1 -10.5q0 -16 8.5 -18.5q8.5 -2.5 13.5 -2.5q10 0 20.5 4.5q10.5 4.5 29.5 16.5l4 -26z" />
<glyph unicode="&#117;" horiz-adv-x="485" d="M425 385l-64 -307q-1 -5 -2 -9.5q-1 -4.5 -1 -10.5q0 -16 8.5 -18.5q8.5 -2.5 13.5 -2.5q10 0 20.5 4.5q10.5 4.5 29.5 16.5l15 -16q-37 -36 -64.5 -43q-27.5 -7 -40.5 -7q-19 0 -30 4.5q-11 4.5 -16 11.5q-5 7 -6.5 14.5q-1.5 7.5 -1.5 12.5q0 11 1.5 21.5q1.5 10.5 3.5 21.5l12 61h-6q-13 -18 -35 -43q-22 -25 -48.5 -48.5q-26.5 -23.5 -56.5 -39.5q-30 -16 -59 -16q-32 0 -47 16.5q-15 16.5 -15 42.5q0 8 1 14.5q1 6.5 3 14.5l42 205q2 11 3.5 17q1.5 6 1.5 12q0 13 -6 17.5q-6 4.5 -17 4.5h-34l5 22q50 2 79 10.5q29 8.5 53 24.5l8 0l-63 -300q-2 -7 -3 -13q-1 -6 -1 -13q0 -22 21 -22q17 0 36.5 11.5q19.5 11.5 39 28.5q19.5 17 36.5 36.5q17 19.5 29 35.5q15 19 25.5 36q10.5 17 18 33q7.5 16 13 33q5.5 17 9.5 37l19 89z" />
<glyph unicode="&#118;" horiz-adv-x="443" d="M35 358q50 2 79 10.5q29 8.5 53 24.5l9 0l-56 -274q-1 -3 -2 -9q-1 -6 -2 -13q-1 -7 -1.5 -13.5q-0.5 -6.5 -0.5 -8.5q0 -17 6 -26.5q6 -9.5 14.5 -14.5q8.5 -5 17.5 -6.5q9 -1.5 16 -1.5q32 0 72 25q40 25 70 66q7 10 16.5 25.5q9.5 15.5 18 34q8.5 18.5 14.5 39q6 20.5 6 40.5q0 26 -10.5 37.5q-10.5 11.5 -21.5 19.5q-11 8 -20.5 16q-9.5 8 -9.5 25q0 17 8.5 28q8.5 11 25.5 11q29 0 47.5 -27.5q18.5 -27.5 18.5 -77.5q0 -27 -6.5 -54q-6.5 -27 -17 -52q-10.5 -25 -23.5 -46.5q-13 -21.5 -25 -37.5q-26 -35 -52.5 -55.5q-26.5 -20.5 -51 -32q-24.5 -11.5 -46 -15q-21.5 -3.5 -37.5 -3.5q-11 0 -28.5 1.5q-17.5 1.5 -34 9q-16.5 7.5 -28 23q-11.5 15.5 -11.5 43.5q0 13 2.5 24.5q2.5 11.5 4.5 24.5l34 167q2 12 3.5 18q1.5 6 1.5 11q0 14 -8.5 18q-8.5 4 -16.5 4l-33 0z" />
<glyph unicode="&#119;" horiz-adv-x="689" d="M35 358q50 2 79 10.5q29 8.5 53 24.5l8 0l-56 -268q-1 -6 -2.5 -14.5q-1.5 -8.5 -2.5 -17q-1 -8.5 -2 -16.5q-1 -8 -1 -12q0 -11 5.5 -20q5.5 -9 29.5 -9q15 0 32.5 6q17.5 6 41.5 22q25 16 41.5 33q16.5 17 27 34q10.5 17 16 35.5q5.5 18.5 9.5 38.5l16 80q1 5 2.5 14.5q1.5 9.5 1.5 14.5q0 14 -8.5 18q-8.5 4 -16.5 4h-33l5 22q50 2 79 10.5q29 8.5 53 24.5l9 0l-56 -274q-2 -9 -4.5 -23q-2.5 -14 -2.5 -21q0 -17 6 -26.5q6 -9.5 14.5 -14.5q8.5 -5 18 -6.5q9.5 -1.5 16.5 -1.5q33 0 72.5 24.5q39.5 24.5 69.5 66.5q7 10 16.5 25.5q9.5 15.5 18 34q8.5 18.5 14.5 39q6 20.5 6 40.5q0 8 -2.5 19.5q-2.5 11.5 -11.5 22.5q-4 5 -8.5 8q-4.5 3 -9.5 7q-11 8 -20.5 16q-9.5 8 -9.5 25q0 17 8.5 28q8.5 11 25.5 11q29 0 47.5 -27.5q18.5 -27.5 18.5 -77.5q0 -27 -6.5 -54q-6.5 -27 -17 -52q-10.5 -25 -23.5 -46.5q-13 -21.5 -25 -37.5q-12 -16 -29.5 -34.5q-17.5 -18.5 -41 -34.5q-23.5 -16 -52.5 -26.5q-29 -10.5 -64 -10.5q-59 0 -80.5 19.5q-21.5 19.5 -22.5 50.5l0 10h-5q-18 -17 -39 -31.5q-21 -14.5 -43.5 -25.5q-22.5 -11 -46 -17q-23.5 -6 -44.5 -6q-24 0 -38 7q-14 7 -21 16.5q-7 9.5 -9 20q-2 10.5 -2 16.5q0 18 2.5 32q2.5 14 5.5 28l35 173q2 11 3.5 17q1.5 6 1.5 12q0 13 -6 17.5q-6 4.5 -17 4.5h-34l5 22z" />
<glyph unicode="&#120;" horiz-adv-x="419" d="M61 334q7 9 17 19q10 10 22 19q12 9 25 15q13 6 27 6q13 0 22 -5.5q9 -5.5 15 -14q6 -8.5 10.5 -19q4.5 -10.5 7.5 -19.5l28 -81q20 34 34.5 60.5q14.5 26.5 27.5 43.5q13 17 25.5 26q12.5 9 29.5 9q19 0 30.5 -9.5q11.5 -9.5 11.5 -23.5q0 -12 -7.5 -24.5q-7.5 -12.5 -24.5 -12.5q-8 0 -12 2.5q-4 2.5 -8 4.5q-3 2 -6 3.5q-3 1.5 -6 1.5q-15 0 -32 -27.5q-17 -27.5 -52 -86.5l46 -134q7 -20 14 -37.5q7 -17.5 26 -17.5q8 0 16.5 3q8.5 3 15.5 7l9 -14q-27 -20 -43.5 -28q-16.5 -8 -31.5 -8q-18 0 -30 8.5q-12 8.5 -20 22q-8 13.5 -13.5 30.5q-5.5 17 -11.5 34l-20 58h-3q-15 -25 -24.5 -39.5q-9.5 -14.5 -22.5 -33.5q-7 -11 -16.5 -24.5q-9.5 -13.5 -21.5 -26q-12 -12.5 -27 -21q-15 -8.5 -32 -8.5q-13 0 -21 4.5q-8 4.5 -12.5 11q-4.5 6.5 -6 13.5q-1.5 7 -1.5 13q0 9 8 22q8 13 29 13q5 0 15 -2q10 -3 21 -3q11 0 20.5 5q9.5 5 18 12.5q8.5 7.5 14.5 16q6 8.5 11 15.5q10 14 21.5 34.5q11.5 20.5 17.5 31.5l-43 126q-5 14 -10.5 27q-5.5 13 -19.5 13q-9 0 -21.5 -7q-12.5 -7 -25.5 -18l-10 14z" />
<glyph unicode="&#121;" horiz-adv-x="478" d="M40 358q50 2 79 10.5q29 8.5 53 24.5l9 0l-55 -266q-2 -10 -3.5 -25q-1.5 -15 -1.5 -23q0 -22 14.5 -32q14.5 -10 33.5 -10q17 0 34.5 6.5q17.5 6.5 32.5 15q15 8.5 26 16q11 7.5 14 10.5q26 22 34 47.5q8 25.5 14 51.5l22 102q3 14 4 19.5q1 5.5 1 8.5q0 14 -6 18q-6 4 -18 4h-33l5 22q50 2 79 10.5q29 8.5 53 24.5l7 0l-65 -309q-9 -41 -20 -79q-11 -38 -27.5 -70.5q-16.5 -32.5 -41 -58.5q-24.5 -26 -59.5 -43q-16 -8 -33 -12.5q-17 -4.5 -34 -4.5q-20 0 -42.5 5q-22.5 5 -41.5 15q-19 10 -31.5 24.5q-12.5 14.5 -12.5 34.5q0 20 10.5 33.5q10.5 13.5 27.5 13.5q4 0 10 -1q6 -1 12 -4q6 -3 10.5 -10q4.5 -7 6.5 -19q1 -6 0.5 -12.5q-0.5 -6.5 -0.5 -12.5q0 -20 14 -28q14 -8 31 -8q25 0 45 10.5q20 10.5 36 29.5q16 19 27.5 44.5q11.5 25.5 19.5 54.5q3 9 4.5 16.5q1.5 7.5 3.5 15.5q2 8 4.5 17.5q2.5 9.5 6.5 24.5l-6 0q-51 -40 -86.5 -54q-35.5 -14 -61.5 -14q-40 0 -68 22.5q-28 22.5 -28 69.5q0 23 4 42l34 159q2 8 3.5 15.5q1.5 7.5 1.5 13.5q0 14 -8 18q-8 4 -16 4h-33l5 22z" />
<glyph unicode="&#122;" horiz-adv-x="410" d="M76 303q9 27 21 44.5q12 17.5 25.5 27.5q13.5 10 27.5 14q14 4 28 4q14 0 24 -2q10 -2 21.5 -4q11.5 -2 27 -4q15.5 -2 41.5 -2q29 0 47.5 3.5q18.5 3.5 30.5 8.5l10 -13q-12 -25 -27.5 -48.5q-15.5 -23.5 -37 -49.5q-21.5 -26 -50.5 -56.5q-29 -30.5 -68 -67.5q-20 -20 -28.5 -28q-8.5 -8 -14.5 -13q-6 -5 -13.5 -12q-7.5 -7 -25.5 -24l0 -5q19 8 42 8q23 0 38.5 -6q15.5 -6 31.5 -17q18 -13 38 -25.5q20 -12.5 36 -12.5q4 0 7 2q3 2 4 3q4 4 1 5.5q-3 1.5 -8 3.5q-13 5 -17 14q-4 9 -4 14q0 13 9 23q9 10 25 10q15 0 27 -11.5q12 -11.5 12 -32.5q0 -6 -2 -16.5q-2 -10.5 -9 -20.5q-7 -10 -20.5 -17.5q-13.5 -7.5 -36.5 -7.5q-26 0 -50 5q-24 5 -48 9q-24 4 -49 4.5q-25 0.5 -52 -8.5q-7 -2 -17.5 -5.5q-10.5 -3.5 -20 -4q-9.5 -0.5 -16 2.5q-6.5 3 -6.5 14q0 8 5 19.5q5 11.5 17.5 29q12.5 17.5 34.5 42q22 24.5 56 58.5q12 12 26 24.5q14 12.5 33.5 30q19.5 17.5 46 42.5q26.5 25 63.5 61l0 4q-8 -2 -24 -4q-16 -2 -31 -2q-30 0 -46.5 2q-16.5 2 -27 4q-10.5 2 -18 4q-7.5 2 -19.5 2q-25 0 -51 -32z" />
<glyph unicode="&#123;" horiz-adv-x="446" d="M135 308q35 4 57.5 25.5q22.5 21.5 36.5 51q14 29.5 21.5 62q7.5 32.5 11.5 58.5q4 30 12.5 65.5q8.5 35.5 28 68q19.5 32.5 53.5 56.5q34 24 90 31l-2 -31q-29 -7 -47.5 -22q-18.5 -15 -29.5 -34q-11 -19 -16 -40q-5 -21 -7 -40q-4 -30 -8.5 -66q-4.5 -36 -20.5 -72.5q-16 -36.5 -48 -71q-32 -34.5 -90 -61.5q25 -13 41 -28q16 -15 25 -30q9 -15 12 -29.5q3 -14.5 3 -26.5q0 -37 -6 -64.5q-6 -27.5 -13.5 -52q-7.5 -24.5 -13.5 -51q-6 -26.5 -6 -61.5q0 -15 5.5 -26.5q5.5 -11.5 13.5 -19q8 -7.5 17.5 -11.5q9.5 -4 17.5 -6l-10 -31q-41 5 -63.5 21q-22.5 16 -33 36.5q-10.5 20.5 -12.5 41.5q-2 21 -2 36q0 20 6 45.5q6 25.5 13.5 51.5q7.5 26 13.5 50q6 24 6 42q0 44 -15 68q-15 24 -50 26l9 39z" />
<glyph unicode="&#124;" horiz-adv-x="190" d="M70 829h50v-1053l-50 0z" />
<glyph unicode="&#125;" horiz-adv-x="334" d="M320 269q-33 -5 -55 -23.5q-22 -18.5 -36 -46.5q-14 -28 -21.5 -61q-7.5 -33 -13.5 -66q-6 -33 -14.5 -68.5q-8.5 -35.5 -27.5 -66.5q-19 -31 -52.5 -54.5q-33.5 -23.5 -89.5 -31.5l1 31q29 7 47.5 22q18.5 15 29 34q10.5 19 15.5 39.5q5 20.5 8 39.5q5 36 11 73.5q6 37.5 22.5 73.5q16.5 36 47.5 68q31 32 85 56q-51 30 -66 64.5q-15 34.5 -15 67.5q0 27 7 58q7 31 21 81q5 19 8.5 35.5q3.5 16.5 3.5 36.5q0 49 -54 64l11 31q8 -1 28 -5.5q20 -4.5 37 -16.5q22 -16 33.5 -46q11.5 -30 11.5 -68q0 -3 -1 -10q-1 -7 -4 -20.5q-3 -13.5 -8 -35q-5 -21.5 -13 -53.5q-5 -20 -9 -39q-4 -19 -4 -39q0 -37 15.5 -59.5q15.5 -22.5 49.5 -25.5z" />
<glyph unicode="&#126;" horiz-adv-x="725" d="M70 253q7 16 21.5 41q14.5 25 38 47.5q23.5 22.5 57 39q33.5 16.5 77.5 16.5q23 0 52 -6q29 -6 71 -22q35 -13 64 -26q29 -13 57 -13q27 0 57 19.5q30 19.5 44 59.5l46 0q-8 -29 -24 -57q-16 -28 -40 -50q-24 -22 -56 -35.5q-32 -13.5 -72 -13.5q-26 0 -53.5 7q-27.5 7 -62.5 21q-33 13 -65.5 26.5q-32.5 13.5 -64.5 13.5q-35 0 -59.5 -18q-24.5 -18 -41.5 -50l-46 0z" />
<glyph unicode="&#160;" horiz-adv-x="233" />
<glyph unicode="&#161;" horiz-adv-x="392" d="M183 -184h-113l157 551h40zM210 468q0 23 16.5 39.5q16.5 16.5 39.5 16.5q23 0 39.5 -16.5q16.5 -16.5 16.5 -39.5q0 -23 -16.5 -39.5q-16.5 -16.5 -39.5 -16.5q-23 0 -39.5 16.5t-16.5 39.5z" />
<glyph unicode="&#162;" horiz-adv-x="518" d="M408 83q-37 -42 -79.5 -67q-42.5 -25 -96.5 -24l-28 -133h-26l29 137q-29 6 -50 22.5q-21 16.5 -33 36.5q-20 32 -20 84q0 27 6 56q6 29 18.5 57.5q12.5 28.5 31.5 54q19 25.5 45 45.5q27 21 49 29q22 8 37 10l27 128h26l-27 -126q34 1 59.5 -17q25.5 -18 25.5 -44q0 -15 -9 -24q-9 -9 -22 -9q-12 0 -24.5 8q-12.5 8 -14.5 26q-1 7 -3.5 17q-2.5 10 -17.5 12l-68 -318q7 -2 15.5 -4q8.5 -2 18.5 -2q33 0 62 19q29 19 55 41zM284 358q-18 -6 -31.5 -17q-13.5 -11 -22.5 -22q-12 -14 -21 -34q-9 -20 -15.5 -41.5q-6.5 -21.5 -10 -42.5q-3.5 -21 -3.5 -39q0 -26 5 -44.5q5 -18.5 11.5 -31q6.5 -12.5 13 -19.5q6.5 -7 10.5 -10z" />
<glyph unicode="&#163;" horiz-adv-x="518" d="M424 349h-142q-3 -22 -8 -48.5q-5 -26.5 -13 -52.5q-9 -33 -19.5 -59.5q-10.5 -26.5 -25.5 -53.5q28 -18 45.5 -30q17.5 -12 29 -21q11.5 -9 18.5 -15.5q7 -6.5 15 -12.5q21 -17 32 -21q11 -4 15 -4q13 0 16.5 7q3.5 7 3.5 12q0 5 -2.5 9q-2.5 4 -4.5 11q-5 10 -5 24q0 21 13.5 35.5q13.5 14.5 34.5 14.5q17 0 31.5 -11q14.5 -11 14.5 -37q0 -18 -8 -36.5q-8 -18.5 -24 -33.5q-16 -15 -40 -24.5q-24 -9.5 -55 -9.5q-18 0 -35.5 3.5q-17.5 3.5 -37 11.5q-19.5 8 -43 22q-23.5 14 -54.5 35q-8 -9 -20 -21q-12 -12 -28.5 -23.5q-16.5 -11.5 -36 -19.5q-19.5 -8 -41.5 -8q-38 0 -63 22.5q-25 22.5 -25 63.5q0 22 8 39.5q8 17.5 21 30.5q19 19 45.5 26q26.5 7 49.5 7q20 0 41 -7.5q21 -7.5 38 -17.5q7 21 11 39q4 18 6.5 38.5q2.5 20.5 4.5 47.5q2 27 5 67l-135 0l8 39h131q14 85 36 135.5q22 50.5 41 77.5q24 34 48 55.5q24 21.5 47 33q23 11.5 44 15.5q21 4 38 4q26 0 43 -7q17 -7 27 -17.5q10 -10.5 14 -23q4 -12.5 4 -22.5q0 -28 -14 -43.5q-14 -15.5 -35 -15.5q-19 0 -31.5 11.5q-12.5 11.5 -12.5 32.5q0 9 1.5 14.5q1.5 5.5 3 8.5q1.5 3 3 5.5q1.5 2.5 1.5 6.5q0 3 -6 7q-6 4 -17 4q-19 0 -33 -7.5q-14 -7.5 -27 -21.5q-21 -22 -35.5 -52.5q-14.5 -30.5 -25.5 -68.5q-9 -32 -15 -68q-6 -36 -9 -63l146 0zM137 90q-17 17 -38 27q-21 10 -41 10q-31 0 -44 -15q-13 -15 -13 -33q0 -14 5.5 -23q5.5 -9 14 -14q8.5 -5 18.5 -7.5q10 -2.5 19 -2.5q23 0 45.5 18t33.5 40z" />
<glyph unicode="&#164;" horiz-adv-x="518" d="M510 509l-81 -79q30 -35 40.5 -72q10.5 -37 10.5 -68q0 -29 -11 -67q-11 -38 -40 -73l81 -78l-33 -32l-78 80q-34 -28 -71 -39.5q-37 -11.5 -69 -11.5q-38 0 -74.5 14q-36.5 14 -65.5 37l-78 -80l-32 32l80 78q-23 29 -37 65.5q-14 36.5 -14 74.5q0 32 11.5 69q11.5 37 39.5 71l-80 79l32 32l78 -80q29 23 65.5 36.5q36.5 13.5 74.5 13.5q32 0 69 -11q37 -11 71 -39l78 80zM82 290q0 -37 14 -69q14 -32 38 -56q24 -24 56 -38q32 -14 69 -14q37 0 69 14q32 14 56 38q24 24 38 56q14 32 14 69q0 37 -14 69q-14 32 -38 56q-24 24 -56 38q-32 14 -69 14q-37 0 -69 -14q-32 -14 -56 -38q-24 -24 -38 -56t-14 -69z" />
<glyph unicode="&#165;" horiz-adv-x="518" d="M201 330h-136l7 39h114l-91 240q-11 29 -28.5 43q-17.5 14 -46.5 14l6 34h203l-7 -34q-6 0 -14 -1.5q-8 -1.5 -14.5 -5.5q-6.5 -4 -11 -10.5q-4.5 -6.5 -4.5 -17.5q0 -10 3 -15.5q3 -5.5 6 -13.5l107 -274h6l192 259q3 3 7.5 10q4.5 7 9 14.5q4.5 7.5 7.5 14.5q3 7 3 12q0 10 -11.5 20.5q-11.5 10.5 -37.5 7.5l6 34h174l-7 -34q-18 0 -32.5 -7.5q-14.5 -7.5 -27 -19q-12.5 -11.5 -23 -25.5q-10.5 -14 -19.5 -27l-159 -218h118l-7 -39h-138l-44 -61h171l-8 -39h-171l-24 -119q-2 -8 -3 -13.5q-1 -5.5 -1 -13.5q0 -17 8 -31.5q8 -14.5 36 -18.5l-7 -34h-198l6 34q32 4 48.5 22q16.5 18 24.5 55l24 119h-172l8 39l171 0z" />
<glyph unicode="&#166;" horiz-adv-x="190" d="M70 829h50v-369h-50zM120 145v-369h-50l0 369z" />
<glyph unicode="&#167;" horiz-adv-x="640" d="M262 456q-7 11 -15.5 33q-8.5 22 -8.5 57q0 43 18 74q18 31 46 50.5q28 19.5 61 28.5q33 9 62 9q34 0 61 -12q27 -12 46 -30.5q19 -18.5 28.5 -42q9.5 -23.5 9.5 -46.5q0 -29 -15.5 -48q-15.5 -19 -38.5 -19q-22 0 -33.5 13q-11.5 13 -11.5 29q0 11 5.5 22.5q5.5 11.5 15.5 16.5q8 4 15 8q7 4 7 17q0 9 -6.5 19q-6.5 10 -18 18.5q-11.5 8.5 -27.5 14q-16 5.5 -36 5.5q-21 0 -42.5 -5.5q-21.5 -5.5 -38 -16q-16.5 -10.5 -27 -27.5q-10.5 -17 -10.5 -39q0 -31 16 -52q16 -21 32 -37l91 -88q34 -33 60 -66.5q26 -33.5 26 -72.5q0 -21 -7.5 -45.5q-7.5 -24.5 -25 -50q-17.5 -25.5 -45.5 -50.5q-28 -25 -70 -46q14 -19 20.5 -39.5q6.5 -20.5 6.5 -40.5q0 -27 -13 -58.5q-13 -31.5 -38 -59q-25 -27.5 -61.5 -45.5q-36.5 -18 -82.5 -18q-29 0 -55.5 9q-26.5 9 -47 26q-20.5 17 -32.5 41q-12 24 -12 53q0 33 16 52q16 19 40 19q23 0 36.5 -13.5q13.5 -13.5 13.5 -32.5q0 -11 -6.5 -22.5q-6.5 -11.5 -17.5 -16.5q-6 -3 -15 -6.5q-9 -3.5 -9 -18.5q0 -18 24 -37q24 -19 64 -19q27 0 49.5 9q22.5 9 39 23q16.5 14 26 32.5q9.5 18.5 9.5 38.5q0 31 -20 54.5q-20 23.5 -43 47.5l-107 110q-17 18 -32.5 43.5q-15.5 25.5 -17.5 60.5l0 10q0 59 39 101.5q39 42.5 103 75.5zt0 0zM286 430q-17 -9 -34 -20q-17 -11 -30 -24q-13 -13 -21 -28.5q-8 -15.5 -8 -33.5q0 -5 0 -9.5q0 -4.5 2 -9.5q5 -23 21 -40.5q16 -17.5 30 -32.5l121 -127q30 17 55.5 39q25.5 22 33.5 56q1 5 1.5 9q0.5 4 0.5 9q0 5 -0.5 9q-0.5 4 -1.5 9q-1 3 -3.5 9q-2.5 6 -8.5 15.5q-6 9.5 -17.5 23.5q-11.5 14 -29.5 33l-111 113z" />
<glyph unicode="&#168;" horiz-adv-x="381" d="M120 564q0 20 14 34q14 14 34 14q20 0 34 -14q14 -14 14 -34q0 -20 -14 -34q-14 -14 -34 -14q-20 0 -34 14q-14 14 -14 34zt0 0zM275 564q0 20 14 34q14 14 34 14q20 0 34 -14q14 -14 14 -34q0 -20 -14 -34q-14 -14 -34 -14q-20 0 -34 14t-14 34z" />
<glyph unicode="&#169;" horiz-adv-x="846" d="M80 350q0 74 28 139.5q28 65.5 76.5 114q48.5 48.5 114 76.5q65.5 28 139.5 28q74 0 139.5 -28q65.5 -28 114 -76.5q48.5 -48.5 76.5 -114q28 -65.5 28 -139.5q0 -74 -28 -139.5q-28 -65.5 -76.5 -114q-48.5 -48.5 -114 -76.5q-65.5 -28 -139.5 -28q-74 0 -139.5 28q-65.5 28 -114 76.5q-48.5 48.5 -76.5 114q-28 65.5 -28 139.5zt0 0zM122 350q0 -42 11 -82q11 -40 31 -76q43 -75 116 -116.5q73 -41.5 158 -41.5q85 0 158 41.5q73 41.5 116 116.5q21 36 31.5 76q10.5 40 10.5 82q0 84 -42 158q-43 75 -116 116.5q-73 41.5 -158 41.5q-85 0 -158 -41.5q-73 -41.5 -116 -116.5q-20 -36 -31 -76q-11 -40 -11 -82zt0 0zM593 228q-9 -8 -13 -12q-4 -4 -6.5 -6q-2.5 -2 -4.5 -4.5q-2 -2.5 -8 -7.5q-17 -15 -35 -23q-18 -8 -34.5 -11.5q-16.5 -3.5 -31.5 -4.5q-15 -1 -26 -1q-36 0 -63.5 9.5q-27.5 9.5 -47 24q-19.5 14.5 -32.5 32.5q-13 18 -21 35q-12 26 -15 48.5q-3 22.5 -3 41.5q0 32 6.5 61q6.5 29 26.5 57q26 36 66.5 58.5q40.5 22.5 87.5 22.5q40 0 66.5 -9.5q26.5 -9.5 45.5 -9.5q6 0 12 6l12 0v-84h-24q-6 16 -17 29q-11 13 -25.5 22q-14.5 9 -31 13.5q-16.5 4.5 -31.5 4.5q-29 0 -52 -13q-23 -13 -37 -30q-14 -16 -21 -34q-7 -18 -11 -34.5q-4 -16.5 -4.5 -30.5q-0.5 -14 -0.5 -22q0 -30 4.5 -53q4.5 -23 11.5 -39q7 -16 14.5 -26.5q7.5 -10.5 13.5 -16.5q19 -19 42 -25.5q23 -6.5 46 -6.5q4 0 17.5 1q13.5 1 32 6q18.5 5 38.5 16q20 11 37 32z" />
<glyph unicode="&#170;" horiz-adv-x="318" d="M328 453q-8 -12 -22.5 -19q-14.5 -7 -27.5 -7q-16 0 -26.5 11q-10.5 11 -10.5 28l-2 0q-17 -15 -39.5 -27q-22.5 -12 -50.5 -12q-22 0 -35 6q-13 6 -20.5 14.5q-7.5 8.5 -10 18q-2.5 9.5 -2.5 17.5q0 16 7 35.5q7 19.5 26.5 37q19.5 17.5 55.5 30q36 12.5 93 14.5q2 8 4 21q2 13 2 22q0 26 -12.5 34.5q-12.5 8.5 -27.5 8.5q-29 0 -42 -27q-3 -5 -7.5 -15q-4.5 -10 -22.5 -10q-10 0 -14.5 5q-4.5 5 -4.5 10q0 7 6 17q6 10 18.5 19.5q12.5 9.5 31.5 16q19 6.5 45 6.5q24 0 39.5 -5.5q15.5 -5.5 24 -15.5q8.5 -10 12 -22.5q3.5 -12.5 3.5 -25.5q0 -14 -2.5 -27q-2.5 -13 -4.5 -24l-19 -88q-4 -18 -1.5 -27.5q2.5 -9.5 8.5 -13q6 -3.5 13.5 -2.5q7.5 1 12.5 3zM258 577q-21 0 -42.5 -5.5q-21.5 -5.5 -39 -16q-17.5 -10.5 -28.5 -26q-11 -15.5 -11 -35.5q0 -20 10.5 -28.5q10.5 -8.5 29.5 -8.5q31 0 48.5 24.5q17.5 24.5 27.5 71.5zM55 398h263l-5 -23l-263 0z" />
<glyph unicode="&#171;" horiz-adv-x="532" d="M30 194l234 173l20 -19l-173 -153v-4l146 -135l-18 -17zM231 194l233 173l18 -17l-178 -155v-4l153 -135l-17 -17z" />
<glyph unicode="&#172;" horiz-adv-x="691" d="M70 230h551v-154h-49v104l-502 0z" />
<glyph unicode="&#173;" horiz-adv-x="370" d="M91 253h134q11 0 27.5 3q16.5 3 23.5 24l24 0l-18 -93h-137q-10 0 -21 -0.5q-11 -0.5 -19 -7.5q-3 -2 -5.5 -6q-2.5 -4 -8.5 -13l-21 0z" />
<glyph unicode="&#174;" horiz-adv-x="846" d="M80 349q0 74 28 139.5q28 65.5 76.5 114q48.5 48.5 114 76.5q65.5 28 139.5 28q74 0 139.5 -28q65.5 -28 114 -76.5q48.5 -48.5 76.5 -114q28 -65.5 28 -139.5q0 -74 -28 -139.5q-28 -65.5 -76.5 -114q-48.5 -48.5 -114 -76.5q-65.5 -28 -139.5 -28q-74 0 -139.5 28q-65.5 28 -114 76.5q-48.5 48.5 -76.5 114q-28 65.5 -28 139.5zt0 0zM122 349q0 -66 25 -123.5q25 -57.5 67.5 -100q42.5 -42.5 100 -67.5q57.5 -25 123.5 -25q66 0 123.5 25q57.5 25 100 67.5q42.5 42.5 67.5 100q25 57.5 25 123.5q0 66 -25 123.5q-25 57.5 -67.5 100q-42.5 42.5 -100 67.5q-57.5 25 -123.5 25q-66 0 -123.5 -25q-57.5 -25 -100 -67.5q-42.5 -42.5 -67.5 -100q-25 -57.5 -25 -123.5zt0 0zM467 535q13 0 32 -3q19 -3 37 -12.5q18 -9.5 30.5 -27.5q12.5 -18 12.5 -48q0 -6 -1 -18.5q-1 -12.5 -7.5 -27q-6.5 -14.5 -22 -28q-15.5 -13.5 -43.5 -19.5l74 -115q7 -10 10.5 -15.5q3.5 -5.5 8 -9q4.5 -3.5 10.5 -6q6 -2.5 17 -6.5l0 -22h-72l-98 162h-81v-108q0 -7 4 -16.5q4 -9.5 24 -15.5l0 -22h-109v22q17 5 24 13.5q7 8.5 7 28.5v235q0 5 -1 14.5q-1 9.5 -7 16.5q-4 4 -11 7q-7 3 -12 4l0 17zM425 365q11 0 27.5 2q16.5 2 32 9.5q15.5 7.5 26.5 22q11 14.5 11 40.5q0 28 -12 42.5q-12 14.5 -27.5 20.5q-15.5 6 -32 6.5q-16.5 0.5 -25.5 0.5h-51l0 -144z" />
<glyph unicode="&#175;" horiz-adv-x="419" d="M409 593l-11 -53h-278l11 53z" />
<glyph unicode="&#176;" horiz-adv-x="340" d="M70 608q0 21 8 39q8 18 21.5 31.5q13.5 13.5 32 21.5q18.5 8 38.5 8q20 0 38.5 -8q18.5 -8 32 -21.5q13.5 -13.5 21.5 -31.5q8 -18 8 -39q0 -21 -8 -39q-8 -18 -21.5 -31.5q-13.5 -13.5 -32 -21q-18.5 -7.5 -38.5 -7.5q-20 0 -38.5 7.5q-18.5 7.5 -32 21q-13.5 13.5 -21.5 31.5q-8 18 -8 39zt0 0zM107 608q0 -23 18 -43q18 -20 45 -20q25 0 44 18.5q19 18.5 19 44.5q0 22 -16.5 42.5q-16.5 20.5 -46.5 20.5q-16 0 -28 -6q-12 -6 -19.5 -15.5q-7.5 -9.5 -11.5 -20.5t-4 -21z" />
<glyph unicode="&#177;" horiz-adv-x="718" d="M334 134v249h-264v50h264v258h50v-258h264v-50h-264v-249zM70 50h578v-50l-578 0z" />
<glyph unicode="&#178;" horiz-adv-x="347" d="M284 212h-274l5 27q34 30 73 68q39 38 75 77q36 39 66 76.5q30 37.5 47 65.5q7 11 17 34.5q10 23.5 10 49.5q0 27 -17 41q-17 14 -44 14q-17 0 -45 -12q-28 -12 -64 -50l-18 13q25 30 48 48q23 18 43 27.5q20 9.5 38 13q18 3.5 33 3.5q29 0 48 -7.5q19 -7.5 30.5 -19.5q11.5 -12 16 -25.5q4.5 -13.5 4.5 -25.5q0 -24 -9 -48.5q-9 -24.5 -24 -47.5q-15 -23 -34 -45q-19 -22 -38 -43q-15 -15 -37.5 -37.5q-22.5 -22.5 -48 -46.5q-25.5 -24 -51.5 -47q-26 -23 -46 -40l-1 -3h127q36 0 56.5 10q20.5 10 39.5 39l24 0z" />
<glyph unicode="&#179;" horiz-adv-x="347" d="M120 642q42 41 77 54q35 13 58 13q9 0 26.5 -2q17.5 -2 34 -10q16.5 -8 29 -23q12.5 -15 12.5 -40q0 -41 -24 -70q-14 -17 -34.5 -29q-20.5 -12 -44.5 -24l0 -4q10 -2 23 -7q13 -5 25 -15q12 -10 20 -26.5q8 -16.5 8 -41.5q0 -25 -9 -52.5q-9 -27.5 -28.5 -54q-19.5 -26.5 -49.5 -49q-30 -22.5 -72 -37.5q-45 -16 -93 -16q-20 0 -34 2.5q-14 2.5 -24 4.5l4 20q10 -3 20 -2.5q10 0.5 26 0.5q22 0 48.5 7q26.5 7 53.5 23q23 14 40 33q17 19 28.5 39.5q11.5 20.5 17 41.5q5.5 21 5.5 38q0 20 -15.5 39q-15.5 19 -55.5 19q-9 0 -19.5 -1q-10.5 -1 -21.5 -5l-6 17q26 10 54 23.5q28 13.5 51 31q23 17.5 38 40q15 22.5 15 49.5q0 17 -14 32.5q-14 15.5 -47 15.5q-28 0 -55.5 -13.5q-27.5 -13.5 -54.5 -34.5z" />
<glyph unicode="&#180;" horiz-adv-x="244" d="M239 649q8 8 18.5 14q10.5 6 23.5 6q33 0 33 -31v-6q-2 -11 -7 -18.5q-5 -7.5 -12 -13.5q-14 -11 -33 -21l-130 -76l-11 16z" />
<glyph unicode="&#181;" horiz-adv-x="495" d="M436 385l-61 -289q-1 -3 -3.5 -16.5q-2.5 -13.5 -2.5 -20.5q0 -13 6 -18q6 -5 14 -5q11 0 22.5 5.5q11.5 5.5 28.5 16.5l15 -16q-23 -20 -45.5 -36q-22.5 -16 -49.5 -16q-19 0 -33 11.5q-14 11.5 -14 34.5q0 11 3 26.5q3 15.5 5 24.5l-3 0q-21 -42 -58.5 -69.5q-37.5 -27.5 -75.5 -27.5q-10 0 -25 3q-15 3 -28.5 13q-13.5 10 -22.5 29q-9 19 -7 51l-6 0q-6 -44 -8 -72.5q-2 -28.5 -2.5 -49q-0.5 -20.5 -1 -35.5q-0.5 -15 -1.5 -33q-2 -34 -11.5 -57q-9.5 -23 -40.5 -23q-20 0 -29 8.5q-9 8.5 -11 21q-2 12.5 1 27q3 14.5 7 27.5q5 17 8.5 27q3.5 10 7.5 20.5q4 10.5 8.5 26q4.5 15.5 12.5 44.5q4 18 7 29.5q3 11.5 5 20.5q2 9 4 16.5q2 7.5 4 18.5l58 282h70l-48 -231q-1 -6 -2.5 -15.5q-1.5 -9.5 -3 -19.5q-1.5 -10 -2.5 -19q-1 -9 -1 -13q0 -8 3.5 -17.5q3.5 -9.5 11.5 -17.5q8 -8 20.5 -13.5q12.5 -5.5 30.5 -5.5q23 0 43.5 10q20.5 10 37.5 26q24 23 32.5 45.5q8.5 22.5 12.5 41.5l48 229z" />
<glyph unicode="&#182;" horiz-adv-x="605" d="M244 429q-23 -1 -53 3q-30 4 -57 18q-27 14 -45.5 41q-18.5 27 -18.5 72q0 39 13.5 64.5q13.5 25.5 36 40.5q22.5 15 51 21q28.5 6 58.5 6h306v-39h-55v-853h-60v853h-116v-853l-60 0z" />
<glyph unicode="&#183;" horiz-adv-x="244" d="M70 326q0 22 15 37q15 15 37 15q22 0 37 -15q15 -15 15 -37q0 -22 -15 -37q-15 -15 -37 -15q-22 0 -37 15t-15 37z" />
<glyph unicode="&#184;" horiz-adv-x="200" d="M56 4h37l-41 -39v-1q6 1 13 1.5q7 0.5 14 0.5q16 0 31.5 -3.5q15.5 -3.5 27.5 -11.5q14 -11 18 -22.5q4 -11.5 4 -20.5v-8q-2 -14 -11.5 -27.5q-9.5 -13.5 -26.5 -24.5q-16 -10 -32 -13q-16 -3 -31 -3q-15 0 -32.5 3q-17.5 3 -29.5 11q-13 8 -15 17.5q-2 9.5 -2 13.5q0 9 8 16.5q8 7.5 19 7.5q12 0 16.5 -6.5q4.5 -6.5 4.5 -13.5v-4l-1 -5q-2 -8 9 -13q11 -5 25 -5q26 0 44 15q5 5 10 11.5q5 6.5 7 17.5l0 5q0 8 -3.5 17q-3.5 9 -14.5 16q-4 2 -13 5q-9 3 -23 3q-8 0 -21.5 -2.5q-13.5 -2.5 -27.5 -8.5l-17 21z" />
<glyph unicode="&#185;" horiz-adv-x="347" d="M104 236q26 5 37 17q11 12 16 37l70 336q-19 -11 -35.5 -19.5q-16.5 -8.5 -47.5 -21.5l5 29q5 2 8.5 4q3.5 2 7.5 4q18 9 33 17.5q15 8.5 29 18q14 9.5 28.5 21.5q14.5 12 30.5 29l21 0l-87 -418q-2 -7 -2 -10.5q0 -3.5 0 -12.5q0 -11 4.5 -19q4.5 -8 26.5 -12l-5 -24l-144 0z" />
<glyph unicode="&#186;" horiz-adv-x="327" d="M59 398h250l-5 -23h-250zM249 708q37 0 58.5 -14q21.5 -14 32.5 -32q11 -18 14 -36q3 -18 3 -26q0 -25 -13 -60.5q-13 -35.5 -44 -66.5q-23 -22 -53 -34q-30 -12 -57 -12q-46 0 -76 27.5q-30 27.5 -30 81.5q0 22 4 36q4 14 12 33q14 32 33.5 52q19.5 20 39.5 31.5q20 11.5 40 15.5q20 4 36 4zt0 0zM249 686q-14 0 -28.5 -3.5q-14.5 -3.5 -28.5 -15.5q-14 -12 -26 -35.5q-12 -23.5 -20 -64.5q-6 -33 -6 -55q0 -22 5 -34.5q5 -12.5 12.5 -19q7.5 -6.5 17.5 -8q10 -1.5 19 -1.5q13 0 27.5 3.5q14.5 3.5 27.5 16q13 12.5 25 36q12 23.5 21 62.5q2 11 4.5 25.5q2.5 14.5 2.5 28.5q0 11 -2 22q-2 11 -7 20q-8 15 -19.5 19t-24.5 4z" />
<glyph unicode="&#187;" horiz-adv-x="532" d="M275 56l146 135v4l-173 153l20 19l234 -173l-209 -155zM75 56l153 135v4l-178 155l18 17l233 -173l-209 -155z" />
<glyph unicode="&#188;" horiz-adv-x="800" d="M124 236q26 5 37 17q11 12 16 37l70 336q-19 -11 -35.5 -19.5q-16.5 -8.5 -47.5 -21.5l5 29q21 11 38.5 20q17.5 9 33.5 19.5q16 10.5 31.5 23q15.5 12.5 33.5 31.5l21 0l-87 -418q-2 -7 -2 -10.5q0 -3.5 0 -12.5q0 -11 4.5 -19q4.5 -8 26.5 -12l-5 -24h-144zM130 -184l535 884h40l-537 -884zM699 -50h-61l-28 -134h-64l28 134h-160l11 56l240 306h48l-63 -305h8q10 0 19.5 5.5q9.5 5.5 20.5 32.5l22 0zM632 228h-3l-172 -219v-2l129 0z" />
<glyph unicode="&#189;" horiz-adv-x="800" d="M104 236q26 5 37 17q11 12 16 37l70 336q-19 -11 -35.5 -19.5q-16.5 -8.5 -47.5 -21.5l5 29q21 11 38.5 20q17.5 9 33.5 19.5q16 10.5 31.5 23q15.5 12.5 33.5 31.5l21 0l-87 -418q-2 -7 -2 -10.5q0 -3.5 0 -12.5q0 -11 4.5 -19q4.5 -8 26.5 -12l-5 -24h-144zM100 -184l535 884h40l-537 -884zM628 -184h-274l5 27q20 18 49.5 45q29.5 27 61.5 59.5q32 32.5 63.5 69q31.5 36.5 57 71.5q25.5 35 41 67.5q15.5 32.5 15.5 58.5q0 27 -17 41q-17 14 -44 14q-17 0 -45 -12q-28 -12 -64 -50l-18 13q25 30 48 48q23 18 43 27.5q20 9.5 38 13q18 3.5 33 3.5q29 0 47.5 -7.5q18.5 -7.5 30 -19.5q11.5 -12 16 -25.5q4.5 -13.5 5.5 -25.5q2 -31 -14 -64q-16 -33 -41 -64.5q-25 -31.5 -54 -60q-29 -28.5 -54 -52.5q-22 -21 -38 -36q-16 -15 -29.5 -27.5q-13.5 -12.5 -27 -24q-13.5 -11.5 -30.5 -26.5l-1 -3h127q36 0 56.5 10q20.5 10 39.5 39l24 0z" />
<glyph unicode="&#190;" horiz-adv-x="808" d="M168 641q42 41 77 54q35 13 58 13q9 0 26.5 -2q17.5 -2 34 -10q16.5 -8 29 -23q12.5 -15 12.5 -40q0 -24 -8 -42.5q-8 -18.5 -22 -32.5q-14 -14 -33 -26q-19 -12 -40 -22l0 -4q10 -2 23 -7q13 -5 25 -15q12 -10 20 -26.5q8 -16.5 8 -41.5q0 -40 -19.5 -77.5q-19.5 -37.5 -53.5 -67q-34 -29.5 -80 -47q-46 -17.5 -99 -17.5q-20 0 -34 2.5q-14 2.5 -24 4.5l4 20q10 -3 20 -2.5q10 0.5 26 0.5q22 0 48.5 7q26.5 7 53.5 23q23 14 41 33q18 19 29.5 39.5q11.5 20.5 16.5 41.5q5 21 4 38q-1 10 -5 20.5q-4 10.5 -12 18.5q-8 8 -21 13.5q-13 5.5 -33 5.5q-9 0 -19.5 -1q-10.5 -1 -21.5 -5l-6 17q26 10 54 23.5q28 13.5 51 31q23 17.5 38 40q15 22.5 15 49.5q0 17 -14 32.5q-14 15.5 -47 15.5q-28 0 -55.5 -13.5q-27.5 -13.5 -54.5 -34.5zM153 -184l535 884h40l-537 -884zM699 -50h-61l-28 -134h-64l28 134h-160l11 56l240 306h48l-63 -305h8q10 0 19.5 5.5q9.5 5.5 20.5 32.5l22 0zM639 228h-3l-172 -219v-2l129 0z" />
<glyph unicode="&#191;" horiz-adv-x="498" d="M348 201h-22q-14 14 -31.5 22.5q-17.5 8.5 -33.5 8.5q-9 0 -28.5 -5q-19.5 -5 -39 -25.5q-19.5 -20.5 -34 -61.5q-14.5 -41 -14.5 -112q0 -44 7 -75q7 -31 16.5 -50.5q9.5 -19.5 20.5 -28.5q11 -9 20 -9q11 0 15 9q4 9 7 15q5 9 12 14.5q7 5.5 19 5.5q15 0 30 -8.5q15 -8.5 15 -29.5q0 -27 -18 -41q-18 -14 -41 -14q-18 0 -43.5 8.5q-25.5 8.5 -54.5 38.5q-38 38 -59 95.5q-21 57.5 -21 123.5q0 60 15.5 101.5q15.5 41.5 38 67q22.5 25.5 48 36.5q25.5 11 45.5 11q26 0 56 -11.5q30 -11.5 53 -33.5l24 114h33zM316 468q0 23 16.5 39.5q16.5 16.5 39.5 16.5q23 0 39.5 -16.5q16.5 -16.5 16.5 -39.5q0 -23 -16.5 -39.5q-16.5 -16.5 -39.5 -16.5q-23 0 -39.5 16.5t-16.5 39.5z" />
<glyph unicode="&#192;" horiz-adv-x="672" d="M-43 34q30 3 51.5 15.5q21.5 12.5 38 29q16.5 16.5 28.5 34.5q12 18 23 32l428 563h36l-8 -605q0 -21 3.5 -34q3.5 -13 11.5 -20.5q8 -7.5 21 -11q13 -3.5 32 -3.5l-7 -34h-207l7 34q18 1 29 5q11 4 17 11.5q6 7.5 8 19q2 11.5 2 27.5l3 116h-272l-88 -116q-11 -14 -16.5 -23q-5.5 -9 -5.5 -17q0 -6 6.5 -14.5q6.5 -8.5 28.5 -8.5h6l-6 -34h-177zM478 570h-6l-238 -314v-4h237zM566 737l-140 55q-8 3 -16 6.5q-8 3.5 -16 8.5q-7 4 -14 12q-7 8 -7 22v6q2 15 13.5 25.5q11.5 10.5 29.5 10.5q8 0 17 -3q11 -4 19.5 -9.5q8.5 -5.5 16.5 -12.5l111 -100z" />
<glyph unicode="&#193;" horiz-adv-x="672" d="M-43 34q30 3 51.5 15.5q21.5 12.5 38 29q16.5 16.5 28.5 34.5q12 18 23 32l428 563h36l-8 -605q0 -21 3.5 -34q3.5 -13 11.5 -20.5q8 -7.5 21 -11q13 -3.5 32 -3.5l-7 -34h-207l7 34q18 1 29 5q11 4 17 11.5q6 7.5 8 19q2 11.5 2 27.5l3 116h-272l-88 -116q-11 -14 -16.5 -23q-5.5 -9 -5.5 -17q0 -6 6.5 -14.5q6.5 -8.5 28.5 -8.5h6l-6 -34h-177zM478 570h-6l-238 -314v-4h237zM547 858q8 6 19 12.5q11 6.5 21 9.5q9 3 19 3q15 0 25 -8.5q10 -8.5 10 -22.5v-5q-2 -17 -12 -26q-10 -9 -17 -14q-11 -7 -21.5 -10.5q-10.5 -3.5 -17.5 -5.5l-149 -54l-8 21z" />
<glyph unicode="&#194;" horiz-adv-x="672" d="M-43 34q30 3 51.5 15.5q21.5 12.5 38 29q16.5 16.5 28.5 34.5q12 18 23 32l428 563h36l-8 -605q0 -21 3.5 -34q3.5 -13 11.5 -20.5q8 -7.5 21 -11q13 -3.5 32 -3.5l-7 -34h-207l7 34q18 1 29 5q11 4 17 11.5q6 7.5 8 19q2 11.5 2 27.5l3 116h-272l-88 -116q-11 -14 -16.5 -23q-5.5 -9 -5.5 -17q0 -6 6.5 -14.5q6.5 -8.5 28.5 -8.5h6l-6 -34h-177zM478 570h-6l-238 -314v-4h237zM425 737h-34l139 145h55l103 -145h-35l-106 79z" />
<glyph unicode="&#195;" horiz-adv-x="672" d="M-43 34q30 3 51.5 15.5q21.5 12.5 38 29q16.5 16.5 28.5 34.5q12 18 23 32l428 563h36l-8 -605q0 -21 3.5 -34q3.5 -13 11.5 -20.5q8 -7.5 21 -11q13 -3.5 32 -3.5l-7 -34h-207l7 34q18 1 29 5q11 4 17 11.5q6 7.5 8 19q2 11.5 2 27.5l3 116h-272l-88 -116q-11 -14 -16.5 -23q-5.5 -9 -5.5 -17q0 -6 6.5 -14.5q6.5 -8.5 28.5 -8.5h6l-6 -34h-177zM478 570h-6l-238 -314v-4h237zM727 831q-22 -32 -52 -57.5q-30 -25.5 -70 -25.5q-20 0 -41.5 4q-21.5 4 -46.5 10q-23 6 -40 11q-17 5 -34 5q-17 0 -35.5 -8q-18.5 -8 -29.5 -22l-19 0q22 38 52 60.5q30 22.5 72 22.5q21 0 46.5 -5q25.5 -5 60.5 -15q8 -2 21.5 -5.5q13.5 -3.5 29.5 -3.5q17 0 33.5 6q16.5 6 28.5 23z" />
<glyph unicode="&#196;" horiz-adv-x="672" d="M-43 34q30 3 51.5 15.5q21.5 12.5 38 29q16.5 16.5 28.5 34.5q12 18 23 32l428 563h36l-8 -605q0 -21 3.5 -34q3.5 -13 11.5 -20.5q8 -7.5 21 -11q13 -3.5 32 -3.5l-7 -34h-207l7 34q18 1 29 5q11 4 17 11.5q6 7.5 8 19q2 11.5 2 27.5l3 116h-272l-88 -116q-11 -14 -16.5 -23q-5.5 -9 -5.5 -17q0 -6 6.5 -14.5q6.5 -8.5 28.5 -8.5h6l-6 -34h-177zM478 570h-6l-238 -314v-4h237zM382 796q0 23 15.5 38.5q15.5 15.5 38.5 15.5q23 0 38.5 -15.5q15.5 -15.5 15.5 -38.5q0 -23 -15.5 -38.5q-15.5 -15.5 -38.5 -15.5q-23 0 -38.5 15.5q-15.5 15.5 -15.5 38.5zt0 0zM592 796q0 23 15.5 38.5q15.5 15.5 38.5 15.5q23 0 38.5 -15.5q15.5 -15.5 15.5 -38.5q0 -23 -15.5 -38.5q-15.5 -15.5 -38.5 -15.5q-23 0 -38.5 15.5t-15.5 38.5z" />
<glyph unicode="&#197;" horiz-adv-x="672" d="M-43 34q30 3 51.5 15.5q21.5 12.5 38 29q16.5 16.5 28.5 34.5q12 18 23 32l428 563h36l-8 -605q0 -21 3.5 -34q3.5 -13 11.5 -20.5q8 -7.5 21 -11q13 -3.5 32 -3.5l-7 -34h-207l7 34q18 1 29 5q11 4 17 11.5q6 7.5 8 19q2 11.5 2 27.5l3 116h-272l-88 -116q-11 -14 -16.5 -23q-5.5 -9 -5.5 -17q0 -6 6.5 -14.5q6.5 -8.5 28.5 -8.5h6l-6 -34h-177zM478 570h-6l-238 -314v-4h237zM450 844q0 21 7.5 39q7.5 18 21 31.5q13.5 13.5 32 21.5q18.5 8 39.5 8q21 0 39 -8q18 -8 31.5 -21.5q13.5 -13.5 21.5 -31.5q8 -18 8 -39q0 -21 -8 -39.5q-8 -18.5 -21.5 -32q-13.5 -13.5 -31.5 -21q-18 -7.5 -39 -7.5q-21 0 -39.5 7.5q-18.5 7.5 -32 21q-13.5 13.5 -21 32q-7.5 18.5 -7.5 39.5zt0 0zM486 844q0 -26 19 -45q19 -19 45 -19q26 0 45 19q19 19 19 45q0 26 -19 45q-19 19 -45 19q-26 0 -45 -19t-19 -45z" />
<glyph unicode="&#198;" horiz-adv-x="1074" d="M865 700q5 0 11 0q6 0 18 1q12 1 31.5 2q19.5 1 52.5 3q17 1 27.5 1.5q10.5 0.5 28.5 0.5l-29 -134h-30q0 34 -9.5 52q-9.5 18 -23.5 26q-14 8 -31 8.5q-17 0.5 -31 0.5h-162l-60 -283h110q14 0 31 1.5q17 1.5 32.5 7.5q15.5 6 29 19q13.5 13 21.5 36l30 0l-39 -176h-30q1 25 -6 40q-7 15 -19.5 22q-12.5 7 -28.5 9q-16 2 -32 2h-107l-63 -300h141q33 0 64 3.5q31 3.5 60 15q29 11.5 55.5 34q26.5 22.5 51.5 60.5l30 0l-47 -152h-510l7 34q35 2 51 24.5q16 22.5 24 59.5l21 95h-270l-107 -108q-26 -26 -34 -35q-8 -9 -10 -15q-2 -5 0 -8q3 -8 15 -10q12 -2 22 -3l-7 -34h-184l7 34q22 0 41 6.5q19 6.5 39.5 20.5q20.5 14 43 35q22.5 21 50.5 49l422 425q8 8 17 18q9 10 16.5 20.5q7.5 10.5 12.5 21q5 10.5 5 19.5q0 12 -13 15q-13 3 -26 2l7 34zM604 548h-7l-289 -292l-1 -4l236 0z" />
<glyph unicode="&#199;" horiz-adv-x="668" d="M628 545h-30q-14 36 -33.5 59.5q-19.5 23.5 -42 38q-22.5 14.5 -47.5 20.5q-25 6 -50 6q-55 0 -104 -28.5q-49 -28.5 -86 -77q-37 -48.5 -58.5 -114q-21.5 -65.5 -21.5 -140.5q0 -73 19 -123q19 -50 49.5 -81q30.5 -31 70 -45q39.5 -14 81.5 -14q34 0 64 7.5q30 7.5 53.5 17q23.5 9.5 39 18.5q15.5 9 20.5 12l20 -25q-61 -45 -119 -64.5q-58 -19.5 -111 -19.5q-5 0 -8.5 0q-3.5 0 -8.5 1l-53 -49l1 -1q22 6 46 6q21 0 43 -5.5q22 -5.5 38 -19.5q16 -14 18.5 -30q2.5 -16 2.5 -32q0 -21 -12 -36q-12 -15 -24 -26q-19 -16 -46 -25q-27 -9 -58 -9q-23 0 -46.5 6.5q-23.5 6.5 -40.5 22.5q-10 9 -11 15.5q-1 6.5 -1 14.5q0 13 9.5 23.5q9.5 10.5 24.5 10.5q17 0 21.5 -9q4.5 -9 4.5 -16q0 -8 -1 -10q-1 -2 -1 -6q0 -5 8.5 -14q8.5 -9 37.5 -9q12 0 27 2q15 2 29 12q11 7 20.5 18.5q9.5 11.5 9.5 28.5q0 17 -4 29.5q-4 12.5 -17 20.5q-11 7 -24.5 10q-13.5 3 -27.5 3q-34 0 -68 -17l-17 28l77 67q-50 9 -92.5 34q-42.5 25 -73 62.5q-30.5 37.5 -48 86.5q-17.5 49 -17.5 105q0 89 29.5 166.5q29.5 77.5 79 134.5q49.5 57 114 89.5q64.5 32.5 135.5 32.5q19 0 37.5 -2.5q18.5 -2.5 37.5 -6.5q34 -7 47.5 -10.5q13.5 -3.5 23.5 -3.5q8 0 18.5 5q10.5 5 15.5 18l23 0z" />
<glyph unicode="&#200;" horiz-adv-x="646" d="M442 700q5 0 11 0q6 0 18 1q12 1 31.5 2q19.5 1 52.5 3q17 1 27.5 1.5q10.5 0.5 28.5 0.5l-29 -134h-30q0 34 -9.5 52q-9.5 18 -23.5 26q-14 8 -31 8.5q-17 0.5 -31 0.5h-160l-60 -283h108q14 0 31 1.5q17 1.5 32.5 7.5q15.5 6 29 19q13.5 13 21.5 36l30 0l-39 -176h-30q1 25 -6 40q-7 15 -19.5 22q-12.5 7 -28.5 9q-16 2 -32 2h-105l-63 -300h139q33 0 64 3.5q31 3.5 60 15q29 11.5 55.5 34q26.5 22.5 51.5 60.5l30 0l-47 -152h-509l7 34q33 4 50 22q17 18 25 55l100 477q2 9 3 14.5q1 5.5 1 16.5q0 6 -1 13.5q-1 7.5 -5.5 14q-4.5 6.5 -14 12q-9.5 5.5 -25.5 7.5l7 34zM468 737l-140 55q-8 3 -16 6.5q-8 3.5 -16 8.5q-7 4 -14 12q-7 8 -7 22v6q2 15 13.5 25.5q11.5 10.5 29.5 10.5q8 0 17 -3q11 -4 19.5 -9.5q8.5 -5.5 16.5 -12.5l111 -100z" />
<glyph unicode="&#201;" horiz-adv-x="646" d="M442 700q5 0 11 0q6 0 18 1q12 1 31.5 2q19.5 1 52.5 3q17 1 27.5 1.5q10.5 0.5 28.5 0.5l-29 -134h-30q0 34 -9.5 52q-9.5 18 -23.5 26q-14 8 -31 8.5q-17 0.5 -31 0.5h-160l-60 -283h108q14 0 31 1.5q17 1.5 32.5 7.5q15.5 6 29 19q13.5 13 21.5 36l30 0l-39 -176h-30q1 25 -6 40q-7 15 -19.5 22q-12.5 7 -28.5 9q-16 2 -32 2h-105l-63 -300h139q33 0 64 3.5q31 3.5 60 15q29 11.5 55.5 34q26.5 22.5 51.5 60.5l30 0l-47 -152h-509l7 34q33 4 50 22q17 18 25 55l100 477q2 9 3 14.5q1 5.5 1 16.5q0 6 -1 13.5q-1 7.5 -5.5 14q-4.5 6.5 -14 12q-9.5 5.5 -25.5 7.5l7 34zM421 858q8 6 19 12.5q11 6.5 21 9.5q9 3 19 3q15 0 25 -8.5q10 -8.5 10 -22.5v-5q-2 -17 -12 -26q-10 -9 -17 -14q-11 -7 -21.5 -10.5q-10.5 -3.5 -17.5 -5.5l-149 -54l-8 21z" />
<glyph unicode="&#202;" horiz-adv-x="646" d="M442 700q5 0 11 0q6 0 18 1q12 1 31.5 2q19.5 1 52.5 3q17 1 27.5 1.5q10.5 0.5 28.5 0.5l-29 -134h-30q0 34 -9.5 52q-9.5 18 -23.5 26q-14 8 -31 8.5q-17 0.5 -31 0.5h-160l-60 -283h108q14 0 31 1.5q17 1.5 32.5 7.5q15.5 6 29 19q13.5 13 21.5 36l30 0l-39 -176h-30q1 25 -6 40q-7 15 -19.5 22q-12.5 7 -28.5 9q-16 2 -32 2h-105l-63 -300h139q33 0 64 3.5q31 3.5 60 15q29 11.5 55.5 34q26.5 22.5 51.5 60.5l30 0l-47 -152h-509l7 34q33 4 50 22q17 18 25 55l100 477q2 9 3 14.5q1 5.5 1 16.5q0 6 -1 13.5q-1 7.5 -5.5 14q-4.5 6.5 -14 12q-9.5 5.5 -25.5 7.5l7 34zM302 737h-34l139 145h55l103 -145h-35l-106 79z" />
<glyph unicode="&#203;" horiz-adv-x="646" d="M442 700q5 0 11 0q6 0 18 1q12 1 31.5 2q19.5 1 52.5 3q17 1 27.5 1.5q10.5 0.5 28.5 0.5l-29 -134h-30q0 34 -9.5 52q-9.5 18 -23.5 26q-14 8 -31 8.5q-17 0.5 -31 0.5h-160l-60 -283h108q14 0 31 1.5q17 1.5 32.5 7.5q15.5 6 29 19q13.5 13 21.5 36l30 0l-39 -176h-30q1 25 -6 40q-7 15 -19.5 22q-12.5 7 -28.5 9q-16 2 -32 2h-105l-63 -300h139q33 0 64 3.5q31 3.5 60 15q29 11.5 55.5 34q26.5 22.5 51.5 60.5l30 0l-47 -152h-509l7 34q33 4 50 22q17 18 25 55l100 477q2 9 3 14.5q1 5.5 1 16.5q0 6 -1 13.5q-1 7.5 -5.5 14q-4.5 6.5 -14 12q-9.5 5.5 -25.5 7.5l7 34zM247 796q0 23 15.5 38.5q15.5 15.5 38.5 15.5q23 0 38.5 -15.5q15.5 -15.5 15.5 -38.5q0 -23 -15.5 -38.5q-15.5 -15.5 -38.5 -15.5q-23 0 -38.5 15.5q-15.5 15.5 -15.5 38.5zt0 0zM457 796q0 23 15.5 38.5q15.5 15.5 38.5 15.5q23 0 38.5 -15.5q15.5 -15.5 15.5 -38.5q0 -23 -15.5 -38.5q-15.5 -15.5 -38.5 -15.5q-23 0 -38.5 15.5t-15.5 38.5z" />
<glyph unicode="&#204;" horiz-adv-x="362" d="M17 34q33 4 50 22q17 18 25 55l100 477q2 8 3 15.5q1 7.5 1 18.5q0 26 -15.5 34q-15.5 8 -31.5 10l7 34h206l-7 -34q-20 -3 -33 -11q-13 -8 -21 -18.5q-8 -10.5 -12 -23q-4 -12.5 -7 -26.5l-100 -476q-2 -8 -3 -15.5q-1 -7.5 -1 -16.5q0 -39 45 -45l-7 -34h-206zM329 737l-140 55q-8 3 -16 6.5q-8 3.5 -16 8.5q-7 4 -14 12q-7 8 -7 22v6q2 15 13.5 25.5q11.5 10.5 29.5 10.5q8 0 17 -3q11 -4 19.5 -9.5q8.5 -5.5 16.5 -12.5l111 -100z" />
<glyph unicode="&#205;" horiz-adv-x="362" d="M17 34q33 4 50 22q17 18 25 55l100 477q2 8 3 15.5q1 7.5 1 18.5q0 26 -15.5 34q-15.5 8 -31.5 10l7 34h206l-7 -34q-20 -3 -33 -11q-13 -8 -21 -18.5q-8 -10.5 -12 -23q-4 -12.5 -7 -26.5l-100 -476q-2 -8 -3 -15.5q-1 -7.5 -1 -16.5q0 -39 45 -45l-7 -34h-206zM299 858q8 6 19 12.5q11 6.5 21 9.5q9 3 19 3q15 0 25 -8.5q10 -8.5 10 -22.5v-5q-2 -17 -12 -26q-10 -9 -17 -14q-11 -7 -21.5 -10.5q-10.5 -3.5 -17.5 -5.5l-149 -54l-8 21z" />
<glyph unicode="&#206;" horiz-adv-x="362" d="M17 34q33 4 50 22q17 18 25 55l100 477q2 8 3 15.5q1 7.5 1 18.5q0 26 -15.5 34q-15.5 8 -31.5 10l7 34h206l-7 -34q-20 -3 -33 -11q-13 -8 -21 -18.5q-8 -10.5 -12 -23q-4 -12.5 -7 -26.5l-100 -476q-2 -8 -3 -15.5q-1 -7.5 -1 -16.5q0 -39 45 -45l-7 -34h-206zM150 737h-34l139 145h55l103 -145h-35l-106 79z" />
<glyph unicode="&#207;" horiz-adv-x="362" d="M17 34q33 4 50 22q17 18 25 55l100 477q2 8 3 15.5q1 7.5 1 18.5q0 26 -15.5 34q-15.5 8 -31.5 10l7 34h206l-7 -34q-20 -3 -33 -11q-13 -8 -21 -18.5q-8 -10.5 -12 -23q-4 -12.5 -7 -26.5l-100 -476q-2 -8 -3 -15.5q-1 -7.5 -1 -16.5q0 -39 45 -45l-7 -34h-206zM140 856q0 23 16.5 39.5q16.5 16.5 39.5 16.5q23 0 39.5 -16.5q16.5 -16.5 16.5 -39.5q0 -23 -16.5 -39.5q-16.5 -16.5 -39.5 -16.5q-23 0 -39.5 16.5q-16.5 16.5 -16.5 39.5zt0 0zM310 856q0 23 16.5 39.5q16.5 16.5 39.5 16.5q23 0 39.5 -16.5q16.5 -16.5 16.5 -39.5q0 -23 -16.5 -39.5q-16.5 -16.5 -39.5 -16.5q-23 0 -39.5 16.5t-16.5 39.5z" />
<glyph unicode="&#208;" horiz-adv-x="768" d="M363 700q52 0 100 -7q48 -7 90 -26q42 -19 76 -51.5q34 -32.5 58 -83.5q16 -34 23.5 -70q7.5 -36 7.5 -73q0 -65 -17 -121q-17 -56 -46 -100.5q-29 -44.5 -67.5 -78q-38.5 -33.5 -82.5 -53.5q-51 -23 -98 -29.5q-47 -6.5 -96 -6.5h-301l7 34q32 4 49.5 22q17.5 18 25.5 55l47 228h-95l8 39h95l44 210q2 8 2.5 13q0.5 5 1.5 13q0 4 0.5 7q0.5 3 -0.5 7q-2 11 -7 18q-5 7 -11 11q-6 4 -12 5.5q-6 1.5 -9 2.5q-2 0 -3 0.5q-1 0.5 -3 0.5l7 34zM238 378h101l-8 -39h-101l-63 -300h136q43 0 89.5 8.5q46.5 8.5 95.5 46.5q30 24 55 58.5q25 34.5 43 76.5q18 42 27.5 89q9.5 47 9.5 97q0 30 -5.5 59.5q-5.5 29.5 -16.5 57.5q-18 43 -46 69q-28 26 -60.5 39q-32.5 13 -67 17q-34.5 4 -65.5 4l-65 0z" />
<glyph unicode="&#209;" horiz-adv-x="705" d="M299 700l194 -516h9l1 10l79 387q2 13 5 23.5q3 10.5 3 21.5q0 12 -5 20q-5 8 -12.5 12.5q-7.5 4.5 -16 6q-8.5 1.5 -16.5 1.5v34h165l-8 -34q-23 0 -36 -9q-13 -9 -21 -23q-8 -14 -12 -32.5q-4 -18.5 -8 -36.5l-118 -565h-30l-229 609h-7l-103 -490q-2 -12 -5 -23q-3 -11 -3 -22q0 -12 5 -20q5 -8 12.5 -12.5q7.5 -4.5 16 -6q8.5 -1.5 16.5 -1.5v-34h-165l8 34q22 0 35.5 9q13.5 9 21.5 23q8 14 12 32.5q4 18.5 8 36.5l94 446q3 14 5 24q2 10 2 20q0 35 -47 41l7 34zM630 831q-22 -32 -52 -57.5q-30 -25.5 -70 -25.5q-20 0 -41.5 4q-21.5 4 -46.5 10q-23 6 -40 11q-17 5 -34 5q-17 0 -35.5 -8q-18.5 -8 -29.5 -22l-19 0q22 38 52 60.5q30 22.5 72 22.5q21 0 46.5 -5q25.5 -5 60.5 -15q8 -2 21.5 -5.5q13.5 -3.5 29.5 -3.5q17 0 33.5 6q16.5 6 28.5 23z" />
<glyph unicode="&#210;" horiz-adv-x="776" d="M432 708q73 0 128 -27q55 -27 92 -70q37 -43 55.5 -97q18.5 -54 18.5 -109q0 -69 -23 -142q-23 -73 -69.5 -133q-46.5 -60 -117.5 -99q-71 -39 -166 -39q-63 0 -116 22.5q-53 22.5 -92 62.5q-39 40 -60.5 95q-21.5 55 -21.5 120q0 70 24.5 144q24.5 74 71.5 134.5q47 60.5 116.5 99q69.5 38.5 159.5 38.5zt0 0zM429 671q-55 0 -104.5 -29q-49.5 -29 -87 -81.5q-37.5 -52.5 -60 -126.5q-22.5 -74 -22.5 -164q0 -63 18 -109q18 -46 47 -75q29 -29 65 -43q36 -14 71 -14q62 0 112.5 35q50.5 35 86.5 90.5q36 55.5 56 125q20 69.5 20 138.5q0 56 -15 102.5q-15 46.5 -42 80q-27 33.5 -64 52q-37 18.5 -81 18.5zt0 0zM504 737l-140 55q-8 3 -16 6.5q-8 3.5 -16 8.5q-7 4 -14 12q-7 8 -7 22v6q2 15 13.5 25.5q11.5 10.5 29.5 10.5q8 0 17 -3q11 -4 19.5 -9.5q8.5 -5.5 16.5 -12.5l111 -100z" />
<glyph unicode="&#211;" horiz-adv-x="776" d="M432 708q73 0 128 -27q55 -27 92 -70q37 -43 55.5 -97q18.5 -54 18.5 -109q0 -69 -23 -142q-23 -73 -69.5 -133q-46.5 -60 -117.5 -99q-71 -39 -166 -39q-63 0 -116 22.5q-53 22.5 -92 62.5q-39 40 -60.5 95q-21.5 55 -21.5 120q0 70 24.5 144q24.5 74 71.5 134.5q47 60.5 116.5 99q69.5 38.5 159.5 38.5zt0 0zM429 671q-55 0 -104.5 -29q-49.5 -29 -87 -81.5q-37.5 -52.5 -60 -126.5q-22.5 -74 -22.5 -164q0 -63 18 -109q18 -46 47 -75q29 -29 65 -43q36 -14 71 -14q62 0 112.5 35q50.5 35 86.5 90.5q36 55.5 56 125q20 69.5 20 138.5q0 56 -15 102.5q-15 46.5 -42 80q-27 33.5 -64 52q-37 18.5 -81 18.5zt0 0zM447 858q8 6 19 12.5q11 6.5 21 9.5q9 3 19 3q15 0 25 -8.5q10 -8.5 10 -22.5v-5q-2 -17 -12 -26q-10 -9 -17 -14q-11 -7 -21.5 -10.5q-10.5 -3.5 -17.5 -5.5l-149 -54l-8 21z" />
<glyph unicode="&#212;" horiz-adv-x="776" d="M432 708q73 0 128 -27q55 -27 92 -70q37 -43 55.5 -97q18.5 -54 18.5 -109q0 -69 -23 -142q-23 -73 -69.5 -133q-46.5 -60 -117.5 -99q-71 -39 -166 -39q-63 0 -116 22.5q-53 22.5 -92 62.5q-39 40 -60.5 95q-21.5 55 -21.5 120q0 70 24.5 144q24.5 74 71.5 134.5q47 60.5 116.5 99q69.5 38.5 159.5 38.5zt0 0zM429 671q-55 0 -104.5 -29q-49.5 -29 -87 -81.5q-37.5 -52.5 -60 -126.5q-22.5 -74 -22.5 -164q0 -63 18 -109q18 -46 47 -75q29 -29 65 -43q36 -14 71 -14q62 0 112.5 35q50.5 35 86.5 90.5q36 55.5 56 125q20 69.5 20 138.5q0 56 -15 102.5q-15 46.5 -42 80q-27 33.5 -64 52q-37 18.5 -81 18.5zt0 0zM328 737h-34l139 145h55l103 -145h-35l-106 79z" />
<glyph unicode="&#213;" horiz-adv-x="776" d="M432 708q73 0 128 -27q55 -27 92 -70q37 -43 55.5 -97q18.5 -54 18.5 -109q0 -69 -23 -142q-23 -73 -69.5 -133q-46.5 -60 -117.5 -99q-71 -39 -166 -39q-63 0 -116 22.5q-53 22.5 -92 62.5q-39 40 -60.5 95q-21.5 55 -21.5 120q0 70 24.5 144q24.5 74 71.5 134.5q47 60.5 116.5 99q69.5 38.5 159.5 38.5zt0 0zM429 671q-55 0 -104.5 -29q-49.5 -29 -87 -81.5q-37.5 -52.5 -60 -126.5q-22.5 -74 -22.5 -164q0 -63 18 -109q18 -46 47 -75q29 -29 65 -43q36 -14 71 -14q62 0 112.5 35q50.5 35 86.5 90.5q36 55.5 56 125q20 69.5 20 138.5q0 56 -15 102.5q-15 46.5 -42 80q-27 33.5 -64 52q-37 18.5 -81 18.5zt0 0zM636 831q-22 -32 -52 -57.5q-30 -25.5 -70 -25.5q-20 0 -41.5 4q-21.5 4 -46.5 10q-23 6 -40 11q-17 5 -34 5q-17 0 -35.5 -8q-18.5 -8 -29.5 -22l-19 0q22 38 52 60.5q30 22.5 72 22.5q21 0 46.5 -5q25.5 -5 60.5 -15q8 -2 21.5 -5.5q13.5 -3.5 29.5 -3.5q17 0 33.5 6q16.5 6 28.5 23z" />
<glyph unicode="&#214;" horiz-adv-x="776" d="M432 708q73 0 128 -27q55 -27 92 -70q37 -43 55.5 -97q18.5 -54 18.5 -109q0 -69 -23 -142q-23 -73 -69.5 -133q-46.5 -60 -117.5 -99q-71 -39 -166 -39q-63 0 -116 22.5q-53 22.5 -92 62.5q-39 40 -60.5 95q-21.5 55 -21.5 120q0 70 24.5 144q24.5 74 71.5 134.5q47 60.5 116.5 99q69.5 38.5 159.5 38.5zt0 0zM429 671q-55 0 -104.5 -29q-49.5 -29 -87 -81.5q-37.5 -52.5 -60 -126.5q-22.5 -74 -22.5 -164q0 -63 18 -109q18 -46 47 -75q29 -29 65 -43q36 -14 71 -14q62 0 112.5 35q50.5 35 86.5 90.5q36 55.5 56 125q20 69.5 20 138.5q0 56 -15 102.5q-15 46.5 -42 80q-27 33.5 -64 52q-37 18.5 -81 18.5zt0 0zM295 796q0 23 15.5 38.5q15.5 15.5 38.5 15.5q23 0 38.5 -15.5q15.5 -15.5 15.5 -38.5q0 -23 -15.5 -38.5q-15.5 -15.5 -38.5 -15.5q-23 0 -38.5 15.5q-15.5 15.5 -15.5 38.5zt0 0zM505 796q0 23 15.5 38.5q15.5 15.5 38.5 15.5q23 0 38.5 -15.5q15.5 -15.5 15.5 -38.5q0 -23 -15.5 -38.5q-15.5 -15.5 -38.5 -15.5q-23 0 -38.5 15.5t-15.5 38.5z" />
<glyph unicode="&#215;" horiz-adv-x="520" d="M414 519l36 -36l-154 -154l154 -154l-36 -36l-154 154l-154 -154l-36 36l154 154l-154 154l36 36l154 -154z" />
<glyph unicode="&#216;" horiz-adv-x="776" d="M432 708q49 0 87 -11.5q38 -11.5 67 -30.5q29 -19 50 -42q21 -23 37 -47l88 66l29 -33l-96 -72q17 -38 24.5 -77q7.5 -39 7.5 -77q0 -78 -29.5 -149q-29.5 -71 -80.5 -125q-51 -54 -119.5 -86q-68.5 -32 -146.5 -32q-80 0 -134 30.5q-54 30.5 -94 81.5l-84 -65l-29 33l90 69q-20 43 -29 84.5q-9 41.5 -9 81.5q0 45 9.5 86.5q9.5 41.5 25.5 78q16 36.5 35.5 66.5q19.5 30 39.5 53q21 23 47.5 44q26.5 21 59 37.5q32.5 16.5 71 26q38.5 9.5 83.5 9.5zt0 0zM429 671q-54 0 -107.5 -29.5q-53.5 -29.5 -95.5 -92.5q-32 -48 -51.5 -116q-19.5 -68 -19.5 -142q0 -48 11 -100l445 339q-15 43 -37.5 70q-22.5 27 -47.5 43q-25 16 -50.5 22q-25.5 6 -46.5 6zt0 0zM181 148q16 -34 36.5 -57q20.5 -23 43.5 -36.5q23 -13.5 47.5 -19.5q24.5 -6 47.5 -6q63 0 114 36q51 36 86.5 92q35.5 56 54.5 124.5q19 68.5 19 133.5q0 37 -6 70z" />
<glyph unicode="&#217;" horiz-adv-x="687" d="M334 700l-7 -34q-20 -3 -33 -11q-13 -8 -21 -18.5q-8 -10.5 -12 -23q-4 -12.5 -7 -26.5l-64 -310q-6 -29 -10.5 -55q-4.5 -26 -4.5 -49q0 -29 9 -52.5q9 -23.5 32 -43.5q18 -16 43.5 -26q25.5 -10 60.5 -10q62 0 100 25.5q38 25.5 60.5 62q22.5 36.5 33 76.5q10.5 40 16.5 70l64 306q5 23 6 32.5q1 9.5 1 11.5q0 26 -16.5 33.5q-16.5 7.5 -32.5 7.5l8 34h157l-8 -34q-23 0 -36 -9q-13 -9 -21 -23q-8 -14 -12 -32.5q-4 -18.5 -8 -36.5l-66 -320q-7 -32 -20 -75.5q-13 -43.5 -40.5 -83q-27.5 -39.5 -73.5 -67q-46 -27.5 -118 -27.5q-51 0 -100 18q-49 18 -81 54q-26 29 -36 61q-10 32 -10 63q0 33 6.5 62.5q6.5 29.5 11.5 50.5l59 287q2 8 3 15q1 7 1 19q0 26 -15.5 34q-15.5 8 -31.5 10l7 34zM493 737l-140 55q-8 3 -16 6.5q-8 3.5 -16 8.5q-7 4 -14 12q-7 8 -7 22v6q2 15 13.5 25.5q11.5 10.5 29.5 10.5q8 0 17 -3q11 -4 19.5 -9.5q8.5 -5.5 16.5 -12.5l111 -100z" />
<glyph unicode="&#218;" horiz-adv-x="687" d="M334 700l-7 -34q-20 -3 -33 -11q-13 -8 -21 -18.5q-8 -10.5 -12 -23q-4 -12.5 -7 -26.5l-64 -310q-6 -29 -10.5 -55q-4.5 -26 -4.5 -49q0 -29 9 -52.5q9 -23.5 32 -43.5q18 -16 43.5 -26q25.5 -10 60.5 -10q62 0 100 25.5q38 25.5 60.5 62q22.5 36.5 33 76.5q10.5 40 16.5 70l64 306q5 23 6 32.5q1 9.5 1 11.5q0 26 -16.5 33.5q-16.5 7.5 -32.5 7.5l8 34h157l-8 -34q-23 0 -36 -9q-13 -9 -21 -23q-8 -14 -12 -32.5q-4 -18.5 -8 -36.5l-66 -320q-7 -32 -20 -75.5q-13 -43.5 -40.5 -83q-27.5 -39.5 -73.5 -67q-46 -27.5 -118 -27.5q-51 0 -100 18q-49 18 -81 54q-26 29 -36 61q-10 32 -10 63q0 33 6.5 62.5q6.5 29.5 11.5 50.5l59 287q2 8 3 15q1 7 1 19q0 26 -15.5 34q-15.5 8 -31.5 10l7 34zM560 858q8 6 19 12.5q11 6.5 21 9.5q9 3 19 3q15 0 25 -8.5q10 -8.5 10 -22.5v-5q-2 -17 -12 -26q-10 -9 -17 -14q-11 -7 -21.5 -10.5q-10.5 -3.5 -17.5 -5.5l-149 -54l-8 21z" />
<glyph unicode="&#219;" horiz-adv-x="687" d="M334 700l-7 -34q-20 -3 -33 -11q-13 -8 -21 -18.5q-8 -10.5 -12 -23q-4 -12.5 -7 -26.5l-64 -310q-6 -29 -10.5 -55q-4.5 -26 -4.5 -49q0 -29 9 -52.5q9 -23.5 32 -43.5q18 -16 43.5 -26q25.5 -10 60.5 -10q62 0 100 25.5q38 25.5 60.5 62q22.5 36.5 33 76.5q10.5 40 16.5 70l64 306q5 23 6 32.5q1 9.5 1 11.5q0 26 -16.5 33.5q-16.5 7.5 -32.5 7.5l8 34h157l-8 -34q-23 0 -36 -9q-13 -9 -21 -23q-8 -14 -12 -32.5q-4 -18.5 -8 -36.5l-66 -320q-7 -32 -20 -75.5q-13 -43.5 -40.5 -83q-27.5 -39.5 -73.5 -67q-46 -27.5 -118 -27.5q-51 0 -100 18q-49 18 -81 54q-26 29 -36 61q-10 32 -10 63q0 33 6.5 62.5q6.5 29.5 11.5 50.5l59 287q2 8 3 15q1 7 1 19q0 26 -15.5 34q-15.5 8 -31.5 10l7 34zM336 737h-34l139 145h55l103 -145h-35l-106 79z" />
<glyph unicode="&#220;" horiz-adv-x="687" d="M334 700l-7 -34q-20 -3 -33 -11q-13 -8 -21 -18.5q-8 -10.5 -12 -23q-4 -12.5 -7 -26.5l-64 -310q-6 -29 -10.5 -55q-4.5 -26 -4.5 -49q0 -29 9 -52.5q9 -23.5 32 -43.5q18 -16 43.5 -26q25.5 -10 60.5 -10q62 0 100 25.5q38 25.5 60.5 62q22.5 36.5 33 76.5q10.5 40 16.5 70l64 306q5 23 6 32.5q1 9.5 1 11.5q0 26 -16.5 33.5q-16.5 7.5 -32.5 7.5l8 34h157l-8 -34q-23 0 -36 -9q-13 -9 -21 -23q-8 -14 -12 -32.5q-4 -18.5 -8 -36.5l-66 -320q-7 -32 -20 -75.5q-13 -43.5 -40.5 -83q-27.5 -39.5 -73.5 -67q-46 -27.5 -118 -27.5q-51 0 -100 18q-49 18 -81 54q-26 29 -36 61q-10 32 -10 63q0 33 6.5 62.5q6.5 29.5 11.5 50.5l59 287q2 8 3 15q1 7 1 19q0 26 -15.5 34q-15.5 8 -31.5 10l7 34zM290 796q0 23 15.5 38.5q15.5 15.5 38.5 15.5q23 0 38.5 -15.5q15.5 -15.5 15.5 -38.5q0 -23 -15.5 -38.5q-15.5 -15.5 -38.5 -15.5q-23 0 -38.5 15.5q-15.5 15.5 -15.5 38.5zt0 0zM500 796q0 23 15.5 38.5q15.5 15.5 38.5 15.5q23 0 38.5 -15.5q15.5 -15.5 15.5 -38.5q0 -23 -15.5 -38.5q-15.5 -15.5 -38.5 -15.5q-23 0 -38.5 15.5t-15.5 38.5z" />
<glyph unicode="&#221;" horiz-adv-x="655" d="M128 609q-9 23 -26.5 40.5q-17.5 17.5 -51.5 16.5l7 34h211l-7 -34q-6 0 -13.5 -1.5q-7.5 -1.5 -15 -5q-7.5 -3.5 -12.5 -10.5q-5 -7 -5 -18q0 -9 3 -15.5q3 -6.5 6 -13.5l116 -276h4l197 261q20 26 24 36.5q4 10.5 4 15.5q0 12 -13.5 21q-13.5 9 -37.5 6l7 34h180l-7 -34q-18 0 -33.5 -7.5q-15.5 -7.5 -28 -19q-12.5 -11.5 -23.5 -25.5q-11 -14 -21 -27l-237 -315l-35 -161q-2 -8 -3 -15.5q-1 -7.5 -1 -16.5q0 -39 45 -45l-7 -34h-206l7 34q33 4 50 22q17 18 25 55l34 160zM459 858q8 6 19 12.5q11 6.5 21 9.5q9 3 19 3q15 0 25 -8.5q10 -8.5 10 -22.5v-5q-2 -17 -12 -26q-10 -9 -17 -14q-11 -7 -21.5 -10.5q-10.5 -3.5 -17.5 -5.5l-149 -54l-8 21z" />
<glyph unicode="&#222;" horiz-adv-x="600" d="M140 700h206l-7 -34q-32 -5 -49 -23.5q-17 -18.5 -24 -55.5l-3 -17h88q16 0 35 -1.5q19 -1.5 38.5 -4.5q19.5 -3 38.5 -8q19 -5 34 -13q17 -9 34 -22.5q17 -13.5 30 -32.5q13 -19 21 -43.5q8 -24.5 8 -53.5q0 -15 -3.5 -36.5q-3.5 -21.5 -15.5 -45q-12 -23.5 -34.5 -46.5q-22.5 -23 -60.5 -40q-45 -20 -90.5 -23q-45.5 -3 -90.5 -3h-112l-15 -72q-2 -11 -4 -27.5q-2 -16.5 -2 -25.5q0 -18 14 -27.5q14 -9.5 31 -10.5l-6 -34h-201l6 34q20 1 32.5 10.5q12.5 9.5 20 22.5q7.5 13 11.5 27.5q4 14.5 7 27.5l99 466q2 8 3 15.5q1 7.5 1 18.5q0 26 -15.5 34q-15.5 8 -31.5 10zM288 236q18 0 38.5 1.5q20.5 1.5 41 5.5q20.5 4 40 11.5q19.5 7.5 34.5 19.5q20 16 36.5 46.5q16.5 30.5 16.5 78.5q0 22 -7 50.5q-7 28.5 -35 51.5q-27 22 -62 26q-35 4 -68 4h-69l-62 -295z" />
<glyph unicode="&#223;" horiz-adv-x="455" d="M-20 -189l150 722q11 52 30.5 83q19.5 31 42.5 47.5q23 16.5 45.5 21.5q22.5 5 39.5 5q38 0 62.5 -14.5q24.5 -14.5 39 -36.5q14.5 -22 20 -47q5.5 -25 5.5 -46q0 -62 -36.5 -103q-36.5 -41 -93.5 -67l-1 -5q34 -10 56.5 -27q22.5 -17 36 -38q13.5 -21 19 -44.5q5.5 -23.5 5.5 -46.5q0 -42 -15 -82q-15 -40 -39.5 -71.5q-24.5 -31.5 -56.5 -51q-32 -19.5 -65 -19.5q-35 0 -61 19.5q-26 19.5 -26 51.5q0 14 9 25.5q9 11.5 26 11.5q22 0 28.5 -11.5q6.5 -11.5 6.5 -19.5q0 -8 -2.5 -13.5q-2.5 -5.5 -2.5 -13.5q0 -17 9 -19.5q9 -2.5 16 -2.5q13 0 29 11q16 11 30 34.5q14 23.5 24 60.5q10 37 10 90q0 24 -3 49.5q-3 25.5 -15 46.5q-12 21 -36.5 34.5q-24.5 13.5 -67.5 13.5l5 24q46 2 74 24q28 22 43 50.5q15 28.5 20 57.5q5 29 5 46q0 29 -6.5 48q-6.5 19 -16 30q-9.5 11 -20.5 15q-11 4 -20 4q-8 0 -21.5 -2q-13.5 -2 -27 -12.5q-13.5 -10.5 -25 -32.5q-11.5 -22 -17.5 -61q-2 -12 -4.5 -35.5q-2.5 -23.5 -5.5 -49q-3 -25.5 -6 -48.5q-3 -23 -5 -35l-119 -571z" />
<glyph unicode="&#224;" horiz-adv-x="435" d="M311 78q-1 -5 -2 -9.5q-1 -4.5 -1 -10.5q0 -16 8.5 -18.5q8.5 -2.5 13.5 -2.5q10 0 20.5 4.5q10.5 4.5 29.5 16.5l15 -16q-20 -20 -47.5 -35q-27.5 -15 -57.5 -15q-26 0 -40 9.5q-14 9.5 -14 38.5l-3 0q-23 -24 -52 -36q-29 -12 -54 -12q-18 0 -35.5 6q-17.5 6 -31 19.5q-13.5 13.5 -22 34q-8.5 20.5 -8.5 50.5q0 57 20 109.5q20 52.5 52 93q32 40.5 71.5 64.5q39.5 24 78.5 24q30 0 46.5 -11q16.5 -11 22.5 -17l27 20h27zM286 294q2 6 3.5 17.5q1.5 11.5 1.5 18.5q0 20 -13.5 26q-13.5 6 -27.5 6q-7 0 -19.5 -2.5q-12.5 -2.5 -27.5 -12.5q-15 -10 -32 -30.5q-17 -20.5 -33 -55.5q-15 -33 -24 -75q-9 -42 -9 -73q0 -23 5.5 -38q5.5 -15 14 -24q8.5 -9 19.5 -12.5q11 -3.5 22 -3.5q32 0 53 21.5q21 21.5 27 50.5zM298 503l-114 76q-16 11 -21.5 15q-5.5 4 -7.5 6q-13 13 -13 28q0 17 12 29q12 12 29 12q9 0 19.5 -4q10.5 -4 18.5 -16l92 -130z" />
<glyph unicode="&#225;" horiz-adv-x="435" d="M311 78q-1 -5 -2 -9.5q-1 -4.5 -1 -10.5q0 -16 8.5 -18.5q8.5 -2.5 13.5 -2.5q10 0 20.5 4.5q10.5 4.5 29.5 16.5l15 -16q-20 -20 -47.5 -35q-27.5 -15 -57.5 -15q-26 0 -40 9.5q-14 9.5 -14 38.5l-3 0q-23 -24 -52 -36q-29 -12 -54 -12q-18 0 -35.5 6q-17.5 6 -31 19.5q-13.5 13.5 -22 34q-8.5 20.5 -8.5 50.5q0 57 20 109.5q20 52.5 52 93q32 40.5 71.5 64.5q39.5 24 78.5 24q30 0 46.5 -11q16.5 -11 22.5 -17l27 20h27zM286 294q2 6 3.5 17.5q1.5 11.5 1.5 18.5q0 20 -13.5 26q-13.5 6 -27.5 6q-7 0 -19.5 -2.5q-12.5 -2.5 -27.5 -12.5q-15 -10 -32 -30.5q-17 -20.5 -33 -55.5q-15 -33 -24 -75q-9 -42 -9 -73q0 -23 5.5 -38q5.5 -15 14 -24q8.5 -9 19.5 -12.5q11 -3.5 22 -3.5q32 0 53 21.5q21 21.5 27 50.5zM369 649q8 8 18.5 14q10.5 6 23.5 6q33 0 33 -31v-6q-2 -11 -7 -18.5q-5 -7.5 -12 -13.5q-14 -11 -33 -21l-130 -76l-11 16z" />
<glyph unicode="&#226;" horiz-adv-x="435" d="M311 78q-1 -5 -2 -9.5q-1 -4.5 -1 -10.5q0 -16 8.5 -18.5q8.5 -2.5 13.5 -2.5q10 0 20.5 4.5q10.5 4.5 29.5 16.5l15 -16q-20 -20 -47.5 -35q-27.5 -15 -57.5 -15q-26 0 -40 9.5q-14 9.5 -14 38.5l-3 0q-23 -24 -52 -36q-29 -12 -54 -12q-18 0 -35.5 6q-17.5 6 -31 19.5q-13.5 13.5 -22 34q-8.5 20.5 -8.5 50.5q0 57 20 109.5q20 52.5 52 93q32 40.5 71.5 64.5q39.5 24 78.5 24q30 0 46.5 -11q16.5 -11 22.5 -17l27 20h27zM286 294q2 6 3.5 17.5q1.5 11.5 1.5 18.5q0 20 -13.5 26q-13.5 6 -27.5 6q-7 0 -19.5 -2.5q-12.5 -2.5 -27.5 -12.5q-15 -10 -32 -30.5q-17 -20.5 -33 -55.5q-15 -33 -24 -75q-9 -42 -9 -73q0 -23 5.5 -38q5.5 -15 14 -24q8.5 -9 19.5 -12.5q11 -3.5 22 -3.5q32 0 53 21.5q21 21.5 27 50.5zM152 496h-31l131 152h50l89 -152h-31l-92 91z" />
<glyph unicode="&#227;" horiz-adv-x="435" d="M311 78q-1 -5 -2 -9.5q-1 -4.5 -1 -10.5q0 -16 8.5 -18.5q8.5 -2.5 13.5 -2.5q10 0 20.5 4.5q10.5 4.5 29.5 16.5l15 -16q-20 -20 -47.5 -35q-27.5 -15 -57.5 -15q-26 0 -40 9.5q-14 9.5 -14 38.5l-3 0q-23 -24 -52 -36q-29 -12 -54 -12q-18 0 -35.5 6q-17.5 6 -31 19.5q-13.5 13.5 -22 34q-8.5 20.5 -8.5 50.5q0 57 20 109.5q20 52.5 52 93q32 40.5 71.5 64.5q39.5 24 78.5 24q30 0 46.5 -11q16.5 -11 22.5 -17l27 20h27zM286 294q2 6 3.5 17.5q1.5 11.5 1.5 18.5q0 20 -13.5 26q-13.5 6 -27.5 6q-7 0 -19.5 -2.5q-12.5 -2.5 -27.5 -12.5q-15 -10 -32 -30.5q-17 -20.5 -33 -55.5q-15 -33 -24 -75q-9 -42 -9 -73q0 -23 5.5 -38q5.5 -15 14 -24q8.5 -9 19.5 -12.5q11 -3.5 22 -3.5q32 0 53 21.5q21 21.5 27 50.5zM442 611q-4 -15 -14 -31.5q-10 -16.5 -25 -30q-15 -13.5 -33.5 -22.5q-18.5 -9 -40.5 -9q-20 0 -38 5q-18 5 -38 11q-14 5 -26.5 8q-12.5 3 -23.5 3q-14 0 -27 -6q-13 -6 -30 -21l-25 0q15 29 30.5 46.5q15.5 17.5 30.5 26.5q15 9 28 11.5q13 2.5 21 2.5q13 0 27.5 -3q14.5 -3 37.5 -9q24 -7 38 -11q14 -4 28 -4q16 0 32 9q16 9 21 24z" />
<glyph unicode="&#228;" horiz-adv-x="435" d="M311 78q-1 -5 -2 -9.5q-1 -4.5 -1 -10.5q0 -16 8.5 -18.5q8.5 -2.5 13.5 -2.5q10 0 20.5 4.5q10.5 4.5 29.5 16.5l15 -16q-20 -20 -47.5 -35q-27.5 -15 -57.5 -15q-26 0 -40 9.5q-14 9.5 -14 38.5l-3 0q-23 -24 -52 -36q-29 -12 -54 -12q-18 0 -35.5 6q-17.5 6 -31 19.5q-13.5 13.5 -22 34q-8.5 20.5 -8.5 50.5q0 57 20 109.5q20 52.5 52 93q32 40.5 71.5 64.5q39.5 24 78.5 24q30 0 46.5 -11q16.5 -11 22.5 -17l27 20h27zM286 294q2 6 3.5 17.5q1.5 11.5 1.5 18.5q0 20 -13.5 26q-13.5 6 -27.5 6q-7 0 -19.5 -2.5q-12.5 -2.5 -27.5 -12.5q-15 -10 -32 -30.5q-17 -20.5 -33 -55.5q-15 -33 -24 -75q-9 -42 -9 -73q0 -23 5.5 -38q5.5 -15 14 -24q8.5 -9 19.5 -12.5q11 -3.5 22 -3.5q32 0 53 21.5q21 21.5 27 50.5zM161 564q0 20 14 34q14 14 34 14q20 0 34 -14q14 -14 14 -34q0 -20 -14 -34q-14 -14 -34 -14q-20 0 -34 14q-14 14 -14 34zt0 0zM316 564q0 20 14 34q14 14 34 14q20 0 34 -14q14 -14 14 -34q0 -20 -14 -34q-14 -14 -34 -14q-20 0 -34 14t-14 34z" />
</font>
</defs>
</svg>
