<?xml version="1.0" standalone="no"?>
<!DOCTYPE svg PUBLIC "-//W3C//DTD SVG 1.1//EN" "http://www.w3.org/Graphics/SVG/1.1/DTD/svg11.dtd" >
<svg xmlns="http://www.w3.org/2000/svg">
<metadata>
Generated by SVGconv.
Copyright   : Copyright  1998 ParaType Inc., ParaType Ltd. All rights reserved.
Designer    : Lyubov Kuznetsova
Foundry     : ParaType Ltd
Foundry URL : http://www.paratype.com
</metadata>
<defs>
<font id="AcademyWeb" horiz-adv-x="532" >
<font-face units-per-em="1000" ascent="989" descent="325" />
<missing-glyph horiz-adv-x="500" />
<glyph unicode="&#32;" horiz-adv-x="233" />
<glyph unicode="&#33;" horiz-adv-x="248" d="M72 700h105l-33 -551h-40zM70 46q0 23 15.5 38.5q15.5 15.5 38.5 15.5q23 0 38.5 -15.5q15.5 -15.5 15.5 -38.5q0 -23 -15.5 -38.5q-15.5 -15.5 -38.5 -15.5q-23 0 -38.5 15.5t-15.5 38.5z" />
<glyph unicode="&#34;" horiz-adv-x="387" d="M129 496h-36l-27 204h90zM294 496h-36l-27 204l90 0z" />
<glyph unicode="&#35;" horiz-adv-x="518" d="M286 40l26 157h-131l-26 -157h-49l25 157h-107l6 39h107l30 182h-109l6 39h109l24 149h50l-25 -149h131l24 149h50l-24 -149h102l-7 -39h-102l-29 -182h104l-6 -39h-104l-26 -157zM317 236l29 182h-130l-29 -182z" />
<glyph unicode="&#36;" horiz-adv-x="518" d="M417 517q-15 43 -32.5 71q-17.5 28 -35.5 44q-18 16 -35.5 23q-17.5 7 -33.5 10l0 -244q5 -2 15 -5q10 -3 21.5 -7q11.5 -4 23.5 -8.5q12 -4.5 21 -8.5q45 -20 70 -46.5q25 -26.5 37.5 -52.5q12.5 -26 15.5 -48q3 -22 3 -34q0 -55 -18 -91q-18 -36 -39 -60q-10 -12 -23.5 -24q-13.5 -12 -31.5 -22q-18 -10 -41.5 -16q-23.5 -6 -53.5 -6l0 -68h-37v71q-33 5 -52.5 10.5q-19.5 5.5 -32 10q-12.5 4.5 -21 7q-8.5 2.5 -18.5 2.5q-10 0 -23 -4.5q-13 -4.5 -18 -20.5l-32 0v216h34q4 -22 13.5 -42q9.5 -20 22 -37.5q12.5 -17.5 26 -32q13.5 -14.5 26.5 -24.5q23 -20 42 -28.5q19 -8.5 33 -12.5l0 290q-36 9 -75 29.5q-39 20.5 -64 51.5q-17 21 -27.5 51q-10.5 30 -10.5 65q0 42 15.5 77.5q15.5 35.5 44.5 60.5q20 17 50 29q30 12 67 14l0 69h37v-69q31 -3 53 -13.5q22 -10.5 42 -21.5q7 -4 14 -7.5q7 -3.5 14 -3.5q6 0 13.5 3.5q7.5 3.5 10.5 10.5l23 0v-158zM280 32q27 -4 51 5.5q24 9.5 43 29q19 19.5 30 46q11 26.5 11 56.5q0 34 -11 56.5q-11 22.5 -34 42.5q-17 16 -40 29q-23 13 -50 21zM243 669q-25 -1 -45 -11q-20 -10 -34.5 -25.5q-14.5 -15.5 -22 -35.5q-7.5 -20 -7.5 -41q0 -26 8.5 -44.5q8.5 -18.5 23.5 -33q15 -14.5 34.5 -25q19.5 -10.5 42.5 -20.5z" />
<glyph unicode="&#37;" horiz-adv-x="870" d="M580 708l38 -14l-328 -702l-38 16zM230 707q21 0 50 -7.5q29 -7.5 57 -33.5q17 -16 27.5 -34q10.5 -18 16 -36.5q5.5 -18.5 7.5 -36.5q2 -18 2 -34q0 -16 -2 -34q-2 -18 -7.5 -36.5q-5.5 -18.5 -16 -36.5q-10.5 -18 -27.5 -34q-28 -26 -57 -33.5q-29 -7.5 -50 -7.5q-21 0 -50 7.5q-29 7.5 -57 33.5q-17 16 -27.5 34q-10.5 18 -16 36.5q-5.5 18.5 -7.5 36.5q-2 18 -2 34q0 16 2 34q2 18 7.5 36.5q5.5 18.5 16 36.5q10.5 18 27.5 34q28 26 57 33.5q29 7.5 50 7.5zt0 0zM230 669q-23 0 -36.5 -8.5q-13.5 -8.5 -21.5 -19.5q-8 -11 -12.5 -29q-4.5 -18 -4.5 -46v-82q0 -28 4.5 -46q4.5 -18 12.5 -29q8 -11 21.5 -19.5q13.5 -8.5 36.5 -8.5q23 0 36.5 8.5q13.5 8.5 21.5 19.5q8 11 12.5 29q4.5 18 4.5 46v82q0 28 -4.5 46q-4.5 18 -12.5 29q-8 11 -21.5 19.5q-13.5 8.5 -36.5 8.5zt0 0zM640 356q21 0 50 -7.5q29 -7.5 57 -33.5q17 -16 27.5 -34q10.5 -18 16 -36.5q5.5 -18.5 7.5 -36.5q2 -18 2 -34q0 -16 -2 -34q-2 -18 -7.5 -36.5q-5.5 -18.5 -16 -36.5q-10.5 -18 -27.5 -34q-28 -26 -57 -33.5q-29 -7.5 -50 -7.5q-21 0 -50 7.5q-29 7.5 -57 33.5q-17 16 -27.5 34q-10.5 18 -16 36.5q-5.5 18.5 -7.5 36.5q-2 18 -2 34q0 16 2 34q2 18 7.5 36.5q5.5 18.5 16 36.5q10.5 18 27.5 34q28 26 57 33.5q29 7.5 50 7.5zt0 0zM640 318q-23 0 -36.5 -8.5q-13.5 -8.5 -21.5 -19.5q-8 -11 -12.5 -29q-4.5 -18 -4.5 -46v-82q0 -28 4.5 -46q4.5 -18 12.5 -29q8 -11 21.5 -19.5q13.5 -8.5 36.5 -8.5q23 0 36.5 8.5q13.5 8.5 21.5 19.5q8 11 12.5 29q4.5 18 4.5 46v82q0 28 -4.5 46q-4.5 18 -12.5 29q-8 11 -21.5 19.5t-36.5 8.5z" />
<glyph unicode="&#38;" horiz-adv-x="845" d="M730 446v-39q-35 -8 -56.5 -26.5q-21.5 -18.5 -39.5 -44.5q-22 -32 -46.5 -76.5q-24.5 -44.5 -68.5 -98.5q11 -15 27 -31.5q16 -16.5 35 -30q19 -13.5 40 -22q21 -8.5 44 -8.5q28 0 51.5 19.5q23.5 19.5 30.5 51.5l28 0q-5 -25 -15.5 -51.5q-10.5 -26.5 -28 -48q-17.5 -21.5 -42 -35q-24.5 -13.5 -58.5 -13.5q-11 0 -28.5 3q-17.5 3 -39.5 13.5q-22 10.5 -48.5 30.5q-26.5 20 -54.5 54q-33 -35 -65 -55q-32 -20 -60 -30q-28 -10 -51.5 -13q-23.5 -3 -41.5 -3q-46 0 -78.5 14.5q-32.5 14.5 -53.5 38q-21 23.5 -30.5 53q-9.5 29.5 -9.5 59.5q0 22 7 50q7 28 28.5 60q21.5 32 61 66q39.5 34 105.5 69q-23 53 -29 88q-6 35 -6 55q0 41 12 71.5q12 30.5 33 51q21 20.5 48.5 30.5q27.5 10 57.5 10q30 0 55 -9.5q25 -9.5 42.5 -25.5q17.5 -16 27.5 -38.5q10 -22.5 10 -47.5q0 -32 -12.5 -58.5q-12.5 -26.5 -33.5 -49q-21 -22.5 -49.5 -40.5q-28.5 -18 -60.5 -33q28 -65 62 -119q34 -54 66 -95q13 18 27.5 42.5q14.5 24.5 26.5 49.5q12 25 20 48.5q8 23.5 8 38.5q0 17 -12 25q-12 8 -36 11l0 39zM435 124q-28 35 -48 62.5q-20 27.5 -36 54q-16 26.5 -31 55.5q-15 29 -32 67q-20 -11 -41 -25.5q-21 -14.5 -37.5 -34.5q-16.5 -20 -27 -44.5q-10.5 -24.5 -10.5 -54.5q0 -35 9.5 -62.5q9.5 -27.5 26 -46.5q16.5 -19 38 -29q21.5 -10 46.5 -10q32 0 68.5 15q36.5 15 74.5 53zt0 0zM352 442q17 7 36 19q19 12 35.5 29.5q16.5 17.5 27.5 41.5q11 24 11 55q0 44 -21 63q-21 19 -46 19q-14 0 -28 -4.5q-14 -4.5 -25 -15q-11 -10.5 -18 -27q-7 -16.5 -7 -39.5q0 -26 7.5 -59t27.5 -82z" />
<glyph unicode="&#39;" horiz-adv-x="222" d="M129 496h-36l-27 204l90 0z" />
<glyph unicode="&#40;" horiz-adv-x="399" d="M329 691q0 -5 -4.5 -10q-4.5 -5 -13.5 -15q-9 -10 -22.5 -27.5q-13.5 -17.5 -31.5 -45.5q-30 -49 -47.5 -100q-17.5 -51 -26.5 -96q-9 -45 -11 -80.5q-2 -35.5 -2 -54.5q0 -19 2 -54.5q2 -35.5 11 -80.5q9 -45 26.5 -96q17.5 -51 47.5 -100q18 -29 31.5 -46q13.5 -17 22.5 -27q9 -10 13.5 -15.5q4.5 -5.5 4.5 -9.5q0 -5 -5 -11q-5 -6 -11 -6q-5 0 -13.5 3.5q-8.5 3.5 -26.5 18.5q-72 60 -112.5 122.5q-40.5 62.5 -60.5 119.5q-20 57 -25 104.5q-5 47.5 -5 77.5q0 30 5 77.5q5 47.5 25 104.5q20 57 60.5 119.5q40.5 62.5 112.5 122.5q18 15 26.5 18.5q8.5 3.5 13.5 3.5q6 0 11 -6t5 -11z" />
<glyph unicode="&#41;" horiz-adv-x="399" d="M70 691q0 5 5 11q5 6 11 6q5 0 13.5 -3.5q8.5 -3.5 26.5 -18.5q72 -60 112.5 -122.5q40.5 -62.5 60.5 -119.5q20 -57 25 -104.5q5 -47.5 5 -77.5q0 -30 -5 -77.5q-5 -47.5 -25 -104.5q-20 -57 -60.5 -119.5q-40.5 -62.5 -112.5 -122.5q-18 -15 -26.5 -18.5q-8.5 -3.5 -13.5 -3.5q-6 0 -11 6q-5 6 -5 11q0 4 4.5 9.5q4.5 5.5 13.5 15.5q9 10 22.5 27q13.5 17 31.5 46q30 49 47.5 100q17.5 51 26.5 96q9 45 11 80.5q2 35.5 2 54.5q0 19 -2 54.5q-2 35.5 -11 80.5q-9 45 -26.5 96q-17.5 51 -47.5 100q-18 28 -31.5 45.5q-13.5 17.5 -22.5 27.5q-9 10 -13.5 15t-4.5 10z" />
<glyph unicode="&#42;" horiz-adv-x="474" d="M181 653q3 14 9.5 23q6.5 9 15 14.5q8.5 5.5 17 7.5q8.5 2 14.5 2q6 0 14.5 -2q8.5 -2 17 -7.5q8.5 -5.5 15 -14.5q6.5 -9 9.5 -23q-12 -12 -20 -31q-8 -19 -13.5 -39.5q-5.5 -20.5 -7.5 -40q-2 -19.5 -2 -33.5q3 -1 9 -5q17 4 35.5 13q18.5 9 35 20.5q16.5 11.5 30.5 24.5q14 13 23 27l5 0q17 0 28.5 -6q11.5 -6 18.5 -14q7 -8 10 -17.5q3 -9.5 3 -15.5q0 -34 -30 -55q-18 8 -33.5 9.5q-15.5 1.5 -38.5 1.5q-7 0 -17.5 -1q-10.5 -1 -21.5 -2.5q-11 -1.5 -21.5 -4.5q-10.5 -3 -18.5 -6q0 -7 -2 -10q5 -9 9 -13.5q4 -4.5 10 -10.5q5 -5 14.5 -15q9.5 -10 22.5 -20q13 -10 29 -19q16 -9 34 -13q7 -16 5.5 -31q-1.5 -15 -9.5 -26.5q-8 -11.5 -21.5 -18.5q-13.5 -7 -28.5 -7q-8 0 -17.5 3.5q-9.5 3.5 -19.5 12.5q1 16 -2.5 35q-3.5 19 -10.5 38.5q-7 19.5 -16.5 37.5q-9.5 18 -20.5 31q-6 -2 -12 0q-11 -13 -20.5 -31q-9.5 -18 -16.5 -37.5q-7 -19.5 -11 -38.5q-4 -19 -2 -35q-10 -9 -19.5 -12.5q-9.5 -3.5 -17.5 -3.5q-15 0 -28.5 7q-13.5 7 -21.5 18.5q-8 11.5 -10 26.5q-2 15 6 31q18 4 34 13q16 9 29 19q13 10 22.5 20q9.5 10 14.5 15q6 6 10 10.5q4 4.5 9 13.5q-2 3 -2 10q-8 3 -18.5 6q-10.5 3 -21.5 4.5q-11 1.5 -21.5 2.5q-10.5 1 -17.5 1q-23 0 -38.5 -1.5q-15.5 -1.5 -33.5 -9.5q-30 21 -30 55q0 6 3 15.5q3 9.5 10 17.5q7 8 18.5 14q11.5 6 28.5 6h5q9 -14 23 -27q14 -13 30.5 -24.5q16.5 -11.5 35 -20.5q18.5 -9 35.5 -13q6 4 9 5q0 14 -2 33.5q-2 19.5 -7.5 40q-5.5 20.5 -13.5 39.5t-20 31z" />
<glyph unicode="&#43;" horiz-adv-x="702" d="M326 35v256h-256v50h256v256h50v-256h256v-50h-256l0 -256z" />
<glyph unicode="&#44;" horiz-adv-x="259" d="M70 -102q38 32 51 54q13 22 16 37l-2 3q-9 -1 -17 0q-24 2 -36 17q-12 15 -12 37q0 20 14 36q14 16 42 16q24 0 43.5 -16q19.5 -16 19.5 -54q0 -22 -8 -43.5q-8 -21.5 -22 -41.5q-14 -20 -32 -37q-18 -17 -37 -29z" />
<glyph unicode="&#45;" horiz-adv-x="370" d="M91 253h134q11 0 27.5 3q16.5 3 23.5 24l24 0l-18 -93h-137q-10 0 -21 -0.5q-11 -0.5 -19 -7.5q-3 -2 -5.5 -6q-2.5 -4 -8.5 -13l-21 0z" />
<glyph unicode="&#46;" horiz-adv-x="248" d="M70 45q0 23 15.5 38.5q15.5 15.5 38.5 15.5q23 0 38.5 -15.5q15.5 -15.5 15.5 -38.5q0 -23 -15.5 -38.5q-15.5 -15.5 -38.5 -15.5q-23 0 -38.5 15.5t-15.5 38.5z" />
<glyph unicode="&#47;" horiz-adv-x="546" d="M70 -184l347 884h59l-349 -884z" />
<glyph unicode="&#48;" horiz-adv-x="518" d="M259 -8q-41 0 -79.5 22q-38.5 22 -68 67q-29.5 45 -47.5 112q-18 67 -18 157q0 66 13 130q13 64 39 114.5q26 50.5 66.5 82q40.5 31.5 94.5 31.5q54 0 94.5 -31.5q40.5 -31.5 66.5 -82q26 -50.5 39 -114.5q13 -64 13 -130q0 -90 -18 -157q-18 -67 -47.5 -112q-29.5 -45 -68 -67q-38.5 -22 -79.5 -22zt0 0zM259 31q40 0 63 32q23 32 34 80q11 48 13.5 104q2.5 56 2.5 103q0 47 -2.5 103q-2.5 56 -13.5 104q-11 48 -34 80q-23 32 -63 32q-41 0 -63.5 -32q-22.5 -32 -33.5 -80q-11 -48 -13.5 -104q-2.5 -56 -2.5 -103q0 -47 2.5 -103q2.5 -56 13.5 -104q11 -48 33.5 -80t63.5 -32z" />
<glyph unicode="&#49;" horiz-adv-x="518" d="M395 0h-204v34q35 3 47 25.5q12 22.5 12 55.5v462h-6q-37 -40 -66 -63.5q-29 -23.5 -58 -40.5l0 43q49 33 92 81q43 48 74 103l50 0v-585q0 -36 13.5 -56.5q13.5 -20.5 45.5 -24.5z" />
<glyph unicode="&#50;" horiz-adv-x="518" d="M436 0h-392v38q27 29 59.5 67.5q32.5 38.5 66 81.5q33.5 43 65.5 89q32 46 56.5 91q24.5 45 39.5 87q15 42 15 77q0 49 -25.5 81.5q-25.5 32.5 -76.5 32.5q-14 0 -30 -3q-16 -3 -34 -12.5q-18 -9.5 -37.5 -26.5q-19.5 -17 -39.5 -45l-30 19q23 38 47.5 63q24.5 25 50 40q25.5 15 52.5 21.5q27 6.5 54 6.5q42 0 74 -12.5q32 -12.5 53 -33q21 -20.5 31.5 -47.5q10.5 -27 10.5 -57q0 -23 -9 -58.5q-9 -35.5 -41 -91q-32 -55.5 -93 -133.5q-61 -78 -166 -185l0 -4h181q43 0 73.5 12.5q30.5 12.5 48.5 56.5l34 0z" />
<glyph unicode="&#51;" horiz-adv-x="518" d="M67 570q13 23 32.5 47.5q19.5 24.5 45.5 44.5q26 20 58.5 33q32.5 13 73.5 13q34 0 59 -10.5q25 -10.5 41.5 -27q16.5 -16.5 24 -37q7.5 -20.5 7.5 -41.5q0 -14 -4.5 -33q-4.5 -19 -16.5 -40q-12 -21 -33.5 -43.5q-21.5 -22.5 -55.5 -42.5l0 -4h7q26 0 51.5 -9q25.5 -9 45.5 -27q20 -18 32.5 -46.5q12.5 -28.5 12.5 -67.5q0 -55 -27.5 -107q-27.5 -52 -78.5 -91q-20 -15 -46 -30q-26 -15 -59 -27.5q-33 -12.5 -74 -21q-41 -8.5 -90 -10.5l-23 0v33q70 5 126.5 26.5q56.5 21.5 96 54q39.5 32.5 60.5 73.5q21 41 21 86q0 27 -9 47.5q-9 20.5 -24 34q-15 13.5 -34 20q-19 6.5 -40 6.5q-20 0 -41 -7q-21 -7 -38 -16l-17 29q31 18 62.5 40q31.5 22 57 47.5q25.5 25.5 42 53.5q16.5 28 16.5 58q0 29 -20 52q-20 23 -63 23q-24 0 -46.5 -10.5q-22.5 -10.5 -41.5 -26q-19 -15.5 -35 -33q-16 -17.5 -26 -32.5z" />
<glyph unicode="&#52;" horiz-adv-x="518" d="M381 700v-422h9q45 0 60 64l28 -7l-35 -131h-62v-204h-86v204h-260v46l306 450zM295 563h-6l-185 -274v-11l191 0z" />
<glyph unicode="&#53;" horiz-adv-x="518" d="M378 613h-195l-46 -168l2 -2q29 15 56 21q27 6 51 6q40 0 69 -9.5q29 -9.5 49 -23.5q20 -14 31.5 -29q11.5 -15 17.5 -25q14 -24 20.5 -48.5q6.5 -24.5 6.5 -53.5q0 -34 -9 -66q-9 -32 -25 -60q-16 -28 -36.5 -52q-20.5 -24 -43.5 -42q-31 -24 -61 -38q-30 -14 -57.5 -21q-27.5 -7 -51 -8.5q-23.5 -1.5 -41.5 -1.5q-20 0 -37 1.5q-17 1.5 -38 9.5l0 36q18 -5 35 -6.5q17 -1.5 32 -1.5q30 0 55 6.5q25 6.5 45 16q20 9.5 34.5 21q14.5 11.5 24.5 21.5q22 22 36 46.5q14 24.5 22.5 48.5q8.5 24 12 46.5q3.5 22.5 3.5 40.5q0 27 -6 53.5q-6 26.5 -20 47.5q-14 21 -36.5 33.5q-22.5 12.5 -55.5 12.5q-26 0 -55.5 -8q-29.5 -8 -52.5 -20l-19 15l76 288h162q14 0 35.5 3q21.5 3 35.5 5z" />
<glyph unicode="&#54;" horiz-adv-x="518" d="M153 372q24 29 57 43.5q33 14.5 68 14.5q42 0 85 -19.5q43 -19.5 74 -68.5q16 -26 25.5 -56q9.5 -30 9.5 -65q0 -38 -11 -78.5q-11 -40.5 -34 -72.5q-26 -35 -69 -56.5q-43 -21.5 -100 -21.5q-15 0 -37 3.5q-22 3.5 -47 14q-25 10.5 -49.5 30.5q-24.5 20 -43.5 53q-23 40 -29 81q-6 41 -6 79q0 30 3.5 67.5q3.5 37.5 14.5 77.5q7 24 18.5 49.5q11.5 25.5 25 50q13.5 24.5 28.5 46q15 21.5 30 37.5q12 12 32 30q20 18 47 36.5q27 18.5 60.5 35q33.5 16.5 72.5 25.5l0 -39q-9 -5 -21.5 -12.5q-12.5 -7.5 -26.5 -16.5q-14 -9 -28 -18.5q-14 -9.5 -26 -19.5q-54 -46 -83 -102.5q-29 -56.5 -43 -127.5zM259 391q-23 0 -49 -13.5q-26 -13.5 -43 -48.5q-14 -29 -17.5 -59.5q-3.5 -30.5 -3.5 -58.5q0 -28 3.5 -58.5q3.5 -30.5 17.5 -59.5q17 -35 43 -48.5q26 -13.5 49 -13.5q23 0 49 13.5q26 13.5 43 48.5q14 29 17.5 59.5q3.5 30.5 3.5 58.5q0 28 -3.5 58.5q-3.5 30.5 -17.5 59.5q-17 35 -43 48.5t-49 13.5z" />
<glyph unicode="&#55;" horiz-adv-x="518" d="M71 700h391v-39l-200 -661h-115l261 614h-262q-14 0 -24 -4q-10 -4 -16.5 -14q-6.5 -10 -10 -28.5q-3.5 -18.5 -4.5 -46.5l-34 0z" />
<glyph unicode="&#56;" horiz-adv-x="518" d="M159 393q-41 30 -59 70.5q-18 40.5 -18 78.5q0 28 11.5 57.5q11.5 29.5 34.5 53.5q23 24 58 39.5q35 15.5 82 15.5q37 0 68.5 -12q31.5 -12 54.5 -32q23 -20 35.5 -46.5q12.5 -26.5 12.5 -55.5q0 -33 -11 -59q-11 -26 -26 -44.5q-15 -18.5 -29.5 -29.5q-14.5 -11 -20.5 -15l0 -4q60 -35 93 -82.5q33 -47.5 33 -113.5q0 -39 -13.5 -78.5q-13.5 -39.5 -40.5 -71.5q-27 -32 -68.5 -52q-41.5 -20 -98.5 -20q-50 0 -89 16q-39 16 -67 43.5q-28 27.5 -42.5 64.5q-14.5 37 -14.5 78q0 15 3 39q3 24 14 52q11 28 34 55.5q23 27.5 64 48.5zM299 433q23 14 36.5 32.5q13.5 18.5 20.5 36.5q7 18 9 34q2 16 2 25q0 19 -6.5 38.5q-6.5 19.5 -19.5 35q-13 15.5 -34 25q-21 9.5 -49 9.5q-25 0 -44 -9q-19 -9 -32.5 -23q-13.5 -14 -20.5 -31.5q-7 -17.5 -7 -35.5q0 -20 7 -39.5q7 -19.5 24 -37q17 -17.5 45 -33q28 -15.5 69 -27.5zt0 0zM186 375q-38 -36 -50.5 -80.5q-12.5 -44.5 -12.5 -90.5q0 -46 12.5 -79q12.5 -33 32.5 -54q20 -21 46 -30.5q26 -9.5 53 -9.5q52 0 86.5 36q34.5 36 34.5 94q0 18 -4.5 40.5q-4.5 22.5 -17 46.5q-12.5 24 -35 47q-22.5 23 -59.5 42q-14 7 -31.5 14.5t-54.5 23.5z" />
<glyph unicode="&#57;" horiz-adv-x="518" d="M259 708q76 0 134 -45q87 -66 87 -193q0 -36 -4 -82.5q-4 -46.5 -16 -86.5q-13 -42 -39.5 -89q-26.5 -47 -67 -90.5q-40.5 -43.5 -95 -78q-54.5 -34.5 -123.5 -51.5l0 39q51 26 91 55.5q40 29.5 70 65q30 35.5 50 78.5q20 43 30 97l-4 0q-14 -17 -30.5 -28q-16.5 -11 -34 -17.5q-17.5 -6.5 -34.5 -9.5q-17 -3 -30 -3q-26 0 -61 10q-35 10 -67 34q-32 24 -54.5 64.5q-22.5 40.5 -22.5 101.5q0 34 10.5 74q10.5 40 36 74.5q25.5 34.5 68 57.5q42.5 23 106.5 23zt0 0zM257 308q12 0 32.5 4.5q20.5 4.5 41 22.5q20.5 18 35 54.5q14.5 36.5 14.5 100.5q0 57 -13 92.5q-13 35.5 -31.5 54.5q-18.5 19 -40 25.5q-21.5 6.5 -38.5 6.5q-42 0 -65.5 -20.5q-23.5 -20.5 -35.5 -49q-12 -28.5 -15 -59q-3 -30.5 -3 -50.5q0 -56 11.5 -91.5q11.5 -35.5 29 -55.5q17.5 -20 38.5 -27.5t40 -7.5z" />
<glyph unicode="&#58;" horiz-adv-x="248" d="M70 342q0 23 15.5 38.5q15.5 15.5 38.5 15.5q23 0 38.5 -15.5q15.5 -15.5 15.5 -38.5q0 -23 -15.5 -38.5q-15.5 -15.5 -38.5 -15.5q-23 0 -38.5 15.5q-15.5 15.5 -15.5 38.5zt0 0zM70 46q0 23 15.5 38.5q15.5 15.5 38.5 15.5q23 0 38.5 -15.5q15.5 -15.5 15.5 -38.5q0 -23 -15.5 -38.5q-15.5 -15.5 -38.5 -15.5q-23 0 -38.5 15.5t-15.5 38.5z" />
<glyph unicode="&#59;" horiz-adv-x="259" d="M74 342q0 23 15.5 38.5q15.5 15.5 38.5 15.5q23 0 38.5 -15.5q15.5 -15.5 15.5 -38.5q0 -23 -15.5 -38.5q-15.5 -15.5 -38.5 -15.5q-23 0 -38.5 15.5q-15.5 15.5 -15.5 38.5zt0 0zM70 -102q38 32 51 54q13 22 16 37l-2 3q-9 -1 -17 0q-24 2 -36 17q-12 15 -12 37q0 20 14 36q14 16 42 16q24 0 43.5 -16q19.5 -16 19.5 -54q0 -22 -8 -43.5q-8 -21.5 -22 -41.5q-14 -20 -32 -37q-18 -17 -37 -29z" />
<glyph unicode="&#60;" horiz-adv-x="727" d="M657 128l-17 -46l-570 244l570 244l17 -46l-462 -198z" />
<glyph unicode="&#61;" horiz-adv-x="691" d="M70 258h551v-42h-551zM70 418h551v-42l-551 0z" />
<glyph unicode="&#62;" horiz-adv-x="727" d="M70 524l17 46l570 -244l-570 -244l-17 46l462 198z" />
<glyph unicode="&#63;" horiz-adv-x="435" d="M93 328l33 6q5 -6 17 -15.5q12 -9.5 36 -9.5q40 0 65 31.5q25 31.5 25 96.5q0 42 -9.5 83q-9.5 41 -23.5 73q-14 32 -29 52q-15 20 -26 20q-4 0 -9 -3q-5 -3 -7 -11q0 -2 -1.5 -7q-1.5 -5 -6 -10q-4.5 -5 -12 -9q-7.5 -4 -20.5 -4q-24 0 -30.5 15q-6.5 15 -6.5 27q0 4 2 11.5q2 7.5 8.5 15q6.5 7.5 19.5 13q13 5.5 34 5.5q29 0 54.5 -15q25.5 -15 46 -34.5q20.5 -19.5 34.5 -39q14 -19.5 20 -27.5q29 -43 43.5 -97.5q14.5 -54.5 14.5 -107.5q0 -35 -10.5 -63q-10.5 -28 -28.5 -47.5q-18 -19.5 -42 -30q-24 -10.5 -51 -10.5q-29 0 -49.5 10q-20.5 10 -40.5 29l-7 0l10 -117h-36zM70 46q0 23 15.5 38.5q15.5 15.5 38.5 15.5q23 0 38.5 -15.5q15.5 -15.5 15.5 -38.5q0 -23 -15.5 -38.5q-15.5 -15.5 -38.5 -15.5q-23 0 -38.5 15.5t-15.5 38.5z" />
<glyph unicode="&#64;" horiz-adv-x="995" d="M664 274q-2 -5 -4.5 -14.5q-2.5 -9.5 -5.5 -21q-3 -11.5 -5 -23q-2 -11.5 -2 -20.5q0 -33 14 -46q14 -13 31 -13q23 0 53.5 13.5q30.5 13.5 58.5 43.5q28 30 47 78q19 48 19 117q0 70 -26 131q-26 61 -72 106q-46 45 -110 70.5q-64 25.5 -140 25.5q-100 0 -174 -36.5q-74 -36.5 -123 -94q-49 -57.5 -73.5 -128.5q-24.5 -71 -24.5 -140q0 -76 28.5 -146q28.5 -70 80.5 -124q52 -54 125 -86q73 -32 163 -32q28 0 59.5 5.5q31.5 5.5 62 17q30.5 11.5 59 27.5q28.5 16 51.5 37l29 -49q-33 -24 -62.5 -41.5q-29.5 -17.5 -59.5 -28.5q-30 -11 -62.5 -16q-32.5 -5 -71.5 -5q-109 0 -195 37q-86 37 -145.5 97.5q-59.5 60.5 -91 139q-31.5 78.5 -31.5 162.5q0 96 33.5 178.5q33.5 82.5 93.5 143q60 60.5 144 95q84 34.5 185 34.5q91 0 166 -30.5q75 -30.5 128.5 -82.5q53.5 -52 83 -121q29.5 -69 29.5 -146q0 -77 -23.5 -133q-23.5 -56 -60 -93.5q-36.5 -37.5 -80 -55.5q-43.5 -18 -83.5 -18q-31 0 -62 18q-31 18 -48 56q-29 -22 -60.5 -36q-31.5 -14 -71.5 -14q-29 0 -56 11q-27 11 -48 33q-21 22 -34 55.5q-13 33.5 -13 78.5q0 52 19 99q19 47 52.5 82.5q33.5 35.5 79 56.5q45.5 21 99.5 21q8 0 21 -1.5q13 -1.5 28.5 -8q15.5 -6.5 31.5 -18.5q16 -12 30 -33l15 43h77zM628 429q-7 40 -32.5 65q-25.5 25 -58.5 25q-21 0 -43.5 -11.5q-22.5 -11.5 -42 -34q-19.5 -22.5 -36 -56q-16.5 -33.5 -25.5 -76.5q-6 -26 -8 -59q-2 -33 -2 -54q0 -14 4.5 -28.5q4.5 -14.5 14.5 -26.5q10 -12 24.5 -19.5q14.5 -7.5 35.5 -7.5q21 0 38.5 6.5q17.5 6.5 31 16q13.5 9.5 22 19.5q8.5 10 13.5 16z" />
<glyph unicode="&#65;" horiz-adv-x="724" d="M649 108q14 -31 31 -51.5q17 -20.5 44 -22.5l0 -34h-196v34q25 4 30.5 13q5.5 9 5.5 26q0 8 -9 29l-40 90h-348l-39 -85q-8 -18 -10 -25.5q-2 -7.5 -2 -9.5q0 -8 6.5 -20.5q6.5 -12.5 32.5 -17.5l0 -34h-155v34q16 1 29 9.5q13 8.5 23 19.5q10 11 17 22.5q7 11.5 10 19.5l225 486q6 13 7.5 17.5q1.5 4.5 1.5 7.5q0 9 -7 12q-7 3 -17 3l0 34q18 5 38.5 18q20.5 13 31.5 25l20 0zM349 560h-11l-153 -329l312 0z" />
<glyph unicode="&#66;" horiz-adv-x="640" d="M324 700q30 0 64.5 -2.5q34.5 -2.5 67 -14.5q32.5 -12 60 -36.5q27.5 -24.5 42.5 -67.5q10 -28 10 -54q0 -23 -8 -49q-9 -26 -23.5 -45q-14.5 -19 -32.5 -32.5q-18 -13.5 -36.5 -21.5q-18.5 -8 -34.5 -12l0 -6q2 0 3.5 -0.5q1.5 -0.5 3.5 -0.5q59 -9 91.5 -34.5q32.5 -25.5 48 -53.5q15.5 -28 18.5 -53q3 -25 3 -32q0 -58 -26 -94q-26 -36 -62 -56.5q-36 -20.5 -74.5 -27.5q-38.5 -7 -64.5 -7h-322v34q35 2 47.5 23q12.5 21 12.5 58v470q0 35 -12 57q-12 22 -48 24l0 34zM311 375q16 0 38 2q22 2 43.5 11q21.5 9 40.5 28q19 19 29 53q4 13 5 26.5q1 13.5 1 27.5q0 21 -8 45q-11 33 -30 51.5q-19 18.5 -41.5 27.5q-22.5 9 -46.5 11.5q-24 2.5 -44 2.5h-100v-286zM332 39q18 0 47 4q29 4 56 19q27 15 46.5 44q19.5 29 19.5 79q0 76 -49 113.5q-49 37.5 -128 37.5h-126l0 -297z" />
<glyph unicode="&#67;" horiz-adv-x="686" d="M586 530q-15 38 -38.5 64.5q-23.5 26.5 -51.5 43q-28 16.5 -58.5 24q-30.5 7.5 -59.5 7.5q-42 0 -85 -19.5q-43 -19.5 -77 -59.5q-34 -40 -55.5 -101q-21.5 -61 -21.5 -144q0 -77 19 -135.5q19 -58.5 53.5 -98q34.5 -39.5 81.5 -60q47 -20.5 104 -20.5q33 0 65 8.5q32 8.5 62 23q30 14.5 56 34.5q26 20 46 43h21q-46 -75 -113.5 -111.5q-67.5 -36.5 -155.5 -36.5q-72 0 -134 24q-62 24 -107.5 70q-45.5 46 -71.5 111.5q-26 65.5 -26 148.5q0 78 24.5 144.5q24.5 66.5 68.5 114.5q44 48 104.5 75.5q60.5 27.5 133.5 27.5q38 0 72 -5.5q34 -5.5 61 -12.5q27 -7 47 -12.5q20 -5.5 31 -5.5q10 0 16 5q6 5 8 7l15 0l0 -154z" />
<glyph unicode="&#68;" horiz-adv-x="765" d="M345 700q103 0 183 -33.5q80 -33.5 135 -111.5q26 -36 44.5 -88q18.5 -52 18.5 -123q0 -16 -2.5 -42.5q-2.5 -26.5 -11.5 -58.5q-9 -32 -26.5 -67.5q-17.5 -35.5 -47.5 -69.5q-50 -57 -120 -81.5q-70 -24.5 -172 -24.5h-294v34q37 3 48.5 26q11.5 23 11.5 55v470q0 32 -11.5 55q-11.5 23 -48.5 26l0 34zM324 39q26 0 58.5 4q32.5 4 66 15.5q33.5 11.5 65.5 32.5q32 21 57 55.5q25 34.5 40 83.5q15 49 15 117q0 73 -18 124.5q-18 51.5 -46 86.5q-28 35 -63 55.5q-35 20.5 -68.5 31q-33.5 10.5 -62 13.5q-28.5 3 -44.5 3h-126l0 -622z" />
<glyph unicode="&#69;" horiz-adv-x="655" d="M446 700q32 0 62.5 4q30.5 4 62.5 4l0 -133h-34q-8 28 -22.5 45q-14.5 17 -35 26q-20.5 9 -45.5 12q-25 3 -53 3h-183v-287h125q9 0 21.5 0.5q12.5 0.5 24.5 5.5q12 5 22 16.5q10 11.5 14 33.5l33 0v-151h-33q-6 22 -13.5 33.5q-7.5 11.5 -17.5 16.5q-10 5 -22.5 5.5q-12.5 0.5 -28.5 0.5h-125v-296h205q39 0 73 4.5q34 4.5 59.5 17q25.5 12.5 41 34q15.5 21.5 18.5 55.5l34 0l-11 -150h-566v34q34 4 47 26q13 22 13 55v470q0 17 -2.5 32q-2.5 15 -9 25.5q-6.5 10.5 -18 17q-11.5 6.5 -30.5 6.5l0 34z" />
<glyph unicode="&#70;" horiz-adv-x="603" d="M471 700q22 0 35.5 1q13.5 1 26 2q12.5 1 26.5 2.5q14 1.5 37 2.5l0 -133h-34q-8 28 -22.5 45q-14.5 17 -35 26q-20.5 9 -45.5 12q-25 3 -53 3h-202v-272h145q11 0 23.5 1q12.5 1 24.5 6.5q12 5.5 21 17q9 11.5 13 31.5l34 0v-151h-34q-8 38 -26 47q-18 9 -50 9h-151v-235q0 -35 12 -55.5q12 -20.5 47 -25.5l0 -34h-205v34q33 3 46.5 24.5q13.5 21.5 13.5 56.5v470q0 7 -1 20q-1 13 -7 26q-6 13 -18 23q-12 10 -34 12l0 34z" />
<glyph unicode="&#71;" horiz-adv-x="719" d="M635 527h-34q-21 53 -54.5 82q-33.5 29 -67.5 42.5q-34 13.5 -62 15.5q-28 2 -38 2q-44 0 -87 -17q-43 -17 -77 -54q-34 -37 -55 -94.5q-21 -57.5 -21 -139.5q0 -80 16.5 -135.5q16.5 -55.5 40 -91.5q23.5 -36 49 -55.5q25.5 -19.5 44.5 -28.5q32 -15 65 -18.5q33 -3.5 62 -3.5q75 0 123.5 37.5q48.5 37.5 54.5 103.5q2 25 -3.5 41.5q-5.5 16.5 -14.5 25.5q-9 9 -20.5 12.5q-11.5 3.5 -20.5 3.5l0 34h145v-243q-48 -16 -84.5 -26.5q-36.5 -10.5 -67 -16.5q-30.5 -6 -58 -8.5q-27.5 -2.5 -57.5 -2.5q-21 0 -54 2q-33 2 -71.5 11q-38.5 9 -78.5 27.5q-40 18.5 -73 52.5q-56 57 -76.5 129q-20.5 72 -20.5 152q0 59 21 117.5q21 58.5 58 104.5q6 8 25 27.5q19 19.5 51.5 40q32.5 20.5 78 36.5q45.5 16 105.5 16q54 0 90 -8q36 -8 62 -19q11 -5 25 -8.5q14 -3.5 29 -3.5q8 0 12 3.5q4 3.5 7 8.5l32 0z" />
<glyph unicode="&#72;" horiz-adv-x="798" d="M256 666q-33 -3 -46 -23.5q-13 -20.5 -13 -57.5v-209h403v209q0 38 -13 57.5q-13 19.5 -46 23.5l0 34h205v-34q-21 -2 -33 -11q-12 -9 -18 -21q-6 -12 -7.5 -25q-1.5 -13 -1.5 -24v-470q0 -37 14 -57.5q14 -20.5 46 -23.5l0 -34h-205v34q33 4 46 23.5q13 19.5 13 57.5v222h-403v-222q0 -33 11.5 -55.5q11.5 -22.5 47.5 -25.5l0 -34h-204v34q36 3 47.5 25.5q11.5 22.5 11.5 55.5v470q0 33 -11.5 55.5q-11.5 22.5 -47.5 25.5l0 34l204 0z" />
<glyph unicode="&#73;" horiz-adv-x="308" d="M256 666q-19 -1 -30.5 -9q-11.5 -8 -18 -19.5q-6.5 -11.5 -8.5 -25.5q-2 -14 -2 -27v-470q0 -36 13.5 -56.5q13.5 -20.5 45.5 -24.5l0 -34h-204v34q32 4 45.5 24.5q13.5 20.5 13.5 56.5v470q0 33 -12 55.5q-12 22.5 -47 25.5l0 34l204 0z" />
<glyph unicode="&#74;" horiz-adv-x="350" d="M298 700v-34q-20 -2 -32 -11q-12 -9 -18 -20.5q-6 -11.5 -7.5 -25q-1.5 -13.5 -1.5 -24.5v-490q0 -69 -17 -117q-17 -48 -43.5 -78q-26.5 -30 -58 -43.5q-31.5 -13.5 -59.5 -13.5q-42 0 -64.5 21q-22.5 21 -22.5 44q0 20 12 34q12 14 30 14q13 0 27 -8q14 -8 14 -28q0 -4 -1 -8.5q-1 -4.5 -1 -9.5q0 -6 5.5 -12.5q5.5 -6.5 21.5 -6.5q22 0 36 16q14 16 22 41q8 25 10.5 56q2.5 31 2.5 61v528q0 11 -1.5 24q-1.5 13 -7.5 25q-6 12 -18 21q-12 9 -33 11l0 34z" />
<glyph unicode="&#75;" horiz-adv-x="741" d="M257 700v-34q-33 -3 -46 -23.5q-13 -20.5 -13 -57.5v-214h6l271 221q3 3 8.5 8q5.5 5 11 11.5q5.5 6.5 9.5 14q4 7.5 4 15.5q0 14 -11.5 19.5q-11.5 5.5 -19.5 5.5h-7v34h210v-34q-50 -12 -82.5 -33q-32.5 -21 -60.5 -44l-207 -169l294 -313q32 -33 58.5 -50.5q26.5 -17.5 58.5 -22.5l0 -34h-257v34h8q16 0 26 7.5q10 7.5 10 22.5q0 13 -7 23q-7 10 -16 20l-242 258l-65 -53v-197q0 -32 12 -54.5q12 -22.5 47 -26.5l0 -34h-205v34q33 4 46.5 24q13.5 20 13.5 57v470q0 35 -13.5 56.5q-13.5 21.5 -46.5 24.5l0 34z" />
<glyph unicode="&#76;" horiz-adv-x="616" d="M256 666q-32 -3 -45.5 -23q-13.5 -20 -13.5 -58v-546h214q33 0 58 11q25 11 43 29q18 18 28.5 40.5q10.5 22.5 15.5 45.5l34 0v-165h-538v34q35 3 47 25.5q12 22.5 12 55.5v470q0 38 -13.5 58q-13.5 20 -45.5 23l0 34l204 0z" />
<glyph unicode="&#77;" horiz-adv-x="926" d="M457 131h4l234 569h179v-34q-35 -4 -47 -26q-12 -22 -12 -55v-470q0 -43 18 -61q18 -18 41 -20l0 -34h-204v34q10 1 21 5q11 4 19 13q8 9 13.5 24.5q5.5 15.5 5.5 38.5v547h-3l-277 -670h-33l-263 669h-3v-548q0 -23 5.5 -38q5.5 -15 14 -24q8.5 -9 19 -12.5q10.5 -3.5 21.5 -4.5l0 -34h-158v34q19 2 30.5 9.5q11.5 7.5 18 18.5q6.5 11 8.5 24q2 13 2 27v493q0 32 -18 45.5q-18 13.5 -41 14.5l0 34l181 0z" />
<glyph unicode="&#78;" horiz-adv-x="772" d="M52 34q16 -2 27 4.5q11 6.5 18.5 17.5q7.5 11 11 25q3.5 14 3.5 26v475q0 4 -1 17.5q-1 13.5 -7 28q-6 14.5 -18 26.5q-12 12 -34 12l0 34h143l424 -537h3v424q0 12 -1.5 25q-1.5 13 -7 24q-5.5 11 -17.5 19q-12 8 -33 11l0 34h157v-34q-38 -8 -48.5 -27.5q-10.5 -19.5 -10.5 -51.5v-587h-30l-476 604h-4v-497q0 -10 2.5 -22.5q2.5 -12.5 9 -24q6.5 -11.5 18 -19q11.5 -7.5 29.5 -7.5l0 -34l-158 0z" />
<glyph unicode="&#79;" horiz-adv-x="788" d="M394 708q87 0 153.5 -32.5q66.5 -32.5 111 -84q44.5 -51.5 67.5 -115q23 -63.5 23 -126.5q0 -63 -23 -126.5q-23 -63.5 -67.5 -115q-44.5 -51.5 -111 -84q-66.5 -32.5 -153.5 -32.5q-87 0 -153.5 32.5q-66.5 32.5 -111 84q-44.5 51.5 -67.5 115q-23 63.5 -23 126.5q0 63 23 126.5q23 63.5 67.5 115q44.5 51.5 111 84q66.5 32.5 153.5 32.5zt0 0zM394 669q-52 0 -98 -21q-46 -21 -81 -61.5q-35 -40.5 -55.5 -100q-20.5 -59.5 -20.5 -136.5q0 -77 20.5 -136.5q20.5 -59.5 55.5 -100q35 -40.5 81 -61.5q46 -21 98 -21q52 0 98 21q46 21 81 61.5q35 40.5 55.5 100q20.5 59.5 20.5 136.5q0 77 -20.5 136.5q-20.5 59.5 -55.5 100q-35 40.5 -81 61.5t-98 21z" />
<glyph unicode="&#80;" horiz-adv-x="640" d="M52 34q35 4 47 24.5q12 20.5 12 56.5v470q0 33 -11.5 54.5q-11.5 21.5 -47.5 26.5l0 34h275q32 0 62 -1.5q30 -1.5 57 -7q27 -5.5 52 -16q25 -10.5 46 -29.5q23 -20 39.5 -51q16.5 -31 16.5 -77q0 -38 -11 -66q-11 -28 -25 -47q-29 -38 -82.5 -59q-53.5 -21 -128.5 -21h-156v-210q0 -32 11 -54.5q11 -22.5 48 -26.5l0 -34h-204zM197 364h114q19 0 41.5 1q22.5 1 44.5 7q22 6 42 18.5q20 12.5 35 35.5q9 13 17.5 35.5q8.5 22.5 8.5 57.5q0 23 -6 47q-6 24 -23 45q-15 18 -35 28.5q-20 10.5 -41.5 15q-21.5 4.5 -43 5.5q-21.5 1 -40.5 1l-114 0z" />
<glyph unicode="&#81;" horiz-adv-x="788" d="M707 -37q-8 -32 -17 -58q-9 -26 -22.5 -45q-13.5 -19 -32 -29q-18.5 -10 -43.5 -10q-30 0 -54 13.5q-24 13.5 -43 37q-19 23.5 -33.5 55q-14.5 31.5 -25.5 68.5q-21 -3 -42 -3q-87 0 -153.5 33.5q-66.5 33.5 -111.5 85.5q-45 52 -67.5 115.5q-22.5 63.5 -22.5 123.5q0 63 23 126.5q23 63.5 67.5 115q44.5 51.5 111 84q66.5 32.5 153.5 32.5q87 0 153.5 -32.5q66.5 -32.5 111 -84q44.5 -51.5 67.5 -115q23 -63.5 23 -126.5q0 -56 -16.5 -109q-16.5 -53 -47 -98q-30.5 -45 -73 -78.5q-42.5 -33.5 -93.5 -51.5q7 -17 17.5 -36q10.5 -19 22.5 -35.5q12 -16.5 26 -27.5q14 -11 30 -11q4 0 11.5 2q7.5 2 16 8.5q8.5 6.5 17 19.5q8.5 13 14.5 36l33 -6zM422 31q-11 31 -31.5 52.5q-20.5 21.5 -55.5 21.5q-18 0 -39 -11q-21 -11 -29 -29q24 -14 54 -23q30 -9 73 -11l28 0zM239 87q21 32 55 48q34 16 67 16q35 0 72 -20.5q37 -20.5 65 -77.5q48 22 77.5 59q29.5 37 46 78q16.5 41 22 83q5.5 42 5.5 75q0 66 -13.5 115q-13.5 49 -33.5 84q-14 23 -34.5 45q-20.5 22 -46.5 39q-26 17 -58 27.5q-32 10.5 -69 10.5q-37 0 -69 -10.5q-32 -10.5 -58.5 -27.5q-26.5 -17 -46.5 -39q-20 -22 -34 -45q-20 -35 -33.5 -84q-13.5 -49 -13.5 -115q0 -60 10.5 -104.5q10.5 -44.5 26 -75.5q15.5 -31 33 -50.5t30.5 -30.5z" />
<glyph unicode="&#82;" horiz-adv-x="690" d="M316 700q39 0 77.5 -3q38.5 -3 72 -13.5q33.5 -10.5 61 -31q27.5 -20.5 44.5 -54.5q18 -35 18 -75q0 -39 -12 -69.5q-12 -30.5 -31.5 -53q-19.5 -22.5 -46 -37q-26.5 -14.5 -54.5 -21.5l144 -238q7 -12 15 -24q8 -12 18 -22q10 -10 23.5 -16.5q13.5 -6.5 31.5 -7.5l0 -34h-127l-198 327h-155v-212q0 -32 11 -54.5q11 -22.5 48 -26.5l0 -34h-204v34q35 4 47 24.5q12 20.5 12 56.5v470q0 33 -11.5 54.5q-11.5 21.5 -47.5 26.5l0 34zM300 366q22 0 54 3.5q32 3.5 62 18q30 14.5 51.5 44.5q21.5 30 21.5 84q0 52 -19.5 81.5q-19.5 29.5 -48 43.5q-28.5 14 -61.5 17q-33 3 -60 3h-103l0 -295z" />
<glyph unicode="&#83;" horiz-adv-x="541" d="M437 517q-8 22 -25 52.5q-17 30.5 -36 50.5q-24 24 -56 36.5q-32 12.5 -61 12.5q-20 0 -42 -6.5q-22 -6.5 -40.5 -20q-18.5 -13.5 -30.5 -35q-12 -21.5 -12 -51.5q0 -45 32.5 -76.5q32.5 -31.5 109.5 -53.5q22 -6 44.5 -12.5q22.5 -6.5 56.5 -21.5q32 -14 58.5 -33q26.5 -19 46.5 -51q17 -26 22 -51q5 -25 5 -52q0 -43 -15 -78.5q-15 -35.5 -44 -66.5q-23 -25 -59.5 -46.5q-36.5 -21.5 -93.5 -21.5q-22 0 -50.5 4q-28.5 4 -51.5 11q-20 6 -37.5 12q-17.5 6 -35.5 6q-13 0 -21 -3q-8 -3 -12.5 -7q-4.5 -4 -6.5 -8.5q-2 -4.5 -3 -6.5l-33 0v216h34q12 -42 38.5 -77.5q26.5 -35.5 55.5 -58.5q34 -27 68.5 -38q34.5 -11 66.5 -11q22 0 41.5 6q19.5 6 40.5 26q29 26 38 54q9 28 9 51q0 33 -12 56.5q-12 23.5 -35 43.5q-32 27 -65.5 38.5q-33.5 11.5 -60.5 19.5l-55 17q-21 6 -46 20q-25 14 -47 36.5q-22 22.5 -36.5 54q-14.5 31.5 -14.5 74.5q0 40 15.5 73q15.5 33 42.5 57q27 24 64 37q37 13 80 13q33 0 62 -8.5q29 -8.5 62 -27.5q6 -4 14 -7.5q8 -3.5 16 -3.5q8 0 13 4q5 4 11 10l25 0l0 -158z" />
<glyph unicode="&#84;" horiz-adv-x="680" d="M13 708l227 -8h200l227 8v-135h-34q0 11 -5 26.5q-5 15.5 -17 29q-12 13.5 -33 23q-21 9.5 -54 9.5h-141v-546q0 -33 11 -55q11 -22 48 -26l0 -34h-205v34q36 5 48 26q12 21 12 55v546h-142q-27 0 -46 -7q-19 -7 -31.5 -19q-12.5 -12 -19.5 -28q-7 -16 -11 -34l-34 0z" />
<glyph unicode="&#85;" horiz-adv-x="799" d="M254 700v-34q-37 -4 -47.5 -26.5q-10.5 -22.5 -10.5 -54.5v-274q0 -36 4 -71q4 -35 16 -66.5q12 -31.5 34.5 -57.5q22.5 -26 60.5 -45q27 -14 55 -18q28 -4 57 -4q34 0 65.5 8q31.5 8 61.5 26q37 22 57.5 52.5q20.5 30.5 30 64q9.5 33.5 11 68q1.5 34.5 1.5 66.5v259q0 35 -13.5 53q-13.5 18 -44.5 20l0 34h155v-34q-21 -2 -32.5 -10.5q-11.5 -8.5 -17.5 -19.5q-6 -11 -7 -23q-1 -12 -1 -20v-306q0 -53 -12.5 -106q-12.5 -53 -44 -95q-31.5 -42 -86.5 -68q-55 -26 -140 -26q-83 0 -139.5 21.5q-56.5 21.5 -91.5 63q-35 41.5 -50 101.5q-15 60 -15 137v270q0 38 -12 58q-12 20 -46 23l0 34z" />
<glyph unicode="&#86;" horiz-adv-x="754" d="M216 700v-34q-6 0 -14.5 -1q-8.5 -1 -17 -5q-8.5 -4 -14 -11.5q-5.5 -7.5 -5.5 -20.5q0 -5 2 -12q2 -7 5 -14.5q3 -7.5 6 -14q3 -6.5 4 -9.5l215 -461h6l219 458q3 7 9 22q6 15 6 26q0 25 -18.5 34.5q-18.5 9.5 -37.5 8.5l0 34h173v-34q-18 -3 -31.5 -11q-13.5 -8 -24 -20q-10.5 -12 -18.5 -27q-8 -15 -15 -31l-284 -585h-25l-283 617q-11 23 -29 39q-18 16 -44 18l0 34z" />
<glyph unicode="&#87;" horiz-adv-x="996" d="M996 666q-6 0 -14.5 -2.5q-8.5 -2.5 -18.5 -11.5q-10 -9 -22 -26.5q-12 -17.5 -25 -47.5l-255 -586h-27l-130 319h-3l-135 -319h-31l-248 603q-11 28 -29.5 49q-18.5 21 -57.5 22l0 34h222v-34q-17 0 -32.5 -9q-15.5 -9 -15.5 -31q0 -8 3.5 -19q3.5 -11 10.5 -28l189 -450h3l101 238l-100 240q-11 24 -26.5 40q-15.5 16 -43.5 19l0 34h386v-34q-27 -5 -46.5 -26q-19.5 -21 -36.5 -62l-64 -152l128 -299h2l185 438q5 13 10.5 29q5.5 16 5.5 27q0 26 -17 36.5q-17 10.5 -35 8.5l0 34h167zM581 604q3 7 6.5 18q3.5 11 2.5 20.5q-1 9.5 -10 16.5q-9 7 -30 7h-22q-27 0 -44 -4.5q-17 -4.5 -17 -27.5q0 -11 4.5 -20q4.5 -9 8.5 -19l46 -109l5 0z" />
<glyph unicode="&#88;" horiz-adv-x="790" d="M753 666q-38 -2 -62.5 -18q-24.5 -16 -53.5 -48l-197 -219l201 -259q21 -27 42 -44q21 -17 39 -26.5q18 -9.5 32 -13q14 -3.5 23 -4.5l0 -34h-243v34h10q11 0 17 7q6 7 6 15q0 5 -3.5 15q-3.5 10 -16.5 27l-170 218l-197 -223q-11 -12 -14 -21q-3 -9 -3 -14q0 -13 9.5 -18.5q9.5 -5.5 21.5 -5.5h7v-34h-188v34q29 2 57.5 18.5q28.5 16.5 50.5 40.5l231 256l-170 218q-12 15 -26.5 32.5q-14.5 17.5 -31 32q-16.5 14.5 -34 24.5q-17.5 10 -35.5 10h-13v34h235v-34q-10 0 -18.5 -4q-8.5 -4 -8.5 -12q0 -26 10 -38l155 -200l166 191q5 6 12.5 17.5q7.5 11.5 7.5 19.5q0 9 -8 17.5q-8 8.5 -24 8.5l0 34l184 0z" />
<glyph unicode="&#89;" horiz-adv-x="677" d="M230 700v-34q-15 -2 -25.5 -8.5q-10.5 -6.5 -10.5 -21.5q0 -9 3.5 -17q3.5 -8 8.5 -14l169 -229h6l142 220q11 17 16 26.5q5 9.5 5 17.5q0 11 -11 18.5q-11 7.5 -27 7.5l0 34h171v-34q-21 0 -38 -6.5q-17 -6.5 -31.5 -18.5q-14.5 -12 -26.5 -28q-12 -16 -23 -33l-166 -260v-205q0 -32 12 -54.5q12 -22.5 47 -26.5l0 -34h-204v34q33 4 46 24.5q13 20.5 13 56.5v210l-189 258q-20 27 -38 43q-18 16 -33 24.5q-15 8.5 -27 11.5q-12 3 -19 4l0 34z" />
<glyph unicode="&#90;" horiz-adv-x="743" d="M89 700h572v-31l-493 -630h370q17 0 36 2.5q19 2.5 35.5 11.5q16.5 9 29.5 26q13 17 18 47l34 0v-126h-639v37l492 624h-290q-57 0 -89.5 -20q-32.5 -20 -41.5 -69l-34 0z" />
<glyph unicode="&#91;" horiz-adv-x="354" d="M284 663h-128v-810h128v-37h-214v884l214 0z" />
<glyph unicode="&#92;" horiz-adv-x="546" d="M70 700h59l347 -884l-57 0z" />
<glyph unicode="&#93;" horiz-adv-x="354" d="M284 700v-884h-214v37h128v810h-128l0 37z" />
<glyph unicode="&#94;" horiz-adv-x="528" d="M148 505h-78l194 195l194 -195h-78l-116 116z" />
<glyph unicode="&#95;" horiz-adv-x="543" d="M0 -184h543v-49l-543 0z" />
<glyph unicode="&#96;" horiz-adv-x="314" d="M235 503l-122 76q-14 8 -20 12.5q-6 4.5 -11 8.5q-7 6 -11.5 13.5q-4.5 7.5 -4.5 18.5q0 17 10 27q10 10 27 10q23 0 40 -20l105 -130z" />
<glyph unicode="&#97;" horiz-adv-x="399" d="M392 28q-24 -36 -64 -36q-29 0 -44.5 18q-15.5 18 -20.5 37l-2 0q-20 -21 -49 -38q-29 -17 -69 -17q-58 0 -87.5 30.5q-29.5 30.5 -29.5 75.5q0 39 17.5 64.5q17.5 25.5 48.5 41.5q31 16 72.5 24q41.5 8 88.5 11q0 27 -2.5 49.5q-2.5 22.5 -10 39q-7.5 16.5 -22.5 25.5q-15 9 -39 9q-13 0 -27 -6.5q-14 -6.5 -22 -26.5q-3 -7 -4.5 -14.5q-1.5 -7.5 -5 -13.5q-3.5 -6 -10 -10q-6.5 -4 -18.5 -4q-8 0 -20 5.5q-12 5.5 -12 24.5q0 12 8 25q8 13 24.5 24.5q16.5 11.5 40 19q23.5 7.5 55.5 7.5q50 0 78 -17q28 -17 41.5 -43q13.5 -26 16 -56q2.5 -30 2.5 -55v-126q0 -6 0.5 -16q0.5 -10 4.5 -20.5q4 -10.5 12.5 -18q8.5 -7.5 23.5 -7.5q8 0 18 5zM253 206q-46 -2 -75 -13q-29 -11 -45.5 -26.5q-16.5 -15.5 -22.5 -33.5q-6 -18 -6 -33q0 -33 21 -49.5q21 -16.5 49 -16.5q27 0 43 12.5q16 12.5 24 32q8 19.5 10 44q2 24.5 2 48.5z" />
<glyph unicode="&#98;" horiz-adv-x="489" d="M151 355q23 17 52.5 27.5q29.5 10.5 71.5 10.5q42 0 76.5 -14q34.5 -14 59.5 -39.5q25 -25.5 38.5 -60.5q13.5 -35 13.5 -78q0 -47 -15.5 -87q-15.5 -40 -43.5 -68.5q-28 -28.5 -65.5 -43q-37.5 -14.5 -81.5 -10.5q-32 3 -63 15q-31 12 -57 29l-46 -43h-13v627q0 18 -10.5 33.5q-10.5 15.5 -33.5 17.5l0 29h117zM151 148q0 -34 8 -57.5q8 -23.5 21.5 -38q13.5 -14.5 31.5 -21q18 -6.5 38 -6.5q70 0 99.5 45.5q29.5 45.5 29.5 130.5q0 21 -3 49q-3 28 -15.5 53q-12.5 25 -37.5 42q-25 17 -68 17q-25 0 -53 -9q-28 -9 -51 -33z" />
<glyph unicode="&#99;" horiz-adv-x="392" d="M372 71q-13 -15 -29 -29q-16 -14 -36 -25q-20 -11 -44 -18q-24 -7 -51 -7q-36 0 -69.5 12.5q-33.5 12.5 -59.5 36.5q-26 24 -41.5 60q-15.5 36 -15.5 84q0 44 14 82q14 38 39.5 66q25.5 28 60.5 44q35 16 77 16q31 0 54.5 -6.5q23.5 -6.5 39.5 -17q16 -10.5 23.5 -24q7.5 -13.5 7.5 -26.5q0 -13 -9.5 -24q-9.5 -11 -27.5 -11q-4 0 -10.5 1q-6.5 1 -12.5 4.5q-6 3.5 -11 11.5q-5 8 -6 22q0 5 -1 12q-1 7 -5.5 13q-4.5 6 -13.5 10q-9 4 -26 4q-20 0 -39.5 -9q-19.5 -9 -35 -29.5q-15.5 -20.5 -25 -54.5q-9.5 -34 -9.5 -84q0 -49 14.5 -78q14.5 -29 34.5 -44.5q20 -15.5 41 -20q21 -4.5 34 -4.5q14 0 31 3.5q17 3.5 33.5 10.5q16.5 7 31.5 16.5q15 9.5 25 20.5z" />
<glyph unicode="&#100;" horiz-adv-x="484" d="M414 81q0 -22 12 -36q12 -14 32 -16l0 -29h-117v33h-6q-32 -26 -60 -33.5q-28 -7.5 -52 -7.5q-33 0 -68 10q-35 10 -63.5 33.5q-28.5 23.5 -47 60.5q-18.5 37 -18.5 91q0 52 16 91q16 39 41.5 64.5q25.5 25.5 58 38q32.5 12.5 65.5 12.5q29 0 61.5 -7q32.5 -7 63.5 -27l9 0v258q0 26 -13.5 38q-13.5 12 -25.5 16l0 29h112zM341 304q-7 16 -19 27.5q-12 11.5 -25.5 18q-13.5 6.5 -28 9.5q-14.5 3 -26.5 3q-20 0 -43.5 -7q-23.5 -7 -43 -25.5q-19.5 -18.5 -32.5 -52q-13 -33.5 -13 -85.5q0 -85 32.5 -127q32.5 -42 84.5 -42q19 0 38 6q19 6 34.5 16.5q15.5 10.5 26.5 25q11 14.5 15 30.5z" />
<glyph unicode="&#101;" horiz-adv-x="386" d="M360 77q-26 -33 -66.5 -59q-40.5 -26 -88.5 -26q-24 0 -55 7.5q-31 7.5 -58.5 28q-27.5 20.5 -46.5 57q-19 36.5 -19 94.5q0 48 13 87.5q13 39.5 36.5 67.5q23.5 28 56 43.5q32.5 15.5 70.5 15.5q40 0 68.5 -15.5q28.5 -15.5 46.5 -40.5q18 -25 26 -55q8 -30 7 -59l-239 0q-3 -39 0.5 -73.5q3.5 -34.5 15.5 -60.5q12 -26 34 -41q22 -15 57 -15q38 0 71 20q33 20 53 41l18 -17zM271 254q1 29 -5 49.5q-6 20.5 -16.5 33.5q-10.5 13 -24 19q-13.5 6 -28.5 6q-31 0 -56.5 -24q-25.5 -24 -27.5 -84l158 0z" />
<glyph unicode="&#102;" horiz-adv-x="252" d="M75 385v101q0 55 14 95.5q14 40.5 35 66.5q21 26 46 39q25 13 47 13q26 0 40.5 -12.5q14.5 -12.5 14.5 -29.5q0 -13 -7.5 -23.5q-7.5 -10.5 -24.5 -10.5q-13 0 -20.5 5.5q-7.5 5.5 -12.5 11.5q-5 5 -10 7.5q-5 2.5 -13 2.5q-22 0 -29 -19.5q-7 -19.5 -7 -45.5v-201h107v-31h-107v-252q0 -15 2 -29q2 -14 7.5 -24q5.5 -10 15.5 -16q10 -6 26 -4l0 -29h-173v29q34 5 41.5 23.5q7.5 18.5 7.5 49.5v252h-48l0 31z" />
<glyph unicode="&#103;" horiz-adv-x="435" d="M26 26l78 128q-23 13 -42.5 37.5q-19.5 24.5 -19.5 66.5q0 34 13.5 59.5q13.5 25.5 35 42.5q21.5 17 49 25q27.5 8 56.5 8q31 0 66 -10.5q35 -10.5 60 -33.5q1 5 5 12.5q4 7.5 10 14q6 6.5 15 11q9 4.5 22 4.5q23 0 35.5 -13.5q12.5 -13.5 12.5 -32.5q0 -17 -9 -26q-9 -9 -22 -9q-10 0 -17 6q-7 6 -7 17q0 8 4 14q4 5 4 9q0 2 -2 5q-2 3 -7 3q-9 0 -16 -9.5q-7 -9.5 -7 -23.5q0 -9 3 -15.5q3 -6.5 5 -13.5q4 -11 5 -21.5q1 -10.5 1 -20.5q0 -37 -15.5 -60q-15.5 -23 -27.5 -34q-18 -16 -46 -26.5q-28 -10.5 -66 -10.5q-35 0 -66 11l-46 -73l3 -4q13 5 23.5 9q10.5 4 24.5 9q19 6 36.5 10q17.5 4 48.5 4q22 0 47 -4q25 -4 49 -15q9 -4 22.5 -12.5q13.5 -8.5 26 -22.5q12.5 -14 21.5 -33.5q9 -19.5 9 -46.5q0 -8 -2.5 -21.5q-2.5 -13.5 -11 -29q-8.5 -15.5 -25 -31q-16.5 -15.5 -43.5 -27.5q-23 -10 -46.5 -14q-23.5 -4 -51.5 -4q-23 0 -57 6q-34 6 -63 26q-20 14 -29 30q-9 16 -9 33q0 7 2 15q2 8 6.5 15q4.5 7 13 12q8.5 5 22.5 5q20 0 29 -10.5q9 -10.5 9 -23.5q0 -8 -3 -14q-3 -6 -6.5 -10.5q-3.5 -4.5 -6.5 -8.5q-3 -4 -3 -10q0 -6 7 -13.5q7 -7.5 23 -12.5q14 -5 28.5 -6.5q14.5 -1.5 29.5 -1.5q25 0 50.5 4q25.5 4 44.5 15q22 13 31.5 30.5q9.5 17.5 9.5 34.5q0 17 -5.5 28.5q-5.5 11.5 -14 19q-8.5 7.5 -18.5 12q-10 4.5 -19 7.5q-9 3 -29.5 6.5q-20.5 3.5 -55.5 3.5q-38 0 -81.5 -9q-43.5 -9 -85.5 -25zM200 362q-42 0 -58 -25.5q-16 -25.5 -16 -76.5q0 -30 5.5 -49.5q5.5 -19.5 15.5 -30.5q10 -11 23.5 -15.5q13.5 -4.5 29.5 -4.5q12 0 25 3q13 3 23.5 13.5q10.5 10.5 17.5 30.5q7 20 7 55q0 22 -3.5 40q-3.5 18 -11.5 31.5q-8 13.5 -22 21t-36 7.5z" />
<glyph unicode="&#104;" horiz-adv-x="451" d="M144 700v-358h7q23 21 55 36q32 15 70 15q57 0 81 -32.5q24 -32.5 24 -93.5v-167q0 -9 0.5 -21q0.5 -12 4.5 -22.5q4 -10.5 13 -18q9 -7.5 26 -9.5l0 -29h-161v29q16 2 25 9q9 7 13.5 16.5q4.5 9.5 5 21.5q0.5 12 0.5 24v170q0 17 -2.5 32q-2.5 15 -9 26q-6.5 11 -18 17q-11.5 6 -30.5 6q-32 0 -60.5 -20.5q-28.5 -20.5 -43.5 -51.5l0 -178q0 -28 7.5 -49q7.5 -21 37.5 -23l0 -29h-163v29q30 4 37.5 23.5q7.5 19.5 7.5 48.5v518q0 17 -6 27.5q-6 10.5 -13.5 15.5q-7.5 5 -14.5 7q-7 2 -10 2l0 29z" />
<glyph unicode="&#105;" horiz-adv-x="214" d="M143 385v-284q0 -28 7.5 -49q7.5 -21 37.5 -23l0 -29h-162v29q28 3 36 21.5q8 18.5 8 50.5v182q0 31 -6.5 48.5q-6.5 17.5 -37.5 24.5l0 29zM47 564q0 21 14.5 34.5q14.5 13.5 34.5 13.5q20 0 34 -14q14 -14 14 -34q0 -20 -13.5 -34.5q-13.5 -14.5 -34.5 -14.5q-21 0 -35 14t-14 35z" />
<glyph unicode="&#106;" horiz-adv-x="210" d="M155 385v-361q0 -42 -5.5 -79q-5.5 -37 -23.5 -68q-11 -19 -24.5 -31q-13.5 -12 -28 -18.5q-14.5 -6.5 -28 -9q-13.5 -2.5 -24.5 -2.5q-29 0 -44.5 14q-15.5 14 -15.5 31q0 17 10.5 24q10.5 7 23.5 7q10 0 17 -4.5q7 -4.5 12 -10.5q7 -8 13.5 -14q6.5 -6 20.5 -6q6 0 15 5q9 5 9 25v396q0 36 -11.5 54.5q-11.5 18.5 -43.5 18.5h-16v29zM58 564q0 21 14.5 34.5q14.5 13.5 34.5 13.5q20 0 34 -14q14 -14 14 -34q0 -20 -13.5 -34.5q-13.5 -14.5 -34.5 -14.5q-21 0 -35 14t-14 35z" />
<glyph unicode="&#107;" horiz-adv-x="423" d="M143 228l97 83q14 11 18.5 17q4.5 6 4.5 11q0 7 -7.5 12q-7.5 5 -20.5 5l0 29h155v-29q-33 -3 -57.5 -18.5q-24.5 -15.5 -45.5 -33.5l-57 -49l133 -171q22 -29 36 -41.5q14 -12.5 31 -13.5l0 -29h-181v29q17 -2 27 4q10 6 10 16q0 7 -3.5 12.5q-3.5 5.5 -7.5 10.5l-102 131l-30 -26v-76q0 -32 8 -50.5q8 -18.5 36 -21.5l0 -29h-161v29q28 3 36 21.5q8 18.5 8 50.5v498q0 32 -8 50.5q-8 18.5 -36 21.5l0 29l117 0z" />
<glyph unicode="&#108;" horiz-adv-x="215" d="M144 700v-599q0 -28 7.5 -49q7.5 -21 37.5 -23l0 -29h-163v29q30 4 37.5 23.5q7.5 19.5 7.5 48.5v498q0 35 -7 51q-7 16 -37 21l0 29z" />
<glyph unicode="&#109;" horiz-adv-x="689" d="M26 29q30 4 37.5 23.5q7.5 19.5 7.5 48.5v203q0 16 -7.5 30.5q-7.5 14.5 -36.5 21.5l0 29h117v-49h3q31 32 66.5 44.5q35.5 12.5 64.5 12.5q26 0 53.5 -12.5q27.5 -12.5 40.5 -44.5l2 0q41 39 75.5 48q34.5 9 57.5 9q41 0 63.5 -13q22.5 -13 33 -31.5q10.5 -18.5 12.5 -40q2 -21.5 2 -38.5v-169q0 -28 7.5 -49q7.5 -21 37.5 -23l0 -29h-163v29q30 4 37.5 23.5q7.5 19.5 7.5 48.5v169q0 40 -13.5 60.5q-13.5 20.5 -45.5 20.5q-10 0 -23 -2.5q-13 -2.5 -27 -9.5q-14 -7 -28.5 -20q-14.5 -13 -26.5 -34l0 -184q0 -28 7.5 -49q7.5 -21 37.5 -23l0 -29h-163v29q30 4 37.5 23.5q7.5 19.5 7.5 48.5v169q0 11 -1 25q-1 14 -6.5 26.5q-5.5 12.5 -17.5 21q-12 8.5 -34 8.5q-5 0 -16.5 -2q-11.5 -2 -26 -8.5q-14.5 -6.5 -31 -20q-16.5 -13.5 -31.5 -36.5l0 -183q0 -32 9 -50.5q9 -18.5 36 -21.5l0 -29h-163l0 29z" />
<glyph unicode="&#110;" horiz-adv-x="452" d="M26 29q30 4 37.5 23.5q7.5 19.5 7.5 48.5v203q0 16 -7.5 30.5q-7.5 14.5 -36.5 21.5l0 29h117v-49h3q31 32 66.5 45q35.5 13 64.5 12q39 -1 60 -14q21 -13 30.5 -32q9.5 -19 11 -40.5q1.5 -21.5 1.5 -39.5v-166q0 -28 7.5 -49q7.5 -21 37.5 -23l0 -29h-163v29q30 4 37.5 23.5q7.5 19.5 7.5 48.5v169q0 11 -1 25q-1 14 -6.5 26.5q-5.5 12.5 -17.5 21q-12 8.5 -34 8.5q-5 0 -16.5 -2q-11.5 -2 -26 -8.5q-14.5 -6.5 -31 -20q-16.5 -13.5 -31.5 -36.5l0 -183q0 -32 9 -50.5q9 -18.5 36 -21.5l0 -29h-163l0 29z" />
<glyph unicode="&#111;" horiz-adv-x="432" d="M216 393q14 0 39.5 -4q25.5 -4 53 -18.5q27.5 -14.5 52.5 -44q25 -29.5 38 -80.5q4 -14 5.5 -27.5q1.5 -13.5 1.5 -27.5q0 -26 -7 -53q-13 -52 -39.5 -81q-26.5 -29 -55 -43.5q-28.5 -14.5 -53.5 -18q-25 -3.5 -35 -3.5q-10 0 -35 3.5q-25 3.5 -53.5 18q-28.5 14.5 -55 43.5q-26.5 29 -39.5 81q-7 27 -7 53q0 14 1.5 27.5q1.5 13.5 5.5 27.5q13 51 38 80.5q25 29.5 52.5 44q27.5 14.5 53 18.5q25.5 4 39.5 4zt0 0zM216 362q-21 0 -40 -6q-19 -6 -34 -24.5q-15 -18.5 -23.5 -52q-8.5 -33.5 -8.5 -87.5q0 -18 1.5 -46.5q1.5 -28.5 11 -56q9.5 -27.5 31 -47q21.5 -19.5 62.5 -19.5q40 0 62 19.5q22 19.5 31.5 47q9.5 27.5 11 56q1.5 28.5 1.5 46.5q0 54 -8.5 87.5q-8.5 33.5 -23.5 52q-15 18.5 -34 24.5t-40 6z" />
<glyph unicode="&#112;" horiz-adv-x="455" d="M13 -184v29q28 2 36 22q8 20 8 50v387q0 16 -7.5 30.5q-7.5 14.5 -36.5 21.5l0 29h117v-44h3q5 5 15 15q10 10 27 19q15 8 34 13q19 5 40 5q26 0 57.5 -8.5q31.5 -8.5 61.5 -36.5q61 -56 61 -156q0 -58 -20 -96q-20 -38 -45 -60q-26 -23 -58.5 -33.5q-32.5 -10.5 -61.5 -10.5q-15 0 -34.5 3.5q-19.5 3.5 -35.5 9.5q-14 5 -23.5 12.5q-9.5 7.5 -17.5 15.5l-3 0v-115q0 -32 9.5 -52.5q9.5 -20.5 41.5 -20.5l0 -29zM130 136q0 -12 3 -31.5q3 -19.5 11 -33.5q4 -7 12 -15.5q8 -8.5 19.5 -15.5q11.5 -7 26.5 -12q15 -5 33 -5q46 0 74 31q23 26 29.5 59.5q6.5 33.5 6.5 78.5q0 47 -7 80q-7 33 -24 54q-13 17 -32 26.5q-19 9.5 -46 9.5q-37 0 -58.5 -17.5q-21.5 -17.5 -31.5 -34.5q-6 -11 -11 -27.5q-5 -16.5 -5 -30.5z" />
<glyph unicode="&#113;" horiz-adv-x="490" d="M295 -155q33 6 42 24.5q9 18.5 9 47.5v126h-4q-17 -17 -35 -27.5q-18 -10.5 -34 -15.5q-16 -5 -29.5 -6.5q-13.5 -1.5 -22.5 -1.5q-52 0 -89 18q-37 18 -60.5 46q-23.5 28 -34.5 62.5q-11 34.5 -11 68.5q0 26 8.5 61.5q8.5 35.5 32 67.5q23.5 32 64 54.5q40.5 22.5 104.5 22.5q23 0 52.5 -5.5q29.5 -5.5 64.5 -27.5l5 0l39 33h23v-475q0 -34 8.5 -53q8.5 -19 36.5 -20l0 -29h-169zM346 304q-11 18 -25 29q-14 11 -28 17.5q-14 6.5 -27.5 9q-13.5 2.5 -23.5 2.5q-20 0 -43.5 -7q-23.5 -7 -43 -25.5q-19.5 -18.5 -32.5 -52q-13 -33.5 -13 -85.5q0 -85 32.5 -127q32.5 -42 84.5 -42q38 0 71.5 22q33.5 22 47.5 56z" />
<glyph unicode="&#114;" horiz-adv-x="295" d="M144 385v-62h4q20 30 42.5 50q22.5 20 55.5 20q27 0 38 -13.5q11 -13.5 11 -30.5q0 -14 -9.5 -25q-9.5 -11 -25.5 -11q-14 0 -22 5.5q-8 5.5 -10 8.5q-4 5 -8.5 9q-4.5 4 -12.5 4q-11 0 -22 -9.5q-11 -9.5 -20 -26.5q-9 -17 -15 -41q-6 -24 -6 -53v-109q0 -14 1.5 -26.5q1.5 -12.5 6 -22q4.5 -9.5 13.5 -16q9 -6.5 24 -7.5l0 -29h-163v29q31 4 38 23.5q7 19.5 7 48.5v203q0 24 -11 35.5q-11 11.5 -33 16.5l0 29z" />
<glyph unicode="&#115;" horiz-adv-x="341" d="M166 393q62 0 92.5 -24q30.5 -24 30.5 -51q0 -17 -10 -23.5q-10 -6.5 -21 -6.5q-12 0 -19.5 5q-7.5 5 -12 12q-4.5 7 -6 14q-1.5 7 -2.5 11q0 2 -1.5 7q-1.5 5 -6.5 10.5q-5 5.5 -15 10q-10 4.5 -27 4.5q-31 0 -53 -15q-22 -15 -22 -45q0 -21 9 -33q9 -12 24.5 -19.5q15.5 -7.5 35.5 -12.5q20 -5 42 -11q15 -4 34 -11.5q19 -7.5 36 -21q17 -13.5 29 -33q12 -19.5 12 -47.5q0 -27 -11.5 -49q-11.5 -22 -31.5 -38q-20 -16 -47.5 -25q-27.5 -9 -59.5 -9q-38 0 -64 9q-26 9 -43 22q-17 13 -24.5 28.5q-7.5 15.5 -7.5 29.5q0 16 10 29q10 13 30 13q21 0 29.5 -10.5q8.5 -10.5 8.5 -21.5q0 -8 -2 -14.5q-2 -6.5 -2 -14.5q0 -11 14 -25q14 -14 50 -14q42 0 61.5 20.5q19.5 20.5 19.5 45.5q0 15 -6.5 26q-6.5 11 -16.5 18q-10 7 -20.5 11.5q-10.5 4.5 -19.5 7.5q-32 11 -54.5 17.5q-22.5 6.5 -44.5 22.5q-29 20 -36.5 42q-7.5 22 -7.5 42q0 54 36 85.5t91 31.5z" />
<glyph unicode="&#116;" horiz-adv-x="270" d="M64 385v87l73 40v-127h83v-31h-83v-257q0 -9 1.5 -19q1.5 -10 6.5 -18q5 -8 14.5 -13.5q9.5 -5.5 25.5 -5.5q28 0 55 21l17 -20q-15 -17 -41 -33.5q-26 -16.5 -64 -16.5q-39 0 -63.5 21q-24.5 21 -24.5 81v260h-44l0 31z" />
<glyph unicode="&#117;" horiz-adv-x="450" d="M379 102q0 -15 1 -27.5q1 -12.5 5.5 -21.5q4.5 -9 13.5 -15q9 -6 25 -9l0 -29h-118v49h-3q-17 -17 -34.5 -28q-17.5 -11 -34 -17.5q-16.5 -6.5 -31 -9q-14.5 -2.5 -25.5 -2.5q-37 0 -58.5 12q-21.5 12 -32.5 29q-11 17 -14 36.5q-3 19.5 -3 33.5v200q0 24 -10 38.5q-10 14.5 -34 14.5l0 29h117v-270q0 -11 1 -25q1 -14 6.5 -26.5q5.5 -12.5 17.5 -21q12 -8.5 34 -8.5q5 0 16 2q11 2 25.5 8.5q14.5 6.5 31 20q16.5 13.5 31.5 36.5l0 203q0 15 -7.5 32q-7.5 17 -36.5 20l0 29l117 0z" />
<glyph unicode="&#118;" horiz-adv-x="413" d="M406 356q-27 -3 -40 -15.5q-13 -12.5 -23 -35.5l-127 -313h-19l-130 301q-3 7 -7 16q-4 9 -11.5 18.5q-7.5 9.5 -19 17q-11.5 7.5 -29.5 11.5l0 29h167v-29q-19 -1 -26 -9q-7 -8 -7 -16q0 -5 2 -11q2 -6 6 -15l81 -184h4l72 184q2 5 4.5 14q2.5 9 2.5 14q0 14 -12 18q-12 4 -25 5l0 29l137 0z" />
<glyph unicode="&#119;" horiz-adv-x="584" d="M577 356q-19 -1 -29 -13q-10 -12 -19 -32l-140 -319h-29l-69 164h-4l-77 -164h-26l-136 330q-8 19 -18.5 27.5q-10.5 8.5 -29.5 6.5l0 29h139v-29q-5 1 -13.5 -1q-8.5 -2 -8.5 -12q0 -10 4 -18l96 -237h4l51 109l-53 124q-7 16 -14 25.5q-7 9.5 -24 9.5l0 29h227v-29q-23 -2 -32.5 -17q-9.5 -15 -17.5 -32l-34 -73l63 -150h3l98 224q2 3 5.5 12.5q3.5 9.5 3.5 16.5q0 8 -7.5 14.5q-7.5 6.5 -23.5 4.5l0 29h111zM337 335q4 8 6 12.5q2 4.5 2 8.5q0 7 -10 7h-12h-31q-8 0 -13 -1q-5 -1 -5 -8q0 -3 2 -7q2 -4 5 -12l26 -60l2 0z" />
<glyph unicode="&#120;" horiz-adv-x="416" d="M392 356q-26 0 -43.5 -16q-17.5 -16 -38.5 -43l-59 -78l97 -135q20 -27 34 -41.5q14 -14.5 34 -13.5l0 -29h-175v29h9q14 0 20.5 8q6.5 8 6.5 16q0 8 -6.5 18.5q-6.5 10.5 -8.5 12.5l-57 74h-1l-52 -68q-14 -17 -17 -25.5q-3 -8.5 -3 -13.5q0 -15 12 -19q12 -4 28 -3l0 -29h-152v29h11q21 0 42.5 20q21.5 20 45.5 52l65 87l-72 99q-14 19 -25 32q-11 13 -20 21q-9 8 -18 11.5q-9 3.5 -19 4.5l0 29h170v-29q-14 -1 -23 -3q-9 -2 -9 -10q0 -2 3.5 -11q3.5 -9 23.5 -36l35 -48l40 57q6 8 12 17q6 9 6 18q0 7 -6 12q-6 5 -19 4l0 29l129 0z" />
<glyph unicode="&#121;" horiz-adv-x="429" d="M429 356q-15 -3 -25 -10q-10 -7 -16.5 -15.5q-6.5 -8.5 -10.5 -17.5q-4 -9 -8 -17l-157 -348q-14 -30 -27 -54q-13 -24 -28.5 -41.5q-15.5 -17.5 -34.5 -27q-19 -9.5 -45 -9.5q-26 0 -47.5 12.5q-21.5 12.5 -21.5 40.5q0 23 12 33q12 10 25 10q11 0 18.5 -3.5q7.5 -3.5 12.5 -7.5q7 -5 13.5 -9.5q6.5 -4.5 19.5 -4.5q20 0 33 14q13 14 22 34l30 66l-118 294q-11 29 -28 46q-17 17 -43 15l0 29h184v-29h-10q-29 0 -29 -25q0 -6 3.5 -16.5q3.5 -10.5 5.5 -15.5l77 -193h4l80 177q2 6 7.5 18.5q5.5 12.5 5.5 23.5q0 10 -8.5 21q-8.5 11 -30.5 10l0 29l135 0z" />
<glyph unicode="&#122;" horiz-adv-x="385" d="M45 385h307v-19l-227 -331v-4h121q15 0 30 1.5q15 1.5 28.5 7q13.5 5.5 23.5 17q10 11.5 15 31.5l29 0v-88h-346v27l222 327h-91q-10 0 -23 -1q-13 -1 -26 -6q-13 -5 -22.5 -15.5q-9.5 -10.5 -11.5 -28.5l-29 0z" />
<glyph unicode="&#123;" horiz-adv-x="347" d="M99 288q37 -18 59 -40q22 -22 34 -45.5q12 -23.5 16 -46q4 -22.5 5 -41.5q2 -26 0 -52q-2 -29 -3 -50.5q-1 -21.5 -1 -41.5q0 -23 7 -39q7 -16 17.5 -26.5q10.5 -10.5 23 -16q12.5 -5.5 24.5 -7.5l-5 -32q-51 10 -79 30q-28 20 -41.5 46q-13.5 26 -16 55q-2.5 29 -2.5 56q0 17 1 34q1 17 1 34q0 20 -2 46.5q-2 26.5 -10 50.5q-8 24 -26 43q-18 19 -49 24l0 38q31 5 49 24q18 19 26 43q8 24 10 50.5q2 26.5 2 46.5q0 17 -1 34q-1 17 -1 34q0 27 2.5 56q2.5 29 16 55q13.5 26 41.5 46q28 20 79 30l5 -32q-12 -2 -24.5 -7.5q-12.5 -5.5 -23 -16q-10.5 -10.5 -17.5 -26.5q-7 -16 -7 -39q0 -20 1 -41.5q1 -21.5 3 -50.5q2 -26 0 -52q-1 -19 -5 -41.5q-4 -22.5 -16 -46q-12 -23.5 -34 -45.5t-59 -40z" />
<glyph unicode="&#124;" horiz-adv-x="190" d="M70 829h50v-1053l-50 0z" />
<glyph unicode="&#125;" horiz-adv-x="347" d="M66 -118q12 2 24.5 7.5q12.5 5.5 23 16q10.5 10.5 17.5 26.5q7 16 7 39q0 20 -1 41.5q-1 21.5 -3 50.5q-2 26 0 52q1 19 5 41.5q4 22.5 16 46q12 23.5 34 45.5q22 22 59 40q-37 18 -59 40q-22 22 -34 45.5q-12 23.5 -16 46q-4 22.5 -5 41.5q-2 26 0 52q2 29 3 50.5q1 21.5 1 41.5q0 23 -7 39q-7 16 -17.5 26.5q-10.5 10.5 -23 16q-12.5 5.5 -24.5 7.5l5 32q51 -10 79 -30q28 -20 41.5 -46q13.5 -26 16 -55q2.5 -29 2.5 -56q0 -17 -1 -34q-1 -17 -1 -34q0 -20 2 -46.5q2 -26.5 10 -50.5q8 -24 25.5 -43q17.5 -19 49.5 -24l0 -38q-32 -5 -49.5 -24q-17.5 -19 -25.5 -43q-8 -24 -10 -50.5q-2 -26.5 -2 -46.5q0 -17 1 -34q1 -17 1 -34q0 -27 -2.5 -56q-2.5 -29 -16 -55q-13.5 -26 -41.5 -46q-28 -20 -79 -30z" />
<glyph unicode="&#126;" horiz-adv-x="725" d="M70 253q7 16 21.5 41q14.5 25 38 47.5q23.5 22.5 57 39q33.5 16.5 77.5 16.5q24 0 61.5 -8.5q37.5 -8.5 98.5 -34.5q14 -6 37.5 -13.5q23.5 -7.5 49.5 -7.5q29 0 56 15.5q27 15.5 42 60.5l46 0q-9 -36 -28 -65q-19 -29 -44.5 -49.5q-25.5 -20.5 -56 -31q-30.5 -10.5 -63.5 -10.5q-29 0 -58 8.5q-29 8.5 -58 19.5q-33 13 -65.5 26.5q-32.5 13.5 -64.5 13.5q-38 0 -61 -18q-23 -18 -41 -50l-45 0z" />
<glyph unicode="&#160;" horiz-adv-x="233" />
<glyph unicode="&#161;" horiz-adv-x="255" d="M144 367l41 -551h-113l32 551zM70 465q0 23 15.5 38.5q15.5 15.5 38.5 15.5q23 0 38.5 -15.5q15.5 -15.5 15.5 -38.5q0 -23 -15.5 -38.5q-15.5 -15.5 -38.5 -15.5q-23 0 -38.5 15.5t-15.5 38.5z" />
<glyph unicode="&#162;" horiz-adv-x="518" d="M438 71q-31 -36 -68 -56.5q-37 -20.5 -82 -22.5l0 -60h-32v61q-30 3 -64.5 18q-34.5 15 -62.5 53q-20 27 -28.5 55.5q-8.5 28.5 -8.5 60.5q0 48 13 83q13 35 33 60q26 33 56 49q30 16 62 19l0 66h32v-64q23 1 45.5 -4.5q22.5 -5.5 39.5 -15.5q20 -11 27.5 -26q7.5 -15 7.5 -28q0 -13 -9.5 -24q-9.5 -11 -28.5 -11q-12 0 -19 4q-7 4 -11 10q-4 6 -5.5 13q-1.5 7 -2.5 12q-1 5 -2.5 12q-1.5 7 -6 13q-4.5 6 -12.5 10q-8 4 -23 4l0 -323q17 -2 36 1q19 3 37 10q18 7 33.5 17q15.5 10 26.5 22zM256 358q-17 -6 -33.5 -19q-16.5 -13 -29.5 -41q-11 -24 -14.5 -50.5q-3.5 -26.5 -3.5 -53.5q0 -24 4 -49.5q4 -25.5 18 -48.5q15 -25 32 -35.5q17 -10.5 27 -13.5z" />
<glyph unicode="&#163;" horiz-adv-x="518" d="M406 354h-148q3 -12 8 -39q5 -27 5 -61q0 -28 -3.5 -58q-3.5 -30 -13.5 -62q14 -14 36 -33.5q22 -19.5 37 -32.5q22 -20 37.5 -28.5q15.5 -8.5 26.5 -8.5q12 0 21 7.5q9 7.5 9 18.5q0 7 -2.5 13q-2.5 6 -4.5 13q-7 17 -7 37q0 26 15.5 37.5q15.5 11.5 32.5 11.5q20 0 35 -15.5q15 -15.5 15 -44.5q0 -30 -11.5 -52q-11.5 -22 -30.5 -36.5q-19 -14.5 -42 -21.5q-23 -7 -45 -7q-38 0 -71.5 20q-33.5 20 -67.5 52q-24 -37 -50 -54.5q-26 -17.5 -58 -17.5q-17 0 -34 4.5q-17 4.5 -31 14q-14 9.5 -22.5 25q-8.5 15.5 -8.5 37.5q0 44 31.5 68.5q31.5 24.5 77.5 24.5q35 0 69 -14q2 35 -2.5 59q-4.5 24 -11.5 51q-8 27 -13 48q-5 21 -12 44l-132 0v39h122q-15 51 -15 96q0 35 6.5 67.5q6.5 32.5 25.5 65.5q15 26 31.5 42.5q16.5 16.5 34.5 26.5q18 10 36.5 13.5q18.5 3.5 35.5 3.5q30 0 54 -9.5q24 -9.5 40 -24.5q16 -15 24.5 -34q8.5 -19 8.5 -39q0 -32 -15.5 -48q-15.5 -16 -34.5 -16q-20 0 -34 14q-14 14 -14 37q0 17 7.5 27.5q7.5 10.5 7.5 18.5q0 11 -13.5 23q-13.5 12 -41.5 12q-12 0 -27.5 -5.5q-15.5 -5.5 -29 -19.5q-13.5 -14 -22.5 -37q-9 -23 -9 -59q0 -40 7 -77q7 -37 23 -78l158 0zM72 76q0 -12 9.5 -25.5q9.5 -13.5 39.5 -13.5q21 0 44 13.5q23 13.5 37 38.5q-16 13 -39.5 24.5q-23.5 11.5 -41.5 11.5q-20 0 -34.5 -12.5t-14.5 -36.5z" />
<glyph unicode="&#164;" horiz-adv-x="518" d="M510 509l-81 -79q30 -35 40.5 -72q10.5 -37 10.5 -68q0 -29 -11 -67q-11 -38 -40 -73l81 -78l-33 -32l-78 80q-34 -28 -71 -39.5q-37 -11.5 -69 -11.5q-38 0 -74.5 14q-36.5 14 -65.5 37l-78 -80l-32 32l80 78q-23 29 -37 65.5q-14 36.5 -14 74.5q0 32 11.5 69q11.5 37 39.5 71l-80 79l32 32l78 -80q29 23 65.5 36.5q36.5 13.5 74.5 13.5q32 0 69 -11q37 -11 71 -39l78 80zM82 290q0 -37 14 -69q14 -32 38 -56q24 -24 56 -38q32 -14 69 -14q37 0 69 14q32 14 56 38q24 24 38 56q14 32 14 69q0 37 -14 69q-14 32 -38 56q-24 24 -56 38q-32 14 -69 14q-37 0 -69 -14q-32 -14 -56 -38q-24 -24 -38 -56t-14 -69z" />
<glyph unicode="&#165;" horiz-adv-x="518" d="M311 303h154v-39h-154v-168q0 -26 14.5 -43q14.5 -17 38.5 -19l0 -34h-192v34q23 2 38 18.5q15 16.5 15 43.5v168h-154v39h154v28l-27 42h-127v39h101l-113 171q-6 9 -14.5 21q-8.5 12 -20 24.5q-11.5 12.5 -27 22.5q-15.5 10 -34.5 15l0 34h201v-34q-20 -3 -26.5 -12q-6.5 -9 -6.5 -20q0 -8 4.5 -16.5q4.5 -8.5 6.5 -12.5l146 -229h5l138 243q2 4 4.5 10.5q2.5 6.5 2.5 11.5q0 7 -7.5 15.5q-7.5 8.5 -27.5 9.5l0 34h151v-34q-20 0 -35 -8.5q-15 -8.5 -26.5 -21.5q-11.5 -13 -20.5 -28.5q-9 -15.5 -16 -27.5l-96 -168h105v-39h-128l-26 -46z" />
<glyph unicode="&#166;" horiz-adv-x="190" d="M70 829h50v-369h-50zM120 145v-369h-50l0 369z" />
<glyph unicode="&#167;" horiz-adv-x="558" d="M176 456q-17 19 -26 37.5q-9 18.5 -14 34q-5 15.5 -6 26.5q-1 11 -1 16q0 29 10.5 54.5q10.5 25.5 30.5 44q20 18.5 49 29q29 10.5 66 10.5q35 0 64.5 -10q29.5 -10 50.5 -26.5q21 -16.5 32.5 -39q11.5 -22.5 11.5 -46.5q0 -22 -12 -39q-12 -17 -36 -17q-23 0 -36 12.5q-13 12.5 -13 32.5q0 6 1 12q1 6 3 12q2 5 3 11q1 6 1 11q0 18 -22.5 33q-22.5 15 -54.5 15q-35 0 -60 -19q-25 -19 -25 -48q0 -31 20 -57q20 -26 49 -49l109 -88q22 -18 43.5 -37q21.5 -19 37.5 -40q16 -21 26 -45q10 -24 10 -52q0 -29 -10.5 -53.5q-10.5 -24.5 -27 -44.5q-16.5 -20 -35.5 -34.5q-19 -14.5 -36 -24.5q16 -17 31 -44q15 -27 15 -67q0 -30 -12 -57q-12 -27 -33 -48q-21 -21 -50.5 -33q-29.5 -12 -63.5 -12q-31 0 -59.5 8q-28.5 8 -50 23.5q-21.5 15.5 -34.5 38q-13 22.5 -13 50.5q0 28 13.5 49q13.5 21 40.5 21q11 0 22.5 -4q11.5 -4 19.5 -13.5q8 -9.5 10 -24.5q2 -15 -5 -36q-2 -6 -5 -18q-3 -12 1 -24q4 -12 19 -21.5q15 -9.5 48 -9.5q12 0 27 4q15 4 28.5 13.5q13.5 9.5 23 25q9.5 15.5 9.5 38.5q0 19 -7 34.5q-7 15.5 -18.5 29.5q-11.5 14 -27 27.5q-15.5 13.5 -32.5 27.5l-130 110q-14 12 -27.5 25.5q-13.5 13.5 -24.5 30q-11 16.5 -17.5 37.5q-6.5 21 -6.5 48q0 50 26 84.5q26 34.5 80 65.5zt0 0zM204 430q-29 -16 -49.5 -36.5q-20.5 -20.5 -20.5 -49.5q0 -19 6.5 -34.5q6.5 -15.5 17 -29q10.5 -13.5 23.5 -25.5q13 -12 26 -23l148 -127q32 20 50.5 43q18.5 23 18.5 52q0 17 -7 32.5q-7 15.5 -19 29.5q-12 14 -27 27.5q-15 13.5 -31 27.5z" />
<glyph unicode="&#168;" horiz-adv-x="651" d="M200 564q0 20 14 34q14 14 34 14q20 0 34 -14q14 -14 14 -34q0 -20 -14 -34q-14 -14 -34 -14q-20 0 -34 14q-14 14 -14 34zt0 0zM355 564q0 20 14 34q14 14 34 14q20 0 34 -14q14 -14 14 -34q0 -20 -14 -34q-14 -14 -34 -14q-20 0 -34 14t-14 34z" />
<glyph unicode="&#169;" horiz-adv-x="856" d="M70 350q0 74 28 139.5q28 65.5 76.5 114q48.5 48.5 114 76.5q65.5 28 139.5 28q74 0 139.5 -28q65.5 -28 114 -76.5q48.5 -48.5 76.5 -114q28 -65.5 28 -139.5q0 -74 -28 -139.5q-28 -65.5 -76.5 -114q-48.5 -48.5 -114 -76.5q-65.5 -28 -139.5 -28q-74 0 -139.5 28q-65.5 28 -114 76.5q-48.5 48.5 -76.5 114q-28 65.5 -28 139.5zt0 0zM112 350q0 -42 11 -82q11 -40 31 -76q43 -75 116 -116.5q73 -41.5 158 -41.5q85 0 158 41.5q73 41.5 116 116.5q21 36 31.5 76q10.5 40 10.5 82q0 84 -42 158q-43 75 -116 116.5q-73 41.5 -158 41.5q-85 0 -158 -41.5q-73 -41.5 -116 -116.5q-20 -36 -31 -76q-11 -40 -11 -82zt0 0zM583 228q-22 -23 -32 -31q-17 -14 -35 -22q-18 -8 -34.5 -11.5q-16.5 -3.5 -31.5 -4.5q-15 -1 -26 -1q-36 0 -63.5 9.5q-27.5 9.5 -47 24q-19.5 14.5 -32.5 32.5q-13 18 -21 35q-12 26 -15 48.5q-3 22.5 -3 41.5q0 32 6.5 61q6.5 29 26.5 57q26 36 66.5 58.5q40.5 22.5 87.5 22.5q40 0 66.5 -9.5q26.5 -9.5 45.5 -9.5q6 0 12 6l12 0v-84h-24q-6 16 -17 29q-11 13 -25.5 22q-14.5 9 -31 13.5q-16.5 4.5 -31.5 4.5q-29 0 -52 -13q-23 -13 -37 -30q-14 -16 -21 -34q-7 -18 -11 -34.5q-4 -16.5 -4.5 -30.5q-0.5 -14 -0.5 -22q0 -30 4.5 -53q4.5 -23 11.5 -39q7 -16 14.5 -26.5q7.5 -10.5 13.5 -16.5q19 -19 42 -25.5q23 -6.5 46 -6.5q4 0 17.5 1q13.5 1 32 6q18.5 5 38.5 16q20 11 37 32z" />
<glyph unicode="&#170;" horiz-adv-x="296" d="M288 453q-8 -14 -21 -20q-13 -6 -24 -6q-16 0 -28 11q-12 11 -17 28l-2 0q-23 -23 -45 -31q-22 -8 -40 -8q-6 0 -11.5 0.5q-5.5 0.5 -10.5 1.5q-29 7 -43 28.5q-14 21.5 -14 44.5q0 45 39 70q39 25 120 28q-1 18 -2 33.5q-1 15.5 -6 27.5q-5 12 -15.5 18.5q-10.5 6.5 -28.5 6.5q-26 0 -35 -23q-4 -10 -6 -19.5q-2 -9.5 -20 -9.5q-9 0 -15 5q-6 5 -7 10l0 6q3 23 26 38q23 15 63 15q36 0 55.5 -12q19.5 -12 28.5 -30q9 -18 11 -39q2 -21 2 -39v-88q0 -29 10 -36q10 -7 19 -7q6 0 12 3zM191 577q-16 0 -34.5 -4q-18.5 -4 -34 -12.5q-15.5 -8.5 -25.5 -22.5q-10 -14 -10 -35q0 -24 14 -35q14 -11 35 -11q18 0 29 8q11 8 16.5 21q5.5 13 7.5 30.5q2 17.5 2 36.5zM26 398h263v-23l-263 0z" />
<glyph unicode="&#171;" horiz-adv-x="481" d="M247 39l-25 -20l-152 164l152 164l25 -20l-114 -144zM411 39l-25 -20l-152 164l152 164l25 -20l-114 -144z" />
<glyph unicode="&#172;" horiz-adv-x="691" d="M70 210h551v-153h-49v104l-502 0z" />
<glyph unicode="&#173;" horiz-adv-x="370" d="M91 253h134q11 0 27.5 3q16.5 3 23.5 24l24 0l-18 -93h-137q-10 0 -21 -0.5q-11 -0.5 -19 -7.5q-3 -2 -5.5 -6q-2.5 -4 -8.5 -13l-21 0z" />
<glyph unicode="&#174;" horiz-adv-x="856" d="M70 349q0 74 28 139.5q28 65.5 76.5 114q48.5 48.5 114 76.5q65.5 28 139.5 28q74 0 139.5 -28q65.5 -28 114 -76.5q48.5 -48.5 76.5 -114q28 -65.5 28 -139.5q0 -74 -28 -139.5q-28 -65.5 -76.5 -114q-48.5 -48.5 -114 -76.5q-65.5 -28 -139.5 -28q-74 0 -139.5 28q-65.5 28 -114 76.5q-48.5 48.5 -76.5 114q-28 65.5 -28 139.5zt0 0zM112 349q0 -66 25 -123.5q25 -57.5 67.5 -100q42.5 -42.5 100 -67.5q57.5 -25 123.5 -25q66 0 123.5 25q57.5 25 100 67.5q42.5 42.5 67.5 100q25 57.5 25 123.5q0 66 -25 123.5q-25 57.5 -67.5 100q-42.5 42.5 -100 67.5q-57.5 25 -123.5 25q-66 0 -123.5 -25q-57.5 -25 -100 -67.5q-42.5 -42.5 -67.5 -100q-25 -57.5 -25 -123.5zt0 0zM457 535q13 0 32 -3q19 -3 37 -12.5q18 -9.5 30.5 -27.5q12.5 -18 12.5 -48q0 -6 -1 -18.5q-1 -12.5 -7.5 -27q-6.5 -14.5 -22 -28q-15.5 -13.5 -43.5 -19.5l74 -115q7 -10 10.5 -15.5q3.5 -5.5 8 -9q4.5 -3.5 10.5 -6q6 -2.5 17 -6.5l0 -22h-72l-98 162h-81v-108q0 -7 4 -16.5q4 -9.5 24 -15.5l0 -22h-109v22q17 5 24 13.5q7 8.5 7 28.5v235q0 5 -1 14.5q-1 9.5 -7 16.5q-4 4 -11 7q-7 3 -12 4l0 17zM415 365q11 0 27.5 2q16.5 2 32 9.5q15.5 7.5 26.5 22q11 14.5 11 40.5q0 28 -12 42.5q-12 14.5 -27.5 20.5q-15.5 6 -32 6.5q-16.5 0.5 -25.5 0.5h-51l0 -144z" />
<glyph unicode="&#175;" horiz-adv-x="678" d="M478 556v-53h-278l0 53z" />
<glyph unicode="&#176;" horiz-adv-x="340" d="M70 608q0 21 8 39q8 18 21.5 31.5q13.5 13.5 32 21.5q18.5 8 38.5 8q20 0 38.5 -8q18.5 -8 32 -21.5q13.5 -13.5 21.5 -31.5q8 -18 8 -39q0 -21 -8 -39q-8 -18 -21.5 -31.5q-13.5 -13.5 -32 -21q-18.5 -7.5 -38.5 -7.5q-20 0 -38.5 7.5q-18.5 7.5 -32 21q-13.5 13.5 -21.5 31.5q-8 18 -8 39zt0 0zM107 608q0 -23 18 -43q18 -20 45 -20q25 0 44 18.5q19 18.5 19 44.5q0 22 -16.5 42.5q-16.5 20.5 -46.5 20.5q-16 0 -28 -6q-12 -6 -19.5 -15.5q-7.5 -9.5 -11.5 -20.5t-4 -21z" />
<glyph unicode="&#177;" horiz-adv-x="638" d="M298 164v140h-228v42h228v181h42v-181h228v-42h-228v-140zM70 95h498v-42l-498 0z" />
<glyph unicode="&#178;" horiz-adv-x="369" d="M308 210h-274v27q54 63 94 114.5q40 51.5 66 93q26 41.5 38.5 75q12.5 33.5 12.5 62.5q0 40 -21 60q-21 20 -50 20q-31 0 -53.5 -16q-22.5 -16 -45.5 -45l-21 13q6 11 18 26.5q12 15.5 30 30q18 14.5 41.5 25q23.5 10.5 53.5 10.5q49 0 83.5 -27q34.5 -27 34.5 -78q0 -20 -7.5 -45.5q-7.5 -25.5 -30.5 -64q-23 -38.5 -65.5 -91.5q-42.5 -53 -112.5 -127l0 -3h126q35 0 55 10q20 10 31 39l24 0z" />
<glyph unicode="&#179;" horiz-adv-x="355" d="M42 611q9 18 23.5 35q14.5 17 33 31q18.5 14 41.5 22.5q23 8.5 49 8.5q24 0 41 -7.5q17 -7.5 28.5 -19q11.5 -11.5 17 -26q5.5 -14.5 5.5 -29.5q0 -21 -15 -51.5q-15 -30.5 -62 -59.5l0 -3q19 1 38 -4.5q19 -5.5 33.5 -18.5q14.5 -13 23.5 -33.5q9 -20.5 9 -48.5q0 -54 -31 -94q-31 -40 -78 -66q-29 -16 -57.5 -24.5q-28.5 -8.5 -51.5 -12q-23 -3.5 -39 -4q-16 -0.5 -21 -0.5l0 24q54 2 94 18.5q40 16.5 66.5 41.5q26.5 25 39.5 53.5q13 28.5 13 54.5q0 32 -20 53.5q-20 21.5 -55 21.5q-15 0 -29.5 -4.5q-14.5 -4.5 -26.5 -11.5l-12 20q21 13 43.5 28.5q22.5 15.5 40.5 33q18 17.5 29.5 37q11.5 19.5 11.5 41.5q0 20 -13.5 36q-13.5 16 -44.5 16q-17 0 -32.5 -7.5q-15.5 -7.5 -29 -18.5q-13.5 -11 -24.5 -23q-11 -12 -18 -22z" />
<glyph unicode="&#180;" horiz-adv-x="314" d="M171 649q17 20 40 20q17 0 27 -10q10 -10 10 -27q0 -11 -4.5 -18.5q-4.5 -7.5 -11.5 -13.5q-5 -4 -11 -8.5q-6 -4.5 -20 -12.5l-122 -76l-13 16z" />
<glyph unicode="&#181;" horiz-adv-x="407" d="M341 111q0 -8 1 -24.5q1 -16.5 6 -30.5q5 -14 17 -21q12 -7 35 3l7 -11q-14 -18 -27.5 -26q-13.5 -8 -36.5 -8q-8 0 -19.5 2q-11.5 2 -22.5 11.5q-11 9.5 -18.5 28.5q-7.5 19 -6.5 53q-18 -43 -43.5 -69.5q-25.5 -26.5 -63.5 -26.5q-9 0 -23 2q-14 2 -28 9q-14 7 -28 20q-14 13 -23 35q0 -14 1 -31.5q1 -17.5 6 -38.5q8 -33 18 -62q10 -29 10 -58q0 -23 -6 -35.5q-6 -12.5 -14.5 -18.5q-8.5 -6 -18 -7q-9.5 -1 -16.5 -1q-18 0 -32.5 10q-14.5 10 -14.5 49q0 16 3 39q3 21 8 41.5q5 20.5 9.5 46q4.5 25.5 8 60q3.5 34.5 3.5 84.5v249h73v-209q0 -36 6 -60q6 -24 15.5 -38.5q9.5 -14.5 22 -21q12.5 -6.5 25.5 -6.5q17 0 31 9q25 15 44 57q19 42 19 108v161l73 0z" />
<glyph unicode="&#182;" horiz-adv-x="605" d="M244 429q-23 -1 -53 3q-30 4 -57 18q-27 14 -45.5 41q-18.5 27 -18.5 72q0 39 13.5 64.5q13.5 25.5 36 40.5q22.5 15 51 21q28.5 6 58.5 6h306v-39h-55v-853h-60v853h-116v-853l-60 0z" />
<glyph unicode="&#183;" horiz-adv-x="248" d="M70 325q0 23 15.5 38.5q15.5 15.5 38.5 15.5q23 0 38.5 -15.5q15.5 -15.5 15.5 -38.5q0 -23 -15.5 -38.5q-15.5 -15.5 -38.5 -15.5q-23 0 -38.5 15.5t-15.5 38.5z" />
<glyph unicode="&#184;" horiz-adv-x="197" d="M71 4h37l-37 -39v-1q21 3 45 1q24 -2 43 -14q20 -13 24 -28q4 -15 4 -23q0 -31 -31 -52q-15 -10 -31 -13q-16 -3 -30 -3q-20 0 -37 4q-17 4 -27 10q-8 5 -14.5 13q-6.5 8 -6.5 18q0 11 7 17.5q7 6.5 17 6.5q12 0 18 -7q6 -7 6 -17v-5q0 -9 11 -13.5q11 -4.5 25 -4.5q25 0 42 15q5 5 9.5 11.5q4.5 6.5 4.5 17.5q0 10 -5 20q-5 10 -18 18q-10 5 -20 6.5q-10 1.5 -17 1.5q-23 0 -48 -11l-19 21z" />
<glyph unicode="&#185;" horiz-adv-x="297" d="M245 210h-143v24q15 0 23 6.5q8 6.5 12 15.5q4 9 5 18.5q1 9.5 1 16.5v323h-4q-20 -23 -40 -39.5q-20 -16.5 -47 -33.5l0 30q16 10 33 25q17 15 32.5 32.5q15.5 17.5 28.5 36q13 18.5 22 35.5l35 0v-409q0 -23 8.5 -39q8.5 -16 33.5 -18z" />
<glyph unicode="&#186;" horiz-adv-x="299" d="M34 398h250v-23h-250zM159 708q39 0 64.5 -15q25.5 -15 41 -36.5q15.5 -21.5 21.5 -46q6 -24.5 6 -42.5q0 -44 -16.5 -71.5q-16.5 -27.5 -38.5 -43q-22 -15.5 -44 -21q-22 -5.5 -34 -5.5q-12 0 -34 5.5q-22 5.5 -44 21q-22 15.5 -38.5 43q-16.5 27.5 -16.5 71.5q0 18 6 42.5q6 24.5 21.5 46q15.5 21.5 41 36.5q25.5 15 64.5 15zt0 0zM159 686q-13 0 -26 -3.5q-13 -3.5 -23.5 -15.5q-10.5 -12 -17.5 -35.5q-7 -23.5 -7 -64.5v-3q0 -12 1.5 -31.5q1.5 -19.5 8.5 -38q7 -18.5 22 -32q15 -13.5 42 -13.5q27 0 41.5 12.5q14.5 12.5 22 30.5q7.5 18 9 38.5q1.5 20.5 1.5 36.5q0 39 -6 62q-6 23 -16 36q-10 13 -23.5 17t-28.5 4z" />
<glyph unicode="&#187;" horiz-adv-x="481" d="M70 327l25 20l152 -164l-152 -164l-25 20l114 144zM234 327l25 20l152 -164l-152 -164l-25 20l114 144z" />
<glyph unicode="&#188;" horiz-adv-x="800" d="M263 210h-143v24q15 0 23 6.5q8 6.5 12 15.5q4 9 5 18.5q1 9.5 1 16.5v323h-4q-20 -23 -40 -39.5q-20 -16.5 -47 -33.5l0 30q16 10 33 25q17 15 32.5 32.5q15.5 17.5 28.5 36q13 18.5 22 35.5l35 0v-409q0 -23 8.5 -39q8.5 -16 33.5 -18zM209 -184l347 884h41l-349 -884zM662 306v-295h6q18 0 26.5 11.5q8.5 11.5 15.5 32.5l20 -4l-25 -92h-43v-143h-61v143h-182v32l215 315zM601 210h-4l-129 -192v-7l133 0z" />
<glyph unicode="&#189;" horiz-adv-x="800" d="M263 210h-143v24q15 0 23 6.5q8 6.5 12 15.5q4 9 5 18.5q1 9.5 1 16.5v323h-4q-20 -23 -40 -39.5q-20 -16.5 -47 -33.5l0 30q16 10 33 25q17 15 32.5 32.5q15.5 17.5 28.5 36q13 18.5 22 35.5l35 0v-409q0 -23 8.5 -39q8.5 -16 33.5 -18zM179 -184l347 884h41l-349 -884zM703 -184h-274v27q54 63 94 114.5q40 51.5 66 93q26 41.5 38.5 75q12.5 33.5 12.5 62.5q0 40 -21 60q-21 20 -50 20q-31 0 -53.5 -16q-22.5 -16 -45.5 -45l-21 13q6 11 18 26.5q12 15.5 30 30q18 14.5 41.5 25q23.5 10.5 53.5 10.5q49 0 83.5 -27q34.5 -27 34.5 -78q0 -20 -7.5 -45.5q-7.5 -25.5 -30.5 -64q-23 -38.5 -65.5 -91.5q-42.5 -53 -112.5 -127l0 -3h126q35 0 55 10q20 10 31 39l24 0z" />
<glyph unicode="&#190;" horiz-adv-x="800" d="M82 611q9 18 23.5 35q14.5 17 33 31q18.5 14 41.5 22.5q23 8.5 49 8.5q24 0 41 -7.5q17 -7.5 28.5 -19q11.5 -11.5 17 -26q5.5 -14.5 5.5 -29.5q0 -21 -15 -51.5q-15 -30.5 -62 -59.5l0 -3q19 1 38 -4.5q19 -5.5 33.5 -18.5q14.5 -13 23.5 -33.5q9 -20.5 9 -48.5q0 -54 -31 -94q-31 -40 -78 -66q-29 -16 -57.5 -24.5q-28.5 -8.5 -51.5 -12q-23 -3.5 -39 -4q-16 -0.5 -21 -0.5l0 24q54 2 94 18.5q40 16.5 66.5 41.5q26.5 25 39.5 53.5q13 28.5 13 54.5q0 32 -20 53.5q-20 21.5 -55 21.5q-15 0 -29.5 -4.5q-14.5 -4.5 -26.5 -11.5l-12 20q21 13 43.5 28.5q22.5 15.5 40.5 33q18 17.5 29.5 37q11.5 19.5 11.5 41.5q0 20 -13.5 36q-13.5 16 -44.5 16q-17 0 -32.5 -7.5q-15.5 -7.5 -29 -18.5q-13.5 -11 -24.5 -23q-11 -12 -18 -22zM215 -184l347 884h41l-349 -884zM662 306v-295h6q18 0 26.5 11.5q8.5 11.5 15.5 32.5l20 -4l-25 -92h-43v-143h-61v143h-182v32l215 315zM601 210h-4l-129 -192v-7l133 0z" />
<glyph unicode="&#191;" horiz-adv-x="435" d="M342 196l-33 -6q-5 6 -17 15.5q-12 9.5 -36 9.5q-40 0 -65 -31.5q-25 -31.5 -25 -96.5q0 -42 9.5 -83q9.5 -41 23.5 -73q14 -32 29 -52q15 -20 26 -20q4 0 9 3q5 3 7 11q0 2 1.5 7q1.5 5 6 10q4.5 5 12 9q7.5 4 20.5 4q24 0 30.5 -15q6.5 -15 6.5 -27q0 -4 -2 -11.5q-2 -7.5 -8.5 -15q-6.5 -7.5 -19.5 -13q-13 -5.5 -34 -5.5q-29 0 -54.5 15q-25.5 15 -46 34.5q-20.5 19.5 -34.5 39q-14 19.5 -20 27.5q-29 43 -43.5 97.5q-14.5 54.5 -14.5 107.5q0 35 10.5 63q10.5 28 28.5 47.5q18 19.5 42 30q24 10.5 51 10.5q29 0 49.5 -10q20.5 -10 40.5 -29l7 0l-10 117h36zM257 478q0 23 15.5 38.5q15.5 15.5 38.5 15.5q23 0 38.5 -15.5q15.5 -15.5 15.5 -38.5q0 -23 -15.5 -38.5q-15.5 -15.5 -38.5 -15.5q-23 0 -38.5 15.5t-15.5 38.5z" />
<glyph unicode="&#192;" horiz-adv-x="724" d="M649 108q14 -31 31 -51.5q17 -20.5 44 -22.5l0 -34h-196v34q25 4 30.5 13q5.5 9 5.5 26q0 8 -9 29l-40 90h-348l-39 -85q-8 -18 -10 -25.5q-2 -7.5 -2 -9.5q0 -8 6.5 -20.5q6.5 -12.5 32.5 -17.5l0 -34h-155v34q16 1 29 9.5q13 8.5 23 19.5q10 11 17 22.5q7 11.5 10 19.5l225 486q6 13 7.5 17.5q1.5 4.5 1.5 7.5q0 9 -7 12q-7 3 -17 3l0 34q18 5 38.5 18q20.5 13 31.5 25l20 0zM349 560h-11l-153 -329h312zM394 733l-143 54q-10 4 -18 7q-8 3 -19 9q-8 5 -16.5 14q-8.5 9 -8.5 26q0 23 18 31.5q18 8.5 39 1.5q10 -3 20 -9q10 -6 18 -13l121 -100z" />
<glyph unicode="&#193;" horiz-adv-x="724" d="M649 108q14 -31 31 -51.5q17 -20.5 44 -22.5l0 -34h-196v34q25 4 30.5 13q5.5 9 5.5 26q0 8 -9 29l-40 90h-348l-39 -85q-8 -18 -10 -25.5q-2 -7.5 -2 -9.5q0 -8 6.5 -20.5q6.5 -12.5 32.5 -17.5l0 -34h-155v34q16 1 29 9.5q13 8.5 23 19.5q10 11 17 22.5q7 11.5 10 19.5l225 486q6 13 7.5 17.5q1.5 4.5 1.5 7.5q0 9 -7 12q-7 3 -17 3l0 34q18 5 38.5 18q20.5 13 31.5 25l20 0zM349 560h-11l-153 -329h312zM431 858q8 7 18 13q10 6 20 9q21 7 39 -1.5q18 -8.5 18 -31.5q0 -17 -8.5 -26q-8.5 -9 -16.5 -14q-11 -6 -19 -9q-8 -3 -18 -7l-143 -54l-11 21z" />
<glyph unicode="&#194;" horiz-adv-x="724" d="M649 108q14 -31 31 -51.5q17 -20.5 44 -22.5l0 -34h-196v34q25 4 30.5 13q5.5 9 5.5 26q0 8 -9 29l-40 90h-348l-39 -85q-8 -18 -10 -25.5q-2 -7.5 -2 -9.5q0 -8 6.5 -20.5q6.5 -12.5 32.5 -17.5l0 -34h-155v34q16 1 29 9.5q13 8.5 23 19.5q10 11 17 22.5q7 11.5 10 19.5l225 486q6 13 7.5 17.5q1.5 4.5 1.5 7.5q0 9 -7 12q-7 3 -17 3l0 34q18 5 38.5 18q20.5 13 31.5 25l20 0zM349 560h-11l-153 -329h312zM251 737h-40l126 145h52l126 -145h-40l-112 79z" />
<glyph unicode="&#195;" horiz-adv-x="724" d="M649 108q14 -31 31 -51.5q17 -20.5 44 -22.5l0 -34h-196v34q25 4 30.5 13q5.5 9 5.5 26q0 8 -9 29l-40 90h-348l-39 -85q-8 -18 -10 -25.5q-2 -7.5 -2 -9.5q0 -8 6.5 -20.5q6.5 -12.5 32.5 -17.5l0 -34h-155v34q16 1 29 9.5q13 8.5 23 19.5q10 11 17 22.5q7 11.5 10 19.5l225 486q6 13 7.5 17.5q1.5 4.5 1.5 7.5q0 9 -7 12q-7 3 -17 3l0 34q18 5 38.5 18q20.5 13 31.5 25l20 0zM349 560h-11l-153 -329h312zM548 831q-24 -39 -51 -61q-27 -22 -63 -22q-18 0 -38 3q-20 3 -51 11q-23 6 -41 11q-18 5 -35 5q-40 0 -62 -30l-19 0q21 45 51 64q30 19 65 19q14 0 33 -2.5q19 -2.5 45 -9.5q29 -8 46.5 -12.5q17.5 -4.5 34.5 -4.5q16 0 33 7q17 7 28 22z" />
<glyph unicode="&#196;" horiz-adv-x="724" d="M649 108q14 -31 31 -51.5q17 -20.5 44 -22.5l0 -34h-196v34q25 4 30.5 13q5.5 9 5.5 26q0 8 -9 29l-40 90h-348l-39 -85q-8 -18 -10 -25.5q-2 -7.5 -2 -9.5q0 -8 6.5 -20.5q6.5 -12.5 32.5 -17.5l0 -34h-155v34q16 1 29 9.5q13 8.5 23 19.5q10 11 17 22.5q7 11.5 10 19.5l225 486q6 13 7.5 17.5q1.5 4.5 1.5 7.5q0 9 -7 12q-7 3 -17 3l0 34q18 5 38.5 18q20.5 13 31.5 25l20 0zM349 560h-11l-153 -329h312zM161 814q0 27 19.5 46.5q19.5 19.5 46.5 19.5q27 0 46.5 -19.5q19.5 -19.5 19.5 -46.5q0 -27 -19.5 -46.5q-19.5 -19.5 -46.5 -19.5q-27 0 -46.5 19.5q-19.5 19.5 -19.5 46.5zt0 0zM407 814q0 27 19.5 46.5q19.5 19.5 46.5 19.5q27 0 46.5 -19.5q19.5 -19.5 19.5 -46.5q0 -27 -19.5 -46.5q-19.5 -19.5 -46.5 -19.5q-27 0 -46.5 19.5t-19.5 46.5z" />
<glyph unicode="&#197;" horiz-adv-x="724" d="M649 108q14 -31 31 -51.5q17 -20.5 44 -22.5l0 -34h-196v34q25 4 30.5 13q5.5 9 5.5 26q0 8 -9 29l-40 90h-348l-39 -85q-8 -18 -10 -25.5q-2 -7.5 -2 -9.5q0 -8 6.5 -20.5q6.5 -12.5 32.5 -17.5l0 -34h-155v34q16 1 29 9.5q13 8.5 23 19.5q10 11 17 22.5q7 11.5 10 19.5l225 486q6 13 7.5 17.5q1.5 4.5 1.5 7.5q0 9 -7 12q-7 3 -17 3l0 34q18 5 38.5 18q20.5 13 31.5 25l20 0zM349 560h-11l-153 -329h312zM298 844q0 -26 19 -45q19 -19 45 -19q26 0 45 19q19 19 19 45q0 26 -19 45q-19 19 -45 19q-26 0 -45 -19q-19 -19 -19 -45zt0 0zM262 844q0 21 7.5 39q7.5 18 21 31.5q13.5 13.5 32 21.5q18.5 8 39.5 8q21 0 39 -8q18 -8 31.5 -21.5q13.5 -13.5 21.5 -31.5q8 -18 8 -39q0 -21 -8 -39.5q-8 -18.5 -21.5 -32q-13.5 -13.5 -31.5 -21q-18 -7.5 -39 -7.5q-21 0 -39.5 7.5q-18.5 7.5 -32 21q-13.5 13.5 -21 32t-7.5 39.5z" />
<glyph unicode="&#198;" horiz-adv-x="1110" d="M260 211l-84 -105q-20 -25 -27 -34.5q-7 -9.5 -7 -15.5q0 -13 14 -16.5q14 -3.5 28 -5.5l0 -34h-184v35q24 0 44 8.5q20 8.5 37.5 23.5q17.5 15 34.5 35.5q17 20.5 35 43.5l332 424q23 30 29.5 44q6.5 14 6.5 24q0 1 -0.5 6q-0.5 5 -4 9.5q-3.5 4.5 -11 8.5q-7.5 4 -21.5 4h-7v34h402q23 0 41 3q18 3 40 5l13 0v-133h-34q-8 28 -22.5 45q-14.5 17 -34.5 26q-20 9 -45.5 12q-25.5 3 -53.5 3h-163v-287h105q12 0 24.5 0.5q12.5 0.5 24 6q11.5 5.5 20.5 17q9 11.5 13 32.5l33 0v-151h-33q-4 21 -11.5 32.5q-7.5 11.5 -18 16.5q-10.5 5 -24 6q-13.5 1 -28.5 1h-105v-296h214q41 0 74 4.5q33 4.5 57 17q24 12.5 39.5 34q15.5 21.5 21.5 55.5l34 0l-11 -150h-575v34q36 3 48 26q12 23 12 55v96zM532 250v305h-5l-233 -299l0 -6z" />
<glyph unicode="&#199;" horiz-adv-x="686" d="M586 530q-15 38 -38.5 64.5q-23.5 26.5 -51.5 43q-28 16.5 -58.5 24q-30.5 7.5 -59.5 7.5q-42 0 -85 -19.5q-43 -19.5 -77 -59.5q-34 -40 -55.5 -101q-21.5 -61 -21.5 -144q0 -77 19 -135.5q19 -58.5 53.5 -98q34.5 -39.5 81.5 -60q47 -20.5 104 -20.5q33 0 65 8.5q32 8.5 62 23q30 14.5 56 34.5q26 20 46 43h21q-55 -85 -125 -116.5q-70 -31.5 -144 -31.5q-8 0 -14.5 0q-6.5 0 -14.5 1l-47 -49l1 -1q22 6 45 6q53 0 84 -25q29 -23 29 -62q0 -21 -8.5 -36q-8.5 -15 -19.5 -26q-17 -16 -43 -25q-26 -9 -57 -9q-23 0 -48.5 7q-25.5 7 -42.5 22q-16 13 -16 30q0 14 8 24q8 10 22 10q11 0 19 -5.5q8 -5.5 10 -19.5l0 -8v-8q2 -8 13.5 -15.5q11.5 -7.5 35.5 -7.5q13 0 26.5 2q13.5 2 27.5 12q25 19 25 47q0 22 -9.5 33.5q-9.5 11.5 -17.5 16.5q-11 7 -25.5 10q-14.5 3 -28.5 3q-34 0 -66 -17l-20 28l67 66q-49 8 -98 32q-49 24 -88 67q-39 43 -63.5 105q-24.5 62 -24.5 146q0 78 24.5 144.5q24.5 66.5 68.5 114.5q44 48 104.5 75.5q60.5 27.5 133.5 27.5q38 0 72 -5.5q34 -5.5 61 -12.5q27 -7 47 -12.5q20 -5.5 31 -5.5q10 0 16 5q6 5 8 7l15 0l0 -154z" />
<glyph unicode="&#200;" horiz-adv-x="655" d="M446 700q32 0 62.5 4q30.5 4 62.5 4l0 -133h-34q-8 28 -22.5 45q-14.5 17 -35 26q-20.5 9 -45.5 12q-25 3 -53 3h-183v-287h125q9 0 21.5 0.5q12.5 0.5 24.5 5.5q12 5 22 16.5q10 11.5 14 33.5l33 0v-151h-33q-6 22 -13.5 33.5q-7.5 11.5 -17.5 16.5q-10 5 -22.5 5.5q-12.5 0.5 -28.5 0.5h-125v-296h205q39 0 73 4.5q34 4.5 59.5 17q25.5 12.5 41 34q15.5 21.5 18.5 55.5l34 0l-11 -150h-566v34q34 4 47 26q13 22 13 55v470q0 17 -2.5 32q-2.5 15 -9 25.5q-6.5 10.5 -18 17q-11.5 6.5 -30.5 6.5l0 34zM350 733l-143 54q-10 4 -18 7q-8 3 -19 9q-8 5 -16.5 14q-8.5 9 -8.5 26q0 23 18 31.5q18 8.5 39 1.5q10 -3 20 -9q10 -6 18 -13l121 -100z" />
<glyph unicode="&#201;" horiz-adv-x="655" d="M446 700q32 0 62.5 4q30.5 4 62.5 4l0 -133h-34q-8 28 -22.5 45q-14.5 17 -35 26q-20.5 9 -45.5 12q-25 3 -53 3h-183v-287h125q9 0 21.5 0.5q12.5 0.5 24.5 5.5q12 5 22 16.5q10 11.5 14 33.5l33 0v-151h-33q-6 22 -13.5 33.5q-7.5 11.5 -17.5 16.5q-10 5 -22.5 5.5q-12.5 0.5 -28.5 0.5h-125v-296h205q39 0 73 4.5q34 4.5 59.5 17q25.5 12.5 41 34q15.5 21.5 18.5 55.5l34 0l-11 -150h-566v34q34 4 47 26q13 22 13 55v470q0 17 -2.5 32q-2.5 15 -9 25.5q-6.5 10.5 -18 17q-11.5 6.5 -30.5 6.5l0 34zM376 858q8 7 18 13q10 6 20 9q21 7 39 -1.5q18 -8.5 18 -31.5q0 -17 -8.5 -26q-8.5 -9 -16.5 -14q-11 -6 -19 -9q-8 -3 -18 -7l-143 -54l-11 21z" />
<glyph unicode="&#202;" horiz-adv-x="655" d="M446 700q32 0 62.5 4q30.5 4 62.5 4l0 -133h-34q-8 28 -22.5 45q-14.5 17 -35 26q-20.5 9 -45.5 12q-25 3 -53 3h-183v-287h125q9 0 21.5 0.5q12.5 0.5 24.5 5.5q12 5 22 16.5q10 11.5 14 33.5l33 0v-151h-33q-6 22 -13.5 33.5q-7.5 11.5 -17.5 16.5q-10 5 -22.5 5.5q-12.5 0.5 -28.5 0.5h-125v-296h205q39 0 73 4.5q34 4.5 59.5 17q25.5 12.5 41 34q15.5 21.5 18.5 55.5l34 0l-11 -150h-566v34q34 4 47 26q13 22 13 55v470q0 17 -2.5 32q-2.5 15 -9 25.5q-6.5 10.5 -18 17q-11.5 6.5 -30.5 6.5l0 34zM202 737h-40l126 145h52l126 -145h-40l-112 79z" />
<glyph unicode="&#203;" horiz-adv-x="655" d="M446 700q32 0 62.5 4q30.5 4 62.5 4l0 -133h-34q-8 28 -22.5 45q-14.5 17 -35 26q-20.5 9 -45.5 12q-25 3 -53 3h-183v-287h125q9 0 21.5 0.5q12.5 0.5 24.5 5.5q12 5 22 16.5q10 11.5 14 33.5l33 0v-151h-33q-6 22 -13.5 33.5q-7.5 11.5 -17.5 16.5q-10 5 -22.5 5.5q-12.5 0.5 -28.5 0.5h-125v-296h205q39 0 73 4.5q34 4.5 59.5 17q25.5 12.5 41 34q15.5 21.5 18.5 55.5l34 0l-11 -150h-566v34q34 4 47 26q13 22 13 55v470q0 17 -2.5 32q-2.5 15 -9 25.5q-6.5 10.5 -18 17q-11.5 6.5 -30.5 6.5l0 34zM132 814q0 27 19.5 46.5q19.5 19.5 46.5 19.5q27 0 46.5 -19.5q19.5 -19.5 19.5 -46.5q0 -27 -19.5 -46.5q-19.5 -19.5 -46.5 -19.5q-27 0 -46.5 19.5q-19.5 19.5 -19.5 46.5zt0 0zM378 814q0 27 19.5 46.5q19.5 19.5 46.5 19.5q27 0 46.5 -19.5q19.5 -19.5 19.5 -46.5q0 -27 -19.5 -46.5q-19.5 -19.5 -46.5 -19.5q-27 0 -46.5 19.5t-19.5 46.5z" />
<glyph unicode="&#204;" horiz-adv-x="308" d="M256 666q-19 -1 -30.5 -9q-11.5 -8 -18 -19.5q-6.5 -11.5 -8.5 -25.5q-2 -14 -2 -27v-470q0 -36 13.5 -56.5q13.5 -20.5 45.5 -24.5l0 -34h-204v34q32 4 45.5 24.5q13.5 20.5 13.5 56.5v470q0 33 -12 55.5q-12 22.5 -47 25.5l0 34h204zM184 733l-143 54q-10 4 -18 7q-8 3 -19 9q-8 5 -16.5 14q-8.5 9 -8.5 26q0 23 18 31.5q18 8.5 39 1.5q10 -3 20 -9q10 -6 18 -13l121 -100z" />
<glyph unicode="&#205;" horiz-adv-x="308" d="M256 666q-19 -1 -30.5 -9q-11.5 -8 -18 -19.5q-6.5 -11.5 -8.5 -25.5q-2 -14 -2 -27v-470q0 -36 13.5 -56.5q13.5 -20.5 45.5 -24.5l0 -34h-204v34q32 4 45.5 24.5q13.5 20.5 13.5 56.5v470q0 33 -12 55.5q-12 22.5 -47 25.5l0 34h204zM215 858q8 7 18 13q10 6 20 9q21 7 39 -1.5q18 -8.5 18 -31.5q0 -17 -8.5 -26q-8.5 -9 -16.5 -14q-11 -6 -19 -9q-8 -3 -18 -7l-143 -54l-11 21z" />
<glyph unicode="&#206;" horiz-adv-x="308" d="M256 666q-19 -1 -30.5 -9q-11.5 -8 -18 -19.5q-6.5 -11.5 -8.5 -25.5q-2 -14 -2 -27v-470q0 -36 13.5 -56.5q13.5 -20.5 45.5 -24.5l0 -34h-204v34q32 4 45.5 24.5q13.5 20.5 13.5 56.5v470q0 33 -12 55.5q-12 22.5 -47 25.5l0 34h204zM41 737h-40l126 145h52l126 -145h-40l-112 79z" />
<glyph unicode="&#207;" horiz-adv-x="309" d="M256 666q-9 0 -19.5 -3.5q-10.5 -3.5 -19.5 -12.5q-9 -9 -14.5 -24.5q-5.5 -15.5 -5.5 -40.5v-470q0 -35 13.5 -56.5q13.5 -21.5 46.5 -24.5l0 -34h-206v34q33 3 46.5 24.5q13.5 21.5 13.5 56.5v470q0 8 -1 21q-1 13 -7 25.5q-6 12.5 -18 22.5q-12 10 -34 12l0 34h205zM69 854q26 0 42.5 -18q16.5 -18 16.5 -41q0 -25 -17 -42.5q-17 -17.5 -42 -17.5q-24 0 -41.5 17q-17.5 17 -17.5 43q0 24 17.5 41.5q17.5 17.5 41.5 17.5zt0 0zM240 854q24 0 41.5 -17.5q17.5 -17.5 17.5 -41.5q0 -26 -17.5 -43q-17.5 -17 -41.5 -17q-25 0 -42 17.5q-17 17.5 -17 42.5q0 23 16.5 41t42.5 18z" />
<glyph unicode="&#208;" horiz-adv-x="795" d="M375 700q103 0 183 -33.5q80 -33.5 135 -111.5q26 -36 44.5 -88q18.5 -52 18.5 -123q0 -16 -2.5 -42.5q-2.5 -26.5 -11.5 -58.5q-9 -32 -26.5 -67.5q-17.5 -35.5 -47.5 -69.5q-50 -57 -120 -81.5q-70 -24.5 -172 -24.5h-294v34q37 3 48.5 26q11.5 23 11.5 55v224h-90v39h90v207q0 32 -11.5 55q-11.5 23 -48.5 26l0 34zM354 39q26 0 58.5 4q32.5 4 66 15.5q33.5 11.5 65.5 32.5q32 21 57 55.5q25 34.5 40 83.5q15 49 15 117q0 73 -18 124.5q-18 51.5 -46 86.5q-28 35 -63 55.5q-35 20.5 -68.5 31q-33.5 10.5 -62 13.5q-28.5 3 -44.5 3h-126v-283h105v-39h-105l0 -300z" />
<glyph unicode="&#209;" horiz-adv-x="772" d="M52 34q16 -2 27 4.5q11 6.5 18.5 17.5q7.5 11 11 25q3.5 14 3.5 26v475q0 4 -1 17.5q-1 13.5 -7 28q-6 14.5 -18 26.5q-12 12 -34 12l0 34h143l424 -537h3v424q0 12 -1.5 25q-1.5 13 -7 24q-5.5 11 -17.5 19q-12 8 -33 11l0 34h157v-34q-38 -8 -48.5 -27.5q-10.5 -19.5 -10.5 -51.5v-587h-30l-476 604h-4v-497q0 -10 2.5 -22.5q2.5 -12.5 9 -24q6.5 -11.5 18 -19q11.5 -7.5 29.5 -7.5l0 -34h-158zM577 831q-24 -39 -51 -61q-27 -22 -63 -22q-18 0 -38 3q-20 3 -51 11q-23 6 -41 11q-18 5 -35 5q-40 0 -62 -30l-19 0q21 45 51 64q30 19 65 19q14 0 33 -2.5q19 -2.5 45 -9.5q29 -8 46.5 -12.5q17.5 -4.5 34.5 -4.5q16 0 33 7q17 7 28 22z" />
<glyph unicode="&#210;" horiz-adv-x="788" d="M394 708q87 0 153.5 -32.5q66.5 -32.5 111 -84q44.5 -51.5 67.5 -115q23 -63.5 23 -126.5q0 -63 -23 -126.5q-23 -63.5 -67.5 -115q-44.5 -51.5 -111 -84q-66.5 -32.5 -153.5 -32.5q-87 0 -153.5 32.5q-66.5 32.5 -111 84q-44.5 51.5 -67.5 115q-23 63.5 -23 126.5q0 63 23 126.5q23 63.5 67.5 115q44.5 51.5 111 84q66.5 32.5 153.5 32.5zt0 0zM394 669q-52 0 -98 -21q-46 -21 -81 -61.5q-35 -40.5 -55.5 -100q-20.5 -59.5 -20.5 -136.5q0 -77 20.5 -136.5q20.5 -59.5 55.5 -100q35 -40.5 81 -61.5q46 -21 98 -21q52 0 98 21q46 21 81 61.5q35 40.5 55.5 100q20.5 59.5 20.5 136.5q0 77 -20.5 136.5q-20.5 59.5 -55.5 100q-35 40.5 -81 61.5q-46 21 -98 21zt0 0zM431 733l-143 54q-10 4 -18 7q-8 3 -19 9q-8 5 -16.5 14q-8.5 9 -8.5 26q0 23 18 31.5q18 8.5 39 1.5q10 -3 20 -9q10 -6 18 -13l121 -100z" />
<glyph unicode="&#211;" horiz-adv-x="788" d="M394 708q87 0 153.5 -32.5q66.5 -32.5 111 -84q44.5 -51.5 67.5 -115q23 -63.5 23 -126.5q0 -63 -23 -126.5q-23 -63.5 -67.5 -115q-44.5 -51.5 -111 -84q-66.5 -32.5 -153.5 -32.5q-87 0 -153.5 32.5q-66.5 32.5 -111 84q-44.5 51.5 -67.5 115q-23 63.5 -23 126.5q0 63 23 126.5q23 63.5 67.5 115q44.5 51.5 111 84q66.5 32.5 153.5 32.5zt0 0zM394 669q-52 0 -98 -21q-46 -21 -81 -61.5q-35 -40.5 -55.5 -100q-20.5 -59.5 -20.5 -136.5q0 -77 20.5 -136.5q20.5 -59.5 55.5 -100q35 -40.5 81 -61.5q46 -21 98 -21q52 0 98 21q46 21 81 61.5q35 40.5 55.5 100q20.5 59.5 20.5 136.5q0 77 -20.5 136.5q-20.5 59.5 -55.5 100q-35 40.5 -81 61.5q-46 21 -98 21zt0 0zM462 858q8 7 18 13q10 6 20 9q21 7 39 -1.5q18 -8.5 18 -31.5q0 -17 -8.5 -26q-8.5 -9 -16.5 -14q-11 -6 -19 -9q-8 -3 -18 -7l-143 -54l-11 21z" />
<glyph unicode="&#212;" horiz-adv-x="788" d="M394 708q87 0 153.5 -32.5q66.5 -32.5 111 -84q44.5 -51.5 67.5 -115q23 -63.5 23 -126.5q0 -63 -23 -126.5q-23 -63.5 -67.5 -115q-44.5 -51.5 -111 -84q-66.5 -32.5 -153.5 -32.5q-87 0 -153.5 32.5q-66.5 32.5 -111 84q-44.5 51.5 -67.5 115q-23 63.5 -23 126.5q0 63 23 126.5q23 63.5 67.5 115q44.5 51.5 111 84q66.5 32.5 153.5 32.5zt0 0zM394 669q-52 0 -98 -21q-46 -21 -81 -61.5q-35 -40.5 -55.5 -100q-20.5 -59.5 -20.5 -136.5q0 -77 20.5 -136.5q20.5 -59.5 55.5 -100q35 -40.5 81 -61.5q46 -21 98 -21q52 0 98 21q46 21 81 61.5q35 40.5 55.5 100q20.5 59.5 20.5 136.5q0 77 -20.5 136.5q-20.5 59.5 -55.5 100q-35 40.5 -81 61.5q-46 21 -98 21zt0 0zM274 737h-40l126 145h52l126 -145h-40l-112 79z" />
<glyph unicode="&#213;" horiz-adv-x="788" d="M394 708q87 0 153.5 -32.5q66.5 -32.5 111 -84q44.5 -51.5 67.5 -115q23 -63.5 23 -126.5q0 -63 -23 -126.5q-23 -63.5 -67.5 -115q-44.5 -51.5 -111 -84q-66.5 -32.5 -153.5 -32.5q-87 0 -153.5 32.5q-66.5 32.5 -111 84q-44.5 51.5 -67.5 115q-23 63.5 -23 126.5q0 63 23 126.5q23 63.5 67.5 115q44.5 51.5 111 84q66.5 32.5 153.5 32.5zt0 0zM394 669q-52 0 -98 -21q-46 -21 -81 -61.5q-35 -40.5 -55.5 -100q-20.5 -59.5 -20.5 -136.5q0 -77 20.5 -136.5q20.5 -59.5 55.5 -100q35 -40.5 81 -61.5q46 -21 98 -21q52 0 98 21q46 21 81 61.5q35 40.5 55.5 100q20.5 59.5 20.5 136.5q0 77 -20.5 136.5q-20.5 59.5 -55.5 100q-35 40.5 -81 61.5q-46 21 -98 21zt0 0zM574 831q-24 -39 -51 -61q-27 -22 -63 -22q-18 0 -38 3q-20 3 -51 11q-23 6 -41 11q-18 5 -35 5q-40 0 -62 -30l-19 0q21 45 51 64q30 19 65 19q14 0 33 -2.5q19 -2.5 45 -9.5q29 -8 46.5 -12.5q17.5 -4.5 34.5 -4.5q16 0 33 7q17 7 28 22z" />
<glyph unicode="&#214;" horiz-adv-x="788" d="M394 708q87 0 153.5 -32.5q66.5 -32.5 111 -84q44.5 -51.5 67.5 -115q23 -63.5 23 -126.5q0 -63 -23 -126.5q-23 -63.5 -67.5 -115q-44.5 -51.5 -111 -84q-66.5 -32.5 -153.5 -32.5q-87 0 -153.5 32.5q-66.5 32.5 -111 84q-44.5 51.5 -67.5 115q-23 63.5 -23 126.5q0 63 23 126.5q23 63.5 67.5 115q44.5 51.5 111 84q66.5 32.5 153.5 32.5zt0 0zM394 669q-52 0 -98 -21q-46 -21 -81 -61.5q-35 -40.5 -55.5 -100q-20.5 -59.5 -20.5 -136.5q0 -77 20.5 -136.5q20.5 -59.5 55.5 -100q35 -40.5 81 -61.5q46 -21 98 -21q52 0 98 21q46 21 81 61.5q35 40.5 55.5 100q20.5 59.5 20.5 136.5q0 77 -20.5 136.5q-20.5 59.5 -55.5 100q-35 40.5 -81 61.5q-46 21 -98 21zt0 0zM203 814q0 27 19.5 46.5q19.5 19.5 46.5 19.5q27 0 46.5 -19.5q19.5 -19.5 19.5 -46.5q0 -27 -19.5 -46.5q-19.5 -19.5 -46.5 -19.5q-27 0 -46.5 19.5q-19.5 19.5 -19.5 46.5zt0 0zM449 814q0 27 19.5 46.5q19.5 19.5 46.5 19.5q27 0 46.5 -19.5q19.5 -19.5 19.5 -46.5q0 -27 -19.5 -46.5q-19.5 -19.5 -46.5 -19.5q-27 0 -46.5 19.5t-19.5 46.5z" />
<glyph unicode="&#215;" horiz-adv-x="572" d="M106 100l-36 36l180 180l-180 180l36 36l180 -180l180 180l36 -36l-180 -180l180 -180l-36 -36l-180 180z" />
<glyph unicode="&#216;" horiz-adv-x="788" d="M392 708q24 0 54.5 -3q30.5 -3 64 -14q33.5 -11 69 -32.5q35.5 -21.5 68.5 -58.5l86 77l34 -38l-88 -77q41 -61 54 -115.5q13 -54.5 13 -96.5q0 -62 -22.5 -126q-22.5 -64 -67.5 -115.5q-45 -51.5 -111.5 -84q-66.5 -32.5 -153.5 -32.5q-65 0 -125 19.5q-60 19.5 -121 77.5l-100 -90l-33 36l101 90q-42 55 -59 113.5q-17 58.5 -17 111.5q0 63 23 126.5q23 63.5 68 115q45 51.5 111 84q66 32.5 152 32.5zt0 0zM393 669q-26 0 -54 -6.5q-28 -6.5 -56 -20.5q-28 -14 -53.5 -37.5q-25.5 -23.5 -44.5 -56.5q-21 -35 -34 -84q-13 -49 -13 -116q0 -28 5.5 -72.5q5.5 -44.5 27.5 -99.5l424 378q-24 37 -52 59.5q-28 22.5 -55.5 35q-27.5 12.5 -52 16.5q-24.5 4 -42.5 4zt0 0zM195 132q23 -32 49.5 -51.5q26.5 -19.5 52.5 -30.5q26 -11 50.5 -15q24.5 -4 44.5 -4q25 0 53 6q28 6 56 20.5q28 14.5 53.5 37.5q25.5 23 45.5 56q17 29 26.5 60.5q9.5 31.5 14 59q4.5 27.5 5.5 48.5q1 21 1 29q0 40 -7 83.5q-7 43.5 -21 75.5z" />
<glyph unicode="&#217;" horiz-adv-x="799" d="M254 700v-34q-37 -4 -47.5 -26.5q-10.5 -22.5 -10.5 -54.5v-274q0 -36 4 -71q4 -35 16 -66.5q12 -31.5 34.5 -57.5q22.5 -26 60.5 -45q27 -14 55 -18q28 -4 57 -4q34 0 65.5 8q31.5 8 61.5 26q37 22 57.5 52.5q20.5 30.5 30 64q9.5 33.5 11 68q1.5 34.5 1.5 66.5v259q0 35 -13.5 53q-13.5 18 -44.5 20l0 34h155v-34q-21 -2 -32.5 -10.5q-11.5 -8.5 -17.5 -19.5q-6 -11 -7 -23q-1 -12 -1 -20v-306q0 -53 -12.5 -106q-12.5 -53 -44 -95q-31.5 -42 -86.5 -68q-55 -26 -140 -26q-83 0 -139.5 21.5q-56.5 21.5 -91.5 63q-35 41.5 -50 101.5q-15 60 -15 137v270q0 38 -12 58q-12 20 -46 23l0 34zM448 733l-143 54q-10 4 -18 7q-8 3 -19 9q-8 5 -16.5 14q-8.5 9 -8.5 26q0 23 18 31.5q18 8.5 39 1.5q10 -3 20 -9q10 -6 18 -13l121 -100z" />
<glyph unicode="&#218;" horiz-adv-x="799" d="M254 700v-34q-37 -4 -47.5 -26.5q-10.5 -22.5 -10.5 -54.5v-274q0 -36 4 -71q4 -35 16 -66.5q12 -31.5 34.5 -57.5q22.5 -26 60.5 -45q27 -14 55 -18q28 -4 57 -4q34 0 65.5 8q31.5 8 61.5 26q37 22 57.5 52.5q20.5 30.5 30 64q9.5 33.5 11 68q1.5 34.5 1.5 66.5v259q0 35 -13.5 53q-13.5 18 -44.5 20l0 34h155v-34q-21 -2 -32.5 -10.5q-11.5 -8.5 -17.5 -19.5q-6 -11 -7 -23q-1 -12 -1 -20v-306q0 -53 -12.5 -106q-12.5 -53 -44 -95q-31.5 -42 -86.5 -68q-55 -26 -140 -26q-83 0 -139.5 21.5q-56.5 21.5 -91.5 63q-35 41.5 -50 101.5q-15 60 -15 137v270q0 38 -12 58q-12 20 -46 23l0 34zM502 858q8 7 18 13q10 6 20 9q21 7 39 -1.5q18 -8.5 18 -31.5q0 -17 -8.5 -26q-8.5 -9 -16.5 -14q-11 -6 -19 -9q-8 -3 -18 -7l-143 -54l-11 21z" />
<glyph unicode="&#219;" horiz-adv-x="799" d="M254 700v-34q-37 -4 -47.5 -26.5q-10.5 -22.5 -10.5 -54.5v-274q0 -36 4 -71q4 -35 16 -66.5q12 -31.5 34.5 -57.5q22.5 -26 60.5 -45q27 -14 55 -18q28 -4 57 -4q34 0 65.5 8q31.5 8 61.5 26q37 22 57.5 52.5q20.5 30.5 30 64q9.5 33.5 11 68q1.5 34.5 1.5 66.5v259q0 35 -13.5 53q-13.5 18 -44.5 20l0 34h155v-34q-21 -2 -32.5 -10.5q-11.5 -8.5 -17.5 -19.5q-6 -11 -7 -23q-1 -12 -1 -20v-306q0 -53 -12.5 -106q-12.5 -53 -44 -95q-31.5 -42 -86.5 -68q-55 -26 -140 -26q-83 0 -139.5 21.5q-56.5 21.5 -91.5 63q-35 41.5 -50 101.5q-15 60 -15 137v270q0 38 -12 58q-12 20 -46 23l0 34zM297 737h-40l126 145h52l126 -145h-40l-112 79z" />
<glyph unicode="&#220;" horiz-adv-x="799" d="M254 700v-34q-37 -4 -47.5 -26.5q-10.5 -22.5 -10.5 -54.5v-274q0 -36 4 -71q4 -35 16 -66.5q12 -31.5 34.5 -57.5q22.5 -26 60.5 -45q27 -14 55 -18q28 -4 57 -4q34 0 65.5 8q31.5 8 61.5 26q37 22 57.5 52.5q20.5 30.5 30 64q9.5 33.5 11 68q1.5 34.5 1.5 66.5v259q0 35 -13.5 53q-13.5 18 -44.5 20l0 34h155v-34q-21 -2 -32.5 -10.5q-11.5 -8.5 -17.5 -19.5q-6 -11 -7 -23q-1 -12 -1 -20v-306q0 -53 -12.5 -106q-12.5 -53 -44 -95q-31.5 -42 -86.5 -68q-55 -26 -140 -26q-83 0 -139.5 21.5q-56.5 21.5 -91.5 63q-35 41.5 -50 101.5q-15 60 -15 137v270q0 38 -12 58q-12 20 -46 23l0 34zM226 814q0 27 19.5 46.5q19.5 19.5 46.5 19.5q27 0 46.5 -19.5q19.5 -19.5 19.5 -46.5q0 -27 -19.5 -46.5q-19.5 -19.5 -46.5 -19.5q-27 0 -46.5 19.5q-19.5 19.5 -19.5 46.5zt0 0zM472 814q0 27 19.5 46.5q19.5 19.5 46.5 19.5q27 0 46.5 -19.5q19.5 -19.5 19.5 -46.5q0 -27 -19.5 -46.5q-19.5 -19.5 -46.5 -19.5q-27 0 -46.5 19.5t-19.5 46.5z" />
<glyph unicode="&#221;" horiz-adv-x="677" d="M230 700v-34q-15 -2 -25.5 -8.5q-10.5 -6.5 -10.5 -21.5q0 -9 3.5 -17q3.5 -8 8.5 -14l169 -229h6l142 220q11 17 16 26.5q5 9.5 5 17.5q0 11 -11 18.5q-11 7.5 -27 7.5l0 34h171v-34q-21 0 -38 -6.5q-17 -6.5 -31.5 -18.5q-14.5 -12 -26.5 -28q-12 -16 -23 -33l-166 -260v-205q0 -32 12 -54.5q12 -22.5 47 -26.5l0 -34h-204v34q33 4 46 24.5q13 20.5 13 56.5v210l-189 258q-20 27 -38 43q-18 16 -33 24.5q-15 8.5 -27 11.5q-12 3 -19 4l0 34zM446 858q8 7 18 13q10 6 20 9q21 7 39 -1.5q18 -8.5 18 -31.5q0 -17 -8.5 -26q-8.5 -9 -16.5 -14q-11 -6 -19 -9q-8 -3 -18 -7l-143 -54l-11 21z" />
<glyph unicode="&#222;" horiz-adv-x="640" d="M52 34q36 2 48 27q12 25 12 61v263v200q0 33 -11.5 55.5q-11.5 22.5 -47.5 25.5l0 34h204v-34q-33 -3 -46 -23.5q-13 -20.5 -13 -57.5v-15h130q32 0 62 -1.5q30 -1.5 57 -7q27 -5.5 52 -16q25 -10.5 46 -29.5q23 -20 39.5 -51q16.5 -31 16.5 -77q0 -38 -11 -66q-11 -28 -25 -47q-29 -38 -82.5 -59q-53.5 -21 -128.5 -21h-156v-70q0 -43 11.5 -67q11.5 -24 51.5 -24l0 -34h-209zM198 234h114q19 0 41.5 1q22.5 1 44.5 7q22 6 42 18.5q20 12.5 35 35.5q9 13 17.5 35.5q8.5 22.5 8.5 57.5q0 23 -6 47q-6 24 -23 45q-15 18 -35 28.5q-20 10.5 -41.5 15q-21.5 4.5 -43 5.5q-21.5 1 -40.5 1l-114 0z" />
<glyph unicode="&#223;" horiz-adv-x="453" d="M76 385v147q0 58 18 91.5q18 33.5 43 50.5q25 17 51.5 21.5q26.5 4.5 43.5 4.5q26 0 52.5 -9.5q26.5 -9.5 48.5 -28q22 -18.5 35.5 -47q13.5 -28.5 13.5 -66.5q0 -54 -28.5 -98.5q-28.5 -44.5 -78.5 -63.5l0 -5q31 -3 58.5 -18.5q27.5 -15.5 48.5 -41.5q21 -26 33 -60.5q12 -34.5 12 -75.5q0 -31 -7.5 -65.5q-7.5 -34.5 -24 -63q-16.5 -28.5 -42 -47q-25.5 -18.5 -61.5 -18.5q-22 0 -38 7q-16 7 -26.5 18.5q-10.5 11.5 -15.5 25q-5 13.5 -5 26.5q0 26 14.5 39q14.5 13 28.5 13q12 0 24.5 -9q12.5 -9 12.5 -26q0 -12 -4 -18.5q-4 -6.5 -9 -11.5q-5 -5 -9 -9q-4 -4 -4 -11q0 -4 4.5 -11.5q4.5 -7.5 19.5 -7.5q11 0 21.5 4.5q10.5 4.5 18.5 20.5q8 16 13 47.5q5 31.5 5 86.5q0 34 -5 66.5q-5 32.5 -20.5 57.5q-15.5 25 -46 40.5q-30.5 15.5 -81.5 15.5l0 29q39 2 62 16q23 14 35 36q12 22 15.5 50.5q3.5 28.5 3.5 61.5q0 16 -2.5 37q-2.5 21 -10 39.5q-7.5 18.5 -22 31q-14.5 12.5 -39.5 12.5q-11 0 -25.5 -3.5q-14.5 -3.5 -27 -15.5q-12.5 -12 -21 -35q-8.5 -23 -8.5 -62v-437q0 -38 5 -59.5q5 -21.5 35 -27.5l0 -29h-157v29q17 3 26 10q9 7 12.5 18q3.5 11 4 26q0.5 15 0.5 33v174q0 8 -0.5 18q-0.5 10 -4 19q-3.5 9 -12.5 17q-9 8 -26 12l0 29z" />
<glyph unicode="&#224;" horiz-adv-x="399" d="M392 28q-24 -36 -64 -36q-29 0 -44.5 18q-15.5 18 -20.5 37l-2 0q-20 -21 -49 -38q-29 -17 -69 -17q-58 0 -87.5 30.5q-29.5 30.5 -29.5 75.5q0 39 17.5 64.5q17.5 25.5 48.5 41.5q31 16 72.5 24q41.5 8 88.5 11q0 27 -2.5 49.5q-2.5 22.5 -10 39q-7.5 16.5 -22.5 25.5q-15 9 -39 9q-13 0 -27 -6.5q-14 -6.5 -22 -26.5q-3 -7 -4.5 -14.5q-1.5 -7.5 -5 -13.5q-3.5 -6 -10 -10q-6.5 -4 -18.5 -4q-8 0 -20 5.5q-12 5.5 -12 24.5q0 12 8 25q8 13 24.5 24.5q16.5 11.5 40 19q23.5 7.5 55.5 7.5q50 0 78 -17q28 -17 41.5 -43q13.5 -26 16 -56q2.5 -30 2.5 -55v-126q0 -6 0.5 -16q0.5 -10 4.5 -20.5q4 -10.5 12.5 -18q8.5 -7.5 23.5 -7.5q8 0 18 5zM253 206q-46 -2 -75 -13q-29 -11 -45.5 -26.5q-16.5 -15.5 -22.5 -33.5q-6 -18 -6 -33q0 -33 21 -49.5q21 -16.5 49 -16.5q27 0 43 12.5q16 12.5 24 32q8 19.5 10 44q2 24.5 2 48.5zM233 503l-122 76q-14 8 -20 12.5q-6 4.5 -11 8.5q-7 6 -11.5 13.5q-4.5 7.5 -4.5 18.5q0 17 10 27q10 10 27 10q23 0 40 -20l105 -130z" />
<glyph unicode="&#225;" horiz-adv-x="399" d="M392 28q-24 -36 -64 -36q-29 0 -44.5 18q-15.5 18 -20.5 37l-2 0q-20 -21 -49 -38q-29 -17 -69 -17q-58 0 -87.5 30.5q-29.5 30.5 -29.5 75.5q0 39 17.5 64.5q17.5 25.5 48.5 41.5q31 16 72.5 24q41.5 8 88.5 11q0 27 -2.5 49.5q-2.5 22.5 -10 39q-7.5 16.5 -22.5 25.5q-15 9 -39 9q-13 0 -27 -6.5q-14 -6.5 -22 -26.5q-3 -7 -4.5 -14.5q-1.5 -7.5 -5 -13.5q-3.5 -6 -10 -10q-6.5 -4 -18.5 -4q-8 0 -20 5.5q-12 5.5 -12 24.5q0 12 8 25q8 13 24.5 24.5q16.5 11.5 40 19q23.5 7.5 55.5 7.5q50 0 78 -17q28 -17 41.5 -43q13.5 -26 16 -56q2.5 -30 2.5 -55v-126q0 -6 0.5 -16q0.5 -10 4.5 -20.5q4 -10.5 12.5 -18q8.5 -7.5 23.5 -7.5q8 0 18 5zM253 206q-46 -2 -75 -13q-29 -11 -45.5 -26.5q-16.5 -15.5 -22.5 -33.5q-6 -18 -6 -33q0 -33 21 -49.5q21 -16.5 49 -16.5q27 0 43 12.5q16 12.5 24 32q8 19.5 10 44q2 24.5 2 48.5zM242 649q17 20 40 20q17 0 27 -10q10 -10 10 -27q0 -11 -4.5 -18.5q-4.5 -7.5 -11.5 -13.5q-5 -4 -11 -8.5q-6 -4.5 -20 -12.5l-122 -76l-13 16z" />
<glyph unicode="&#226;" horiz-adv-x="399" d="M392 28q-24 -36 -64 -36q-29 0 -44.5 18q-15.5 18 -20.5 37l-2 0q-20 -21 -49 -38q-29 -17 -69 -17q-58 0 -87.5 30.5q-29.5 30.5 -29.5 75.5q0 39 17.5 64.5q17.5 25.5 48.5 41.5q31 16 72.5 24q41.5 8 88.5 11q0 27 -2.5 49.5q-2.5 22.5 -10 39q-7.5 16.5 -22.5 25.5q-15 9 -39 9q-13 0 -27 -6.5q-14 -6.5 -22 -26.5q-3 -7 -4.5 -14.5q-1.5 -7.5 -5 -13.5q-3.5 -6 -10 -10q-6.5 -4 -18.5 -4q-8 0 -20 5.5q-12 5.5 -12 24.5q0 12 8 25q8 13 24.5 24.5q16.5 11.5 40 19q23.5 7.5 55.5 7.5q50 0 78 -17q28 -17 41.5 -43q13.5 -26 16 -56q2.5 -30 2.5 -55v-126q0 -6 0.5 -16q0.5 -10 4.5 -20.5q4 -10.5 12.5 -18q8.5 -7.5 23.5 -7.5q8 0 18 5zM253 206q-46 -2 -75 -13q-29 -11 -45.5 -26.5q-16.5 -15.5 -22.5 -33.5q-6 -18 -6 -33q0 -33 21 -49.5q21 -16.5 49 -16.5q27 0 43 12.5q16 12.5 24 32q8 19.5 10 44q2 24.5 2 48.5zM85 503h-31l110 152h50l110 -152h-31l-104 91z" />
<glyph unicode="&#227;" horiz-adv-x="399" d="M392 28q-24 -36 -64 -36q-29 0 -44.5 18q-15.5 18 -20.5 37l-2 0q-20 -21 -49 -38q-29 -17 -69 -17q-58 0 -87.5 30.5q-29.5 30.5 -29.5 75.5q0 39 17.5 64.5q17.5 25.5 48.5 41.5q31 16 72.5 24q41.5 8 88.5 11q0 27 -2.5 49.5q-2.5 22.5 -10 39q-7.5 16.5 -22.5 25.5q-15 9 -39 9q-13 0 -27 -6.5q-14 -6.5 -22 -26.5q-3 -7 -4.5 -14.5q-1.5 -7.5 -5 -13.5q-3.5 -6 -10 -10q-6.5 -4 -18.5 -4q-8 0 -20 5.5q-12 5.5 -12 24.5q0 12 8 25q8 13 24.5 24.5q16.5 11.5 40 19q23.5 7.5 55.5 7.5q50 0 78 -17q28 -17 41.5 -43q13.5 -26 16 -56q2.5 -30 2.5 -55v-126q0 -6 0.5 -16q0.5 -10 4.5 -20.5q4 -10.5 12.5 -18q8.5 -7.5 23.5 -7.5q8 0 18 5zM253 206q-46 -2 -75 -13q-29 -11 -45.5 -26.5q-16.5 -15.5 -22.5 -33.5q-6 -18 -6 -33q0 -33 21 -49.5q21 -16.5 49 -16.5q27 0 43 12.5q16 12.5 24 32q8 19.5 10 44q2 24.5 2 48.5zM356 596q-5 -17 -14 -33.5q-9 -16.5 -21.5 -30q-12.5 -13.5 -30 -21.5q-17.5 -8 -39.5 -8q-20 0 -39 5q-19 5 -39 11q-14 4 -26 7q-12 3 -24 3q-14 0 -27.5 -5.5q-13.5 -5.5 -27.5 -20.5l-25 0q10 26 23 43q13 17 26.5 26.5q13.5 9.5 27 13.5q13.5 4 25.5 4q15 0 33.5 -4q18.5 -4 36.5 -9.5q18 -5.5 34.5 -9.5q16.5 -4 28.5 -4q14 0 29.5 8q15.5 8 21.5 25z" />
<glyph unicode="&#228;" horiz-adv-x="399" d="M392 28q-24 -36 -64 -36q-29 0 -44.5 18q-15.5 18 -20.5 37l-2 0q-20 -21 -49 -38q-29 -17 -69 -17q-58 0 -87.5 30.5q-29.5 30.5 -29.5 75.5q0 39 17.5 64.5q17.5 25.5 48.5 41.5q31 16 72.5 24q41.5 8 88.5 11q0 27 -2.5 49.5q-2.5 22.5 -10 39q-7.5 16.5 -22.5 25.5q-15 9 -39 9q-13 0 -27 -6.5q-14 -6.5 -22 -26.5q-3 -7 -4.5 -14.5q-1.5 -7.5 -5 -13.5q-3.5 -6 -10 -10q-6.5 -4 -18.5 -4q-8 0 -20 5.5q-12 5.5 -12 24.5q0 12 8 25q8 13 24.5 24.5q16.5 11.5 40 19q23.5 7.5 55.5 7.5q50 0 78 -17q28 -17 41.5 -43q13.5 -26 16 -56q2.5 -30 2.5 -55v-126q0 -6 0.5 -16q0.5 -10 4.5 -20.5q4 -10.5 12.5 -18q8.5 -7.5 23.5 -7.5q8 0 18 5zM253 206q-46 -2 -75 -13q-29 -11 -45.5 -26.5q-16.5 -15.5 -22.5 -33.5q-6 -18 -6 -33q0 -33 21 -49.5q21 -16.5 49 -16.5q27 0 43 12.5q16 12.5 24 32q8 19.5 10 44q2 24.5 2 48.5zM74 564q0 20 14 34q14 14 34 14q20 0 34 -14q14 -14 14 -34q0 -20 -14 -34q-14 -14 -34 -14q-20 0 -34 14q-14 14 -14 34zt0 0zM229 564q0 20 14 34q14 14 34 14q20 0 34 -14q14 -14 14 -34q0 -20 -14 -34q-14 -14 -34 -14q-20 0 -34 14t-14 34z" />
<glyph unicode="&#229;" horiz-adv-x="399" d="M392 28q-24 -36 -64 -36q-29 0 -44.5 18q-15.5 18 -20.5 37l-2 0q-20 -21 -49 -38q-29 -17 -69 -17q-58 0 -87.5 30.5q-29.5 30.5 -29.5 75.5q0 39 17.5 64.5q17.5 25.5 48.5 41.5q31 16 72.5 24q41.5 8 88.5 11q0 27 -2.5 49.5q-2.5 22.5 -10 39q-7.5 16.5 -22.5 25.5q-15 9 -39 9q-13 0 -27 -6.5q-14 -6.5 -22 -26.5q-3 -7 -4.5 -14.5q-1.5 -7.5 -5 -13.5q-3.5 -6 -10 -10q-6.5 -4 -18.5 -4q-8 0 -20 5.5q-12 5.5 -12 24.5q0 12 8 25q8 13 24.5 24.5q16.5 11.5 40 19q23.5 7.5 55.5 7.5q50 0 78 -17q28 -17 41.5 -43q13.5 -26 16 -56q2.5 -30 2.5 -55v-126q0 -6 0.5 -16q0.5 -10 4.5 -20.5q4 -10.5 12.5 -18q8.5 -7.5 23.5 -7.5q8 0 18 5zM253 206q-46 -2 -75 -13q-29 -11 -45.5 -26.5q-16.5 -15.5 -22.5 -33.5q-6 -18 -6 -33q0 -33 21 -49.5q21 -16.5 49 -16.5q27 0 43 12.5q16 12.5 24 32q8 19.5 10 44q2 24.5 2 48.5zM102 591q0 22 8 38.5q8 16.5 21 27.5q13 11 28.5 16.5q15.5 5.5 30.5 5.5q15 0 30.5 -5.5q15.5 -5.5 28.5 -16.5q13 -11 21 -27.5q8 -16.5 8 -38.5q0 -38 -25 -63q-25 -25 -63 -25q-38 0 -63 25q-25 25 -25 63zt0 0zM133 591q0 -25 18 -41q18 -16 39 -16q23 0 40 17q17 17 17 40q0 21 -16 39q-16 18 -41 18q-23 0 -40 -17t-17 -40z" />
<glyph unicode="&#230;" horiz-adv-x="599" d="M325 223q-2 -39 0.5 -73.5q2.5 -34.5 13.5 -60.5q11 -26 32.5 -41q21.5 -15 59.5 -15q19 0 36.5 5.5q17.5 5.5 33.5 14.5q16 9 29.5 19.5q13.5 10.5 23.5 21.5l19 -17q-42 -48 -80.5 -66.5q-38.5 -18.5 -75.5 -18.5q-11 0 -27.5 1.5q-16.5 1.5 -35 7q-18.5 5.5 -38 16.5q-19.5 11 -35.5 30l-4 0q-16 -16 -35.5 -26.5q-19.5 -10.5 -39 -17q-19.5 -6.5 -36.5 -9q-17 -2.5 -28 -2.5q-30 0 -51 9.5q-21 9.5 -34.5 24.5q-13.5 15 -20 34q-6.5 19 -6.5 38q0 39 18 64.5q18 25.5 49 41.5q31 16 72 24q41 8 87 11l0 26q0 32 -6.5 51.5q-6.5 19.5 -17 29.5q-10.5 10 -23.5 13q-13 3 -26 3q-15 0 -24.5 -4.5q-9.5 -4.5 -14.5 -10q-5 -5.5 -7 -11q-2 -5.5 -3 -7.5q-1 -6 -3 -13.5q-2 -7.5 -6 -13.5q-4 -6 -10.5 -10.5q-6.5 -4.5 -17.5 -4.5q-8 0 -20 6.5q-12 6.5 -12 27.5q0 15 10 28q10 13 27 22.5q17 9.5 40.5 15.5q23.5 6 50.5 6q28 0 57 -9.5q29 -9.5 51 -33.5l2 0q26 27 58.5 35q32.5 8 55.5 8q37 0 65.5 -14.5q28.5 -14.5 47 -38.5q18.5 -24 28 -54.5q9.5 -30.5 9.5 -62.5zM252 206q-46 -3 -74.5 -13.5q-28.5 -10.5 -44.5 -25.5q-16 -15 -22 -33q-6 -18 -6 -34q0 -30 16.5 -47q16.5 -17 41.5 -20q44 -6 66.5 25.5q22.5 31.5 22.5 90.5zM483 254q0 8 -1 26q-1 18 -8 36q-7 18 -22 32q-15 14 -43 14q-14 0 -28 -4.5q-14 -4.5 -25.5 -16.5q-11.5 -12 -20 -33q-8.5 -21 -10.5 -54z" />
<glyph unicode="&#231;" horiz-adv-x="392" d="M372 71q-14 -17 -33 -32q-19 -15 -41.5 -26.5q-22.5 -11.5 -48.5 -17q-26 -5.5 -56 -2.5l-26 -28v-1q21 3 45 1q24 -2 43 -14q20 -13 24 -28q4 -15 4 -23q0 -31 -31 -52q-15 -10 -31 -13q-16 -3 -30 -3q-20 0 -37 4q-17 4 -27 10q-8 5 -14.5 13q-6.5 8 -6.5 18q0 11 7 17.5q7 6.5 17 6.5q12 0 18 -7q6 -7 6 -17v-5q0 -9 11 -13.5q11 -4.5 25 -4.5q25 0 42 15q5 5 9.5 11.5q4.5 6.5 4.5 17.5q0 10 -5 20q-5 10 -18 18q-10 5 -20 6.5q-10 1.5 -17 1.5q-23 0 -48 -11l-19 21l42 44q-63 17 -99 66q-36 49 -36 121q0 44 14 82q14 38 39.5 66q25.5 28 60.5 44q35 16 77 16q60 0 92 -22q32 -22 32 -52q0 -17 -10 -26q-10 -9 -26 -9q-4 0 -10.5 1q-6.5 1 -12.5 4.5q-6 3.5 -11 11.5q-5 8 -6 22q0 5 -1 12q-1 7 -5.5 13q-4.5 6 -13.5 10q-9 4 -26 4q-20 0 -39.5 -9q-19.5 -9 -35 -29.5q-15.5 -20.5 -25 -54.5q-9.5 -34 -9.5 -84q0 -49 14.5 -78q14.5 -29 34.5 -44.5q20 -15.5 41 -20q21 -4.5 34 -4.5q14 0 31 3.5q17 3.5 33.5 10.5q16.5 7 31.5 16.5q15 9.5 25 20.5z" />
<glyph unicode="&#232;" horiz-adv-x="386" d="M360 77q-26 -33 -66.5 -59q-40.5 -26 -88.5 -26q-24 0 -55 7.5q-31 7.5 -58.5 28q-27.5 20.5 -46.5 57q-19 36.5 -19 94.5q0 48 13 87.5q13 39.5 36.5 67.5q23.5 28 56 43.5q32.5 15.5 70.5 15.5q40 0 68.5 -15.5q28.5 -15.5 46.5 -40.5q18 -25 26 -55q8 -30 7 -59l-239 0q-3 -39 0.5 -73.5q3.5 -34.5 15.5 -60.5q12 -26 34 -41q22 -15 57 -15q38 0 71 20q33 20 53 41l18 -17zM271 254q1 29 -5 49.5q-6 20.5 -16.5 33.5q-10.5 13 -24 19q-13.5 6 -28.5 6q-31 0 -56.5 -24q-25.5 -24 -27.5 -84l158 0zM225 503l-122 76q-14 8 -20 12.5q-6 4.5 -11 8.5q-7 6 -11.5 13.5q-4.5 7.5 -4.5 18.5q0 17 10 27q10 10 27 10q23 0 40 -20l105 -130z" />
<glyph unicode="&#233;" horiz-adv-x="386" d="M360 77q-26 -33 -66.5 -59q-40.5 -26 -88.5 -26q-24 0 -55 7.5q-31 7.5 -58.5 28q-27.5 20.5 -46.5 57q-19 36.5 -19 94.5q0 48 13 87.5q13 39.5 36.5 67.5q23.5 28 56 43.5q32.5 15.5 70.5 15.5q40 0 68.5 -15.5q28.5 -15.5 46.5 -40.5q18 -25 26 -55q8 -30 7 -59l-239 0q-3 -39 0.5 -73.5q3.5 -34.5 15.5 -60.5q12 -26 34 -41q22 -15 57 -15q38 0 71 20q33 20 53 41l18 -17zM271 254q1 29 -5 49.5q-6 20.5 -16.5 33.5q-10.5 13 -24 19q-13.5 6 -28.5 6q-31 0 -56.5 -24q-25.5 -24 -27.5 -84l158 0zM267 649q17 20 40 20q17 0 27 -10q10 -10 10 -27q0 -11 -4.5 -18.5q-4.5 -7.5 -11.5 -13.5q-5 -4 -11 -8.5q-6 -4.5 -20 -12.5l-122 -76l-13 16z" />
<glyph unicode="&#234;" horiz-adv-x="386" d="M360 77q-26 -33 -66.5 -59q-40.5 -26 -88.5 -26q-24 0 -55 7.5q-31 7.5 -58.5 28q-27.5 20.5 -46.5 57q-19 36.5 -19 94.5q0 48 13 87.5q13 39.5 36.5 67.5q23.5 28 56 43.5q32.5 15.5 70.5 15.5q40 0 68.5 -15.5q28.5 -15.5 46.5 -40.5q18 -25 26 -55q8 -30 7 -59l-239 0q-3 -39 0.5 -73.5q3.5 -34.5 15.5 -60.5q12 -26 34 -41q22 -15 57 -15q38 0 71 20q33 20 53 41l18 -17zM271 254q1 29 -5 49.5q-6 20.5 -16.5 33.5q-10.5 13 -24 19q-13.5 6 -28.5 6q-31 0 -56.5 -24q-25.5 -24 -27.5 -84l158 0zM89 503h-31l110 152h50l110 -152h-31l-104 91z" />
<glyph unicode="&#235;" horiz-adv-x="386" d="M360 77q-26 -33 -66.5 -59q-40.5 -26 -88.5 -26q-24 0 -55 7.5q-31 7.5 -58.5 28q-27.5 20.5 -46.5 57q-19 36.5 -19 94.5q0 48 13 87.5q13 39.5 36.5 67.5q23.5 28 56 43.5q32.5 15.5 70.5 15.5q40 0 68.5 -15.5q28.5 -15.5 46.5 -40.5q18 -25 26 -55q8 -30 7 -59l-239 0q-3 -39 0.5 -73.5q3.5 -34.5 15.5 -60.5q12 -26 34 -41q22 -15 57 -15q38 0 71 20q33 20 53 41l18 -17zM271 254q1 29 -5 49.5q-6 20.5 -16.5 33.5q-10.5 13 -24 19q-13.5 6 -28.5 6q-31 0 -56.5 -24q-25.5 -24 -27.5 -84l158 0zM68 564q0 20 14 34q14 14 34 14q20 0 34 -14q14 -14 14 -34q0 -20 -14 -34q-14 -14 -34 -14q-20 0 -34 14q-14 14 -14 34zt0 0zM223 564q0 20 14 34q14 14 34 14q20 0 34 -14q14 -14 14 -34q0 -20 -14 -34q-14 -14 -34 -14q-20 0 -34 14t-14 34z" />
<glyph unicode="&#236;" horiz-adv-x="215" d="M144 385v-284q0 -28 7.5 -49q7.5 -21 37.5 -23l0 -29h-163v29q28 3 36 21.5q8 18.5 8 50.5v182q0 31 -6.5 48.5q-6.5 17.5 -37.5 24.5l0 29zM109 503l-122 76q-14 8 -20 12.5q-6 4.5 -11 8.5q-7 6 -11.5 13.5q-4.5 7.5 -4.5 18.5q0 17 10 27q10 10 27 10q23 0 40 -20l105 -130z" />
<glyph unicode="&#237;" horiz-adv-x="215" d="M144 385v-284q0 -28 7.5 -49q7.5 -21 37.5 -23l0 -29h-163v29q28 3 36 21.5q8 18.5 8 50.5v182q0 31 -6.5 48.5q-6.5 17.5 -37.5 24.5l0 29zM148 649q17 20 40 20q17 0 27 -10q10 -10 10 -27q0 -11 -4.5 -18.5q-4.5 -7.5 -11.5 -13.5q-5 -4 -11 -8.5q-6 -4.5 -20 -12.5l-122 -76l-13 16z" />
<glyph unicode="&#238;" horiz-adv-x="215" d="M144 385v-284q0 -28 7.5 -49q7.5 -21 37.5 -23l0 -29h-163v29q28 3 36 21.5q8 18.5 8 50.5v182q0 31 -6.5 48.5q-6.5 17.5 -37.5 24.5l0 29zM4 503h-31l110 152h50l110 -152h-31l-104 91z" />
<glyph unicode="&#239;" horiz-adv-x="224" d="M153 385v-284q0 -28 7.5 -49q7.5 -21 37.5 -23l0 -29h-162v29q28 3 36 21.5q8 18.5 8 50.5v182q0 31 -6.5 48.5q-6.5 17.5 -37.5 24.5l0 29zM-13 564q0 21 14.5 34.5q14.5 13.5 34.5 13.5q20 0 34 -14q14 -14 14 -34q0 -20 -13.5 -34.5q-13.5 -14.5 -34.5 -14.5q-21 0 -35 14q-14 14 -14 35zt0 0zM123 564q0 21 14.5 34.5q14.5 13.5 34.5 13.5q20 0 34 -14q14 -14 14 -34q0 -20 -13.5 -34.5q-13.5 -14.5 -34.5 -14.5q-21 0 -35 14t-14 35z" />
<glyph unicode="&#240;" horiz-adv-x="432" d="M113 485l83 40q-20 28 -32.5 44.5q-12.5 16.5 -27.5 32.5l16 17l29 -27q5 -5 8 -8q3 -3 5.5 -5.5q2.5 -2.5 5 -5.5q2.5 -3 7.5 -8l23 -23l86 42l10 -23l-80 -38q25 -26 53 -63q28 -37 52 -80.5q24 -43.5 39.5 -91.5q15.5 -48 15.5 -96q0 -60 -21 -98.5q-21 -38.5 -51 -61q-30 -22.5 -62.5 -31.5q-32.5 -9 -55.5 -9q-21 0 -53.5 9q-32.5 9 -63 31.5q-30.5 22.5 -52 61.5q-21.5 39 -21.5 99q0 26 8.5 60.5q8.5 34.5 30 65.5q21.5 31 58.5 52.5q37 21.5 93 21.5q26 0 55 -8q-14 35 -30 64.5q-16 29.5 -33 55.5l-84 -42zM216 362q-38 0 -59.5 -17.5q-21.5 -17.5 -32 -43q-10.5 -25.5 -12.5 -55.5q-2 -30 -2 -54v-5q0 -19 2 -47q2 -28 12 -54q10 -26 31.5 -44.5q21.5 -18.5 60.5 -18.5q39 0 60.5 18.5q21.5 18.5 31.5 44.5q10 26 12 54q2 28 2 47v5q0 54 -8.5 87.5q-8.5 33.5 -23.5 52q-15 18.5 -34 24.5t-40 6z" />
</font>
</defs>
</svg>
