<?xml version="1.0" encoding="UTF-8" standalone="no"?>
<!DOCTYPE svg PUBLIC "-//W3C//DTD SVG 1.1//EN" "http://www.w3.org/Graphics/SVG/1.1/DTD/svg11.dtd" >
<svg xmlns="http://www.w3.org/2000/svg">
<metadata>
Generated by SVGconv.
Copyright   : Copyright  1990 ParaGraph Intl.,  1998 ParaType Inc., ParaType Ltd. All rights reserved.
Designer    : Vladimir Yefimov and Alexander Tarbeev
Foundry     : ParaType Ltd
Foundry URL : http://www.paratype.com
</metadata>
<defs>
<font id="NewtonWeb-Regular" horiz-adv-x="551" >
<font-face units-per-em="1000" ascent="987" descent="321" >
<font-face-src>
<font-face-name/>
</font-face-src>
</font-face>
<missing-glyph horiz-adv-x="500" />
<glyph unicode="&#13;" horiz-adv-x="233" />
<glyph unicode="&#32;" horiz-adv-x="233" />
<glyph unicode="&#33;" horiz-adv-x="248" d="M75 582q-2 21 -3.5 33.5q-1.5 12.5 -1.5 21.5q0 31 13.5 51.5q13.5 20.5 40.5 20.5q26 0 39.5 -20.5q13.5 -20.5 14.5 -51.5q0 -11 -1.5 -24q-1.5 -13 -3.5 -31l-41 -376h-16zM66 47q0 23 17 40.5q17 17.5 41 17.5q23 0 40 -17.5q17 -17.5 18 -40.5q0 -24 -17.5 -40.5q-17.5 -16.5 -40.5 -16.5q-24 0 -41 16.5t-17 40.5z" />
<glyph unicode="&#34;" horiz-adv-x="368" d="M224 631q-1 3 -2.5 12q-1.5 9 -3.5 25q0 21 13.5 36.5q13.5 15.5 38.5 15.5q24 0 38 -15.5q14 -15.5 14 -36.5q0 -5 -1.5 -14q-1.5 -9 -6.5 -32l-26 -128h-36zM52 631q-1 3 -2.5 12q-1.5 9 -3.5 25q0 21 13.5 36.5q13.5 15.5 38.5 15.5q24 0 38 -15.5q14 -15.5 14 -36.5q0 -5 -1.5 -14q-1.5 -9 -6.5 -32l-26 -128l-36 0z" />
<glyph unicode="&#35;" horiz-adv-x="618" d="M332 44l28 158h-156l-28 -158h-43l28 158h-108l10 53h108l35 195h-108l9 53h108l28 157h43l-28 -157h156l28 157h43l-28 -157h108l-9 -53h-108l-35 -195h108l-10 -53h-108l-28 -158zM405 450h-156l-35 -195l156 0z" />
<glyph unicode="&#36;" horiz-adv-x="526" d="M74 181h10q9 -66 50.5 -106.5q41.5 -40.5 102.5 -48.5l0 309q-82 43 -123 94.5q-41 51.5 -41 120.5q0 62 44 108q46 46 120 50l0 55h35v-55q49 -3 89.5 -16q40.5 -13 72.5 -34l6 -149h-15q-3 36 -15.5 66q-12.5 30 -32.5 52q-20 22 -47 34.5q-27 12.5 -58 13.5l0 -255q118 -75 156 -127q39 -53 39 -115q0 -79 -59 -130q-59 -51 -136 -56l0 -65h-35v65q-48 3 -88.5 14q-40.5 11 -74.5 32zM272 26q60 9 90 42.5q30 33.5 30 84.5q-1 42 -27.5 79.5q-26.5 37.5 -92.5 80.5zM237 675q-42 -5 -65 -33.5q-23 -28.5 -23 -70.5q-1 -36 22.5 -71q23.5 -35 65.5 -58z" />
<glyph unicode="&#37;" horiz-adv-x="847" d="M734 725l-610 -782l-28 20l503 645q-22 -13 -52 -19.5q-30 -6.5 -58 -6.5q-38 0 -68 18q0 -6 0.5 -9.5q0.5 -3.5 0.5 -6.5q0 -86 -61 -168q-60 -83 -142 -83q-66 0 -103 35.5q-37 35.5 -37 99.5q0 105 64 182q64 78 161 78q39 0 63 -14q24 -14 40 -41q10 -20 20 -31q10 -11 20.5 -16.5q10.5 -5.5 22 -7q11.5 -1.5 25.5 -1.5q58 0 110 31q52 31 101 97zM382 624q-15 6 -24.5 19.5q-9.5 13.5 -8.5 31.5q-8 3 -16.5 5.5q-8.5 2.5 -17.5 2.5q-57 0 -106 -75q-50 -75 -49 -158q0 -76 65 -76q64 0 111 72q48 72 48 148q0 7 -1 14.5q-1 7.5 -1 15.5zt0 0zM566 -18q-66 0 -103 35.5q-37 35.5 -37 98.5q0 104 64 183q64 79 155 79q63 0 93 -37q30 -37 30 -98q0 -98 -62 -180q-62 -80 -140 -81zt0 0zM572 22q64 0 111 72q47 73 49 148q0 42 -18 65.5q-18 23.5 -52 23.5q-59 0 -107 -75q-48 -74 -48 -158q0 -76 65 -76z" />
<glyph unicode="&#38;" horiz-adv-x="782" d="M710 447v-8q-17 -5 -29.5 -11q-12.5 -6 -24 -15q-11.5 -9 -22 -22q-10.5 -13 -22.5 -33q-4 -7 -12.5 -25q-8.5 -18 -23 -44q-14.5 -26 -34 -58.5q-19.5 -32.5 -46.5 -68.5q35 -48 74 -71.5q39 -23.5 78 -23.5q33 0 58.5 19.5q25.5 19.5 36.5 52.5l14 0q-12 -66 -50 -106.5q-38 -40.5 -96 -40.5q-45 0 -92.5 28q-47.5 28 -80.5 74q-56 -54 -105 -78q-51 -23 -118 -23q-42 0 -74 12.5q-32 12.5 -54.5 34q-22.5 21.5 -34 51.5q-11.5 30 -11.5 66q-1 67 50 125q51 58 159 118q-17 39 -26.5 73q-9.5 34 -9.5 60q0 82 41 129q41 47 111 47q66 0 100.5 -37.5q34.5 -37.5 35.5 -91.5q0 -51 -36.5 -92.5q-36.5 -41.5 -120.5 -80.5q28 -64 60 -117q32 -53 69 -98q39 55 59.5 101.5q20.5 46.5 20.5 84.5q-1 55 -46 61l0 8zM413 124q-50 60 -84 115.5q-34 55.5 -64 123.5q-66 -37 -95 -76q-29 -39 -29 -88q0 -57 29 -96.5q29 -39.5 80 -45.5q5 -1 20 -1q39 0 74.5 16.5q35.5 16.5 68.5 51.5zt0 0zM330 442q54 21 82.5 60.5q28.5 39.5 28.5 85.5q-1 42 -20 65.5q-19 23.5 -50 23.5q-36 0 -56 -28q-20 -28 -20 -65q0 -59 35 -142z" />
<glyph unicode="&#39;" horiz-adv-x="196" d="M52 631q-1 3 -2.5 12q-1.5 9 -3.5 25q0 21 13.5 36.5q13.5 15.5 38.5 15.5q24 0 38 -15.5q14 -15.5 14 -36.5q0 -5 -1.5 -14q-1.5 -9 -6.5 -32l-26 -128l-36 0z" />
<glyph unicode="&#40;" horiz-adv-x="370" d="M329 700q-81 -74 -119.5 -179.5q-38.5 -105.5 -38.5 -259.5q-1 -153 38.5 -259q39.5 -106 119.5 -178l-12 -15q-61 44 -108 96.5q-47 52.5 -78.5 110.5q-31.5 58 -48 120q-16.5 62 -16.5 125q0 125 64 246q64 120 187 207z" />
<glyph unicode="&#41;" horiz-adv-x="370" d="M41 -176q79 72 118.5 178q39.5 106 39.5 259q0 154 -39 259.5q-39 105.5 -119 179.5l12 14q121 -86 186 -207q65 -122 65 -246q0 -63 -16.5 -125q-16.5 -62 -48.5 -120q-32 -58 -79 -110.5q-47 -52.5 -107 -96.5z" />
<glyph unicode="&#42;" horiz-adv-x="447" d="M191 639q-5 17 -5 29q0 20 10.5 32.5q10.5 12.5 28.5 12.5q17 0 27 -13q10 -13 10 -34q0 -14 -4 -27l-25 -84l16 -10l60 63q11 11 25 18.5q14 7.5 28 7.5q17 0 25 -9.5q8 -9.5 8 -18.5q-1 -21 -15 -34.5q-14 -13.5 -38 -19.5l-85 -21v-18l85 -21q26 -7 39.5 -21.5q13.5 -14.5 13.5 -32.5q0 -30 -37 -30q-13 0 -26 8.5q-13 8.5 -23 18.5l-60 63l-16 -8l25 -84q4 -13 4 -28q0 -20 -9 -34q-9 -14 -27 -14q-20 0 -30 13q-10 13 -10 33q0 12 5 30l25 84l-16 8l-60 -63q-13 -14 -24.5 -21q-11.5 -7 -25.5 -6q-36 0 -36 28q0 19 12 33.5q12 14.5 41 22.5l85 21v18l-85 21q-25 6 -39 19.5q-14 13.5 -14 34.5q0 9 7 17q7 8 21 11l18 0q18 -4 40 -26l60 -63l16 10z" />
<glyph unicode="&#43;" horiz-adv-x="714" d="M331 74v264h-265v52h265v264h52v-264h265v-52h-265l0 -264z" />
<glyph unicode="&#44;" horiz-adv-x="308" d="M79 -150q51 14 78.5 48q27.5 34 27.5 74q0 9 -2 17.5q-2 8.5 -4 15.5q-18 -13 -38 -13q-27 1 -41.5 16q-14.5 15 -13.5 39q0 24 19 41q19 17 47 17q34 0 55.5 -28q21.5 -28 21.5 -77q0 -60 -37.5 -104.5q-37.5 -44.5 -107.5 -63.5z" />
<glyph unicode="&#45;" horiz-adv-x="422" d="M356 277v-66h-290l0 66z" />
<glyph unicode="&#46;" horiz-adv-x="274" d="M79 47q0 23 17 40.5q17 17.5 41 17.5q23 0 40 -17.5q17 -17.5 18 -40.5q0 -24 -17.5 -40.5q-17.5 -16.5 -40.5 -16.5q-24 0 -41 16.5t-17 40.5z" />
<glyph unicode="&#47;" horiz-adv-x="429" d="M0 -177l380 899l49 -21l-380 -899z" />
<glyph unicode="&#48;" horiz-adv-x="500" d="M254 -8q-95 0 -156 97q-61 97 -61 261q0 162 60 260q61 99 154 99q90 0 152 -98q61 -97 61 -261q-2 -164 -60 -261q-58 -97 -150 -97zt0 0zM251 23q60 -1 86.5 80q26.5 81 27.5 247q0 165 -27 245.5q-27 80.5 -87 81.5q-63 0 -91.5 -81q-28.5 -81 -27.5 -246q0 -166 28 -247t91 -80z" />
<glyph unicode="&#49;" horiz-adv-x="500" d="M305 709v-624q-1 -39 19.5 -56q20.5 -17 65.5 -17h17v-12h-289v12h17q43 -1 63.5 16.5q20.5 17.5 21.5 56.5l0 483q-1 55 -39 55q-3 0 -5 0q-1 0 -5.5 -1.5q-4.5 -1.5 -12.5 -5q-8 -3.5 -23 -10.5l-8 15z" />
<glyph unicode="&#50;" horiz-adv-x="500" d="M357 78q37 -1 60.5 12q23.5 13 39.5 42l11 -5l-48 -127h-388l126 140q58 65 96 115q38 50 55 86q36 73 36 141q0 65 -41 109q-40 43 -102 43q-45 0 -83.5 -29.5q-38.5 -29.5 -54.5 -84.5l-16 4q13 82 62.5 133q49.5 51 124.5 52q88 0 142 -54q54 -53 56 -143q0 -83 -48 -164q-49 -82 -174 -203l-69 -67z" />
<glyph unicode="&#51;" horiz-adv-x="500" d="M83 561q15 66 57.5 107q42.5 41 108.5 41q68 0 114 -40q47 -41 47 -103q0 -45 -24.5 -84.5q-24.5 -39.5 -69.5 -73.5q60 -16 92 -68q32 -52 32 -119q0 -48 -21.5 -89.5q-21.5 -41.5 -67.5 -78.5q-42 -33 -79 -46.5q-37 -13.5 -73 -13.5q-66 0 -102.5 14q-36.5 14 -36.5 37q-1 18 11 32q12 14 32 14q11 0 22 -4.5q11 -4.5 27 -17.5q24 -21 39.5 -26q15.5 -5 34.5 -5q29 0 54 9.5q25 9.5 44 27.5q19 18 29.5 43.5q10.5 25.5 10.5 57.5q0 74 -48 125q-46 52 -122 52h-19v11q66 12 110 55q45 43 45 103q0 52 -29.5 83.5q-29.5 31.5 -80.5 31.5q-42 -1 -72.5 -22.5q-30.5 -21.5 -47.5 -58.5z" />
<glyph unicode="&#52;" horiz-adv-x="500" d="M25 271l305 438h53v-448h92v-72h-92v-189h-85v189h-273zM298 261v331l-230 -331z" />
<glyph unicode="&#53;" horiz-adv-x="500" d="M202 700h243l-38 -84h-208l-45 -100q131 -17 208 -88q78 -72 78 -185q0 -72 -44 -140q-43 -67 -121 -96q-23 -7 -47.5 -11q-24.5 -4 -65.5 -4q-51 0 -79 14.5q-28 14.5 -28 42.5q0 18 12.5 29.5q12.5 11.5 30.5 11.5q22 0 50 -22q22 -19 38.5 -25q16.5 -6 37.5 -6q62 0 104 46q42 46 42 115q-2 88 -78 159q-78 72 -211 79z" />
<glyph unicode="&#54;" horiz-adv-x="500" d="M454 723q-121 -24 -197.5 -108.5q-76.5 -84.5 -104.5 -225.5q37 27 66.5 39q29.5 12 60.5 12q75 0 126 -56q51 -54 53 -153q0 -104 -58 -171q-57 -68 -148 -68q-97 0 -153.5 76q-56.5 76 -56.5 215q-1 184 109 310q111 124 299 150zM146 352q-3 -20 -4 -39.5q-1 -19.5 -1 -54.5q-1 -114 34 -171.5q35 -57.5 90 -57.5q48 0 76 38.5q28 38.5 28 116.5q0 45 -8.5 83q-8.5 38 -24.5 66q-16 28 -39 43.5q-23 15.5 -52 15.5q-26 0 -52.5 -11t-46.5 -29z" />
<glyph unicode="&#55;" horiz-adv-x="500" d="M178 610q-49 -1 -77.5 -20.5q-28.5 -19.5 -45.5 -64.5l-15 7l64 168h355l-245 -700h-59l214 610z" />
<glyph unicode="&#56;" horiz-adv-x="500" d="M200 351q-34 25 -58 48q-24 23 -39 46q-15 23 -22 47.5q-7 24.5 -7 53.5q0 38 13 68q13 30 36.5 51q23.5 21 56 32.5q32.5 11.5 71.5 11.5q76 0 126 -44q50 -44 50 -113q0 -54 -33.5 -93q-33.5 -39 -97.5 -76q88 -77 117 -123q28 -46 28 -98q0 -75 -50 -122.5q-50 -47.5 -149 -47.5q-83 0 -132 46q-50 47 -50 118q-1 57 33.5 102q34.5 45 106.5 93zt0 0zM273 402q43 25 65.5 63.5q22.5 38.5 22.5 92.5q-1 61 -31.5 92.5q-30.5 31.5 -78.5 31.5q-45 0 -73 -31.5q-28 -31.5 -28 -76.5q0 -39 24 -75q23 -35 99 -97zt0 0zM222 331q-42 -33 -66 -79.5q-24 -46.5 -24 -98.5q-1 -58 33 -94.5q34 -36.5 89 -36.5q51 -1 80.5 28.5q29.5 29.5 30.5 77.5q0 41 -25 78q-13 19 -42 50t-76 75z" />
<glyph unicode="&#57;" horiz-adv-x="500" d="M46 -22q120 22 196.5 106.5q76.5 84.5 105.5 226.5q-38 -28 -67.5 -39.5q-29.5 -11.5 -59.5 -11.5q-76 0 -128 55q-51 55 -51 154q0 103 56 171q57 69 150 69q93 0 151 -79q59 -80 59 -223q0 -180 -110 -302q-109 -121 -298 -147zM354 348q2 19 3.5 38.5q1.5 19.5 1.5 55.5q0 114 -35 171.5q-35 57.5 -89 57.5q-54 -1 -78.5 -39q-24.5 -38 -24.5 -105q-1 -102 32 -161q33 -59 91 -58q26 0 52 10t47 30z" />
<glyph unicode="&#58;" horiz-adv-x="274" d="M79 47q0 23 17 40.5q17 17.5 41 17.5q23 0 40 -17.5q17 -17.5 18 -40.5q0 -24 -17.5 -40.5q-17.5 -16.5 -40.5 -16.5q-24 0 -41 16.5q-17 16.5 -17 40.5zt0 0zM79 440q0 23 17 40.5q17 17.5 41 17.5q23 -1 40 -18q17 -17 18 -40q-1 -24 -18 -41q-17 -17 -40 -17q-24 0 -41 17t-17 41z" />
<glyph unicode="&#59;" horiz-adv-x="308" d="M96 440q0 23 17 40.5q17 17.5 41 17.5q23 -1 40.5 -18q17.5 -17 17.5 -40q0 -24 -17.5 -41q-17.5 -17 -40.5 -17q-24 0 -41 17q-17 17 -17 41zt0 0zM79 -150q45 12 75.5 44.5q30.5 32.5 30.5 77.5q0 9 -2 17.5q-2 8.5 -4 15.5q-17 -13 -38 -13q-27 1 -41.5 16q-14.5 15 -13.5 39q0 24 19 41q19 17 47 17q34 0 55.5 -28q21.5 -28 21.5 -77q0 -60 -37.5 -104.5q-37.5 -44.5 -107.5 -63.5z" />
<glyph unicode="&#60;" horiz-adv-x="634" d="M534 673l25 -42l-417 -267l417 -267l-25 -42l-481 309z" />
<glyph unicode="&#61;" horiz-adv-x="714" d="M53 304h608v-52h-608zM53 475h608v-52l-608 0z" />
<glyph unicode="&#62;" horiz-adv-x="634" d="M100 55l-25 42l417 267l-417 267l25 42l481 -309z" />
<glyph unicode="&#63;" horiz-adv-x="448" d="M193 190q-3 44 6 82q9 37 45 102q35 64 45 94q10 30 10 67q0 69 -27.5 106.5q-27.5 37.5 -69.5 37.5q-35 0 -58.5 -20.5q-23.5 -20.5 -23.5 -44.5q0 -10 3 -18q3 -8 14 -21q8 -11 11.5 -20q3.5 -9 3.5 -20q0 -17 -13.5 -29.5q-13.5 -12.5 -29.5 -11.5q-26 0 -41 23q-15 23 -15 58q0 50 49 92q49 42 129 42q73 0 118 -48q46 -47 46 -122q0 -42 -18 -78q-17 -35 -75 -94q-61 -62 -78 -98q-16 -36 -15 -79zM146 47q0 23 17 40.5q17 17.5 41 17.5q23 0 40.5 -17.5q17.5 -17.5 17.5 -40.5q0 -24 -17.5 -40.5q-17.5 -16.5 -40.5 -16.5q-24 0 -41 16.5t-17 40.5z" />
<glyph unicode="&#64;" horiz-adv-x="816" d="M617 545l-78 -272q-6 -23 -6 -39q0 -46 51 -46q59 0 98 62q39 61 41 149q-2 122 -86 196q-86 75 -210 75q-141 0 -233 -98q-90 -98 -90 -240q0 -132 85 -217q85 -85 217 -85q55 0 99 8.5q44 8.5 86 25.5l12 -37q-23 -9 -45 -16q-22 -7 -45 -11q-23 -4 -49.5 -6q-26.5 -2 -57.5 -2q-163 0 -258 101q-95 101 -95 239q0 153 104 265q105 112 269 112q144 0 240 -84q97 -84 97 -226q0 -107 -54 -179q-54 -73 -137 -71q-46 0 -70.5 21.5q-24.5 21.5 -33.5 78.5l-3 0q-40 -45 -80 -69.5q-40 -24.5 -88 -24.5q-46 0 -71 36.5q-25 36.5 -25 102.5q0 92 79 175q79 85 171 85q29 0 48.5 -9q19.5 -9 33.5 -30l3 0l8 30zM342 216q67 0 120 80q52 79 54 151q0 34 -16.5 53.5q-16.5 19.5 -47.5 20.5q-60 0 -115 -69q-55 -68 -55 -144q0 -45 15.5 -68.5t44.5 -23.5z" />
<glyph unicode="&#65;" horiz-adv-x="683" d="M-19 13q27 4 47.5 25q20.5 21 42.5 70l266 601h9l267 -601q25 -58 44 -75q17 -15 59 -20l0 -13h-280v13q39 6 54.5 15.5q15.5 9.5 15.5 28.5q0 19 -7 38l-58 134h-264l-57 -133q-10 -23 -11 -28.5q-1 -5.5 -1 -9.5q-1 -21 19.5 -33q20.5 -12 52.5 -12l0 -13h-199zM196 272h227l-114 261z" />
<glyph unicode="&#66;" horiz-adv-x="673" d="M337 700q146 -2 202 -46q57 -45 57 -129q0 -62 -36.5 -106q-36.5 -44 -99.5 -52l0 -6q38 -3 69 -17q31 -14 52.5 -36q21.5 -22 33.5 -51.5q12 -29.5 12 -62.5q-2 -89 -69 -141q-68 -53 -180 -53h-332v13h17q40 -1 61.5 15q21.5 16 22.5 56l0 532q0 39 -22 55q-22 16 -62 16h-17v13zM258 52q21 -7 41.5 -9.5q20.5 -2.5 42.5 -2.5q36 0 67 10.5q31 10.5 53.5 30q22.5 19.5 35 47.5q12.5 28 12.5 64q0 33 -13 61.5q-13 28.5 -38 49q-25 20.5 -61.5 32.5q-36.5 12 -83.5 12q-11 0 -25.5 -1q-14.5 -1 -30.5 -2zM258 387q34 -6 62 -6q78 0 121 40q43 40 43 112q0 27 -12 50.5q-12 23.5 -33.5 40.5q-21.5 17 -52 26.5q-30.5 9.5 -67.5 9.5q-10 0 -25 -1q-15 -1 -36 -3z" />
<glyph unicode="&#67;" horiz-adv-x="732" d="M679 481l-13 -2q-14 62 -40.5 96q-26.5 34 -58.5 54q-64 40 -133 40q-24 0 -50.5 -4.5q-26.5 -4.5 -53.5 -16.5q-27 -12 -53 -33q-26 -21 -48 -54q-30 -46 -42 -96.5q-12 -50.5 -12 -107.5q0 -81 19.5 -132.5q19.5 -51.5 43.5 -83.5q43 -57 98 -77.5q55 -20.5 108 -20.5q29 0 66.5 8q37.5 8 79.5 34q24 15 49 36.5q25 21.5 46 47.5l21 -20q-21 -28 -37.5 -45q-16.5 -17 -39 -36.5q-22.5 -19.5 -49.5 -35.5q-40 -23 -82 -32q-42 -9 -89 -9q-20 0 -48.5 3q-28.5 3 -62 13.5q-33.5 10.5 -69.5 30.5q-36 20 -70 54q-43 43 -74.5 109.5q-31.5 66.5 -31.5 152.5q0 78 29 146q29 68 86 119q45 40 107.5 65q62.5 25 149.5 25q35 0 70.5 -6.5q35.5 -6.5 83.5 -23.5q17 -6 26 -9q9 -3 17 -3q20 0 26.5 13.5q6.5 13.5 7.5 23.5l12 0z" />
<glyph unicode="&#68;" horiz-adv-x="823" d="M358 700q211 0 317 -97q108 -98 108 -252q0 -160 -111 -256q-110 -95 -275 -95h-351v13h17q40 -1 61.5 15q21.5 16 22.5 56l0 532q0 39 -22 55q-22 16 -62 16h-17v13zM258 52q22 -8 45 -11q23 -3 53 -3q139 0 222 81q83 83 83 236q0 146 -84 226q-84 81 -218 81q-54 -2 -101 -13z" />
<glyph unicode="&#69;" horiz-adv-x="666" d="M588 555l-15 -2q-10 51 -37.5 75.5q-27.5 24.5 -84.5 24.5h-193v-262h180q42 0 59 24q17 24 19 76l13 0v-243h-13q-2 51 -19 75q-17 24 -59 25l-180 0v-301h193q74 0 114 28q41 29 69 103l12 -3l-51 -175h-549v13h17q40 -1 61.5 15q21.5 16 22.5 56l0 532q0 39 -22 55q-22 16 -62 16h-17v13l533 0z" />
<glyph unicode="&#70;" horiz-adv-x="644" d="M637 544h-13q-11 57 -44 83q-33 26 -97 26h-225v-267h184q49 0 68.5 22q19.5 22 22.5 78l13 0v-243h-13q-3 55 -22.5 77q-19.5 22 -68.5 23l-184 0v-259q0 -40 21 -55.5q21 -15.5 63 -15.5h17v-13h-313v13h17q40 -1 61.5 15q21.5 16 22.5 56l0 532q0 39 -22 55q-22 16 -62 16h-17v13l578 0z" />
<glyph unicode="&#71;" horiz-adv-x="838" d="M713 496h-13q-16 43 -42 76q-26 33 -58 54q-35 23 -76 34q-41 11 -78 11q-60 0 -108.5 -23.5q-48.5 -23.5 -83.5 -60.5q-24 -26 -39.5 -55q-15.5 -29 -24.5 -58q-9 -29 -12 -58q-3 -29 -3 -56q0 -74 19 -128.5q19 -54.5 47 -92.5q33 -44 86 -75q53 -31 131 -31q45 0 81 11q36 11 71 39l0 209q0 8 -1 20q-1 12 -8.5 23.5q-7.5 11.5 -25 19.5q-17.5 8 -49.5 8h-7v13h293v-13h-7q-32 0 -49.5 -8q-17.5 -8 -25 -19.5q-7.5 -11.5 -8.5 -23.5q-1 -12 -1 -20v-223q-73 -45 -144.5 -61.5q-71.5 -16.5 -134.5 -16.5q-49 0 -88.5 7q-39.5 7 -70.5 17.5q-31 10.5 -53 22.5q-22 12 -37 23q-30 21 -55.5 49.5q-25.5 28.5 -44 63.5q-18.5 35 -29.5 77q-11 42 -11 89q0 88 32 156q32 68 80 113q19 18 45.5 36q26.5 18 61 32q34.5 14 78 23q43.5 9 96.5 9q22 0 41 -2q19 -2 38 -6q19 -4 39 -10.5q20 -6.5 43 -15.5q12 -5 22.5 -8.5q10.5 -3.5 20.5 -3.5q18 0 26.5 13.5q8.5 13.5 10.5 28.5l13 0z" />
<glyph unicode="&#72;" horiz-adv-x="824" d="M579 387v229q0 39 -22 55q-22 16 -62 16h-17v13h313v-13h-17q-42 0 -63 -16q-21 -16 -21 -55v-532q0 -40 21 -55.5q21 -15.5 63 -15.5h17v-13h-313v13h17q40 -1 61.5 15q21.5 16 22.5 56l0 256h-321v-256q0 -40 21 -55.5q21 -15.5 63 -15.5h17v-13h-313v13h17q40 -1 61.5 15q21.5 16 22.5 56l0 532q0 39 -22 55q-22 16 -62 16h-17v13h313v-13h-17q-42 0 -63.5 -16q-21.5 -16 -20.5 -55l0 -229z" />
<glyph unicode="&#73;" horiz-adv-x="392" d="M359 700v-13h-17q-42 0 -63.5 -16q-21.5 -16 -20.5 -55l0 -532q0 -40 21 -55.5q21 -15.5 63 -15.5h17v-13h-313v13h17q40 -1 61.5 15q21.5 16 22.5 56l0 532q0 39 -22 55q-22 16 -62 16h-17l0 13z" />
<glyph unicode="&#74;" horiz-adv-x="416" d="M404 700v-13h-17q-42 0 -63.5 -16q-21.5 -16 -20.5 -55l0 -391q0 -54 -13 -97q-13 -43 -37 -73q-24 -30 -58.5 -46.5q-34.5 -16.5 -76.5 -16.5q-50 0 -80.5 23q-30.5 23 -29.5 53q0 22 13.5 35.5q13.5 13.5 36.5 13.5q18 0 31 -9q13 -9 24 -26q26 -44 32 -47q8 -2 14 -2q17 0 24.5 18.5q7.5 18.5 8.5 60.5l0 504q-1 39 -22.5 55q-21.5 16 -61.5 16h-17l0 13z" />
<glyph unicode="&#75;" horiz-adv-x="766" d="M708 700v-13q-20 -2 -36.5 -6q-16.5 -4 -29.5 -11q-27 -13 -58 -45q-7 -7 -13.5 -14q-6.5 -7 -14.5 -15q-7 -8 -20.5 -22.5q-13.5 -14.5 -33.5 -36.5q-8 -9 -15 -16.5q-7 -7.5 -14 -14.5q-12 -14 -58 -61l-49 -51l231 -252q66 -73 107 -100q39 -24 82 -29l0 -13h-313v13q33 0 46 7.5q13 7.5 13 22.5q-1 6 -4.5 13.5q-3.5 7.5 -19.5 26.5l-250 280v-279q0 -40 21 -55.5q21 -15.5 63 -15.5h17v-13h-313v13h17q40 -1 61.5 15q21.5 16 22.5 56l0 532q0 39 -22 55q-22 16 -62 16h-17v13h313v-13h-17q-42 0 -63.5 -16q-21.5 -16 -20.5 -55l0 -252q31 25 71 64q40 39 91 93q101 109 101 138q0 13 -11 20q-11 7 -43 8l0 13z" />
<glyph unicode="&#76;" horiz-adv-x="639" d="M451 47q74 0 114 28q41 29 69 103l12 -3l-51 -175h-549v13h17q40 -1 61.5 15q21.5 16 22.5 56l0 532q0 39 -22 55q-22 16 -62 16h-17v13h313v-13h-17q-42 0 -63.5 -16q-21.5 -16 -20.5 -55l0 -569z" />
<glyph unicode="&#77;" horiz-adv-x="974" d="M494 175l236 525h211v-13h-17q-42 0 -63.5 -16q-21.5 -16 -20.5 -55l0 -532q0 -40 21 -55.5q21 -15.5 63 -15.5h17v-13h-313v13h17q40 -1 61.5 15q21.5 16 22.5 56l0 506l-265 -590h-9l-263 592v-508q0 -40 21 -55.5q21 -15.5 63 -15.5h17v-13h-247v13h17q40 -1 61.5 15q21.5 16 22.5 56l0 532q0 39 -22 55q-22 16 -62 16h-17v13l211 0z" />
<glyph unicode="&#78;" horiz-adv-x="831" d="M659 189v427q0 39 -22 55q-22 16 -62 16h-17v13h247v-13h-17q-42 0 -63.5 -16q-21.5 -16 -20.5 -55l0 -624h-14l-491 569v-477q-1 -40 20.5 -55.5q21.5 -15.5 63.5 -15.5h17v-13h-246v13h16q40 -1 61.5 15q21.5 16 22.5 56l0 531q-29 35 -62 53.5q-33 18.5 -72 18.5l0 13l204 0z" />
<glyph unicode="&#79;" horiz-adv-x="764" d="M380 -8q-144 2 -235 104q-92 105 -91 257q0 158 101 256q101 98 244 100q142 0 234 -104q92 -104 92 -258q0 -154 -97 -254q-98 -101 -248 -101zt0 0zM385 31q101 0 159 88q59 89 59 227q0 151 -60 237q-59 86 -149 86q-89 -2 -153 -82q-65 -80 -65 -233q0 -146 56 -235q57 -88 153 -88z" />
<glyph unicode="&#80;" horiz-adv-x="625" d="M326 700q279 0 279 -186q0 -94 -67 -148q-66 -54 -171 -54q-8 0 -16.5 0.5q-8.5 0.5 -16.5 1.5q-8 2 -27.5 6q-19.5 4 -48.5 11l0 -247q0 -40 21 -55.5q21 -15.5 63 -15.5h17v-13h-313v13h17q40 -1 61.5 15q21.5 16 22.5 56l0 532q0 39 -22 55q-22 16 -62 16h-17v13zM258 367q19 -7 40 -10q21 -3 42 -3q63 0 102.5 39q39.5 39 40.5 109q-1 76 -43 115.5q-42 39.5 -120 40.5q-18 0 -29 -0.5q-11 -0.5 -16 -1.5q-5 -1 -9 -1q-4 0 -8 -1z" />
<glyph unicode="&#81;" horiz-adv-x="764" d="M709 -176q-119 -2 -234 48q-114 47 -178 128q-116 31 -180 129q-64 98 -64 224q0 161 100 258q101 98 245 98q134 0 230 -102q96 -101 96 -260q0 -131 -72 -225q-71 -93 -181 -122q38 -73 101.5 -116.5q63.5 -43.5 136.5 -46.5zM384 31q100 0 158 88q60 88 60 227q0 152 -61 237q-60 86 -148 86q-98 0 -158 -89q-60 -89 -60 -226q0 -153 60 -238t149 -85z" />
<glyph unicode="&#82;" horiz-adv-x="726" d="M364 700q118 -1 177.5 -43.5q59.5 -42.5 59.5 -133.5q0 -35 -12 -65.5q-12 -30.5 -33.5 -54.5q-21.5 -24 -52.5 -40q-31 -16 -69 -22l191 -247q17 -23 31.5 -38q14.5 -15 29.5 -24.5q15 -9.5 31 -14q16 -4.5 35 -4.5l0 -13h-192l-241 330h-61v-246q0 -40 21 -55.5q21 -15.5 63 -15.5h17v-13h-313v13h17q40 -1 61.5 15q21.5 16 22.5 56l0 532q0 39 -22 55q-22 16 -62 16h-17v13zM258 371q7 -1 15 -1q8 0 29 0q85 0 134.5 40.5q49.5 40.5 50.5 110.5q0 61 -43 103q-42 42 -116 42q-36 0 -70 -10z" />
<glyph unicode="&#83;" horiz-adv-x="567" d="M469 484h-13q-2 49 -20.5 82q-18.5 33 -39.5 53q-25 24 -56 37q-31 13 -63 13q-20 0 -40 -6q-20 -6 -36 -18q-21 -16 -29 -35.5q-8 -19.5 -8 -36.5q0 -24 10.5 -44.5q10.5 -20.5 27.5 -37.5q17 -17 38.5 -31q21.5 -14 43.5 -27l65 -38q56 -32 83 -55.5q27 -23.5 41 -40.5q23 -29 32 -59.5q9 -30.5 9 -59.5q0 -48 -21.5 -84.5q-21.5 -36.5 -52.5 -59.5q-27 -20 -64.5 -32.5q-37.5 -12.5 -85.5 -12.5q-31 0 -54 5.5q-23 5.5 -46 13.5q-15 5 -31.5 10q-16.5 5 -32.5 5q-3 0 -8.5 -1q-5.5 -1 -11.5 -4.5q-6 -3.5 -11.5 -10q-5.5 -6.5 -7.5 -18.5l-13 0v236h14q6 -35 22.5 -72.5q16.5 -37.5 43.5 -65.5q32 -33 66.5 -44q34.5 -11 61.5 -11q50 0 84 22q17 12 31 32.5q14 20.5 14 52.5q0 26 -9 48q-9 22 -24 40q-15 18 -33.5 32.5q-18.5 14.5 -36.5 25.5l-59 35q-35 20 -65 38q-30 18 -59 48q-26 26 -39 56q-13 30 -13 68q0 42 17 76q17 34 44 57q22 18 55 31q33 13 78 13q29 0 55.5 -5.5q26.5 -5.5 49.5 -13.5q11 -4 23.5 -9q12.5 -5 23.5 -5q11 0 23 8q12 8 16 25l11 0z" />
<glyph unicode="&#84;" horiz-adv-x="653" d="M624 700l9 -158h-14q-3 52 -34.5 81.5q-31.5 29.5 -91.5 29.5h-111v-569q0 -40 21 -55.5q21 -15.5 63 -15.5h17v-13h-313v13h17q40 -1 62 15q22 16 22 56v569h-111q-60 -1 -92 -30q-32 -29 -34 -81l-14 0l9 158z" />
<glyph unicode="&#85;" horiz-adv-x="823" d="M353 700v-13h-17q-42 0 -63.5 -16q-21.5 -16 -20.5 -55l0 -369q0 -113 52 -161q52 -48 150 -48q94 0 148.5 53.5q54.5 53.5 54.5 165.5v359q0 39 -22 55q-22 16 -62 16h-17v13h247v-13h-17q-42 0 -63 -16q-21 -16 -21 -55v-378q0 -62 -18 -108q-18 -46 -52 -77q-34 -31 -81.5 -46q-47.5 -15 -107.5 -15q-149 0 -226 65.5q-77 65.5 -76 191.5l0 367q0 39 -22 55q-22 16 -62 16h-17l0 13z" />
<glyph unicode="&#86;" horiz-adv-x="643" d="M266 700v-13q-80 0 -78 -30q0 -9 2.5 -20q2.5 -11 8.5 -23l191 -444l172 432q4 11 6.5 21.5q2.5 10.5 2.5 20.5q0 25 -17 34.5q-17 9.5 -51 8.5l0 13h200v-13q-29 -2 -51.5 -23q-22.5 -21 -45.5 -78l-238 -594h-12l-261 594q-28 63 -52 82q-24 20 -62 19l0 13z" />
<glyph unicode="&#87;" horiz-adv-x="893" d="M242 700v-13q-82 -6 -59 -61l159 -416l115 307l-35 89q-18 45 -40.5 63.5q-22.5 18.5 -51.5 17.5l0 13h267v-13q-33 0 -51.5 -12q-18.5 -12 -18.5 -32q0 -8 2 -18q2 -10 8 -24l150 -393l134 390q3 11 6.5 25q3.5 14 3.5 24q0 20 -19 30.5q-19 10.5 -50 9.5l0 13h191v-13q-15 -2 -26.5 -6.5q-11.5 -4.5 -22 -15.5q-10.5 -11 -20 -29.5q-9.5 -18.5 -18.5 -48.5l-200 -595h-9l-174 453l-168 -453h-10l-243 633q-15 37 -33.5 50q-18.5 13 -47.5 12l0 13z" />
<glyph unicode="&#88;" horiz-adv-x="671" d="M294 700v-13q-38 -1 -53.5 -8.5q-15.5 -7.5 -15.5 -24.5q-1 -14 13 -35l122 -189l133 174q22 28 22 50q0 16 -16.5 24.5q-16.5 8.5 -46.5 8.5l0 13h215v-13q-35 -4 -61 -22q-25 -17 -59 -63l-161 -212l181 -279q29 -46 61 -70.5q32 -24.5 63 -27.5l0 -13h-286v13q24 1 37.5 3q13.5 2 20.5 5.5q7 3.5 9 8q2 4.5 2 10.5q-1 9 -4.5 20q-3.5 11 -8.5 20l-145 221l-175 -229q-5 -7 -8 -15q-3 -8 -3 -14q0 -15 15 -22.5q15 -7.5 50 -7.5l0 -13h-214v13q26 1 48 14q23 14 60 61l203 255l-168 252q-30 45 -63 66.5q-33 21.5 -73 25.5l0 13z" />
<glyph unicode="&#89;" horiz-adv-x="648" d="M273 700v-13h-12q-27 0 -42.5 -8.5q-15.5 -8.5 -15.5 -23.5q-1 -9 3.5 -18.5q4.5 -9.5 13.5 -23.5l159 -257l163 269q4 7 7 15.5q3 8.5 3 15.5q0 13 -14 21.5q-14 8.5 -39 9.5l-14 0v13h223v-13q-78 -10 -132 -100l-177 -292v-211q0 -40 21 -55.5q21 -15.5 63 -15.5h17v-13h-313v13h17q40 -1 61.5 15q21.5 16 22.5 56l0 211l-198 318q-26 42 -51.5 57.5q-25.5 15.5 -57.5 16.5l0 13z" />
<glyph unicode="&#90;" horiz-adv-x="679" d="M640 700l-451 -653h284q70 -1 108.5 29.5q38.5 30.5 58.5 104.5l13 0l-36 -181h-591l456 653h-226q-77 -2 -106 -25q-30 -23 -42 -96l-13 0l13 168z" />
<glyph unicode="&#91;" horiz-adv-x="352" d="M299 700v-26h-105v-825h105v-26h-193l0 877z" />
<glyph unicode="&#92;" horiz-adv-x="429" d="M0 701l49 21l380 -899l-49 -21z" />
<glyph unicode="&#93;" horiz-adv-x="352" d="M246 -177h-193v26h105v825h-105v26l193 0z" />
<glyph unicode="&#94;" horiz-adv-x="498" d="M445 445h-52l-144 194l-144 -194h-52l196 264z" />
<glyph unicode="&#95;" horiz-adv-x="548" d="M0 -139h548v-45l-548 0z" />
<glyph unicode="&#96;" horiz-adv-x="297" d="M181 519l-115 115q-5 5 -10 16q-5 11 -5 25q0 17 16 28.5q16 11.5 37 11.5q32 -2 46 -41l56 -155z" />
<glyph unicode="&#97;" horiz-adv-x="467" d="M467 66q-33 -40 -59.5 -57q-26.5 -17 -53.5 -17q-29 0 -44 24q-15 24 -13 58q-38 -38 -80 -60q-42 -22 -80 -22q-51 0 -77.5 32q-26.5 32 -26.5 80q0 55 44 99q42 42 220 103l0 62q-1 39 -22.5 63.5q-21.5 24.5 -66.5 24.5q-36 0 -55.5 -18q-19.5 -18 -19.5 -43q0 -6 1 -16q1 -10 1 -15q-1 -41 -43 -41q-19 -1 -29 12q-10 13 -10 35q0 52 53 85q54 33 120 33q73 -1 114 -30q41 -29 42 -95l0 -283q0 -29 26 -29q12 0 25.5 7q13.5 7 23.5 18zM297 276q-106 -37 -145 -71q-37 -33 -37 -80q0 -37 21.5 -58q21.5 -21 56.5 -21q40 -1 104 52z" />
<glyph unicode="&#98;" horiz-adv-x="508" d="M147 713v-319q27 45 64 69.5q37 24.5 79 24.5q80 -2 132 -67q53 -67 53 -165q0 -123 -75 -193q-74 -71 -169 -71q-48 0 -88.5 16q-40.5 16 -80.5 48l0 518q0 38 -9.5 54.5q-9.5 16.5 -28.5 16.5q-8 0 -16 -2q-8 -2 -16 -4l-4 13zM147 84q17 -27 46.5 -42.5q29.5 -15.5 58.5 -15.5q56 0 96 58q42 58 42 145q0 86 -40 136q-41 51 -97 51q-32 0 -60 -16.5q-28 -16.5 -46 -47.5z" />
<glyph unicode="&#99;" horiz-adv-x="470" d="M437 175q-24 -96 -75.5 -139.5q-51.5 -43.5 -123.5 -43.5q-89 2 -147 68q-58 67 -58 178q0 104 64 177q64 73 162 73q62 0 109 -30q47 -29 47 -74q0 -23 -12 -36.5q-12 -13.5 -32 -13.5q-23 0 -35.5 12q-12.5 12 -16.5 40q-8 43 -25.5 56.5q-17.5 13.5 -46.5 13.5q-30 0 -54 -14q-24 -14 -40.5 -39q-16.5 -25 -25.5 -59.5q-9 -34.5 -9 -74.5q0 -44 10.5 -80q10.5 -36 30.5 -62q20 -26 49 -40.5q29 -14.5 66 -14.5q51 0 90 30.5q39 30.5 54 78.5z" />
<glyph unicode="&#100;" horiz-adv-x="533" d="M451 713v-582q0 -39 9 -56q9 -17 31 -16q13 0 31 8l4 -12l-160 -62v70q-32 -34 -71.5 -52.5q-39.5 -18.5 -81.5 -18.5q-84 0 -132 72q-48 73 -48 168q0 102 65 179q65 77 156 77q27 0 56 -9q29 -9 56 -27l0 122q0 38 -9.5 54q-9.5 16 -28.5 17q-8 0 -17 -2q-9 -2 -16 -4l-4 13zM366 355q0 20 -8.5 37.5q-8.5 17.5 -23.5 31q-15 13.5 -35 21.5q-20 8 -44 8q-57 0 -95 -56q-38 -57 -37 -140q0 -82 39 -140q40 -58 106 -58q27 0 52 10.5q25 10.5 46 33.5z" />
<glyph unicode="&#101;" horiz-adv-x="461" d="M106 299q-5 -102 39 -167q43 -64 118 -64q48 0 88.5 32.5q40.5 32.5 60.5 86.5l16 -6q-11 -42 -29.5 -76.5q-18.5 -34.5 -45 -59.5q-26.5 -25 -59 -39q-32.5 -14 -69.5 -14q-44 0 -79 17q-35 17 -60.5 49.5q-25.5 32.5 -39 78.5q-13.5 46 -13.5 103q0 106 56 177q57 71 148 71q77 0 127 -53q49 -52 48 -136zM308 331q1 25 -6.5 47q-7.5 22 -21 38q-13.5 16 -32 25q-18.5 9 -39.5 9q-45 0 -71 -34q-26 -34 -30 -85z" />
<glyph unicode="&#102;" horiz-adv-x="304" d="M27 443v36h76v33q0 88 50 144q51 57 130 57q54 0 91 -26q36 -26 36 -55q0 -17 -11.5 -28.5q-11.5 -11.5 -27.5 -10.5q-32 0 -52 33q-17 27 -31 38q-14 11 -35 11q-39 0 -52 -24q-13 -23 -13 -104v-68h96v-36h-96v-351q-1 -48 18 -63.5q19 -15.5 55 -15.5h10v-13h-251v13h10q35 -1 54 15q19 16 19 64l0 351z" />
<glyph unicode="&#103;" horiz-adv-x="464" d="M441 454l-4 -43h-80q12 -19 19.5 -39q7.5 -20 7.5 -40q-1 -72 -46.5 -114.5q-45.5 -42.5 -120.5 -42.5q-23 0 -38.5 2q-15.5 2 -29.5 8q-16 -12 -26 -26.5q-10 -14.5 -9 -25.5q-1 -12 8 -18q11 -6 64 -7q1 -1 5 -1q2 0 16 0q14 0 40 1q54 0 91.5 -6.5q37.5 -6.5 61 -20.5q23.5 -14 34 -36q10.5 -22 10.5 -54q-2 -76 -76 -122q-74 -48 -168 -48q-93 0 -145 29.5q-52 29.5 -52 71.5q0 16 10 35q10 18 82 82q-21 4 -34.5 20q-13.5 16 -13.5 35q0 19 18.5 45.5q18.5 26.5 56.5 56.5q-39 17 -61 50q-22 33 -22 79q-1 70 52 116q54 45 123 45q27 0 56 -9.5q29 -9.5 54 -25.5zM122 32q-23 -26 -31.5 -42.5q-8.5 -16.5 -8.5 -35.5q0 -33 39.5 -50q39.5 -17 103.5 -17q41 0 75.5 5.5q34.5 5.5 59.5 16.5q25 11 39 27.5q14 16.5 14 37.5q0 17 -7 27q-6 10 -284 31zt0 0zM223 205q35 0 55 21.5q20 21.5 21 70.5q0 73 -29 115.5q-29 42.5 -71 43.5q-32 -1 -53.5 -24.5q-21.5 -23.5 -21.5 -65.5q0 -64 26 -113q25 -48 73 -48z" />
<glyph unicode="&#104;" horiz-adv-x="550" d="M181 713v-330q48 55 85 80q37 25 77 25q55 0 89.5 -37.5q34.5 -37.5 34.5 -100.5v-258q-1 -48 18 -63.5q19 -15.5 55 -15.5h10v-13h-238v13h10q30 -1 45 15.5q15 16.5 15 63.5v242q0 92 -70 92q-33 0 -63.5 -15q-30.5 -15 -67.5 -53l0 -266q-1 -47 14 -63.5q15 -16.5 46 -15.5l10 0v-13h-238v13h10q35 -1 54 15q19 16 19 64v482q0 38 -9.5 54.5q-9.5 16.5 -28.5 16.5q-8 0 -17 -2q-9 -2 -16 -4l-4 13z" />
<glyph unicode="&#105;" horiz-adv-x="278" d="M188 92q-1 -48 18 -63.5q19 -15.5 55 -15.5h10v-13h-251v13h10q35 -1 54 15q19 16 19 64v260q0 38 -9.5 54.5q-9.5 16.5 -28.5 16.5q-8 0 -17 -2q-9 -2 -16 -4l-4 13l160 61zM88 647q-1 22 15 38q16 16 39 16q22 0 38 -16q16 -16 16 -38q0 -23 -16 -38.5q-16 -15.5 -38 -15.5q-23 0 -38.5 15.5t-15.5 38.5z" />
<glyph unicode="&#106;" horiz-adv-x="243" d="M176 40q0 -108 -49.5 -163q-49.5 -55 -133.5 -55q-37 0 -57.5 15q-20.5 15 -20.5 38q0 16 11 25.5q11 9.5 29 9.5q15 0 24.5 -4q9.5 -4 21.5 -19q14 -15 25 -21q11 -6 23 -6q20 0 31 26q11 27 11 141v325q0 38 -9.5 54.5q-9.5 16.5 -28.5 16.5q-8 -1 -17 -2.5q-9 -1.5 -16 -3.5l-4 13l160 61zM76 647q-1 22 15 38q16 16 39 16q22 -1 38 -16.5q16 -15.5 16 -37.5q0 -23 -16 -38.5q-16 -15.5 -38 -15.5q-23 0 -38.5 15.5t-15.5 38.5z" />
<glyph unicode="&#107;" horiz-adv-x="502" d="M181 713v-443h5l96 102q52 55 53 59q3 6 3 11q0 12 -10 17.5q-10 5.5 -39 6.5l0 13h194v-13q-32 -1 -61.5 -17q-29.5 -16 -57.5 -45l-108 -112l161 -212q27 -37 49 -50.5q22 -13.5 49 -16.5l0 -13h-210v13h13q8 0 15.5 4.5q7.5 4.5 7.5 12.5q0 7 -3 14.5q-3 7.5 -7 13.5l-145 197h-5v-163q-1 -47 14 -63.5q15 -16.5 46 -15.5l10 0v-13h-238v13h10q35 -1 54 15q19 16 19 64v482q0 38 -9.5 54.5q-9.5 16.5 -28.5 16.5q-8 0 -17 -2q-9 -2 -16 -4l-4 13z" />
<glyph unicode="&#108;" horiz-adv-x="271" d="M181 713v-621q-1 -48 18 -63.5q19 -15.5 55 -15.5h10v-13h-251v13h10q35 -1 54 15q19 16 19 64v482q0 38 -9.5 54.5q-9.5 16.5 -28.5 16.5q-8 0 -17 -2q-9 -2 -16 -4l-4 13z" />
<glyph unicode="&#109;" horiz-adv-x="839" d="M188 396q64 58 96 74q33 18 67 18q46 -1 78.5 -27.5q32.5 -26.5 38.5 -71.5q28 28 51.5 47q23.5 19 44 30.5q20.5 11.5 39.5 16.5q19 5 38 5q57 0 86 -36q29 -36 29 -111v-249q-1 -48 18 -63.5q19 -15.5 55 -15.5h10v-13h-238v13h10q30 -1 45 15.5q15 16.5 15 63.5v246q0 86 -69 88q-30 0 -64 -17q-34 -17 -66 -48l0 -269q0 -47 14.5 -63.5q14.5 -16.5 45.5 -15.5l10 0v-13h-225v13h10q30 -1 45 15.5q15 16.5 15 63.5v247q0 42 -19.5 64q-19.5 22 -52.5 23q-65 -2 -127 -64l0 -270q0 -47 14.5 -63.5q14.5 -16.5 45.5 -15.5l10 0v-13h-238v13h10q35 -1 54 15q19 16 19 64v260q0 38 -9.5 54.5q-9.5 16.5 -28.5 16.5q-8 0 -17 -2q-9 -2 -16 -4l-4 13l160 61z" />
<glyph unicode="&#110;" horiz-adv-x="557" d="M188 383q57 64 89 84q34 21 70 21q57 -1 92 -38.5q35 -37.5 35 -106.5v-251q-1 -48 18 -63.5q19 -15.5 55 -15.5h10v-13h-238v13h10q30 -1 45 15.5q15 16.5 15 63.5v242q0 48 -18 70q-18 22 -51 22q-33 0 -65 -16q-32 -16 -67 -52l0 -266q0 -47 14.5 -63.5q14.5 -16.5 45.5 -15.5l10 0v-13h-238v13h10q35 -1 54 15q19 16 19 64v260q0 38 -9.5 54.5q-9.5 16.5 -28.5 16.5q-8 0 -17 -2q-9 -2 -16 -4l-4 13l160 61z" />
<glyph unicode="&#111;" horiz-adv-x="534" d="M267 -8q-103 0 -169 68q-65 70 -65 179q0 104 67 175q67 73 170 74q101 -2 165 -71q64 -69 66 -177q0 -108 -67 -178q-66 -70 -167 -70zt0 0zM131 245q0 -90 44 -155q45 -64 108 -64q57 0 88.5 54q31.5 54 31.5 165q-2 79 -44 142q-44 65 -107 66q-57 0 -89 -51t-32 -157z" />
<glyph unicode="&#112;" horiz-adv-x="531" d="M168 397q71 91 155 91q71 -2 122 -63q51 -60 53 -175q-1 -106 -67 -182q-64 -76 -154 -76q-63 0 -109 33l0 -110q-1 -47 18 -62.5q19 -15.5 60 -16.5l19 0v-13h-265v13h10q35 0 53.5 16q18.5 16 19.5 63l0 437q0 38 -9.5 54.5q-9.5 16.5 -28.5 16.5q-8 0 -17 -2q-9 -2 -16 -4l-4 13l160 61zM168 125q0 -24 8.5 -42.5q8.5 -18.5 23.5 -31q15 -12.5 34.5 -19q19.5 -6.5 42.5 -6.5q53 -2 91 51q38 53 38 141q-1 93 -34.5 147.5q-33.5 54.5 -93.5 54.5q-32 0 -61.5 -17q-29.5 -17 -48.5 -46z" />
<glyph unicode="&#113;" horiz-adv-x="523" d="M454 -85q0 -47 18.5 -63q18.5 -16 54.5 -16h10v-13h-265v13h19q40 1 59 16.5q19 15.5 19 62.5v159q-29 -39 -69 -60.5q-40 -21.5 -78 -21.5q-84 0 -136 64q-52 64 -52 174q-1 99 65 179q67 79 161 79q29 0 60.5 -8.5q31.5 -8.5 59.5 -21.5l74 35zM369 348q0 51 -25 78q-25 27 -73 27q-35 0 -62 -14.5q-27 -14.5 -46.5 -40q-19.5 -25.5 -29.5 -61.5q-10 -36 -10 -78q0 -93 39 -144q39 -51 106 -51q30 0 54.5 10.5q24.5 10.5 46.5 36.5z" />
<glyph unicode="&#114;" horiz-adv-x="356" d="M188 401q22 40 54 63q32 23 62 24q27 0 46 -17q19 -17 19 -39q0 -20 -12.5 -33.5q-12.5 -13.5 -31.5 -13.5q-11 0 -20 3.5q-9 3.5 -23 19.5q-8 7 -14.5 10q-6.5 3 -14.5 3q-15 0 -32 -16q-17 -16 -33 -42l0 -271q-1 -48 18 -63.5q19 -15.5 55 -15.5h10v-13h-251v13h10q35 -1 54 15q19 16 19 64v259q0 38 -9.5 54.5q-9.5 16.5 -28.5 16.5q-8 0 -17 -2q-9 -2 -16 -4l-4 13l160 61z" />
<glyph unicode="&#115;" horiz-adv-x="364" d="M314 331h-14q-2 26 -11.5 48.5q-9.5 22.5 -23.5 37.5q-17 18 -40 28.5q-23 10.5 -48 10.5q-24 0 -37.5 -6.5q-13.5 -6.5 -18.5 -10.5q-10 -8 -17 -21q-7 -13 -7 -31q0 -32 18 -48.5q18 -16.5 40 -28.5l66 -36q31 -17 60 -38.5q29 -21.5 46 -50.5q11 -18 14 -33.5q3 -15.5 3 -26.5q0 -38 -14.5 -62.5q-14.5 -24.5 -31.5 -38.5q-14 -11 -38.5 -22q-24.5 -11 -62.5 -11q-17 0 -35.5 3q-18.5 3 -33.5 7q-17 5 -27.5 8q-10.5 3 -18.5 3q-5 0 -10.5 -1q-5.5 -1 -9.5 -4q-4 -3 -7 -9l-16 0l-3 170h14q4 -28 15 -55q5 -14 12 -27.5q7 -13.5 18 -24.5q12 -14 35 -26q23 -12 58 -12q18 0 33 4q15 3 25 12q9 8 16.5 21q7.5 13 7.5 32q0 14 -4 25q-10 29 -36.5 47.5q-26.5 18.5 -49.5 30.5q-42 23 -68 38q-26 15 -42 31q-37 36 -37 85q0 35 15 65q12 23 32 42q22 19 46 25.5q24 6.5 48 6.5q11 0 21 -1q10 -1 20 -3q6 -2 12.5 -3.5q6.5 -1.5 12.5 -3.5q17 -5 25.5 -9q8.5 -4 15.5 -4q12 0 21 9l10 0z" />
<glyph unicode="&#116;" horiz-adv-x="314" d="M268 479v-36h-103v-301q-1 -54 16 -75q17 -21 48 -21q16 0 32 9.5q16 9.5 37 31.5l9 -9q-20 -24 -36 -40.5q-16 -16.5 -31 -26.5q-15 -10 -30.5 -14.5q-15.5 -4.5 -33.5 -4.5q-51 0 -73.5 30.5q-22.5 30.5 -22.5 104.5v316h-73v19q51 17 89.5 59q38.5 42 54.5 99l14 0l0 -141z" />
<glyph unicode="&#117;" horiz-adv-x="536" d="M454 131q-1 -43 10 -57.5q11 -14.5 32 -14.5q15 0 28 7l5 -12l-160 -61v103q-50 -57 -86.5 -80q-36.5 -23 -77.5 -24q-123 0 -122 144l0 251q-1 46 -19.5 62.5q-18.5 16.5 -53.5 16.5h-10v13h168v-334q0 -52 16.5 -72q16.5 -20 58.5 -20q27 0 60 17q33 17 66 52l0 265q0 47 -19 63q-19 16 -54 16h-10v13l168 0z" />
<glyph unicode="&#118;" horiz-adv-x="459" d="M64 405q-12 28 -31.5 44q-19.5 16 -44.5 17l0 13h209v-13q-28 -1 -39.5 -9.5q-11.5 -8.5 -11.5 -25.5q0 -6 1 -13.5q1 -7.5 4 -12.5l105 -262l104 266q6 16 6 31q0 25 -35 26l-10 0v13h138v-13q-20 -2 -31.5 -12.5q-11.5 -10.5 -24.5 -43.5l-164 -418l-10 0z" />
<glyph unicode="&#119;" horiz-adv-x="688" d="M60 399q-14 34 -31 50q-17 16 -41 17l0 13h197v-13q-24 -2 -34 -10.5q-10 -8.5 -10 -22.5q0 -7 2 -19q2 -12 6 -20l93 -252l89 203l-22 60q-22 57 -72 61l0 13h204v-13h-11q-17 0 -28.5 -9.5q-11.5 -9.5 -10.5 -24.5q0 -7 1.5 -16q1.5 -9 5.5 -17l95 -257l92 258q3 9 6 21q3 12 3 20q0 12 -9.5 18q-9.5 6 -22.5 7l-12 0v13h138v-13q-20 -5 -32.5 -16.5q-12.5 -11.5 -26.5 -49.5l-152 -408h-12l-114 301l-125 -301l-12 0z" />
<glyph unicode="&#120;" horiz-adv-x="472" d="M219 479v-13h-7q-35 0 -35 -30q0 -11 7 -22l74 -119l80 120q10 16 10 27q0 11 -9.5 17q-9.5 6 -25.5 7l-12 0v13h154v-13q-23 -3 -40 -14.5q-17 -11.5 -34 -36.5l-102 -153l114 -185q17 -29 36 -43q19 -14 50 -21l0 -13h-213v13q47 4 47 28q0 3 -2.5 8q-2.5 5 -8.5 16l-86 139l-89 -132q-12 -17 -13 -22q-1 -5 -1 -9q0 -28 35 -28h11v-13h-159v13q26 4 47.5 19q21.5 15 42.5 46l107 158l-109 175q-17 26 -35.5 40.5q-18.5 14.5 -36.5 14.5h-9l0 13z" />
<glyph unicode="&#121;" horiz-adv-x="474" d="M208 479v-13q-35 0 -47.5 -16q-12.5 -16 -1.5 -42l117 -291l93 260q3 9 6 25q3 16 4 26q0 15 -13 26.5q-13 11.5 -32 11.5h-14v13h167v-13q-22 -2 -38.5 -17q-16.5 -15 -31.5 -57l-157 -420q-31 -81 -69 -116q-38 -35 -90 -35q-32 0 -48.5 15q-16.5 15 -16.5 36q0 20 15 34q15 14 40 14q7 0 13.5 -1.5q6.5 -1.5 22.5 -8.5q9 -4 17.5 -6.5q8.5 -2.5 16.5 -2.5q40 0 75 99l-171 408q-12 26 -30.5 42q-18.5 16 -37.5 16l0 13z" />
<glyph unicode="&#122;" horiz-adv-x="450" d="M59 479h371l-294 -443h171q51 -1 75.5 22.5q24.5 23.5 26.5 86.5l13 0v-145h-409l294 443h-168q-39 0 -54 -23.5q-15 -23.5 -18 -71.5l-13 0z" />
<glyph unicode="&#123;" horiz-adv-x="362" d="M103 258q61 -9 93 -44q32 -35 32 -104q-1 -3 -1 -10q0 -2 0 -21q0 -19 -1 -55q-1 -19 -1 -37q0 -18 0 -38q0 -52 18.5 -77.5q18.5 -25.5 52.5 -32.5l0 -27q-36 7 -62.5 19.5q-26.5 12.5 -44.5 33q-18 20.5 -27 51q-9 30.5 -9 72.5q0 10 0 25q0 15 1 35q1 21 1.5 36q0.5 15 0.5 24q0 67 -22.5 98.5q-22.5 31.5 -67.5 35.5l0 38q45 3 67.5 33.5q22.5 30.5 22.5 99.5q0 7 -0.5 20q-0.5 13 -1.5 32q-1 20 -1 37q0 17 0 33q0 81 36.5 123.5q36.5 42.5 106.5 51.5l0 -26q-34 -9 -52.5 -33.5q-18.5 -24.5 -18.5 -76.5q0 -24 0 -45q0 -21 1 -40q1 -19 1.5 -38q0.5 -19 0.5 -40q0 -69 -31 -103q-31 -34 -94 -45z" />
<glyph unicode="&#124;" horiz-adv-x="158" d="M53 782h52v-992l-52 0z" />
<glyph unicode="&#125;" horiz-adv-x="362" d="M259 263q-63 11 -94 45q-31 34 -31 103q0 42 1.5 78q1.5 36 1.5 85q0 52 -19 76.5q-19 24.5 -52 33.5l0 26q69 -9 105.5 -51.5q36.5 -42.5 37.5 -123.5q0 -16 -0.5 -33q-0.5 -17 -1.5 -37q-1 -19 -1 -32q0 -13 0 -20q0 -69 22.5 -99.5q22.5 -30.5 67.5 -33.5l0 -38q-45 -4 -67.5 -35.5q-22.5 -31.5 -22.5 -98.5q0 -9 0 -24q0 -15 1 -36q1 -20 1.5 -35q0.5 -15 0.5 -25q0 -42 -9.5 -72.5q-9.5 -30.5 -27.5 -51q-18 -20.5 -44.5 -33q-26.5 -12.5 -61.5 -19.5l0 27q33 7 52 32.5q19 25.5 19 77.5q-1 20 -1 38q0 18 0 37q-1 36 -1.5 55q-0.5 19 -0.5 21v10q0 69 31 104q31 35 94 44z" />
<glyph unicode="&#126;" horiz-adv-x="613" d="M53 325q29 45 69 70q40 25 94 26q17 0 39 -5q22 -5 99 -40q24 -11 47.5 -17.5q23.5 -6.5 37.5 -6.5q24 0 44 13.5q20 13.5 49 56.5l28 -20q-35 -52 -66 -75.5q-31 -23.5 -73 -22.5q-27 0 -54 6q-27 7 -87 36q-44 19 -60 24q-13 4 -31 4q-63 -2 -107 -69z" />
<glyph unicode="&#160;" horiz-adv-x="233" />
<glyph unicode="&#161;" horiz-adv-x="248" d="M174 -59q1 -14 2 -22q1 -8 2 -13.5q1 -5.5 1 -9.5q0 -4 0 -10q0 -34 -15 -53.5q-15 -19.5 -39 -19.5q-25 0 -39.5 19.5q-14.5 19.5 -14.5 53.5q0 9 1.5 21.5q1.5 12.5 3.5 33.5l41 375h16zM67 475q0 23 17 40.5q17 17.5 41 17.5q23 0 40.5 -17.5q17.5 -17.5 17.5 -40.5q0 -24 -17.5 -41q-17.5 -17 -40.5 -17q-25 0 -41.5 17t-16.5 41z" />
<glyph unicode="&#162;" horiz-adv-x="477" d="M265 568v-79q68 0 112 -31q45 -32 45 -76q-1 -21 -12.5 -35q-11.5 -14 -30.5 -13q-46 -1 -52 52q-6 39 -21 54.5q-15 15.5 -41 16.5l0 -384q10 -1 20 -1q48 0 86.5 29q38.5 29 54.5 80l18 -5q-19 -76 -66 -126q-47 -50 -113 -58l0 -83h-33v83q-92 8 -145 74q-54 67 -54 175q0 96 56 166q56 69 143 80l0 81zM232 455q-52 -11 -82.5 -58q-30.5 -47 -30.5 -125q0 -75 28 -125.5q28 -50.5 85 -69.5z" />
<glyph unicode="&#163;" horiz-adv-x="576" d="M398 381v-41h-137q5 -25 8.5 -58q3.5 -33 3.5 -70q0 -31 -8 -59.5q-8 -28.5 -25 -61.5q66 -29 104 -41q38 -12 66 -12q60 0 96 42l17 -13q-55 -87 -149 -87q-30 0 -67.5 14q-37.5 14 -97.5 51q-15 -19 -27.5 -30.5q-12.5 -11.5 -24 -17.5q-11.5 -6 -23.5 -7.5q-12 -1.5 -25 -1.5q-33 0 -51 18.5q-18 18.5 -18 48.5q0 30 21.5 49q21.5 19 58.5 19q22 -1 69 -18q3 16 4 30q1 14 2 27q0 14 -1.5 28.5q-1.5 14.5 -3.5 30.5q-2 17 -8 46.5q-6 29.5 -14 72.5l-103 0v41h93q-7 37 -9 60.5q-2 23.5 -2 38.5q0 102 55 169q55 67 137 67q54 0 92 -31q39 -32 39 -70q0 -20 -11 -32.5q-11 -12.5 -29 -12.5q-22 0 -33 10.5q-11 10.5 -12 43.5q-1 27 -16 43.5q-15 16.5 -43 16.5q-40 0 -64.5 -35q-24.5 -35 -24.5 -101q0 -35 3 -68q2 -16 6 -40.5q4 -24.5 11 -58.5zM177 67q-11 7 -28.5 14q-17.5 7 -28.5 7q-16 -1 -25.5 -12q-9.5 -11 -9.5 -26q0 -14 10 -22q10 -8 23 -8q18 0 35.5 12.5t23.5 34.5z" />
<glyph unicode="&#164;" horiz-adv-x="730" d="M664 625l-95 -95q28 -35 44 -78.5q16 -43.5 16 -88.5q0 -46 -16 -89.5q-16 -43.5 -44 -77.5l95 -94l-38 -38l-94 95q-35 -29 -78.5 -44.5q-43.5 -15.5 -88.5 -15.5q-46 -1 -89.5 15q-43.5 16 -77.5 45l-94 -95l-38 38l95 94q-29 34 -44.5 77.5q-15.5 43.5 -15.5 89.5q-1 45 15 88.5q16 43.5 45 78.5l-95 95l38 37l94 -95q33 28 75.5 44q42.5 16 91.5 16q48 0 90.5 -16q42.5 -16 76.5 -44l94 95zM154 363q0 -90 61 -154q61 -63 150 -63q87 0 149 63q62 65 62 154q0 89 -62 153q-61 64 -149 64q-89 0 -150 -64q-62 -64 -61 -153z" />
<glyph unicode="&#165;" horiz-adv-x="676" d="M273 700v-13h-12q-27 0 -42.5 -8.5q-15.5 -8.5 -15.5 -23.5q0 -8 2.5 -16q2.5 -8 14.5 -26l157 -257l166 269q8 15 10 31q0 13 -14 21.5q-14 8.5 -39 9.5l-14 0v13h223v-13q-40 -5 -72 -28.5q-32 -23.5 -60 -71.5l-178 -292v-52h151v-34h-151v-56h151v-34h-151v-35q0 -40 21 -55.5q21 -15.5 63 -15.5h18v-13h-314v13h17q40 -1 61.5 15q21.5 16 22.5 56l0 35h-150v34h150v56h-150v34h150v71l-198 299q-31 46 -56 60q-21 12 -53 14l0 13z" />
<glyph unicode="&#166;" horiz-adv-x="158" d="M53 782h52v-351h-52zM53 140h52v-350l-52 0z" />
<glyph unicode="&#167;" horiz-adv-x="520" d="M126 163q-74 60 -72 143q0 43 27 83.5q27 40.5 78 66.5q-22 24 -33 53.5q-11 29.5 -10 71.5q0 61 42.5 95q42.5 34 111.5 34q37 0 66.5 -9.5q29.5 -9.5 50.5 -26.5q21 -17 32 -39.5q11 -22.5 11 -47.5q0 -28 -13.5 -42.5q-13.5 -14.5 -34.5 -14.5q-49 0 -49 45q0 6 0.5 12q0.5 6 2.5 13q3 13 3.5 16.5q0.5 3.5 0.5 6.5q0 18 -19.5 35q-19.5 17 -47.5 17q-42 0 -68.5 -20q-26.5 -20 -26.5 -52q0 -27 15 -52q15 -25 53 -55l135 -110q48 -39 67.5 -76q19.5 -37 19.5 -77q0 -46 -28 -87q-28 -41 -80 -71q23 -26 34 -51.5q11 -25.5 11 -59.5q-2 -63 -47 -106q-45 -45 -115 -45q-33 0 -61.5 9q-28.5 9 -49.5 24q-21 15 -33 36q-12 21 -12 47q-1 34 13.5 54q14.5 20 40.5 20q22 0 37 -13q15 -13 15 -41q0 -5 -1.5 -10.5q-1.5 -5.5 -3.5 -13.5q-8 -21 -8.5 -22.5q-0.5 -1.5 0.5 -3.5q0 -23 17.5 -36q17.5 -13 48.5 -13q40 0 66.5 22.5q26.5 22.5 26.5 61.5q0 27 -12 48q-12 20 -71 71zM183 433q-34 -19 -49.5 -40.5q-15.5 -21.5 -15.5 -48.5q0 -32 16 -57.5q16 -25.5 53 -56.5l152 -129q34 20 49.5 44.5q15.5 24.5 16.5 51.5q0 26 -16 49q-15 25 -67 70z" />
<glyph unicode="&#168;" horiz-adv-x="452" d="M88 647q-1 22 15 38q16 16 39 16q22 -1 38 -16.5q16 -15.5 16 -37.5q0 -23 -16 -38.5q-16 -15.5 -38 -15.5q-23 0 -38.5 15.5q-15.5 15.5 -15.5 38.5zt0 0zM258 647q0 22 15.5 38q15.5 16 38.5 16q22 0 38 -16q16 -16 16 -38q-1 -23 -16.5 -38.5q-15.5 -15.5 -37.5 -15.5q-23 0 -38.5 15.5t-15.5 38.5z" />
<glyph unicode="&#169;" horiz-adv-x="846" d="M54 350q-2 151 108 261q109 109 262 109q152 0 261 -109q109 -109 109 -261q0 -153 -109 -261q-110 -108 -261 -108q-152 1 -262 108q-110 108 -108 261zt0 0zM94 350q0 -137 96 -234q97 -96 234 -96q136 0 232 96q96 96 98 234q0 136 -97 233q-97 97 -233 97q-138 -2 -234 -98q-96 -96 -96 -232zt0 0zM598 430l-20 -1q-14 54 -51.5 83.5q-37.5 29.5 -86.5 29.5q-35 0 -62 -14q-27 -14 -46.5 -39q-19.5 -25 -29.5 -60q-10 -35 -10 -77q0 -90 45 -137.5q45 -47.5 115 -47.5q40 0 75 16.5q35 16.5 71 56.5l21 -19q-35 -45 -82 -72q-47 -27 -107 -27q-102 0 -166 66q-65 67 -65 163q0 93 65 158q65 63 174 65q18 0 34 -3q16 -3 46 -12q32 -11 37 -11q0 0 1 0q8 0 14.5 6.5q6.5 6.5 6.5 16.5l14 0z" />
<glyph unicode="&#170;" horiz-adv-x="348" d="M348 413q-26 -29 -45 -41q-19 -12 -35 -12q-18 0 -29.5 16.5q-11.5 16.5 -9.5 42.5q-37 -34 -62.5 -47q-25.5 -13 -51.5 -12q-31 0 -51 24q-20 24 -20 56q0 44 36 73q37 29 149 68l0 44q-1 33 -18 49q-17 16 -45 16q-22 -1 -37.5 -13.5q-15.5 -12.5 -14.5 -33.5q-1 -4 0.5 -11q1.5 -7 1.5 -10q0 -14 -9 -22q-9 -8 -22 -8q-12 -1 -19.5 8q-7.5 9 -7.5 25q0 34 32.5 58.5q32.5 24.5 89.5 25.5q51 -1 79.5 -21.5q28.5 -20.5 28.5 -65.5v-196q-1 -23 18 -23q19 -2 34 18zM229 560q-80 -28 -104 -49q-25 -22 -24 -53q0 -27 14 -43q14 -16 38 -16q13 0 29 6.5q16 6.5 47 30.5zM335 327v-28h-302l0 28z" />
<glyph unicode="&#171;" horiz-adv-x="455" d="M297 49l-15 -14l-242 206l242 206l15 -14l-146 -192zM415 79l-12 -12l-175 174l175 174l12 -12l-91 -162z" />
<glyph unicode="&#172;" horiz-adv-x="740" d="M94 390h620v-195h-54v142l-566 0z" />
<glyph unicode="&#173;" horiz-adv-x="422" d="M356 277v-66h-290l0 66z" />
<glyph unicode="&#174;" horiz-adv-x="842" d="M57 350q-2 151 108 261q109 109 262 109q152 0 261 -109q109 -109 109 -261q0 -153 -109 -261q-110 -108 -261 -108q-153 0 -262 108q-108 108 -108 261zt0 0zM97 350q0 -137 96 -234q97 -96 234 -96q136 -1 232 96q96 96 98 234q0 136 -97 233q-97 97 -233 97q-138 -2 -234 -98q-96 -96 -96 -232zt0 0zM452 559q67 0 100 -24q33 -24 33 -76q0 -42 -27 -69.5q-27 -27.5 -70 -32.5l99 -141q9 -15 25 -23.5q16 -8.5 33 -8.5l0 -21h-114l-121 180h-25v-119q0 -42 36 -40l20 0v-21h-196v21h20q36 -2 37 40l0 275q-2 40 -36 40h-20v20zM385 375q54 -2 81.5 20.5q27.5 22.5 27.5 62.5q0 30 -17.5 50.5q-17.5 20.5 -47.5 21.5q-19 0 -44 -5z" />
<glyph unicode="&#175;" horiz-adv-x="448" d="M382 634v-40h-158h-158l0 40z" />
<glyph unicode="&#176;" horiz-adv-x="318" d="M94 604q0 -28 19 -47q19 -19 47 -19q27 -1 46.5 18.5q19.5 19.5 19.5 47.5q0 27 -19.5 46.5q-19.5 19.5 -46.5 19.5q-28 0 -47 -19.5q-19 -19.5 -19 -46.5zt0 0zM54 604q-2 43 30 75q31 31 76 31q45 0 75.5 -30.5q30.5 -30.5 30.5 -75.5q0 -23 -8.5 -42q-8.5 -19 -22.5 -33.5q-14 -14.5 -33.5 -22.5q-19.5 -8 -41.5 -8q-23 0 -42 8q-19 8 -33.5 22q-14.5 14 -22.5 33.5t-8 42.5z" />
<glyph unicode="&#177;" horiz-adv-x="714" d="M331 120v264h-265v52h265v264h52v-264h265v-52h-265v-264zM66 53h582v-52l-582 0z" />
<glyph unicode="&#178;" horiz-adv-x="329" d="M240 381q20 -1 31.5 6q11.5 7 18.5 21l6 -2l-29 -74h-234l73 79q29 32 48.5 57q19.5 25 27.5 42q18 34 18 75q0 36 -18 60.5q-18 24.5 -46 24.5q-24 0 -44 -16q-20 -16 -25 -41l-21 1q7 48 37 71.5q30 23.5 72 23.5q51 0 80.5 -29q29.5 -29 29.5 -78q0 -42 -23 -83q-22 -39 -88 -104l-35 -34z" />
<glyph unicode="&#179;" horiz-adv-x="329" d="M65 631q15 40 39.5 59q24.5 19 69.5 19q42 -1 65 -20q23 -19 23 -56q0 -57 -57 -82q32 -4 52 -30q20 -26 20 -66q-1 -45 -32.5 -79.5q-31.5 -34.5 -88.5 -41.5q-9 -2 -17 -2q-8 0 -16 0q-33 0 -52.5 10q-19.5 10 -18.5 25q0 11 4.5 17.5q4.5 6.5 16.5 6.5q11 0 28 -12q11 -9 21 -12.5q10 -3.5 22 -3.5q29 -1 48.5 18.5q19.5 19.5 20.5 48.5q0 37 -23.5 64.5q-23.5 27.5 -61.5 28.5l-9 0v20q33 -2 55 20q22 22 22 53q-1 23 -14 37q-13 14 -37 14q-22 -1 -39 -11.5q-17 -10.5 -27 -33.5z" />
<glyph unicode="&#180;" horiz-adv-x="450" d="M243 674q14 41 46 41q22 0 37.5 -11q15.5 -11 15.5 -29q0 -26 -15 -41l-115 -115l-25 0z" />
<glyph unicode="&#181;" horiz-adv-x="570" d="M167 479v-283q0 -20 2 -43q2 -23 12 -46q11 -26 29 -40q18 -14 46 -14q25 0 48 14q23 14 39 40q11 20 17.5 46q6.5 26 6.5 50v276h85v-361q0 -12 2 -27q2 -15 7 -26q9 -20 29 -20q12 0 21.5 6q9.5 6 15.5 13q9 10 15 22.5q6 12.5 10 22.5l18 -6q-5 -16 -14 -36q-9 -20 -22 -36q-32 -40 -80 -40q-22 0 -37.5 8.5q-15.5 8.5 -26.5 24.5q-9 14 -15 32.5q-6 18.5 -6 38.5l-2 0q-4 -8 -16 -29.5q-12 -21.5 -35 -41.5q-21 -18 -43 -25.5q-22 -7.5 -45 -7.5q-45 0 -74 27q-13 12 -22.5 32q-9.5 20 -13.5 40l-7 0q0 -17 1.5 -33q1.5 -16 3.5 -36q3 -24 8 -45q5 -21 14 -47q7 -20 13 -35.5q6 -15.5 6 -32.5q0 -8 -1 -17q-1 -9 -7 -17q-12 -15 -34 -15q-14 0 -22 5.5q-8 5.5 -13 11.5q-4 5 -9 18q-5 13 -5 41q0 20 3.5 45q3.5 25 6.5 54q2 20 3.5 36q1.5 16 2 31q0.5 15 0.5 29.5q0 14.5 0 31.5l0 364z" />
<glyph unicode="&#182;" horiz-adv-x="543" d="M187 436q-69 -1 -108 35q-39 36 -39 97q0 63 39 97q39 34 108 35l316 0v-34h-106v-843h-52v843h-106v-843l-52 0z" />
<glyph unicode="&#183;" horiz-adv-x="250" d="M67 362q0 23 17 40.5q17 17.5 41 17.5q23 0 40.5 -17.5q17.5 -17.5 17.5 -40.5q0 -24 -17.5 -41q-17.5 -17 -40.5 -17q-24 0 -41 17t-17 41z" />
<glyph unicode="&#184;" horiz-adv-x="448" d="M251 0l-15 -50q5 1 12 1.5q7 0.5 15 0.5q42 0 67.5 -19q25.5 -19 25.5 -56q0 -42 -38 -64q-38 -22 -95 -23q-26 0 -47.5 4q-21.5 4 -43.5 14l7 20q12 -3 25 -5q13 -2 26 -2q85 0 85 46q-1 35 -48 35q-5 0 -15 -1q-10 -1 -24 -4l29 103z" />
<glyph unicode="&#185;" horiz-adv-x="252" d="M159 709v-327q0 -19 9.5 -26.5q9.5 -7.5 32.5 -7.5h9v-16h-168v16h9q22 0 31.5 7.5q9.5 7.5 10.5 26.5l0 259q0 25 -19 25q-5 0 -10.5 -2.5q-5.5 -2.5 -12.5 -5.5l-4 17z" />
<glyph unicode="&#186;" horiz-adv-x="394" d="M197 360q-73 0 -119 48q-45 49 -45 126q0 72 47 124q46 51 117 51q72 0 118 -49q46 -49 46 -125q0 -73 -48 -124q-48 -51 -116 -51zt0 0zM102 539q0 -66 31 -109q32 -44 75 -44q40 -1 62 35q22 36 22 118q0 53 -31 99q-30 46 -77 46q-43 0 -62.5 -37.5q-19.5 -37.5 -19.5 -107.5zt0 0zM348 327v-28h-302l0 28z" />
<glyph unicode="&#187;" horiz-adv-x="455" d="M158 433l15 14l242 -206l-242 -206l-15 14l146 192zM40 403l12 12l175 -174l-175 -174l-12 12l91 162z" />
<glyph unicode="&#188;" horiz-adv-x="642" d="M174 709v-327q-2 -35 42 -34l9 0v-16h-168v16h9q42 -1 42 34v259q-2 25 -18 25q-4 0 -9.5 -2q-5.5 -2 -15.5 -6l-3 17zM59 0l484 700h42l-484 -700zM320 147l153 230h49v-239h45v-34h-45v-104h-66v104h-136zM456 138v154l-100 -154z" />
<glyph unicode="&#189;" horiz-adv-x="642" d="M155 709v-327q0 -19 9.5 -26.5q9.5 -7.5 32.5 -7.5h9v-16h-168v16h9q22 0 31.5 7.5q9.5 7.5 10.5 26.5l0 259q0 25 -19 25q-4 0 -6 -0.5q-2 -0.5 -18 -7.5l-3 17zM41 0l484 700h42l-484 -700zM548 49q29 -1 40 5.5q11 6.5 19 20.5l6 -1l-29 -74h-234l73 79q62 68 78 104q16 36 16 78q0 34 -19 55.5q-19 21.5 -45 21.5q-24 0 -43.5 -16.5q-19.5 -16.5 -25.5 -40.5l-21 1q6 42 35 68.5q29 26.5 74 26.5q49 0 79 -26.5q30 -26.5 30 -74.5q0 -54 -26 -97q-13 -20 -34 -44.5q-21 -24.5 -50 -52.5l-35 -33z" />
<glyph unicode="&#190;" horiz-adv-x="640" d="M56 631q16 42 40 60q24 18 69 18q39 0 63.5 -20.5q24.5 -20.5 24.5 -55.5q-1 -56 -57 -82q32 -4 52 -30q20 -26 20 -66q0 -26 -11 -48q-11 -22 -31 -39q-20 -17 -48.5 -26.5q-28.5 -9.5 -64.5 -9.5q-32 0 -51 10q-19 10 -19 25q-2 24 20 24q12 0 29 -12q11 -9 21 -12.5q10 -3.5 22 -3.5q29 0 49 19q20 19 20 48q0 37 -23.5 64.5q-23.5 27.5 -61.5 28.5l-9 0v20q34 -2 55.5 20.5q21.5 22.5 21.5 52.5q0 21 -14.5 36q-14.5 15 -36.5 15q-22 0 -40 -12.5q-18 -12.5 -26 -32.5zM73 0l484 700h42l-484 -700zM334 147l153 230h49v-239h45v-34h-45v-104h-66v104h-136zM470 138v154l-100 -154z" />
<glyph unicode="&#191;" horiz-adv-x="448" d="M256 332q3 -44 -6 -82q-9 -38 -45 -102q-35 -65 -45 -94q-10 -29 -10 -67q0 -69 27.5 -106.5q27.5 -37.5 69.5 -37.5q35 0 58.5 20.5q23.5 20.5 23.5 44.5q0 10 -3 18q-3 8 -14 21q-8 11 -11.5 20q-3.5 9 -3.5 20q0 17 13.5 29.5q13.5 12.5 29.5 11.5q26 0 41 -23q15 -23 15 -58q0 -50 -49 -92q-50 -42 -129 -42q-73 0 -118 48q-46 46 -46 122q0 42 18 78q17 36 75 94q61 61 78 98q16 36 15 79zM303 475q0 -23 -17 -40.5q-17 -17.5 -41 -17.5q-23 0 -40.5 17.5q-17.5 17.5 -17.5 40.5q0 24 17.5 40.5q17.5 16.5 40.5 16.5q24 0 41 -16.5t17 -40.5z" />
<glyph unicode="&#192;" horiz-adv-x="683" d="M-19 13q27 4 47.5 25q20.5 21 42.5 70l266 601h9l267 -601q25 -58 44 -75q17 -15 59 -20l0 -13h-280v13q39 6 54.5 15.5q15.5 9.5 15.5 28.5q0 19 -7 38l-58 134h-264l-57 -133q-10 -23 -11 -28.5q-1 -5.5 -1 -9.5q-1 -21 19.5 -33q20.5 -12 52.5 -12l0 -13h-199zM196 272h227l-114 261zM400 746h-43l-167 126v13l105 0z" />
<glyph unicode="&#193;" horiz-adv-x="683" d="M-19 13q27 4 47.5 25q20.5 21 42.5 70l266 601h9l267 -601q25 -58 44 -75q17 -15 59 -20l0 -13h-280v13q39 6 54.5 15.5q15.5 9.5 15.5 28.5q0 19 -7 38l-58 134h-264l-57 -133q-10 -23 -11 -28.5q-1 -5.5 -1 -9.5q-1 -21 19.5 -33q20.5 -12 52.5 -12l0 -13h-199zM196 272h227l-114 261zM459 885v-13l-167 -126h-43l105 139z" />
<glyph unicode="&#194;" horiz-adv-x="683" d="M-19 13q27 4 47.5 25q20.5 21 42.5 70l266 601h9l267 -601q25 -58 44 -75q17 -15 59 -20l0 -13h-280v13q39 6 54.5 15.5q15.5 9.5 15.5 28.5q0 19 -7 38l-58 134h-264l-57 -133q-10 -23 -11 -28.5q-1 -5.5 -1 -9.5q-1 -21 19.5 -33q20.5 -12 52.5 -12l0 -13h-199zM196 272h227l-114 261zM197 746h-51l139 139h106l139 -139h-51l-141 84z" />
<glyph unicode="&#195;" horiz-adv-x="683" d="M-19 13q27 4 47.5 25q20.5 21 42.5 70l266 601h9l267 -601q25 -58 44 -75q17 -15 59 -20l0 -13h-280v13q39 6 54.5 15.5q15.5 9.5 15.5 28.5q0 19 -7 38l-58 134h-264l-57 -133q-10 -23 -11 -28.5q-1 -5.5 -1 -9.5q-1 -21 19.5 -33q20.5 -12 52.5 -12l0 -13h-199zM196 272h227l-114 261zM142 766q6 42 45 73q39 33 85 33q14 -1 32 -4.5q18 -3.5 56 -16.5q36 -14 54.5 -18.5q18.5 -4.5 30.5 -4.5q18 0 30.5 9.5q12.5 9.5 24.5 34.5l26 0q-25 -59 -52.5 -82.5q-27.5 -23.5 -69.5 -23.5q-10 0 -18.5 0.5q-8.5 0.5 -17.5 2q-9 1.5 -20 5.5q-11 4 -26 11q-26 10 -54 18q-28 8 -42 8q-18 0 -35 -13q-17 -13 -23 -32z" />
<glyph unicode="&#196;" horiz-adv-x="683" d="M-19 13q27 4 47.5 25q20.5 21 42.5 70l266 601h9l267 -601q25 -58 44 -75q17 -15 59 -20l0 -13h-280v13q39 6 54.5 15.5q15.5 9.5 15.5 28.5q0 19 -7 38l-58 134h-264l-57 -133q-10 -23 -11 -28.5q-1 -5.5 -1 -9.5q-1 -21 19.5 -33q20.5 -12 52.5 -12l0 -13h-199zM196 272h227l-114 261zM162 806q0 22 15.5 38q15.5 16 38.5 16q22 -1 38 -16.5q16 -15.5 16 -37.5q0 -23 -16 -38.5q-16 -15.5 -38 -15.5q-23 -1 -38.5 15q-15.5 16 -15.5 39zt0 0zM400 806q0 22 15.5 38q15.5 16 38.5 16q22 -1 38 -16.5q16 -15.5 16 -37.5q0 -23 -16 -39q-16 -16 -38 -15q-23 0 -38.5 15.5t-15.5 38.5z" />
<glyph unicode="&#197;" horiz-adv-x="683" d="M235 806q0 22 8 41.5q8 19.5 22.5 33.5q14.5 14 33.5 22.5q19 8.5 42 8.5q45 0 75 -30.5q30 -30.5 31 -75.5q0 -23 -8.5 -42q-8.5 -19 -22.5 -33.5q-14 -14.5 -34 -22.5q-15 -7 -32 -8l263 -592q25 -58 44 -75q17 -15 59 -20l0 -13h-280v13q39 6 54.5 15.5q15.5 9.5 15.5 28.5q0 19 -7 38l-58 134h-264l-57 -133q-10 -23 -11 -28.5q-1 -5.5 -1 -9.5q-1 -21 19.5 -33q20.5 -12 52.5 -12l0 -13h-199v13q27 4 47.5 25q20.5 21 42.5 70l262 592q-19 1 -34 8q-19 8 -33.5 22q-14.5 14 -22.5 33.5q-8 19.5 -8 42.5zt0 0zM196 272h227l-114 261zM275 806q0 -28 19 -47q19 -19 47 -19q27 0 46 19q19 19 20 47q-1 27 -20 46q-19 19 -46 20q-28 0 -47 -19.5t-19 -46.5z" />
<glyph unicode="&#198;" horiz-adv-x="980" d="M461 649l-214 -356h214zM222 250l-97 -165q-11 -19 -13 -25.5q-2 -6.5 -2 -12.5q-1 -17 12.5 -25.5q13.5 -8.5 37.5 -8.5h13v-13h-198v13q55 1 104 84l312 519q8 14 10.5 20.5q2.5 6.5 2.5 13.5q0 16 -17.5 26q-17.5 10 -52.5 11l-20 0v13h578l9 -145l-13 -2q-7 26 -16 45q-9 19 -23 31q-14 12 -34 18q-20 6 -50 6h-193v-262h180q43 -1 60.5 23.5q17.5 24.5 16.5 79.5l13 0v-249h-13q1 54 -16.5 78.5q-17.5 24.5 -60.5 24.5h-180v-301h193q72 -1 117.5 30.5q45.5 31.5 64.5 100.5l13 -3l-51 -175h-549v13h17q40 0 62 15.5q22 15.5 22 55.5l0 166z" />
<glyph unicode="&#199;" horiz-adv-x="733" d="M679 481l-13 -2q-14 62 -40.5 96q-26.5 34 -58.5 54q-64 40 -133 40q-24 0 -50.5 -4.5q-26.5 -4.5 -53.5 -16.5q-27 -12 -53 -33q-26 -21 -48 -54q-30 -46 -42 -96.5q-12 -50.5 -12 -107.5q0 -81 19.5 -132.5q19.5 -51.5 43.5 -83.5q43 -57 98 -77.5q55 -20.5 108 -20.5q29 0 66.5 8q37.5 8 79.5 34q24 15 49 36.5q25 21.5 46 47.5l21 -20q-22 -31 -55.5 -63.5q-33.5 -32.5 -70.5 -53.5q-33 -19 -73.5 -30q-40.5 -11 -85.5 -11l-13 -42q7 2 14 2q7 0 14 0q10 0 25.5 -2q15.5 -2 30.5 -10q15 -8 26 -23q11 -15 11 -40q0 -24 -11.5 -41q-11.5 -17 -30 -27q-18.5 -10 -42.5 -14.5q-24 -4.5 -49 -4.5q-20 0 -41 3q-16 2 -28 6q-12 4 -21 9l7 20q14 -4 25.5 -5.5q11.5 -1.5 25.5 -1.5q8 0 15.5 0q7.5 0 15.5 1q31 4 42.5 17.5q11.5 13.5 11.5 27.5q0 17 -13.5 26q-13.5 9 -35.5 9q-7 0 -19 -1.5q-12 -1.5 -20 -3.5l27 95q-72 3 -131 32.5q-59 29.5 -98 68.5q-43 43 -74.5 109.5q-31.5 66.5 -31.5 152.5q0 78 29 146q29 68 86 119q45 40 107.5 65q62.5 25 149.5 25q35 0 70.5 -6.5q35.5 -6.5 83.5 -23.5q17 -6 26 -9q9 -3 17 -3q20 0 26.5 13.5q6.5 13.5 7.5 23.5l12 0z" />
<glyph unicode="&#200;" horiz-adv-x="666" d="M588 555l-15 -2q-10 51 -37.5 75.5q-27.5 24.5 -84.5 24.5h-193v-262h180q42 0 59 24q17 24 19 76l13 0v-243h-13q-2 51 -19 75q-17 24 -59 25l-180 0v-301h193q74 0 114 28q41 29 69 103l12 -3l-51 -175h-549v13h17q40 -1 61.5 15q21.5 16 22.5 56l0 532q0 39 -22 55q-22 16 -62 16h-17v13h533zM433 746h-43l-167 126v13l105 0z" />
<glyph unicode="&#201;" horiz-adv-x="666" d="M588 555l-15 -2q-10 51 -37.5 75.5q-27.5 24.5 -84.5 24.5h-193v-262h180q42 0 59 24q17 24 19 76l13 0v-243h-13q-2 51 -19 75q-17 24 -59 25l-180 0v-301h193q74 0 114 28q41 29 69 103l12 -3l-51 -175h-549v13h17q40 -1 61.5 15q21.5 16 22.5 56l0 532q0 39 -22 55q-22 16 -62 16h-17v13h533zM503 885v-13l-167 -126h-43l105 139z" />
<glyph unicode="&#202;" horiz-adv-x="666" d="M588 555l-15 -2q-10 51 -37.5 75.5q-27.5 24.5 -84.5 24.5h-193v-262h180q42 0 59 24q17 24 19 76l13 0v-243h-13q-2 51 -19 75q-17 24 -59 25l-180 0v-301h193q74 0 114 28q41 29 69 103l12 -3l-51 -175h-549v13h17q40 -1 61.5 15q21.5 16 22.5 56l0 532q0 39 -22 55q-22 16 -62 16h-17v13h533zM217 746h-51l139 139h106l139 -139h-51l-141 84z" />
<glyph unicode="&#203;" horiz-adv-x="666" d="M588 555l-15 -2q-10 51 -37.5 75.5q-27.5 24.5 -84.5 24.5h-193v-262h180q42 0 59 24q17 24 19 76l13 0v-243h-13q-2 51 -19 75q-17 24 -59 25l-180 0v-301h193q74 0 114 28q41 29 69 103l12 -3l-51 -175h-549v13h17q40 -1 61.5 15q21.5 16 22.5 56l0 532q0 39 -22 55q-22 16 -62 16h-17v13h533zM166 806q0 22 15.5 38q15.5 16 38.5 16q22 -1 38 -16.5q16 -15.5 16 -37.5q0 -23 -16 -38.5q-16 -15.5 -38 -15.5q-23 -1 -38.5 15q-15.5 16 -15.5 39zt0 0zM404 806q0 22 15.5 38q15.5 16 38.5 16q22 -1 38 -16.5q16 -15.5 16 -37.5q0 -23 -16 -39q-16 -16 -38 -15q-23 0 -38.5 15.5t-15.5 38.5z" />
<glyph unicode="&#204;" horiz-adv-x="392" d="M359 700v-13h-17q-42 0 -63.5 -16q-21.5 -16 -20.5 -55l0 -532q0 -40 21 -55.5q21 -15.5 63 -15.5h17v-13h-313v13h17q40 -1 61.5 15q21.5 16 22.5 56l0 532q0 39 -22 55q-22 16 -62 16h-17v13zM240 746h-43l-167 126v13l105 0z" />
<glyph unicode="&#205;" horiz-adv-x="392" d="M359 700v-13h-17q-42 0 -63.5 -16q-21.5 -16 -20.5 -55l0 -532q0 -40 21 -55.5q21 -15.5 63 -15.5h17v-13h-313v13h17q40 -1 61.5 15q21.5 16 22.5 56l0 532q0 39 -22 55q-22 16 -62 16h-17v13zM314 885v-13l-167 -126h-43l105 139z" />
<glyph unicode="&#206;" horiz-adv-x="392" d="M359 700v-13h-17q-42 0 -63.5 -16q-21.5 -16 -20.5 -55l0 -532q0 -40 21 -55.5q21 -15.5 63 -15.5h17v-13h-313v13h17q40 -1 61.5 15q21.5 16 22.5 56l0 532q0 39 -22 55q-22 16 -62 16h-17v13zM62 746h-51l139 139h106l139 -139h-51l-141 84z" />
<glyph unicode="&#207;" horiz-adv-x="392" d="M359 700v-13h-17q-42 0 -63.5 -16q-21.5 -16 -20.5 -55l0 -532q0 -40 21 -55.5q21 -15.5 63 -15.5h17v-13h-313v13h17q40 -1 61.5 15q21.5 16 22.5 56l0 532q0 39 -22 55q-22 16 -62 16h-17v13zM29 806q0 22 15.5 38q15.5 16 38.5 16q22 -1 38 -16.5q16 -15.5 16 -37.5q0 -23 -16 -38.5q-16 -15.5 -38 -15.5q-23 -1 -38.5 15q-15.5 16 -15.5 39zt0 0zM267 806q0 22 15.5 38q15.5 16 38.5 16q22 -1 38 -16.5q16 -15.5 16 -37.5q0 -23 -16 -39q-16 -16 -38 -15q-23 0 -38.5 15.5t-15.5 38.5z" />
<glyph unicode="&#208;" horiz-adv-x="823" d="M258 421h127v-43h-127v-326q25 -7 54.5 -9.5q29.5 -2.5 77.5 -2.5q126 -2 198 87q73 88 73 240q0 136 -83 214q-82 79 -211 79q-33 0 -59.5 -3.5q-26.5 -3.5 -49.5 -8.5zM358 700q194 -2 308 -89q116 -89 117 -256q0 -156 -108 -256q-108 -99 -278 -99h-351v13h17q40 -1 61.5 15q21.5 16 22.5 56l0 294h-101v43h101v195q0 39 -22 55q-22 16 -62 16h-17l0 13z" />
<glyph unicode="&#209;" horiz-adv-x="831" d="M659 189v427q0 39 -22 55q-22 16 -62 16h-17v13h247v-13h-17q-42 0 -63.5 -16q-21.5 -16 -20.5 -55l0 -624h-14l-491 569v-477q-1 -40 20.5 -55.5q21.5 -15.5 63.5 -15.5h17v-13h-246v13h16q40 -1 61.5 15q21.5 16 22.5 56l0 531q-29 35 -62 53.5q-33 18.5 -72 18.5l0 13h204zM245 766q6 42 45 73q39 33 85 33q14 -1 32 -4.5q18 -3.5 56 -16.5q36 -14 54.5 -18.5q18.5 -4.5 30.5 -4.5q18 0 30.5 9.5q12.5 9.5 24.5 34.5l26 0q-25 -59 -52.5 -82.5q-27.5 -23.5 -69.5 -23.5q-10 0 -18.5 0.5q-8.5 0.5 -17.5 2q-9 1.5 -20 5.5q-11 4 -26 11q-26 10 -54 18q-28 8 -42 8q-18 0 -35 -13q-17 -13 -23 -32z" />
<glyph unicode="&#210;" horiz-adv-x="764" d="M380 -8q-144 2 -235 104q-92 105 -91 257q0 158 101 256q101 98 244 100q142 0 234 -104q92 -104 92 -258q0 -154 -97 -254q-98 -101 -248 -101zt0 0zM385 31q101 0 159 88q59 89 59 227q0 151 -60 237q-59 86 -149 86q-89 -2 -153 -82q-65 -80 -65 -233q0 -146 56 -235q57 -88 153 -88zt0 0zM447 746h-43l-167 126v13l105 0z" />
<glyph unicode="&#211;" horiz-adv-x="764" d="M380 -8q-144 2 -235 104q-92 105 -91 257q0 158 101 256q101 98 244 100q142 0 234 -104q92 -104 92 -258q0 -154 -97 -254q-98 -101 -248 -101zt0 0zM385 31q101 0 159 88q59 89 59 227q0 151 -60 237q-59 86 -149 86q-89 -2 -153 -82q-65 -80 -65 -233q0 -146 56 -235q57 -88 153 -88zt0 0zM500 885v-13l-167 -126h-43l105 139z" />
<glyph unicode="&#212;" horiz-adv-x="764" d="M380 -8q-144 2 -235 104q-92 105 -91 257q0 158 101 256q101 98 244 100q142 0 234 -104q92 -104 92 -258q0 -154 -97 -254q-98 -101 -248 -101zt0 0zM385 31q101 0 159 88q59 89 59 227q0 151 -60 237q-59 86 -149 86q-89 -2 -153 -82q-65 -80 -65 -233q0 -146 56 -235q57 -88 153 -88zt0 0zM247 746h-51l139 139h106l139 -139h-51l-141 84z" />
<glyph unicode="&#213;" horiz-adv-x="764" d="M380 -8q-144 2 -235 104q-92 105 -91 257q0 158 101 256q101 98 244 100q142 0 234 -104q92 -104 92 -258q0 -154 -97 -254q-98 -101 -248 -101zt0 0zM385 31q101 0 159 88q59 89 59 227q0 151 -60 237q-59 86 -149 86q-89 -2 -153 -82q-65 -80 -65 -233q0 -146 56 -235q57 -88 153 -88zt0 0zM205 766q6 42 45 73q39 33 85 33q14 -1 32 -4.5q18 -3.5 56 -16.5q36 -14 54.5 -18.5q18.5 -4.5 30.5 -4.5q18 0 30.5 9.5q12.5 9.5 24.5 34.5l26 0q-25 -59 -52.5 -82.5q-27.5 -23.5 -69.5 -23.5q-10 0 -18.5 0.5q-8.5 0.5 -17.5 2q-9 1.5 -20 5.5q-11 4 -26 11q-26 10 -54 18q-28 8 -42 8q-18 0 -35 -13q-17 -13 -23 -32z" />
<glyph unicode="&#214;" horiz-adv-x="764" d="M380 -8q-144 2 -235 104q-92 105 -91 257q0 158 101 256q101 98 244 100q142 0 234 -104q92 -104 92 -258q0 -154 -97 -254q-98 -101 -248 -101zt0 0zM385 31q101 0 159 88q59 89 59 227q0 151 -60 237q-59 86 -149 86q-89 -2 -153 -82q-65 -80 -65 -233q0 -146 56 -235q57 -88 153 -88zt0 0zM216 806q0 22 15.5 38q15.5 16 38.5 16q22 -1 38 -16.5q16 -15.5 16 -37.5q0 -23 -16 -38.5q-16 -15.5 -38 -15.5q-23 -1 -38.5 15q-15.5 16 -15.5 39zt0 0zM454 806q0 22 15.5 38q15.5 16 38.5 16q22 -1 38 -16.5q16 -15.5 16 -37.5q0 -23 -16 -39q-16 -16 -38 -15q-23 0 -38.5 15.5t-15.5 38.5z" />
<glyph unicode="&#215;" horiz-adv-x="716" d="M320 361l-196 196l38 38l196 -196l196 196l38 -38l-196 -196l196 -196l-38 -38l-196 196l-196 -196l-38 38z" />
<glyph unicode="&#216;" horiz-adv-x="764" d="M520 609q-23 27 -58 43.5q-35 16.5 -68 16.5q-89 -2 -153 -82q-65 -80 -65 -233q0 -75 14 -133q14 -58 46 -103zM385 31q100 -1 159 88q59 89 59 227q0 75 -14 133q-14 58 -46 103l-284 -492q23 -29 57 -44q34 -15 69 -15zt0 0zM380 -8q-45 0 -81.5 9q-36.5 9 -73.5 31l-43 -73l-29 16l45 75q-144 105 -144 303q-2 158 101 257q102 99 244 99q82 0 155 -40l44 74l29 -16l-45 -76q72 -52 107 -131q35 -79 36 -173q-2 -143 -93 -249t-252 -106z" />
<glyph unicode="&#217;" horiz-adv-x="823" d="M353 700v-13h-17q-42 0 -63.5 -16q-21.5 -16 -20.5 -55l0 -369q0 -113 52 -161q52 -48 150 -48q94 0 148.5 53.5q54.5 53.5 54.5 165.5v359q0 39 -22 55q-22 16 -62 16h-17v13h247v-13h-17q-42 0 -63 -16q-21 -16 -21 -55v-378q0 -62 -18 -108q-18 -46 -52 -77q-34 -31 -81.5 -46q-47.5 -15 -107.5 -15q-149 0 -226 65.5q-77 65.5 -76 191.5l0 367q0 39 -22 55q-22 16 -62 16h-17v13zM512 746h-43l-167 126v13l105 0z" />
<glyph unicode="&#218;" horiz-adv-x="823" d="M353 700v-13h-17q-42 0 -63.5 -16q-21.5 -16 -20.5 -55l0 -369q0 -113 52 -161q52 -48 150 -48q94 0 148.5 53.5q54.5 53.5 54.5 165.5v359q0 39 -22 55q-22 16 -62 16h-17v13h247v-13h-17q-42 0 -63 -16q-21 -16 -21 -55v-378q0 -62 -18 -108q-18 -46 -52 -77q-34 -31 -81.5 -46q-47.5 -15 -107.5 -15q-149 0 -226 65.5q-77 65.5 -76 191.5l0 367q0 39 -22 55q-22 16 -62 16h-17v13zM603 885v-13l-167 -126h-43l105 139z" />
<glyph unicode="&#219;" horiz-adv-x="823" d="M353 700v-13h-17q-42 0 -63.5 -16q-21.5 -16 -20.5 -55l0 -369q0 -113 52 -161q52 -48 150 -48q94 0 148.5 53.5q54.5 53.5 54.5 165.5v359q0 39 -22 55q-22 16 -62 16h-17v13h247v-13h-17q-42 0 -63 -16q-21 -16 -21 -55v-378q0 -62 -18 -108q-18 -46 -52 -77q-34 -31 -81.5 -46q-47.5 -15 -107.5 -15q-149 0 -226 65.5q-77 65.5 -76 191.5l0 367q0 39 -22 55q-22 16 -62 16h-17v13zM307 746h-51l139 139h106l139 -139h-51l-141 84z" />
<glyph unicode="&#220;" horiz-adv-x="823" d="M353 700v-13h-17q-42 0 -63.5 -16q-21.5 -16 -20.5 -55l0 -369q0 -113 52 -161q52 -48 150 -48q94 0 148.5 53.5q54.5 53.5 54.5 165.5v359q0 39 -22 55q-22 16 -62 16h-17v13h247v-13h-17q-42 0 -63 -16q-21 -16 -21 -55v-378q0 -62 -18 -108q-18 -46 -52 -77q-34 -31 -81.5 -46q-47.5 -15 -107.5 -15q-149 0 -226 65.5q-77 65.5 -76 191.5l0 367q0 39 -22 55q-22 16 -62 16h-17v13zM276 806q0 22 15.5 38q15.5 16 38.5 16q22 -1 38 -16.5q16 -15.5 16 -37.5q0 -23 -16 -38.5q-16 -15.5 -38 -15.5q-23 -1 -38.5 15q-15.5 16 -15.5 39zt0 0zM514 806q0 22 15.5 38q15.5 16 38.5 16q22 -1 38 -16.5q16 -15.5 16 -37.5q0 -23 -16 -39q-16 -16 -38 -15q-23 0 -38.5 15.5t-15.5 38.5z" />
<glyph unicode="&#221;" horiz-adv-x="648" d="M273 700v-13h-12q-27 0 -42.5 -8.5q-15.5 -8.5 -15.5 -23.5q-1 -9 3.5 -18.5q4.5 -9.5 13.5 -23.5l159 -257l163 269q4 7 7 15.5q3 8.5 3 15.5q0 13 -14 21.5q-14 8.5 -39 9.5l-14 0v13h223v-13q-78 -10 -132 -100l-177 -292v-211q0 -40 21 -55.5q21 -15.5 63 -15.5h17v-13h-313v13h17q40 -1 61.5 15q21.5 16 22.5 56l0 211l-198 318q-26 42 -51.5 57.5q-25.5 15.5 -57.5 16.5l0 13zM543 885v-13l-167 -126h-43l105 139z" />
<glyph unicode="&#222;" horiz-adv-x="638" d="M258 228q15 -2 30.5 -3.5q15.5 -1.5 30.5 -0.5q81 -1 122 42q41 43 42 115q0 72 -41 109.5q-41 37.5 -122 37.5q-22 0 -35.5 -1q-13.5 -1 -26.5 -3zM326 570q138 -1 208.5 -42.5q70.5 -41.5 70.5 -134.5q0 -105 -68 -158.5q-68 -53.5 -213 -52.5l-66 0v-98q0 -40 21 -55.5q21 -15.5 63 -15.5h17v-13h-313v13h17q40 -1 61.5 15q21.5 16 22.5 56l0 532q0 39 -22 55q-22 16 -62 16h-17v13h313v-13h-17q-42 0 -63.5 -16q-21.5 -16 -20.5 -55l0 -46z" />
<glyph unicode="&#223;" horiz-adv-x="526" d="M13 0v13h10q28 0 42.5 8q14.5 8 21.5 20q7 12 8 25.5q1 13.5 1 25.5v410q0 55 15 94.5q15 39.5 40.5 64.5q25.5 25 59 36.5q33.5 11.5 71.5 11.5q31 0 60.5 -9q29.5 -9 51.5 -27.5q22 -18.5 35.5 -46q13.5 -27.5 13.5 -63.5q0 -63 -32.5 -100.5q-32.5 -37.5 -82.5 -45.5l0 -5q39 -3 69.5 -20.5q30.5 -17.5 52 -44.5q21.5 -27 32.5 -62q11 -35 11 -75q0 -47 -15 -87q-15 -40 -40.5 -69.5q-25.5 -29.5 -59 -46q-33.5 -16.5 -69.5 -16.5q-42 0 -67.5 21.5q-25.5 21.5 -25.5 47.5q0 16 9.5 31q9.5 15 32.5 15q18 0 31.5 -12q13.5 -12 11.5 -35q0 -5 -1 -10.5q-1 -5.5 1 -10.5q4 -13 13 -14q9 -1 17 -1q14 0 26.5 8q12.5 8 22.5 26.5q10 18.5 15.5 49.5q5.5 31 5.5 77q0 39 -5.5 78.5q-5.5 39.5 -23.5 70q-18 30.5 -53 47q-35 16.5 -94 9.5l0 36q13 -2 36 -1q23 1 45.5 12q22.5 11 39 37q16.5 26 16.5 75q0 21 -4.5 43q-4.5 22 -15.5 40.5q-11 18.5 -30 30.5q-19 12 -48 12q-30 0 -47 -12.5q-17 -12.5 -25 -29q-8 -16.5 -9.5 -33q-1.5 -16.5 -1.5 -23.5l0 -576z" />
<glyph unicode="&#224;" horiz-adv-x="467" d="M467 66q-33 -40 -59.5 -57q-26.5 -17 -53.5 -17q-29 0 -44 24q-15 24 -13 58q-38 -38 -80 -60q-42 -22 -80 -22q-51 0 -77.5 32q-26.5 32 -26.5 80q0 55 44 99q42 42 220 103l0 62q-1 39 -22.5 63.5q-21.5 24.5 -66.5 24.5q-36 0 -55.5 -18q-19.5 -18 -19.5 -43q0 -6 1 -16q1 -10 1 -15q-1 -41 -43 -41q-19 -1 -29 12q-10 13 -10 35q0 52 53 85q54 33 120 33q73 -1 114 -30q41 -29 42 -95l0 -283q0 -29 26 -29q12 0 25.5 7q13.5 7 23.5 18zM297 276q-106 -37 -145 -71q-37 -33 -37 -80q0 -37 21.5 -58q21.5 -21 56.5 -21q40 -1 104 52zM271 519l-115 115q-5 5 -10 16q-5 11 -5 25q0 17 16 28.5q16 11.5 37 11.5q32 -2 46 -41l56 -155z" />
<glyph unicode="&#225;" horiz-adv-x="467" d="M467 66q-33 -40 -59.5 -57q-26.5 -17 -53.5 -17q-29 0 -44 24q-15 24 -13 58q-38 -38 -80 -60q-42 -22 -80 -22q-51 0 -77.5 32q-26.5 32 -26.5 80q0 55 44 99q42 42 220 103l0 62q-1 39 -22.5 63.5q-21.5 24.5 -66.5 24.5q-36 0 -55.5 -18q-19.5 -18 -19.5 -43q0 -6 1 -16q1 -10 1 -15q-1 -41 -43 -41q-19 -1 -29 12q-10 13 -10 35q0 52 53 85q54 33 120 33q73 -1 114 -30q41 -29 42 -95l0 -283q0 -29 26 -29q12 0 25.5 7q13.5 7 23.5 18zM297 276q-106 -37 -145 -71q-37 -33 -37 -80q0 -37 21.5 -58q21.5 -21 56.5 -21q40 -1 104 52zM252 674q14 41 46 41q22 0 37.5 -11q15.5 -11 15.5 -29q0 -26 -15 -41l-115 -115l-25 0z" />
<glyph unicode="&#226;" horiz-adv-x="467" d="M467 66q-33 -40 -59.5 -57q-26.5 -17 -53.5 -17q-29 0 -44 24q-15 24 -13 58q-38 -38 -80 -60q-42 -22 -80 -22q-51 0 -77.5 32q-26.5 32 -26.5 80q0 55 44 99q42 42 220 103l0 62q-1 39 -22.5 63.5q-21.5 24.5 -66.5 24.5q-36 0 -55.5 -18q-19.5 -18 -19.5 -43q0 -6 1 -16q1 -10 1 -15q-1 -41 -43 -41q-19 -1 -29 12q-10 13 -10 35q0 52 53 85q54 33 120 33q73 -1 114 -30q41 -29 42 -95l0 -283q0 -29 26 -29q12 0 25.5 7q13.5 7 23.5 18zM297 276q-106 -37 -145 -71q-37 -33 -37 -80q0 -37 21.5 -58q21.5 -21 56.5 -21q40 -1 104 52zM122 532h-34l99 168h92l99 -168h-34l-111 121z" />
<glyph unicode="&#227;" horiz-adv-x="467" d="M467 66q-33 -40 -59.5 -57q-26.5 -17 -53.5 -17q-29 0 -44 24q-15 24 -13 58q-38 -38 -80 -60q-42 -22 -80 -22q-51 0 -77.5 32q-26.5 32 -26.5 80q0 55 44 99q42 42 220 103l0 62q-1 39 -22.5 63.5q-21.5 24.5 -66.5 24.5q-36 0 -55.5 -18q-19.5 -18 -19.5 -43q0 -6 1 -16q1 -10 1 -15q-1 -41 -43 -41q-19 -1 -29 12q-10 13 -10 35q0 52 53 85q54 33 120 33q73 -1 114 -30q41 -29 42 -95l0 -283q0 -29 26 -29q12 0 25.5 7q13.5 7 23.5 18zM297 276q-106 -37 -145 -71q-37 -33 -37 -80q0 -37 21.5 -58q21.5 -21 56.5 -21q40 -1 104 52zM40 562q10 43 48 75q40 32 82 32q14 0 31.5 -4q17.5 -4 58.5 -18q35 -13 52.5 -18q17.5 -5 27.5 -5q18 0 30.5 7.5q12.5 7.5 29.5 37.5l26 0q-19 -51 -50 -79q-31 -28 -67 -28q-18 0 -38 4q-20 4 -50 15q-29 10 -47 15q-18 5 -26 7q-8 2 -13.5 3q-5.5 1 -10.5 2q-16 0 -32.5 -12q-16.5 -12 -25.5 -34z" />
<glyph unicode="&#228;" horiz-adv-x="467" d="M467 66q-33 -40 -59.5 -57q-26.5 -17 -53.5 -17q-29 0 -44 24q-15 24 -13 58q-38 -38 -80 -60q-42 -22 -80 -22q-51 0 -77.5 32q-26.5 32 -26.5 80q0 55 44 99q42 42 220 103l0 62q-1 39 -22.5 63.5q-21.5 24.5 -66.5 24.5q-36 0 -55.5 -18q-19.5 -18 -19.5 -43q0 -6 1 -16q1 -10 1 -15q-1 -41 -43 -41q-19 -1 -29 12q-10 13 -10 35q0 52 53 85q54 33 120 33q73 -1 114 -30q41 -29 42 -95l0 -283q0 -29 26 -29q12 0 25.5 7q13.5 7 23.5 18zM297 276q-106 -37 -145 -71q-37 -33 -37 -80q0 -37 21.5 -58q21.5 -21 56.5 -21q40 -1 104 52zM97 647q-1 22 15 38q16 16 39 16q22 -1 38 -16.5q16 -15.5 16 -37.5q0 -23 -16 -38.5q-16 -15.5 -38 -15.5q-23 0 -38.5 15.5q-15.5 15.5 -15.5 38.5zt0 0zM267 647q0 22 15.5 38q15.5 16 38.5 16q22 0 38 -16q16 -16 16 -38q-1 -23 -16.5 -38.5q-15.5 -15.5 -37.5 -15.5q-23 0 -38.5 15.5t-15.5 38.5z" />
<glyph unicode="&#229;" horiz-adv-x="467" d="M467 66q-33 -40 -59.5 -57q-26.5 -17 -53.5 -17q-29 0 -44 24q-15 24 -13 58q-38 -38 -80 -60q-42 -22 -80 -22q-51 0 -77.5 32q-26.5 32 -26.5 80q0 55 44 99q42 42 220 103l0 62q-1 39 -22.5 63.5q-21.5 24.5 -66.5 24.5q-36 0 -55.5 -18q-19.5 -18 -19.5 -43q0 -6 1 -16q1 -10 1 -15q-1 -41 -43 -41q-19 -1 -29 12q-10 13 -10 35q0 52 53 85q54 33 120 33q73 -1 114 -30q41 -29 42 -95l0 -283q0 -29 26 -29q12 0 25.5 7q13.5 7 23.5 18zM297 276q-106 -37 -145 -71q-37 -33 -37 -80q0 -37 21.5 -58q21.5 -21 56.5 -21q40 -1 104 52zM128 621q0 22 8 41.5q8 19.5 22.5 33.5q14.5 14 33.5 22.5q19 8.5 42 8.5q45 -1 75.5 -31q30.5 -30 30.5 -75q0 -23 -8.5 -42q-8.5 -19 -22.5 -33.5q-14 -14.5 -33.5 -22.5q-19.5 -8 -41.5 -8q-23 0 -42 8q-19 8 -33.5 22.5q-14.5 14.5 -22.5 33.5q-8 19 -8 42zt0 0zM160 621q0 -31 21.5 -52.5q21.5 -21.5 52.5 -21.5q30 0 52 21.5q22 21.5 22 52.5q0 30 -22 52q-22 22 -52 22q-31 0 -52.5 -22t-21.5 -52z" />
<glyph unicode="&#230;" horiz-adv-x="725" d="M572 318q1 29 -6.5 53q-7.5 24 -21 41.5q-13.5 17.5 -32.5 27.5q-19 10 -40 10q-40 0 -67 -36q-27 -36 -33 -96zM293 275q-114 -44 -147 -75q-32 -32 -31 -69q0 -37 19.5 -61q19.5 -24 57.5 -24q27 0 59 18q32 18 66 51q-14 28 -19 59q-5 31 -5 73zM692 181q-23 -90 -77 -139.5q-54 -49.5 -126 -49.5q-51 1 -95.5 26q-44.5 25 -66.5 74q-51 -51 -94 -75.5q-43 -24.5 -85 -24.5q-49 0 -82 30.5q-33 30.5 -33 81.5q0 65 56 109q28 22 79.5 44.5q51.5 22.5 126.5 47.5l0 63q0 42 -23 65q-23 23 -65 23q-35 -1 -54.5 -18q-19.5 -17 -19.5 -43q0 -6 1.5 -16q1.5 -10 1.5 -15q0 -21 -13.5 -31.5q-13.5 -10.5 -30.5 -9.5q-20 -1 -30.5 12q-10.5 13 -9.5 35q0 51 53 84q52 34 118 34q48 0 80 -16.5q32 -16.5 52 -45.5q30 32 65 47q35 15 77 15q88 0 134 -61q48 -62 45 -141l-305 0q-6 -90 38 -155q43 -63 117 -63q51 0 91 33.5q40 33.5 59 85.5z" />
<glyph unicode="&#231;" horiz-adv-x="471" d="M439 175q-29 -99 -77 -141.5q-48 -42.5 -112 -41.5l-12 -42q6 2 13 2q7 0 17 0q46 0 70 -20q24 -20 24 -55q-1 -39 -36 -63q-35 -24 -98 -24q-28 0 -48 4.5q-20 4.5 -42 13.5l7 20q30 -10 66 -10q35 0 56 13q21 13 21 36q0 17 -15 26q-15 9 -41 9q-6 0 -15 -1q-9 -1 -23 -4l26 96q-87 8 -136 77q-50 71 -50 171q-2 102 63 174q64 71 164 73q68 0 112 -32q44 -32 44 -70q0 -24 -11.5 -38q-11.5 -14 -32.5 -14q-45 0 -52 52q-7 40 -23 55q-16 15 -49 16q-27 0 -51 -12.5q-24 -12.5 -41.5 -36q-17.5 -23.5 -27 -58q-9.5 -34.5 -9.5 -78.5q0 -44 10.5 -80.5q10.5 -36.5 31 -63q20.5 -26.5 50 -41.5q29.5 -15 67.5 -15q48 0 86.5 29q38.5 29 54.5 80z" />
<glyph unicode="&#232;" horiz-adv-x="461" d="M106 299q-5 -102 39 -167q43 -64 118 -64q48 0 88.5 32.5q40.5 32.5 60.5 86.5l16 -6q-11 -42 -29.5 -76.5q-18.5 -34.5 -45 -59.5q-26.5 -25 -59 -39q-32.5 -14 -69.5 -14q-44 0 -79 17q-35 17 -60.5 49.5q-25.5 32.5 -39 78.5q-13.5 46 -13.5 103q0 106 56 177q57 71 148 71q77 0 127 -53q49 -52 48 -136zM308 331q1 25 -6.5 47q-7.5 22 -21 38q-13.5 16 -32 25q-18.5 9 -39.5 9q-45 0 -71 -34q-26 -34 -30 -85zM223 519l-115 115q-5 5 -10 16q-5 11 -5 25q0 17 16 28.5q16 11.5 37 11.5q32 -2 46 -41l56 -155z" />
<glyph unicode="&#233;" horiz-adv-x="461" d="M106 299q-5 -102 39 -167q43 -64 118 -64q48 0 88.5 32.5q40.5 32.5 60.5 86.5l16 -6q-11 -42 -29.5 -76.5q-18.5 -34.5 -45 -59.5q-26.5 -25 -59 -39q-32.5 -14 -69.5 -14q-44 0 -79 17q-35 17 -60.5 49.5q-25.5 32.5 -39 78.5q-13.5 46 -13.5 103q0 106 56 177q57 71 148 71q77 0 127 -53q49 -52 48 -136zM308 331q1 25 -6.5 47q-7.5 22 -21 38q-13.5 16 -32 25q-18.5 9 -39.5 9q-45 0 -71 -34q-26 -34 -30 -85zM249 674q14 41 46 41q22 0 37.5 -11q15.5 -11 15.5 -29q0 -26 -15 -41l-115 -115l-25 0z" />
<glyph unicode="&#234;" horiz-adv-x="461" d="M106 299q-5 -102 39 -167q43 -64 118 -64q48 0 88.5 32.5q40.5 32.5 60.5 86.5l16 -6q-11 -42 -29.5 -76.5q-18.5 -34.5 -45 -59.5q-26.5 -25 -59 -39q-32.5 -14 -69.5 -14q-44 0 -79 17q-35 17 -60.5 49.5q-25.5 32.5 -39 78.5q-13.5 46 -13.5 103q0 106 56 177q57 71 148 71q77 0 127 -53q49 -52 48 -136zM308 331q1 25 -6.5 47q-7.5 22 -21 38q-13.5 16 -32 25q-18.5 9 -39.5 9q-45 0 -71 -34q-26 -34 -30 -85zM119 532h-34l99 168h92l99 -168h-34l-111 121z" />
<glyph unicode="&#235;" horiz-adv-x="461" d="M106 299q-5 -102 39 -167q43 -64 118 -64q48 0 88.5 32.5q40.5 32.5 60.5 86.5l16 -6q-11 -42 -29.5 -76.5q-18.5 -34.5 -45 -59.5q-26.5 -25 -59 -39q-32.5 -14 -69.5 -14q-44 0 -79 17q-35 17 -60.5 49.5q-25.5 32.5 -39 78.5q-13.5 46 -13.5 103q0 106 56 177q57 71 148 71q77 0 127 -53q49 -52 48 -136zM308 331q1 25 -6.5 47q-7.5 22 -21 38q-13.5 16 -32 25q-18.5 9 -39.5 9q-45 0 -71 -34q-26 -34 -30 -85zM94 647q-1 22 15 38q16 16 39 16q22 -1 38 -16.5q16 -15.5 16 -37.5q0 -23 -16 -38.5q-16 -15.5 -38 -15.5q-23 0 -38.5 15.5q-15.5 15.5 -15.5 38.5zt0 0zM264 647q0 22 15.5 38q15.5 16 38.5 16q22 0 38 -16q16 -16 16 -38q-1 -23 -16.5 -38.5q-15.5 -15.5 -37.5 -15.5q-23 0 -38.5 15.5t-15.5 38.5z" />
<glyph unicode="&#236;" horiz-adv-x="278" d="M188 92q-1 -48 18 -63.5q19 -15.5 55 -15.5h10v-13h-251v13h10q35 -1 54 15q19 16 19 64v260q0 38 -9.5 54.5q-9.5 16.5 -28.5 16.5q-8 0 -17 -2q-9 -2 -16 -4l-4 13l160 61zM174 519l-115 115q-5 5 -10 16q-5 11 -5 25q0 17 16 28.5q16 11.5 37 11.5q32 -2 46 -41l56 -155z" />
<glyph unicode="&#237;" horiz-adv-x="278" d="M188 92q-1 -48 18 -63.5q19 -15.5 55 -15.5h10v-13h-251v13h10q35 -1 54 15q19 16 19 64v260q0 38 -9.5 54.5q-9.5 16.5 -28.5 16.5q-8 0 -17 -2q-9 -2 -16 -4l-4 13l160 61zM155 674q14 41 46 41q22 0 37.5 -11q15.5 -11 15.5 -29q0 -26 -15 -41l-115 -115l-25 0z" />
<glyph unicode="&#238;" horiz-adv-x="278" d="M188 92q-1 -48 18 -63.5q19 -15.5 55 -15.5h10v-13h-251v13h10q35 -1 54 15q19 16 19 64v260q0 38 -9.5 54.5q-9.5 16.5 -28.5 16.5q-8 0 -17 -2q-9 -2 -16 -4l-4 13l160 61zM10 532h-34l99 168h92l99 -168h-34l-111 121z" />
<glyph unicode="&#239;" horiz-adv-x="278" d="M188 92q-1 -48 18 -63.5q19 -15.5 55 -15.5h10v-13h-251v13h10q35 -1 54 15q19 16 19 64v260q0 38 -9.5 54.5q-9.5 16.5 -28.5 16.5q-8 0 -17 -2q-9 -2 -16 -4l-4 13l160 61zM4 647q0 22 15.5 37.5q15.5 15.5 38.5 16.5q22 0 38 -16q16 -16 16 -38q0 -23 -16 -38.5q-16 -15.5 -38 -15.5q-23 0 -38.5 15.5q-15.5 15.5 -15.5 38.5zt0 0zM173 647q-1 22 15 38q16 16 39 16q22 0 38 -16q16 -16 16 -38q0 -23 -16 -38.5q-16 -15.5 -38 -15.5q-23 0 -38.5 15.5t-15.5 38.5z" />
<glyph unicode="&#240;" horiz-adv-x="534" d="M132 245q0 -91 44 -156q45 -65 108 -63q58 0 89 56.5q31 56.5 31 162.5q0 87 -39 147q-39 59 -105 61q-60 0 -94 -53q-34 -53 -34 -155zt0 0zM340 640q78 -51 120 -138q42 -87 42 -210q0 -135 -63 -217q-63 -83 -171 -83q-115 0 -175 74q-59 76 -59 173q-1 100 67 175q67 72 167 74q40 0 75 -20q35 -20 57 -51l2 0q-9 55 -38 104q-29 49 -80 87l-124 -73l-21 25l118 71q-31 20 -65.5 35.5q-34.5 15.5 -72.5 25.5l0 24q51 -5 98 -19q47 -14 92 -36l99 58l21 -26z" />
<glyph unicode="&#241;" horiz-adv-x="557" d="M188 383q57 64 89 84q34 21 70 21q57 -1 92 -38.5q35 -37.5 35 -106.5v-251q-1 -48 18 -63.5q19 -15.5 55 -15.5h10v-13h-238v13h10q30 -1 45 15.5q15 16.5 15 63.5v242q0 48 -18 70q-18 22 -51 22q-33 0 -65 -16q-32 -16 -67 -52l0 -266q0 -47 14.5 -63.5q14.5 -16.5 45.5 -15.5l10 0v-13h-238v13h10q35 -1 54 15q19 16 19 64v260q0 38 -9.5 54.5q-9.5 16.5 -28.5 16.5q-8 0 -17 -2q-9 -2 -16 -4l-4 13l160 61zM88 562q10 43 48 75q40 32 82 32q14 0 31.5 -4q17.5 -4 58.5 -18q35 -13 52.5 -18q17.5 -5 27.5 -5q18 0 30.5 7.5q12.5 7.5 29.5 37.5l26 0q-19 -51 -50 -79q-31 -28 -67 -28q-18 0 -38 4q-20 4 -50 15q-29 10 -47 15q-18 5 -26 7q-8 2 -13.5 3q-5.5 1 -10.5 2q-16 0 -32.5 -12q-16.5 -12 -25.5 -34z" />
<glyph unicode="&#242;" horiz-adv-x="534" d="M267 -8q-103 0 -169 68q-65 70 -65 179q0 104 67 175q67 73 170 74q101 -2 165 -71q64 -69 66 -177q0 -108 -67 -178q-66 -70 -167 -70zt0 0zM131 245q0 -90 44 -155q45 -64 108 -64q57 0 88.5 54q31.5 54 31.5 165q-2 79 -44 142q-44 65 -107 66q-57 0 -89 -51q-32 -51 -32 -157zt0 0zM270 519l-115 115q-5 5 -10 16q-5 11 -5 25q0 17 16 28.5q16 11.5 37 11.5q32 -2 46 -41l56 -155z" />
<glyph unicode="&#243;" horiz-adv-x="534" d="M267 -8q-103 0 -169 68q-65 70 -65 179q0 104 67 175q67 73 170 74q101 -2 165 -71q64 -69 66 -177q0 -108 -67 -178q-66 -70 -167 -70zt0 0zM131 245q0 -90 44 -155q45 -64 108 -64q57 0 88.5 54q31.5 54 31.5 165q-2 79 -44 142q-44 65 -107 66q-57 0 -89 -51q-32 -51 -32 -157zt0 0zM273 674q14 41 46 41q22 0 37.5 -11q15.5 -11 15.5 -29q0 -26 -15 -41l-115 -115l-25 0z" />
<glyph unicode="&#244;" horiz-adv-x="534" d="M267 -8q-103 0 -169 68q-65 70 -65 179q0 104 67 175q67 73 170 74q101 -2 165 -71q64 -69 66 -177q0 -108 -67 -178q-66 -70 -167 -70zt0 0zM131 245q0 -90 44 -155q45 -64 108 -64q57 0 88.5 54q31.5 54 31.5 165q-2 79 -44 142q-44 65 -107 66q-57 0 -89 -51q-32 -51 -32 -157zt0 0zM158 532h-34l99 168h92l99 -168h-34l-111 121z" />
<glyph unicode="&#245;" horiz-adv-x="534" d="M267 -8q-103 0 -169 68q-65 70 -65 179q0 104 67 175q67 73 170 74q101 -2 165 -71q64 -69 66 -177q0 -108 -67 -178q-66 -70 -167 -70zt0 0zM131 245q0 -90 44 -155q45 -64 108 -64q57 0 88.5 54q31.5 54 31.5 165q-2 79 -44 142q-44 65 -107 66q-57 0 -89 -51q-32 -51 -32 -157zt0 0zM76 562q10 43 48 75q40 32 82 32q14 0 31.5 -4q17.5 -4 58.5 -18q35 -13 52.5 -18q17.5 -5 27.5 -5q18 0 30.5 7.5q12.5 7.5 29.5 37.5l26 0q-19 -51 -50 -79q-31 -28 -67 -28q-18 0 -38 4q-20 4 -50 15q-29 10 -47 15q-18 5 -26 7q-8 2 -13.5 3q-5.5 1 -10.5 2q-16 0 -32.5 -12q-16.5 -12 -25.5 -34z" />
<glyph unicode="&#246;" horiz-adv-x="534" d="M267 -8q-103 0 -169 68q-65 70 -65 179q0 104 67 175q67 73 170 74q101 -2 165 -71q64 -69 66 -177q0 -108 -67 -178q-66 -70 -167 -70zt0 0zM131 245q0 -90 44 -155q45 -64 108 -64q57 0 88.5 54q31.5 54 31.5 165q-2 79 -44 142q-44 65 -107 66q-57 0 -89 -51q-32 -51 -32 -157zt0 0zM129 647q-1 22 15 38q16 16 39 16q22 -1 38 -16.5q16 -15.5 16 -37.5q0 -23 -16 -38.5q-16 -15.5 -38 -15.5q-23 0 -38.5 15.5q-15.5 15.5 -15.5 38.5zt0 0zM299 647q0 22 15.5 38q15.5 16 38.5 16q22 0 38 -16q16 -16 16 -38q-1 -23 -16.5 -38.5q-15.5 -15.5 -37.5 -15.5q-23 0 -38.5 15.5t-15.5 38.5z" />
<glyph unicode="&#247;" horiz-adv-x="712" d="M298 162q0 23 17 40.5q17 17.5 41 17.5q23 0 40.5 -17.5q17.5 -17.5 17.5 -40.5q0 -24 -17.5 -41q-17.5 -17 -40.5 -17q-24 0 -41 17q-17 17 -17 41zt0 0zM298 564q0 23 17 40.5q17 17.5 41 17.5q23 -1 40.5 -18q17.5 -17 17.5 -40q-1 -24 -18 -41q-17 -17 -40 -17q-24 0 -41 17q-17 17 -17 41zt0 0zM46 390h620v-52l-620 0z" />
<glyph unicode="&#248;" horiz-adv-x="534" d="M188 76q17 -24 42 -37q25 -13 53 -13q57 0 88 54q31 54 32 165q-1 28 -11 63.5q-10 35.5 -30 71.5zM131 275q0 -54 9.5 -96q9.5 -42 30.5 -78l175 304q-36 48 -92 48q-57 0 -90 -45.5q-33 -45.5 -33 -132.5zt0 0zM267 -8q-34 1 -61 6q-27 5 -52 19l-43 -74l-24 14l43 74q-51 37 -74 92q-23 55 -23 116q0 104 67 175q67 73 167 74q28 0 57.5 -7q29.5 -7 54.5 -18l44 75l22 -13l-43 -76q51 -38 75 -90.5q24 -52.5 24 -118.5q0 -106 -67 -177q-68 -71 -167 -71z" />
<glyph unicode="&#249;" horiz-adv-x="536" d="M454 131q-1 -43 10 -57.5q11 -14.5 32 -14.5q15 0 28 7l5 -12l-160 -61v103q-50 -57 -86.5 -80q-36.5 -23 -77.5 -24q-123 0 -122 144l0 251q-1 46 -19.5 62.5q-18.5 16.5 -53.5 16.5h-10v13h168v-334q0 -52 16.5 -72q16.5 -20 58.5 -20q27 0 60 17q33 17 66 52l0 265q0 47 -19 63q-19 16 -54 16h-10v13h168zM274 519l-115 115q-5 5 -10 16q-5 11 -5 25q0 17 16 28.5q16 11.5 37 11.5q32 -2 46 -41l56 -155z" />
<glyph unicode="&#250;" horiz-adv-x="536" d="M454 131q-1 -43 10 -57.5q11 -14.5 32 -14.5q15 0 28 7l5 -12l-160 -61v103q-50 -57 -86.5 -80q-36.5 -23 -77.5 -24q-123 0 -122 144l0 251q-1 46 -19.5 62.5q-18.5 16.5 -53.5 16.5h-10v13h168v-334q0 -52 16.5 -72q16.5 -20 58.5 -20q27 0 60 17q33 17 66 52l0 265q0 47 -19 63q-19 16 -54 16h-10v13h168zM288 674q14 41 46 41q22 0 37.5 -11q15.5 -11 15.5 -29q0 -26 -15 -41l-115 -115l-25 0z" />
<glyph unicode="&#251;" horiz-adv-x="536" d="M454 131q-1 -43 10 -57.5q11 -14.5 32 -14.5q15 0 28 7l5 -12l-160 -61v103q-50 -57 -86.5 -80q-36.5 -23 -77.5 -24q-123 0 -122 144l0 251q-1 46 -19.5 62.5q-18.5 16.5 -53.5 16.5h-10v13h168v-334q0 -52 16.5 -72q16.5 -20 58.5 -20q27 0 60 17q33 17 66 52l0 265q0 47 -19 63q-19 16 -54 16h-10v13h168zM147 532h-34l99 168h92l99 -168h-34l-111 121z" />
<glyph unicode="&#252;" horiz-adv-x="536" d="M454 131q-1 -43 10 -57.5q11 -14.5 32 -14.5q15 0 28 7l5 -12l-160 -61v103q-50 -57 -86.5 -80q-36.5 -23 -77.5 -24q-123 0 -122 144l0 251q-1 46 -19.5 62.5q-18.5 16.5 -53.5 16.5h-10v13h168v-334q0 -52 16.5 -72q16.5 -20 58.5 -20q27 0 60 17q33 17 66 52l0 265q0 47 -19 63q-19 16 -54 16h-10v13h168zM134 647q-1 22 15 38q16 16 39 16q22 -1 38 -16.5q16 -15.5 16 -37.5q0 -23 -16 -38.5q-16 -15.5 -38 -15.5q-23 0 -38.5 15.5q-15.5 15.5 -15.5 38.5zt0 0zM304 647q0 22 15.5 38q15.5 16 38.5 16q22 0 38 -16q16 -16 16 -38q-1 -23 -16.5 -38.5q-15.5 -15.5 -37.5 -15.5q-23 0 -38.5 15.5t-15.5 38.5z" />
<glyph unicode="&#253;" horiz-adv-x="474" d="M208 479v-13q-35 0 -47.5 -16q-12.5 -16 -1.5 -42l117 -291l93 260q3 9 6 25q3 16 4 26q0 15 -13 26.5q-13 11.5 -32 11.5h-14v13h167v-13q-22 -2 -38.5 -17q-16.5 -15 -31.5 -57l-157 -420q-31 -81 -69 -116q-38 -35 -90 -35q-32 0 -48.5 15q-16.5 15 -16.5 36q0 20 15 34q15 14 40 14q7 0 13.5 -1.5q6.5 -1.5 22.5 -8.5q9 -4 17.5 -6.5q8.5 -2.5 16.5 -2.5q40 0 75 99l-171 408q-12 26 -30.5 42q-18.5 16 -37.5 16l0 13zM256 674q14 41 46 41q22 0 37.5 -11q15.5 -11 15.5 -29q0 -26 -15 -41l-115 -115l-25 0z" />
<glyph unicode="&#254;" horiz-adv-x="531" d="M168 125q0 -48 32 -73.5q32 -25.5 77 -25.5q56 0 91 54q35 55 37 138q0 96 -37 149q-37 53 -103 53q-26 0 -52 -17.5q-26 -17.5 -45 -45.5zM168 397q71 91 155 91q79 0 127 -69q48 -68 48 -171q0 -105 -66 -180q-64 -74 -155 -76q-29 0 -56.5 7.5q-27.5 7.5 -52.5 25.5l0 -110q-1 -47 18 -62.5q19 -15.5 60 -16.5l19 0v-13h-265v13h10q35 0 53.5 16q18.5 16 19.5 63l0 655q0 38 -9.5 54q-9.5 16 -28.5 17q-8 0 -17 -2q-9 -2 -16 -4l-4 13l160 61z" />
<glyph unicode="&#255;" horiz-adv-x="474" d="M208 479v-13q-35 0 -47.5 -16q-12.5 -16 -1.5 -42l117 -291l93 260q3 9 6 25q3 16 4 26q0 15 -13 26.5q-13 11.5 -32 11.5h-14v13h167v-13q-22 -2 -38.5 -17q-16.5 -15 -31.5 -57l-157 -420q-31 -81 -69 -116q-38 -35 -90 -35q-32 0 -48.5 15q-16.5 15 -16.5 36q0 20 15 34q15 14 40 14q7 0 13.5 -1.5q6.5 -1.5 22.5 -8.5q9 -4 17.5 -6.5q8.5 -2.5 16.5 -2.5q40 0 75 99l-171 408q-12 26 -30.5 42q-18.5 16 -37.5 16l0 13zM130 647q-1 22 15 38q16 16 39 16q22 -1 38 -16.5q16 -15.5 16 -37.5q0 -23 -16 -38.5q-16 -15.5 -38 -15.5q-23 0 -38.5 15.5q-15.5 15.5 -15.5 38.5zt0 0zM300 647q0 22 15.5 38q15.5 16 38.5 16q22 0 38 -16q16 -16 16 -38q-1 -23 -16.5 -38.5q-15.5 -15.5 -37.5 -15.5q-23 0 -38.5 15.5t-15.5 38.5z" />
<glyph unicode="&#256;" horiz-adv-x="683" d="M-19 13q27 4 47.5 25q20.5 21 42.5 70l266 601h9l267 -601q25 -58 44 -75q17 -15 59 -20l0 -13h-280v13q39 6 54.5 15.5q15.5 9.5 15.5 28.5q0 19 -7 38l-58 134h-264l-57 -133q-10 -23 -11 -28.5q-1 -5.5 -1 -9.5q-1 -21 19.5 -33q20.5 -12 52.5 -12l0 -13h-199zM196 272h227l-114 261zM526 832v-40h-192h-192l0 40z" />
<glyph unicode="&#257;" horiz-adv-x="467" d="M467 66q-33 -40 -59.5 -57q-26.5 -17 -53.5 -17q-29 0 -44 24q-15 24 -13 58q-38 -38 -80 -60q-42 -22 -80 -22q-51 0 -77.5 32q-26.5 32 -26.5 80q0 55 44 99q42 42 220 103l0 62q-1 39 -22.5 63.5q-21.5 24.5 -66.5 24.5q-36 0 -55.5 -18q-19.5 -18 -19.5 -43q0 -6 1 -16q1 -10 1 -15q-1 -41 -43 -41q-19 -1 -29 12q-10 13 -10 35q0 52 53 85q54 33 120 33q73 -1 114 -30q41 -29 42 -95l0 -283q0 -29 26 -29q12 0 25.5 7q13.5 7 23.5 18zM297 276q-106 -37 -145 -71q-37 -33 -37 -80q0 -37 21.5 -58q21.5 -21 56.5 -21q40 -1 104 52zM391 634v-40h-158h-158l0 40z" />
<glyph unicode="&#258;" horiz-adv-x="683" d="M-19 13q27 4 47.5 25q20.5 21 42.5 70l266 601h9l267 -601q25 -58 44 -75q17 -15 59 -20l0 -13h-280v13q39 6 54.5 15.5q15.5 9.5 15.5 28.5q0 19 -7 38l-58 134h-264l-57 -133q-10 -23 -11 -28.5q-1 -5.5 -1 -9.5q-1 -21 19.5 -33q20.5 -12 52.5 -12l0 -13h-199zM196 272h227l-114 261zM483 885q-8 -63 -42.5 -101q-34.5 -38 -97.5 -38q-63 0 -98 38q-35 38 -42 101l38 0q6 -39 33 -60.5q27 -21.5 69 -21.5q42 0 68.5 21.5q26.5 21.5 33.5 60.5z" />
<glyph unicode="&#259;" horiz-adv-x="467" d="M467 66q-33 -40 -59.5 -57q-26.5 -17 -53.5 -17q-29 0 -44 24q-15 24 -13 58q-38 -38 -80 -60q-42 -22 -80 -22q-51 0 -77.5 32q-26.5 32 -26.5 80q0 55 44 99q42 42 220 103l0 62q-1 39 -22.5 63.5q-21.5 24.5 -66.5 24.5q-36 0 -55.5 -18q-19.5 -18 -19.5 -43q0 -6 1 -16q1 -10 1 -15q-1 -41 -43 -41q-19 -1 -29 12q-10 13 -10 35q0 52 53 85q54 33 120 33q73 -1 114 -30q41 -29 42 -95l0 -283q0 -29 26 -29q12 0 25.5 7q13.5 7 23.5 18zM297 276q-106 -37 -145 -71q-37 -33 -37 -80q0 -37 21.5 -58q21.5 -21 56.5 -21q40 -1 104 52zM126 700q2 -48 29.5 -78q27.5 -30 78.5 -30q51 0 78 30q27 30 30 78l27 0v-25q0 -29 -8.5 -54.5q-8.5 -25.5 -26 -44.5q-17.5 -19 -42.5 -30q-25 -11 -58 -11q-33 0 -58.5 11q-25.5 11 -42.5 30q-17 19 -25.5 44.5q-8.5 25.5 -8.5 54.5l0 25z" />
<glyph unicode="&#260;" horiz-adv-x="683" d="M-20 13q26 4 41 18q15 12 27 32.5q12 20.5 23 44.5l266 601h9l281 -631q10 -22 19 -32.5q9 -10.5 12 -12.5q11 -9 25 -13.5q14 -4.5 33 -6.5l0 -13h-55q-14 -16 -21 -30q-7 -14 -9 -19q-6 -17 -7.5 -29.5q-1.5 -12.5 -1.5 -17.5q0 -11 2.5 -23.5q2.5 -12.5 9.5 -20.5q3 -4 12 -10.5q9 -6.5 26 -6.5q13 0 26 5.5q13 5.5 27 22.5l11 -8q-10 -21 -21 -33.5q-11 -12.5 -16 -16.5q-29 -25 -66 -25q-23 0 -37 8q-14 8 -22 16q-18 20 -18 49q0 26 12.5 48.5q12.5 22.5 34.5 47.5l37 43h-204v13q11 2 27 6q16 4 25 9q19 11 19 33q0 8 -2.5 17q-2.5 9 -5.5 17l-58 134h-264l-57 -133q-4 -8 -8 -18.5q-4 -10.5 -4 -21.5q0 -21 23 -32q8 -5 22 -8q14 -3 27 -3l0 -13h-200zM196 272h227l-114 261z" />
<glyph unicode="&#261;" horiz-adv-x="467" d="M467 66q-23 -27 -45 -48q-17 -16 -28 -34.5q-11 -18.5 -17 -32.5q-4 -11 -6.5 -23q-2.5 -12 -2.5 -24q0 -11 2.5 -23.5q2.5 -12.5 9.5 -20.5q3 -4 12 -10.5q9 -6.5 26 -6.5q13 0 26 5.5q13 5.5 27 22.5l11 -8q-10 -21 -21 -33.5q-11 -12.5 -16 -16.5q-29 -25 -66 -25q-23 0 -37 8q-14 8 -22 16q-18 20 -18 49q0 25 12.5 48q12.5 23 34.5 48l33 38q-11 -4 -24 -4q-31 0 -46 23q-8 12 -12 29q-4 17 -3 31q-18 -19 -34.5 -31.5q-16.5 -12.5 -36.5 -24.5q-20 -13 -38.5 -20q-18.5 -7 -44.5 -7q-29 0 -49 9.5q-20 9.5 -33 24.5q-14 17 -21 39.5q-7 22.5 -7 42.5q0 28 9.5 49.5q9.5 21.5 24 37.5q14.5 16 32 27q17.5 11 32.5 19q14 7 34.5 16q20.5 9 43.5 18q23 9 46 17.5q23 8.5 42 14.5l0 62q0 15 -4 33q-4 18 -19 33q-15 15 -33 18.5q-18 3.5 -32 3.5q-14 0 -28.5 -3.5q-14.5 -3.5 -27.5 -14.5q-20 -18 -20 -44q0 -8 1 -15q1 -7 1 -15q0 -8 -2.5 -16.5q-2.5 -8.5 -10.5 -15.5q-7 -6 -14.5 -7.5q-7.5 -1.5 -15.5 -1.5q-7 0 -14 1.5q-7 1.5 -14 9.5q-8 8 -9.5 18q-1.5 10 -1.5 17q0 18 10.5 41.5q10.5 23.5 46.5 45.5q53 32 126 32q24 0 50.5 -5q26.5 -5 47.5 -18q18 -11 27.5 -23.5q9.5 -12.5 14 -25.5q4.5 -13 5.5 -26.5q1 -13.5 1 -26.5v-283q0 -29 26 -29q13 0 26 7q13 7 23 18zM297 276q-11 -4 -25.5 -9q-14.5 -5 -28.5 -11q-14 -6 -27 -12q-13 -6 -22 -10q-37 -19 -58 -45q-21 -26 -21 -64q0 -32 18 -55q11 -14 24.5 -19q13.5 -5 28.5 -5q16 0 32 5q16 5 30 12.5q14 7.5 26.5 17q12.5 9.5 22.5 17.5z" />
<glyph unicode="&#262;" horiz-adv-x="732" d="M679 481l-13 -2q-14 62 -40.5 96q-26.5 34 -58.5 54q-64 40 -133 40q-24 0 -50.5 -4.5q-26.5 -4.5 -53.5 -16.5q-27 -12 -53 -33q-26 -21 -48 -54q-30 -46 -42 -96.5q-12 -50.5 -12 -107.5q0 -81 19.5 -132.5q19.5 -51.5 43.5 -83.5q43 -57 98 -77.5q55 -20.5 108 -20.5q29 0 66.5 8q37.5 8 79.5 34q24 15 49 36.5q25 21.5 46 47.5l21 -20q-21 -28 -37.5 -45q-16.5 -17 -39 -36.5q-22.5 -19.5 -49.5 -35.5q-40 -23 -82 -32q-42 -9 -89 -9q-20 0 -48.5 3q-28.5 3 -62 13.5q-33.5 10.5 -69.5 30.5q-36 20 -70 54q-43 43 -74.5 109.5q-31.5 66.5 -31.5 152.5q0 78 29 146q29 68 86 119q45 40 107.5 65q62.5 25 149.5 25q35 0 70.5 -6.5q35.5 -6.5 83.5 -23.5q17 -6 26 -9q9 -3 17 -3q20 0 26.5 13.5q6.5 13.5 7.5 23.5l12 0zM561 885v-13l-167 -126h-43l105 139z" />
<glyph unicode="&#263;" horiz-adv-x="470" d="M437 175q-24 -96 -75.5 -139.5q-51.5 -43.5 -123.5 -43.5q-89 2 -147 68q-58 67 -58 178q0 104 64 177q64 73 162 73q62 0 109 -30q47 -29 47 -74q0 -23 -12 -36.5q-12 -13.5 -32 -13.5q-23 0 -35.5 12q-12.5 12 -16.5 40q-8 43 -25.5 56.5q-17.5 13.5 -46.5 13.5q-30 0 -54 -14q-24 -14 -40.5 -39q-16.5 -25 -25.5 -59.5q-9 -34.5 -9 -74.5q0 -44 10.5 -80q10.5 -36 30.5 -62q20 -26 49 -40.5q29 -14.5 66 -14.5q51 0 90 30.5q39 30.5 54 78.5zM254 674q14 41 46 41q22 0 37.5 -11q15.5 -11 15.5 -29q0 -26 -15 -41l-115 -115l-25 0z" />
<glyph unicode="&#264;" horiz-adv-x="732" d="M679 481l-13 -2q-14 62 -40.5 96q-26.5 34 -58.5 54q-64 40 -133 40q-24 0 -50.5 -4.5q-26.5 -4.5 -53.5 -16.5q-27 -12 -53 -33q-26 -21 -48 -54q-30 -46 -42 -96.5q-12 -50.5 -12 -107.5q0 -81 19.5 -132.5q19.5 -51.5 43.5 -83.5q43 -57 98 -77.5q55 -20.5 108 -20.5q29 0 66.5 8q37.5 8 79.5 34q24 15 49 36.5q25 21.5 46 47.5l21 -20q-21 -28 -37.5 -45q-16.5 -17 -39 -36.5q-22.5 -19.5 -49.5 -35.5q-40 -23 -82 -32q-42 -9 -89 -9q-20 0 -48.5 3q-28.5 3 -62 13.5q-33.5 10.5 -69.5 30.5q-36 20 -70 54q-43 43 -74.5 109.5q-31.5 66.5 -31.5 152.5q0 78 29 146q29 68 86 119q45 40 107.5 65q62.5 25 149.5 25q35 0 70.5 -6.5q35.5 -6.5 83.5 -23.5q17 -6 26 -9q9 -3 17 -3q20 0 26.5 13.5q6.5 13.5 7.5 23.5l12 0zM270 746h-51l139 139h106l139 -139h-51l-141 84z" />
<glyph unicode="&#265;" horiz-adv-x="470" d="M437 175q-24 -96 -75.5 -139.5q-51.5 -43.5 -123.5 -43.5q-89 2 -147 68q-58 67 -58 178q0 104 64 177q64 73 162 73q62 0 109 -30q47 -29 47 -74q0 -23 -12 -36.5q-12 -13.5 -32 -13.5q-23 0 -35.5 12q-12.5 12 -16.5 40q-8 43 -25.5 56.5q-17.5 13.5 -46.5 13.5q-30 0 -54 -14q-24 -14 -40.5 -39q-16.5 -25 -25.5 -59.5q-9 -34.5 -9 -74.5q0 -44 10.5 -80q10.5 -36 30.5 -62q20 -26 49 -40.5q29 -14.5 66 -14.5q51 0 90 30.5q39 30.5 54 78.5zM143 532h-34l99 168h92l99 -168h-34l-111 121z" />
<glyph unicode="&#266;" horiz-adv-x="732" d="M679 481l-13 -2q-14 62 -40.5 96q-26.5 34 -58.5 54q-64 40 -133 40q-24 0 -50.5 -4.5q-26.5 -4.5 -53.5 -16.5q-27 -12 -53 -33q-26 -21 -48 -54q-30 -46 -42 -96.5q-12 -50.5 -12 -107.5q0 -81 19.5 -132.5q19.5 -51.5 43.5 -83.5q43 -57 98 -77.5q55 -20.5 108 -20.5q29 0 66.5 8q37.5 8 79.5 34q24 15 49 36.5q25 21.5 46 47.5l21 -20q-21 -28 -37.5 -45q-16.5 -17 -39 -36.5q-22.5 -19.5 -49.5 -35.5q-40 -23 -82 -32q-42 -9 -89 -9q-20 0 -48.5 3q-28.5 3 -62 13.5q-33.5 10.5 -69.5 30.5q-36 20 -70 54q-43 43 -74.5 109.5q-31.5 66.5 -31.5 152.5q0 78 29 146q29 68 86 119q45 40 107.5 65q62.5 25 149.5 25q35 0 70.5 -6.5q35.5 -6.5 83.5 -23.5q17 -6 26 -9q9 -3 17 -3q20 0 26.5 13.5q6.5 13.5 7.5 23.5l12 0zM361 806q-1 22 15 38q16 16 39 16q22 -1 38 -16.5q16 -15.5 16 -37.5q0 -23 -16 -38.5q-16 -15.5 -38 -15.5q-23 0 -38.5 15.5t-15.5 38.5z" />
<glyph unicode="&#267;" horiz-adv-x="470" d="M437 175q-24 -96 -75.5 -139.5q-51.5 -43.5 -123.5 -43.5q-89 2 -147 68q-58 67 -58 178q0 104 64 177q64 73 162 73q62 0 109 -30q47 -29 47 -74q0 -23 -12 -36.5q-12 -13.5 -32 -13.5q-23 0 -35.5 12q-12.5 12 -16.5 40q-8 43 -25.5 56.5q-17.5 13.5 -46.5 13.5q-30 0 -54 -14q-24 -14 -40.5 -39q-16.5 -25 -25.5 -59.5q-9 -34.5 -9 -74.5q0 -44 10.5 -80q10.5 -36 30.5 -62q20 -26 49 -40.5q29 -14.5 66 -14.5q51 0 90 30.5q39 30.5 54 78.5zM201 573q0 22 15.5 38q15.5 16 38.5 16q22 0 38 -16q16 -16 16 -38q0 -23 -16 -38.5q-16 -15.5 -38 -15.5q-23 0 -38.5 15.5t-15.5 38.5z" />
<glyph unicode="&#268;" horiz-adv-x="732" d="M679 481l-13 -2q-14 62 -40.5 96q-26.5 34 -58.5 54q-64 40 -133 40q-24 0 -50.5 -4.5q-26.5 -4.5 -53.5 -16.5q-27 -12 -53 -33q-26 -21 -48 -54q-30 -46 -42 -96.5q-12 -50.5 -12 -107.5q0 -81 19.5 -132.5q19.5 -51.5 43.5 -83.5q43 -57 98 -77.5q55 -20.5 108 -20.5q29 0 66.5 8q37.5 8 79.5 34q24 15 49 36.5q25 21.5 46 47.5l21 -20q-21 -28 -37.5 -45q-16.5 -17 -39 -36.5q-22.5 -19.5 -49.5 -35.5q-40 -23 -82 -32q-42 -9 -89 -9q-20 0 -48.5 3q-28.5 3 -62 13.5q-33.5 10.5 -69.5 30.5q-36 20 -70 54q-43 43 -74.5 109.5q-31.5 66.5 -31.5 152.5q0 78 29 146q29 68 86 119q45 40 107.5 65q62.5 25 149.5 25q35 0 70.5 -6.5q35.5 -6.5 83.5 -23.5q17 -6 26 -9q9 -3 17 -3q20 0 26.5 13.5q6.5 13.5 7.5 23.5l12 0zM554 885h51l-139 -139h-106l-139 139h51l141 -84z" />
<glyph unicode="&#269;" horiz-adv-x="470" d="M437 175q-24 -96 -75.5 -139.5q-51.5 -43.5 -123.5 -43.5q-89 2 -147 68q-58 67 -58 178q0 104 64 177q64 73 162 73q62 0 109 -30q47 -29 47 -74q0 -23 -12 -36.5q-12 -13.5 -32 -13.5q-23 0 -35.5 12q-12.5 12 -16.5 40q-8 43 -25.5 56.5q-17.5 13.5 -46.5 13.5q-30 0 -54 -14q-24 -14 -40.5 -39q-16.5 -25 -25.5 -59.5q-9 -34.5 -9 -74.5q0 -44 10.5 -80q10.5 -36 30.5 -62q20 -26 49 -40.5q29 -14.5 66 -14.5q51 0 90 30.5q39 30.5 54 78.5zM365 700h34l-99 -168h-92l-99 168h34l111 -121z" />
<glyph unicode="&#270;" horiz-adv-x="823" d="M358 700q211 0 317 -97q108 -98 108 -252q0 -160 -111 -256q-110 -95 -275 -95h-351v13h17q40 -1 61.5 15q21.5 16 22.5 56l0 532q0 39 -22 55q-22 16 -62 16h-17v13zM258 52q22 -8 45 -11q23 -3 53 -3q139 0 222 81q83 83 83 236q0 146 -84 226q-84 81 -218 81q-54 -2 -101 -13zM545 885h51l-139 -139h-106l-139 139h51l141 -84z" />
<glyph unicode="&#271;" horiz-adv-x="573" d="M451 713v-582q0 -39 9 -56q9 -17 31 -16q13 0 31 8l4 -12l-160 -62v70q-32 -34 -71.5 -52.5q-39.5 -18.5 -81.5 -18.5q-84 0 -132 72q-48 73 -48 168q0 102 65 179q65 77 156 77q27 0 56 -9q29 -9 56 -27l0 122q0 38 -9.5 54q-9.5 16 -28.5 17q-8 0 -17 -2q-9 -2 -16 -4l-4 13zM366 355q0 20 -8.5 37.5q-8.5 17.5 -23.5 31q-15 13.5 -35 21.5q-20 8 -44 8q-57 0 -95 -56q-38 -57 -37 -140q0 -82 39 -140q40 -58 106 -58q27 0 52 10.5q25 10.5 46 33.5zM485 503q17 4 33 12q16 8 29 20q13 12 20.5 27q7.5 15 7.5 33q0 8 -1.5 13.5q-1.5 5.5 -3.5 10.5q-15 -12 -35 -12q-26 0 -37.5 15q-11.5 15 -11.5 35q0 23 16.5 37.5q16.5 14.5 41.5 14.5q13 0 25.5 -4.5q12.5 -4.5 22.5 -14.5q10 -10 16.5 -26q6.5 -16 6.5 -39q0 -30 -11 -53.5q-11 -23.5 -29 -40.5q-18 -17 -40.5 -28q-22.5 -11 -45.5 -16z" />
<glyph unicode="&#272;" horiz-adv-x="823" d="M258 421h127v-43h-127v-326q25 -7 54.5 -9.5q29.5 -2.5 77.5 -2.5q126 -2 198 87q73 88 73 240q0 136 -83 214q-82 79 -211 79q-33 0 -59.5 -3.5q-26.5 -3.5 -49.5 -8.5zM358 700q194 -2 308 -89q116 -89 117 -256q0 -156 -108 -256q-108 -99 -278 -99h-351v13h17q40 -1 61.5 15q21.5 16 22.5 56l0 294h-101v43h101v195q0 39 -22 55q-22 16 -62 16h-17l0 13z" />
<glyph unicode="&#273;" horiz-adv-x="552" d="M367 355q0 45 -32.5 71.5q-32.5 26.5 -78.5 26.5q-57 0 -95 -56q-36 -56 -36 -140q0 -82 39 -140q40 -58 105 -58q29 0 53 10.5q24 10.5 45 33.5zM452 713v-147h94v-36h-94v-399q-1 -38 8.5 -55q9.5 -17 26.5 -17q9 -1 19 1.5q10 2.5 18 6.5l4 -12l-161 -62v70q-35 -38 -74 -54q-39 -16 -78 -17q-77 0 -129 66q-52 67 -52 174q-1 103 65 180q66 76 156 76q27 -1 56 -9.5q29 -8.5 56 -26.5l0 78h-151v36h151v13q0 35 -9.5 48.5q-9.5 13.5 -28.5 13.5q-10 0 -22.5 -3.5q-12.5 -3.5 -20.5 -6.5l-4 12z" />
<glyph unicode="&#274;" horiz-adv-x="666" d="M588 555l-15 -2q-10 51 -37.5 75.5q-27.5 24.5 -84.5 24.5h-193v-262h180q42 0 59 24q17 24 19 76l13 0v-243h-13q-2 51 -19 75q-17 24 -59 25l-180 0v-301h193q74 0 114 28q41 29 69 103l12 -3l-51 -175h-549v13h17q40 -1 61.5 15q21.5 16 22.5 56l0 532q0 39 -22 55q-22 16 -62 16h-17v13h533zM540 832v-40h-192h-192l0 40z" />
<glyph unicode="&#275;" horiz-adv-x="461" d="M106 299q-5 -102 39 -167q43 -64 118 -64q48 0 88.5 32.5q40.5 32.5 60.5 86.5l16 -6q-11 -42 -29.5 -76.5q-18.5 -34.5 -45 -59.5q-26.5 -25 -59 -39q-32.5 -14 -69.5 -14q-44 0 -79 17q-35 17 -60.5 49.5q-25.5 32.5 -39 78.5q-13.5 46 -13.5 103q0 106 56 177q57 71 148 71q77 0 127 -53q49 -52 48 -136zM308 331q1 25 -6.5 47q-7.5 22 -21 38q-13.5 16 -32 25q-18.5 9 -39.5 9q-45 0 -71 -34q-26 -34 -30 -85zM388 634v-40h-158h-158l0 40z" />
<glyph unicode="&#276;" horiz-adv-x="666" d="M588 555l-15 -2q-10 51 -37.5 75.5q-27.5 24.5 -84.5 24.5h-193v-262h180q42 0 59 24q17 24 19 76l13 0v-243h-13q-2 51 -19 75q-17 24 -59 25l-180 0v-301h193q74 0 114 28q41 29 69 103l12 -3l-51 -175h-549v13h17q40 -1 61.5 15q21.5 16 22.5 56l0 532q0 39 -22 55q-22 16 -62 16h-17v13h533zM494 885q-8 -63 -42.5 -101q-34.5 -38 -97.5 -38q-63 0 -98 38q-35 38 -42 101l38 0q6 -39 33 -60.5q27 -21.5 69 -21.5q42 0 68.5 21.5q26.5 21.5 33.5 60.5z" />
<glyph unicode="&#277;" horiz-adv-x="461" d="M106 299q-5 -102 39 -167q43 -64 118 -64q48 0 88.5 32.5q40.5 32.5 60.5 86.5l16 -6q-11 -42 -29.5 -76.5q-18.5 -34.5 -45 -59.5q-26.5 -25 -59 -39q-32.5 -14 -69.5 -14q-44 0 -79 17q-35 17 -60.5 49.5q-25.5 32.5 -39 78.5q-13.5 46 -13.5 103q0 106 56 177q57 71 148 71q77 0 127 -53q49 -52 48 -136zM308 331q1 25 -6.5 47q-7.5 22 -21 38q-13.5 16 -32 25q-18.5 9 -39.5 9q-45 0 -71 -34q-26 -34 -30 -85zM119 700q2 -48 29.5 -78q27.5 -30 78.5 -30q51 0 78 30q27 30 30 78l27 0v-25q0 -29 -8.5 -54.5q-8.5 -25.5 -26 -44.5q-17.5 -19 -42.5 -30q-25 -11 -58 -11q-33 0 -58.5 11q-25.5 11 -42.5 30q-17 19 -25.5 44.5q-8.5 25.5 -8.5 54.5l0 25z" />
<glyph unicode="&#278;" horiz-adv-x="666" d="M588 555l-15 -2q-10 51 -37.5 75.5q-27.5 24.5 -84.5 24.5h-193v-262h180q42 0 59 24q17 24 19 76l13 0v-243h-13q-2 51 -19 75q-17 24 -59 25l-180 0v-301h193q74 0 114 28q41 29 69 103l12 -3l-51 -175h-549v13h17q40 -1 61.5 15q21.5 16 22.5 56l0 532q0 39 -22 55q-22 16 -62 16h-17v13h533zM309 806q-1 22 15 38q16 16 39 16q22 -1 38 -16.5q16 -15.5 16 -37.5q0 -23 -16 -38.5q-16 -15.5 -38 -15.5q-23 0 -38.5 15.5t-15.5 38.5z" />
<glyph unicode="&#279;" horiz-adv-x="461" d="M106 299q-5 -102 39 -167q43 -64 118 -64q48 0 88.5 32.5q40.5 32.5 60.5 86.5l16 -6q-11 -42 -29.5 -76.5q-18.5 -34.5 -45 -59.5q-26.5 -25 -59 -39q-32.5 -14 -69.5 -14q-44 0 -79 17q-35 17 -60.5 49.5q-25.5 32.5 -39 78.5q-13.5 46 -13.5 103q0 106 56 177q57 71 148 71q77 0 127 -53q49 -52 48 -136zM308 331q1 25 -6.5 47q-7.5 22 -21 38q-13.5 16 -32 25q-18.5 9 -39.5 9q-45 0 -71 -34q-26 -34 -30 -85zM183 573q0 22 15.5 38q15.5 16 38.5 16q22 0 38 -16q16 -16 16 -38q0 -23 -16 -38.5q-16 -15.5 -38 -15.5q-23 0 -38.5 15.5t-15.5 38.5z" />
<glyph unicode="&#280;" horiz-adv-x="666" d="M588 555l-15 -2q-3 18 -11 36q-8 18 -19 32q-19 22 -42.5 27q-23.5 5 -49.5 5h-193v-262h180q14 0 28.5 3q14.5 3 26.5 16q7 8 11.5 19q4.5 11 7 23q2.5 12 3.5 22.5q1 10.5 1 16.5l13 0v-243h-13q0 6 -1 16.5q-1 10.5 -3.5 22.5q-2.5 12 -7 23q-4.5 11 -11.5 19q-12 13 -26.5 16q-14.5 3 -28.5 3h-180v-301h193q47 0 79 10q32 10 58 39q12 14 23.5 33q11.5 19 22.5 49l12 -3l-51 -175h-44q-14 -16 -21 -30q-7 -14 -9 -19q-6 -17 -7.5 -29.5q-1.5 -12.5 -1.5 -17.5q0 -11 2.5 -23.5q2.5 -12.5 9.5 -20.5q3 -4 12 -10.5q9 -6.5 26 -6.5q13 0 26 5.5q13 5.5 27 22.5l11 -8q-10 -21 -21 -33.5q-11 -12.5 -16 -16.5q-29 -25 -66 -25q-23 0 -37 8q-14 8 -22 16q-18 20 -18 49q0 26 12.5 48.5q12.5 22.5 34.5 47.5l37 43h-484v13h17q21 0 36.5 3.5q15.5 3.5 26.5 12.5q15 12 18 26.5q3 14.5 3 28.5v532q0 14 -3 28.5q-3 14.5 -18 26.5q-11 9 -26.5 12.5q-15.5 3.5 -36.5 3.5h-17v13l533 0z" />
<glyph unicode="&#281;" horiz-adv-x="461" d="M106 299q-1 -18 1 -39q2 -21 6 -42q4 -21 11 -41q7 -20 17 -36q25 -42 58.5 -57.5q33.5 -15.5 63.5 -15.5q21 0 45 7.5q24 7.5 48 28.5q17 15 32 36.5q15 21.5 24 46.5l16 -6q-4 -14 -10.5 -32.5q-6.5 -18.5 -18.5 -40.5q-17 -32 -38 -54q-21 -22 -44 -39q-15 -20 -24.5 -33.5q-9.5 -13.5 -16.5 -30.5q-9 -26 -9 -47q0 -11 2.5 -23.5q2.5 -12.5 9.5 -20.5q3 -4 12 -10.5q9 -6.5 26 -6.5q13 0 26 5.5q13 5.5 27 22.5l11 -8q-10 -21 -21 -33.5q-11 -12.5 -16 -16.5q-29 -25 -66 -25q-23 0 -37 8q-14 8 -22 16q-18 20 -18 49q0 25 13 48.5q13 23.5 34 47.5l38 43q-29 -9 -61 -9q-43 0 -79.5 16q-36.5 16 -65.5 58q-24 34 -35.5 77.5q-11.5 43.5 -11.5 92.5q0 56 15 102q15 46 41 80q29 37 66 54q37 17 82 17q42 0 71.5 -13q29.5 -13 49.5 -33q23 -23 38.5 -60.5q15.5 -37.5 15.5 -82.5zM308 331q1 20 -4 41q-5 21 -17 39q-14 21 -33 30q-19 9 -42 9q-51 0 -79 -44q-8 -12 -12.5 -24q-4.5 -12 -7 -22.5q-2.5 -10.5 -4 -18.5q-1.5 -8 -1.5 -10z" />
<glyph unicode="&#282;" horiz-adv-x="666" d="M588 555l-15 -2q-10 51 -37.5 75.5q-27.5 24.5 -84.5 24.5h-193v-262h180q42 0 59 24q17 24 19 76l13 0v-243h-13q-2 51 -19 75q-17 24 -59 25l-180 0v-301h193q74 0 114 28q41 29 69 103l12 -3l-51 -175h-549v13h17q40 -1 61.5 15q21.5 16 22.5 56l0 532q0 39 -22 55q-22 16 -62 16h-17v13h533zM499 885h51l-139 -139h-106l-139 139h51l141 -84z" />
<glyph unicode="&#283;" horiz-adv-x="461" d="M106 299q-5 -102 39 -167q43 -64 118 -64q48 0 88.5 32.5q40.5 32.5 60.5 86.5l16 -6q-11 -42 -29.5 -76.5q-18.5 -34.5 -45 -59.5q-26.5 -25 -59 -39q-32.5 -14 -69.5 -14q-44 0 -79 17q-35 17 -60.5 49.5q-25.5 32.5 -39 78.5q-13.5 46 -13.5 103q0 106 56 177q57 71 148 71q77 0 127 -53q49 -52 48 -136zM308 331q1 25 -6.5 47q-7.5 22 -21 38q-13.5 16 -32 25q-18.5 9 -39.5 9q-45 0 -71 -34q-26 -34 -30 -85zM341 700h34l-99 -168h-92l-99 168h34l111 -121z" />
<glyph unicode="&#284;" horiz-adv-x="838" d="M713 496h-13q-16 43 -42 76q-26 33 -58 54q-35 23 -76 34q-41 11 -78 11q-60 0 -108.5 -23.5q-48.5 -23.5 -83.5 -60.5q-24 -26 -39.5 -55q-15.5 -29 -24.5 -58q-9 -29 -12 -58q-3 -29 -3 -56q0 -74 19 -128.5q19 -54.5 47 -92.5q33 -44 86 -75q53 -31 131 -31q45 0 81 11q36 11 71 39l0 209q0 8 -1 20q-1 12 -8.5 23.5q-7.5 11.5 -25 19.5q-17.5 8 -49.5 8h-7v13h293v-13h-7q-32 0 -49.5 -8q-17.5 -8 -25 -19.5q-7.5 -11.5 -8.5 -23.5q-1 -12 -1 -20v-223q-73 -45 -144.5 -61.5q-71.5 -16.5 -134.5 -16.5q-49 0 -88.5 7q-39.5 7 -70.5 17.5q-31 10.5 -53 22.5q-22 12 -37 23q-30 21 -55.5 49.5q-25.5 28.5 -44 63.5q-18.5 35 -29.5 77q-11 42 -11 89q0 88 32 156q32 68 80 113q19 18 45.5 36q26.5 18 61 32q34.5 14 78 23q43.5 9 96.5 9q22 0 41 -2q19 -2 38 -6q19 -4 39 -10.5q20 -6.5 43 -15.5q12 -5 22.5 -8.5q10.5 -3.5 20.5 -3.5q18 0 26.5 13.5q8.5 13.5 10.5 28.5l13 0zM305 746h-51l139 139h106l139 -139h-51l-141 84z" />
</font>
</defs>
</svg>
