<?xml version="1.0" encoding="UTF-8" standalone="no"?>
<!DOCTYPE svg PUBLIC "-//W3C//DTD SVG 1.1//EN" "http://www.w3.org/Graphics/SVG/1.1/DTD/svg11.dtd" >
<svg xmlns="http://www.w3.org/2000/svg">
<metadata>
Generated by SVGconv.
Copyright   : Copyright  2018 ParaType, Inc., ParaType Ltd. All rights reserved.
Designer    : Alexander Lubovenko
Foundry     : ParaType Ltd
Foundry URL : http://www.paratype.com
</metadata>
<defs>
<font id="ClincherMonoWeb-Bold" horiz-adv-x="598" >
<font-face units-per-em="1000" ascent="950" descent="300" >
<font-face-src>
<font-face-name/>
</font-face-src>
</font-face>
<missing-glyph horiz-adv-x="600" />
<glyph unicode="&#13;" horiz-adv-x="600" />
<glyph unicode="&#32;" horiz-adv-x="600" />
<glyph unicode="&#33;" horiz-adv-x="600" d="M300 -12q-50 0 -71 19q-21 19 -21 70q0 52 21 70q21 18 71 18q50 0 71 -18q21 -18 21 -70q0 -51 -21 -70q-21 -19 -71 -19zt0 0zM401 656l-47 -406h-108l-47 406v104l202 0z" />
<glyph unicode="&#34;" horiz-adv-x="600" d="M107 401l-29 359h195l-30 -359zM357 401l-29 359h195l-30 -359z" />
<glyph unicode="&#35;" horiz-adv-x="600" d="M578 494l-20 -118h-86l-22 -113h82l-20 -118h-84l-27 -145h-125l28 145h-86l-29 -145h-125l30 145h-82l20 118h87l23 113h-82l20 118h87l30 142h122l-29 -142h81l28 142h122l-27 -142zM242 263h85l22 113l-84 0z" />
<glyph unicode="&#36;" horiz-adv-x="600" d="M251 10q-45 4 -87.5 12q-42.5 8 -80.5 17l-26 6v165l48 -21q39 -18 79.5 -29.5q40.5 -11.5 75.5 -16.5l0 156l-74 31q-66 27 -101 71q-35 44 -35 110q0 44 15 76.5q15 32.5 42 54.5q27 22 64.5 34q37.5 12 81.5 15l0 91h95v-93q32 -2 64 -7q32 -5 61 -10l31 -6v-163l-39 14q-69 24 -126 36l2 -135l56 -22q39 -15 68.5 -32.5q29.5 -17.5 50 -40q20.5 -22.5 31 -51.5q10.5 -29 10.5 -68q0 -95 -55.5 -141.5q-55.5 -46.5 -153.5 -53.5l0 -99h-97zM404 200q0 26 -16.5 39.5q-16.5 13.5 -49.5 27.5l0 -127q35 4 50.5 19q15.5 15 15.5 41zt0 0zM198 512q0 -22 16.5 -36q16.5 -14 48.5 -27l-2 113h-3q-25 0 -42.5 -12t-17.5 -38z" />
<glyph unicode="&#37;" horiz-adv-x="600" d="M141 554q0 -36 8.5 -49q8.5 -13 25.5 -13q17 0 25.5 13q8.5 13 8.5 49q0 40 -8.5 54.5q-8.5 14.5 -25.5 14.5q-17 0 -25.5 -14.5q-8.5 -14.5 -8.5 -54.5zt0 0zM27 554q0 86 38 122q38 36 110 36q72 0 110 -36q38 -36 38 -122q0 -82 -38 -116.5q-38 -34.5 -110 -34.5q-72 0 -110 34.5q-38 34.5 -38 116.5zt0 0zM391 139q0 -36 8.5 -49q8.5 -13 25.5 -13q17 0 25.5 13q8.5 13 8.5 49q0 40 -8.5 54.5q-8.5 14.5 -25.5 14.5q-17 0 -25.5 -14.5q-8.5 -14.5 -8.5 -54.5zt0 0zM277 139q0 86 38 122q38 36 110 36q72 0 110 -36q38 -36 38 -122q0 -82 -38 -116.5q-38 -34.5 -110 -34.5q-72 0 -110 34.5q-38 34.5 -38 116.5zt0 0zM63 141v61l407 353h56v-61l-405 -353z" />
<glyph unicode="&#38;" horiz-adv-x="600" d="M432 61h-29q-36 -34 -77.5 -53.5q-41.5 -19.5 -99.5 -19.5q-51 0 -91.5 16.5q-40.5 16.5 -68.5 45q-28 28.5 -43 66.5q-15 38 -15 82q0 52 27.5 99.5q27.5 47.5 96.5 95.5l19 13q-26 35 -39 69q-13 34 -13 72q0 37 13.5 67.5q13.5 30.5 38.5 52.5q25 22 60.5 33.5q35.5 11.5 79.5 11.5q33 0 69.5 -6q36.5 -6 76.5 -16l38 -9v-142l-50 19q-47 18 -73 25.5q-26 7.5 -47 7.5q-26 0 -44.5 -15q-18.5 -15 -18.5 -45q0 -20 10 -40q10 -20 33 -48l125 -156h25l33 61h111v-94l-68 -76l73 -73v-105h-111zM238 119q32 0 55 14.5q23 14.5 47 39.5l-113 139l-34 -26q-27 -20 -35.5 -41.5q-8.5 -21.5 -8.5 -39.5q0 -34 23.5 -60t65.5 -26z" />
<glyph unicode="&#39;" horiz-adv-x="600" d="M232 401l-29 359h195l-30 -359z" />
<glyph unicode="&#40;" horiz-adv-x="600" d="M508 -183q-103 3 -176.5 34q-73.5 31 -121 96.5q-47.5 65.5 -70 167.5q-22.5 102 -22.5 247q0 139 22 234.5q22 95.5 69.5 156.5q47.5 61 120.5 90.5q73 29.5 175 36.5l0 -136q-65 -5 -108.5 -22.5q-43.5 -17.5 -70.5 -59.5q-27 -42 -38.5 -114q-11.5 -72 -11.5 -186q0 -120 11.5 -196.5q11.5 -76.5 38.5 -121.5q27 -45 71.5 -64q44.5 -19 110.5 -24z" />
<glyph unicode="&#41;" horiz-adv-x="600" d="M92 -44q66 5 110.5 24q44.5 19 71.5 64q27 45 38.5 121.5q11.5 76.5 11.5 196.5q0 114 -11.5 186q-11.5 72 -38.5 114q-27 42 -71 59.5q-44 17.5 -108 22.5l0 136q102 -7 175 -36.5q73 -29.5 120.5 -90.5q47.5 -61 69.5 -156.5q22 -95.5 22 -234.5q0 -145 -22.5 -247q-22.5 -102 -70 -167.5q-47.5 -65.5 -121 -96.5q-73.5 -31 -176.5 -34z" />
<glyph unicode="&#42;" horiz-adv-x="600" d="M61 405v170l169 -56l10 17l-133 118l147 85l36 -174h20l36 174l147 -85l-133 -118l10 -17l169 56v-170l-169 56l-10 -17l133 -118l-147 -85l-36 174h-20l-36 -174l-147 85l133 118l-10 17z" />
<glyph unicode="&#43;" horiz-adv-x="600" d="M228 547h144v-157h164v-140h-164v-162h-144v162h-164v140l164 0z" />
<glyph unicode="&#44;" horiz-adv-x="600" d="M340 -187h-112v78l69 101q-18 5 -35 10.5q-17 5.5 -30 15.5q-13 10 -20.5 26.5q-7.5 16.5 -7.5 42.5q0 53 21.5 72q21.5 19 74.5 19q52 0 74.5 -19q22.5 -19 22.5 -72q0 -21 -4 -43q-4 -22 -13 -60z" />
<glyph unicode="&#45;" horiz-adv-x="600" d="M514 252h-428v138l428 0z" />
<glyph unicode="&#46;" horiz-adv-x="600" d="M300 -12q-54 0 -76.5 20.5q-22.5 20.5 -22.5 75.5q0 55 22.5 74.5q22.5 19.5 76.5 19.5q54 0 76.5 -19.5q22.5 -19.5 22.5 -74.5q0 -55 -22.5 -75.5t-76.5 -20.5z" />
<glyph unicode="&#47;" horiz-adv-x="600" d="M64 -84l378 964h108v-96l-375 -964l-111 0z" />
<glyph unicode="&#48;" horiz-adv-x="600" d="M50 347q0 106 14.5 176q14.5 70 44.5 112q30 42 77.5 59.5q47.5 17.5 113.5 17.5q66 0 113.5 -17.5q47.5 -17.5 77.5 -59.5q30 -42 44.5 -112q14.5 -70 14.5 -176q0 -103 -14.5 -172q-14.5 -69 -44.5 -110.5q-30 -41.5 -77.5 -59q-47.5 -17.5 -113.5 -17.5q-66 0 -113.5 17.5q-47.5 17.5 -77.5 59q-30 41.5 -44.5 110.5q-14.5 69 -14.5 172zt0 0zM394 376l-181 -167q8 -52 28.5 -68.5q20.5 -16.5 58.5 -16.5q28 0 46.5 8.5q18.5 8.5 29 32.5q10.5 24 14.5 67.5q4 43.5 4 114.5zM206 340l178 164q-9 44 -29 58q-20 14 -55 14q-28 0 -46.5 -8.5q-18.5 -8.5 -29 -33.5q-10.5 -25 -14.5 -69.5q-4 -44.5 -4 -117.5z" />
<glyph unicode="&#49;" horiz-adv-x="600" d="M53 487v116l173 97h209v-564h126v-136h-518v136h234v410h-47l-74 -59z" />
<glyph unicode="&#50;" horiz-adv-x="600" d="M72 220l198 150q42 32 63.5 63q21.5 31 21.5 73q0 39 -24.5 56q-24.5 17 -65.5 17q-25 0 -52 -7q-27 -7 -71 -22l-50 -17v159l52 7q31 4 70.5 8.5q39.5 4.5 84.5 4.5q49 0 91 -11q42 -11 73 -34.5q31 -23.5 48.5 -60q17.5 -36.5 17.5 -88.5q0 -32 -5 -61.5q-5 -29.5 -20 -58q-15 -28.5 -42 -56.5q-27 -28 -72 -56l-160 -102v-48h305v-136l-463 0z" />
<glyph unicode="&#51;" horiz-adv-x="600" d="M58 177l62 -22q52 -19 86.5 -25.5q34.5 -6.5 68.5 -6.5q108 0 108 85q0 49 -25.5 65q-25.5 16 -77.5 16h-104v136h104q43 0 63 15.5q20 15.5 20 65.5q0 73 -90 73q-15 0 -29 -1q-14 -1 -30.5 -4q-16.5 -3 -37 -8.5q-20.5 -5.5 -47.5 -14.5l-50 -16v154l51 8q40 6 83 10.5q43 4.5 78 4.5q116 0 173.5 -45.5q57.5 -45.5 57.5 -130.5q0 -54 -29 -98.5q-29 -44.5 -89 -62.5l0 -25q75 -15 110.5 -54.5q35.5 -39.5 35.5 -96.5q0 -103 -66 -157q-66 -54 -200 -54q-49 0 -88 4.5q-39 4.5 -76 10.5l-62 10z" />
<glyph unicode="&#52;" horiz-adv-x="600" d="M522 370v-370h-158v116h-323v163l308 421h127v-104l-276 -347h164l0 121z" />
<glyph unicode="&#53;" horiz-adv-x="600" d="M80 700h430v-136h-280v-129h90q71 0 115 -20q44 -20 69 -51q25 -31 33.5 -69.5q8.5 -38.5 8.5 -75.5q0 -112 -61.5 -171.5q-61.5 -59.5 -193.5 -59.5q-49 0 -88.5 4.5q-39.5 4.5 -76.5 10.5l-62 10v164l62 -22q52 -19 86.5 -25.5q34.5 -6.5 68.5 -6.5q55 0 76.5 24.5q21.5 24.5 21.5 70.5q0 28 -6.5 45q-6.5 17 -20 26.5q-13.5 9.5 -34 12.5q-20.5 3 -48.5 3l-190 0z" />
<glyph unicode="&#54;" horiz-adv-x="600" d="M301 -12q-62 0 -110 17.5q-48 17.5 -80.5 56.5q-32.5 39 -49 102.5q-16.5 63.5 -16.5 156.5q0 90 15 162.5q15 72.5 48 123q33 50.5 86 78q53 27.5 129 27.5q23 0 55.5 -3q32.5 -3 59.5 -5l65 -6v-154l-52 13q-45 11 -71 15.5q-26 4.5 -43 4.5q-41 0 -68 -16q-27 -16 -43.5 -43q-16.5 -27 -23.5 -62q-7 -35 -9 -72l26 0q21 36 57 57q36 21 87 21q43 0 79 -12q36 -12 61.5 -39q25.5 -27 39.5 -71q14 -44 14 -108q0 -127 -64 -185.5q-64 -58.5 -192 -58.5zt0 0zM301 124q51 0 75 26q24 26 24 82q0 57 -23.5 80.5q-23.5 23.5 -71.5 23.5q-46 0 -68 -27q-22 -27 -22 -77q0 -50 21 -79t65 -29z" />
<glyph unicode="&#55;" horiz-adv-x="600" d="M206 0v105l219 459h-205v-164h-147v300h501v-134l-210 -566z" />
<glyph unicode="&#56;" horiz-adv-x="600" d="M300 718q61 0 107 -13.5q46 -13.5 76.5 -37.5q30.5 -24 46 -57.5q15.5 -33.5 15.5 -73.5q0 -48 -24.5 -90q-24.5 -42 -74.5 -60l0 -23q33 -10 56.5 -28q23.5 -18 39 -41q15.5 -23 23 -49.5q7.5 -26.5 7.5 -53.5q0 -98 -67.5 -153q-67.5 -55 -204.5 -55q-137 0 -204.5 55q-67.5 55 -67.5 153q0 27 7.5 53.5q7.5 26.5 23 49.5q15.5 23 39 41q23.5 18 56.5 28l0 23q-51 18 -75 59.5q-24 41.5 -24 90.5q0 40 15.5 73.5q15.5 33.5 46 57.5q30.5 24 76.5 37.5q46 13.5 107 13.5zt0 0zM300 110q114 0 114 99q0 53 -28.5 77q-28.5 24 -85.5 24q-57 0 -85.5 -24q-28.5 -24 -28.5 -77q0 -99 114 -99zt0 0zM300 597q-97 0 -97 -80q0 -39 23.5 -61.5q23.5 -22.5 73.5 -22.5q50 0 73.5 22.5q23.5 22.5 23.5 61.5q0 80 -97 80z" />
<glyph unicode="&#57;" horiz-adv-x="600" d="M288 -12q-43 0 -77.5 5q-34.5 5 -67.5 10l-62 10v164l62 -22q45 -16 73.5 -23.5q28.5 -7.5 57.5 -7.5q41 0 67 16.5q26 16.5 41 43.5q15 27 21 61.5q6 34.5 7 70.5l-27 0q-20 -34 -53 -52.5q-33 -18.5 -79 -18.5q-45 0 -82.5 12.5q-37.5 12.5 -64.5 39.5q-27 27 -42 69q-15 42 -15 102q0 127 63 185.5q63 58.5 191 58.5q62 0 110 -18.5q48 -18.5 80.5 -60q32.5 -41.5 49 -109q16.5 -67.5 16.5 -165.5q0 -86 -14.5 -154.5q-14.5 -68.5 -47 -116.5q-32.5 -48 -83.5 -74q-51 -26 -124 -26zt0 0zM387 468q0 50 -22.5 79q-22.5 29 -70.5 29q-47 0 -68.5 -26q-21.5 -26 -21.5 -82q0 -54 23.5 -75.5q23.5 -21.5 71.5 -21.5q45 0 66.5 26.5t21.5 70.5z" />
<glyph unicode="&#58;" horiz-adv-x="600" d="M300 -12q-54 0 -76.5 20.5q-22.5 20.5 -22.5 75.5q0 55 22.5 74.5q22.5 19.5 76.5 19.5q54 0 76.5 -19.5q22.5 -19.5 22.5 -74.5q0 -55 -22.5 -75.5q-22.5 -20.5 -76.5 -20.5zt0 0zM300 382q-54 0 -76.5 20.5q-22.5 20.5 -22.5 75.5q0 55 22.5 74.5q22.5 19.5 76.5 19.5q54 0 76.5 -19.5q22.5 -19.5 22.5 -74.5q0 -55 -22.5 -75.5t-76.5 -20.5z" />
<glyph unicode="&#59;" horiz-adv-x="600" d="M340 -187h-112v78l69 101q-18 5 -35 10.5q-17 5.5 -30 15.5q-13 10 -20.5 26.5q-7.5 16.5 -7.5 42.5q0 53 21.5 72q21.5 19 74.5 19q52 0 74.5 -19q22.5 -19 22.5 -72q0 -21 -4 -43q-4 -22 -13 -60zM300 382q-54 0 -76.5 20.5q-22.5 20.5 -22.5 75.5q0 55 22.5 74.5q22.5 19.5 76.5 19.5q54 0 76.5 -19.5q22.5 -19.5 22.5 -74.5q0 -55 -22.5 -75.5t-76.5 -20.5z" />
<glyph unicode="&#60;" horiz-adv-x="600" d="M494 87l-388 189v86l388 189v-135l-206 -96l206 -96z" />
<glyph unicode="&#61;" horiz-adv-x="600" d="M524 514v-138h-448v138zM524 264v-138h-448l0 138z" />
<glyph unicode="&#62;" horiz-adv-x="600" d="M106 224l205 96l-205 96v135l388 -189v-86l-388 -189z" />
<glyph unicode="&#63;" horiz-adv-x="600" d="M273 -12q-50 0 -71 19q-21 19 -21 70q0 52 21 70q21 18 71 18q50 0 71 -18q21 -18 21 -70q0 -51 -21 -70q-21 -19 -71 -19zt0 0zM216 250l-10 183h67q30 0 53 4q23 4 38.5 14.5q15.5 10.5 23 30q7.5 19.5 7.5 51.5q0 45 -23.5 69q-23.5 24 -71.5 24q-32 0 -79 -10.5q-47 -10.5 -92 -29.5l-41 -17v144l31 11q42 15 87.5 26.5q45.5 11.5 93.5 11.5q123 0 184 -58.5q61 -58.5 61 -170.5q0 -37 -7.5 -75q-7.5 -38 -28 -69q-20.5 -31 -57 -50.5q-36.5 -19.5 -94.5 -19.5h-14l-7 -69z" />
<glyph unicode="&#64;" horiz-adv-x="600" d="M321 -63q-74 0 -129 22.5q-55 22.5 -91.5 72.5q-36.5 50 -54.5 131q-18 81 -18 197q0 119 18.5 198q18.5 79 54.5 126.5q36 47.5 89.5 67.5q53.5 20 124.5 20q64 0 112.5 -18q48.5 -18 81.5 -59.5q33 -41.5 49.5 -109q16.5 -67.5 16.5 -165.5q0 -68 -10 -121q-10 -53 -33.5 -90q-23.5 -37 -61 -56.5q-37.5 -19.5 -91.5 -19.5q-94 0 -131.5 57.5q-37.5 57.5 -37.5 164.5q0 119 35 170.5q35 51.5 110 51.5q48 0 75 -21.5q27 -21.5 47 -57.5l21 0q-6 44 -19 73q-13 29 -34.5 46.5q-21.5 17.5 -50.5 24.5q-29 7 -66 7q-42 0 -74 -11.5q-32 -11.5 -53 -43q-21 -31.5 -32 -88q-11 -56.5 -11 -146.5q0 -85 10 -142q10 -57 31 -91.5q21 -34.5 52.5 -49q31.5 -14.5 74.5 -14.5q15 0 34.5 2q19.5 2 41 5.5q21.5 3.5 44 9q22.5 5.5 43.5 11.5l50 15v-144l-45 -7q-38 -6 -83.5 -12q-45.5 -6 -89.5 -6zt0 0zM393 460q-42 0 -56.5 -26q-14.5 -26 -14.5 -77q0 -51 15 -76.5q15 -25.5 52 -25.5q21 0 35 8q14 8 22 22q8 14 11.5 32.5q3.5 18.5 3.5 39.5q0 49 -15 76t-53 27z" />
<glyph unicode="&#65;" horiz-adv-x="600" d="M26 0v105l199 595h153l196 -595v-105h-157l-12 122h-210l-12 -122zM226 243h148l-60 241l-26 0z" />
<glyph unicode="&#66;" horiz-adv-x="600" d="M71 700h231q108 0 162.5 -36q54.5 -36 54.5 -128q0 -23 -6.5 -45q-6.5 -22 -19.5 -40.5q-13 -18.5 -33 -33q-20 -14.5 -46 -21.5l0 -34q67 -13 99.5 -58.5q32.5 -45.5 32.5 -105.5q0 -107 -55.5 -152.5q-55.5 -45.5 -165.5 -45.5h-254zM388 222q0 50 -22.5 67q-22.5 17 -68.5 17h-71v-170h60q53 0 77.5 16.5q24.5 16.5 24.5 69.5zt0 0zM226 564v-136h57q40 0 59 15.5q19 15.5 19 55.5q0 39 -19 52q-19 13 -58 13z" />
<glyph unicode="&#67;" horiz-adv-x="600" d="M341 124q29 0 57.5 6.5q28.5 6.5 78.5 24.5l61 22v-164l-60 -11q-32 -6 -66.5 -10q-34.5 -4 -79.5 -4q-70 0 -121 17.5q-51 17.5 -84.5 59q-33.5 41.5 -50 110.5q-16.5 69 -16.5 172q0 106 15.5 176q15.5 70 48.5 112q33 42 83.5 59.5q50.5 17.5 120.5 17.5q29 0 68 -5q39 -5 72 -10l49 -8v-154l-50 16q-46 14 -73.5 20q-27.5 6 -52.5 6q-34 0 -57.5 -8.5q-23.5 -8.5 -38 -33.5q-14.5 -25 -21 -70q-6.5 -45 -6.5 -118q0 -71 6 -114.5q6 -43.5 20 -67.5q14 -24 37.5 -32.5t59.5 -8.5z" />
<glyph unicode="&#68;" horiz-adv-x="600" d="M60 0v700h230q70 -1 120 -18q50 -17 82 -57.5q32 -40.5 47.5 -108q15.5 -67.5 15.5 -169.5q0 -103 -15.5 -170q-15.5 -67 -47.5 -106.5q-32 -39.5 -82 -55q-50 -15.5 -120 -15.5zM290 136q31 0 51.5 8q20.5 8 33 31q12.5 23 17.5 64q5 41 5 108q0 69 -5 111.5q-5 42.5 -17.5 66q-12.5 23.5 -33 31.5q-20.5 8 -51.5 8h-72l0 -428z" />
<glyph unicode="&#69;" horiz-adv-x="600" d="M531 0h-460v700h450v-136h-292v-138h262v-136h-262v-154l302 0z" />
<glyph unicode="&#70;" horiz-adv-x="600" d="M495 267h-258v-267h-158v700h456v-136h-298v-161l258 0z" />
<glyph unicode="&#71;" horiz-adv-x="600" d="M336 124q19 0 36 2q17 2 40 9l0 112h-86v131h220v-363l-20 -4l-53 -9q-32 -6 -66.5 -10q-34.5 -4 -79.5 -4q-70 0 -121 17.5q-51 17.5 -84.5 59q-33.5 41.5 -50 110.5q-16.5 69 -16.5 172q0 106 15.5 176q15.5 70 48.5 112q33 42 83.5 59.5q50.5 17.5 120.5 17.5q29 0 68 -5q39 -5 72 -10l49 -8v-154l-50 16q-46 14 -73.5 20q-27.5 6 -52.5 6q-34 0 -57.5 -8.5q-23.5 -8.5 -38 -33.5q-14.5 -25 -21 -70q-6.5 -45 -6.5 -118q0 -71 6 -114.5q6 -43.5 20 -67.5q14 -24 37.5 -32.5t59.5 -8.5z" />
<glyph unicode="&#72;" horiz-adv-x="600" d="M552 0h-158v301h-188v-301h-158v700h158v-263h188v263l158 0z" />
<glyph unicode="&#73;" horiz-adv-x="600" d="M514 0h-428v136h135v428h-135v136h428v-136h-135v-428l135 0z" />
<glyph unicode="&#74;" horiz-adv-x="600" d="M364 564h-238v136h396v-498q0 -62 -14.5 -103q-14.5 -41 -42.5 -65.5q-28 -24.5 -70 -35q-42 -10.5 -96 -10.5q-45 0 -89.5 5q-44.5 5 -76.5 10l-60 10v164l61 -22q25 -9 45 -15q20 -6 37.5 -9.5q17.5 -3.5 33.5 -5q16 -1.5 33 -1.5q42 0 61.5 18q19.5 18 19.5 67z" />
<glyph unicode="&#75;" horiz-adv-x="600" d="M215 700v-267h76l121 267h135v-104l-131 -225l155 -267v-104h-149l-131 291h-76v-291h-158l0 700z" />
<glyph unicode="&#76;" horiz-adv-x="600" d="M236 136h298v-136h-456v700l158 0z" />
<glyph unicode="&#77;" horiz-adv-x="600" d="M181 425h-29l21 -321v-104h-143v700h169l88 -288h25l89 288h169v-700h-143v104l20 321h-29l-64 -235l-108 0z" />
<glyph unicode="&#78;" horiz-adv-x="600" d="M547 0h-201l-106 311l-47 165h-25l28 -322v-154h-143v700h202l104 -305l44 -162h25l-24 313v154l143 0z" />
<glyph unicode="&#79;" horiz-adv-x="600" d="M193 347q0 -71 5 -114.5q5 -43.5 17.5 -67.5q12.5 -24 33 -32.5q20.5 -8.5 51.5 -8.5q31 0 51.5 8.5q20.5 8.5 33 32.5q12.5 24 17.5 67.5q5 43.5 5 114.5q0 72 -5 117q-5 45 -17.5 70q-12.5 25 -33 33.5q-20.5 8.5 -51.5 8.5q-31 0 -51.5 -8.5q-20.5 -8.5 -33 -33.5q-12.5 -25 -17.5 -69.5q-5 -44.5 -5 -117.5zt0 0zM35 347q0 106 15.5 176q15.5 70 47.5 112q32 42 82.5 59.5q50.5 17.5 119.5 17.5q70 0 120 -17.5q50 -17.5 82 -59.5q32 -42 47.5 -112q15.5 -70 15.5 -176q0 -103 -15.5 -172q-15.5 -69 -47.5 -110.5q-32 -41.5 -82 -59q-50 -17.5 -120 -17.5q-69 0 -119.5 17.5q-50.5 17.5 -82.5 59q-32 41.5 -47.5 110.5t-15.5 172z" />
<glyph unicode="&#80;" horiz-adv-x="600" d="M226 206v-206h-158v700h232q64 0 113 -12q49 -12 81.5 -41q32.5 -29 49 -77q16.5 -48 16.5 -120q0 -67 -16.5 -113.5q-16.5 -46.5 -49 -75.5q-32.5 -29 -81.5 -42q-49 -13 -113 -13zM295 342q55 0 81 22q26 22 26 86q0 36 -6.5 58.5q-6.5 22.5 -19.5 34.5q-13 12 -33.5 16.5q-20.5 4.5 -47.5 4.5h-69l0 -222z" />
<glyph unicode="&#81;" horiz-adv-x="600" d="M590 -190h-149l-129 178h-12q-69 0 -119.5 17.5q-50.5 17.5 -82.5 59q-32 41.5 -47.5 110.5q-15.5 69 -15.5 172q0 106 15.5 176q15.5 70 47.5 112q32 42 82.5 59.5q50.5 17.5 119.5 17.5q70 0 120 -17.5q50 -17.5 82 -59.5q32 -42 47.5 -112q15.5 -70 15.5 -176q0 -137 -27.5 -215q-27.5 -78 -85.5 -112l138 -94zM193 347q0 -71 5 -114.5q5 -43.5 17.5 -67.5q12.5 -24 33 -32.5q20.5 -8.5 51.5 -8.5q31 0 51.5 8.5q20.5 8.5 33 32.5q12.5 24 17.5 67.5q5 43.5 5 114.5q0 72 -5 117q-5 45 -17.5 70q-12.5 25 -33 33.5q-20.5 8.5 -51.5 8.5q-31 0 -51.5 -8.5q-20.5 -8.5 -33 -33.5q-12.5 -25 -17.5 -69.5t-5 -117.5z" />
<glyph unicode="&#82;" horiz-adv-x="600" d="M64 0v700h225q64 0 113 -11q49 -11 81.5 -38q32.5 -27 49 -71q16.5 -44 16.5 -110q0 -42 -8 -73.5q-8 -31.5 -22 -54.5q-14 -23 -33 -39.5q-19 -16.5 -41 -26.5l119 -191v-85h-142l-121 247h-79v-247zM284 377q55 0 81 19q26 19 26 74q0 30 -6.5 48.5q-6.5 18.5 -19.5 28.5q-13 10 -33.5 13.5q-20.5 3.5 -47.5 3.5h-62l0 -187z" />
<glyph unicode="&#83;" horiz-adv-x="600" d="M67 517q0 51 18.5 88q18.5 37 51.5 61q33 24 77.5 35q44.5 11 96.5 11q37 0 80 -6q43 -6 81 -14l31 -6v-163l-39 16q-51 21 -94.5 30.5q-43.5 9.5 -74.5 9.5q-30 0 -50 -14.5q-20 -14.5 -20 -46.5q0 -27 13.5 -44q13.5 -17 42.5 -29l115 -48q36 -15 64 -32.5q28 -17.5 47 -40q19 -22.5 29 -52.5q10 -30 10 -72q0 -57 -17 -97.5q-17 -40.5 -49 -66q-32 -25.5 -78 -37q-46 -11.5 -104 -11.5q-51 0 -102 10q-51 10 -96 21l-26 6v165l46 -21q49 -23 97.5 -35.5q48.5 -12.5 83.5 -12.5q45 0 65 18q20 18 20 56q0 29 -16.5 46q-16.5 17 -52.5 32l-127 54q-60 26 -91.5 73t-31.5 117z" />
<glyph unicode="&#84;" horiz-adv-x="600" d="M564 700v-136h-185v-564h-158v564h-185l0 136z" />
<glyph unicode="&#85;" horiz-adv-x="600" d="M48 700h158v-468q0 -59 25 -83.5q25 -24.5 69 -24.5q44 0 69 24.5q25 24.5 25 83.5v468h158v-468q0 -125 -67 -184.5q-67 -59.5 -185 -59.5q-118 0 -185 59.5q-67 59.5 -67 184.5z" />
<glyph unicode="&#86;" horiz-adv-x="600" d="M285 245h33l89 455h165v-104l-186 -596h-169l-189 596v104l165 0z" />
<glyph unicode="&#87;" horiz-adv-x="600" d="M314 193h-27l-35 -193h-150l-84 596v104h164v-421h30l34 178h108l34 -178h30v421h164v-104l-81 -596l-150 0z" />
<glyph unicode="&#88;" horiz-adv-x="600" d="M323 247h-43l-89 -247h-153v104l147 250l-134 242v104h152l79 -234h40l74 234h153v-104l-134 -242l147 -250v-104l-154 0z" />
<glyph unicode="&#89;" horiz-adv-x="600" d="M289 439h26l105 261h152v-104l-193 -332v-264h-158v264l-193 332v104l151 0z" />
<glyph unicode="&#90;" horiz-adv-x="600" d="M530 0h-466v106l257 458h-244v136h435v-106l-254 -458l272 0z" />
<glyph unicode="&#91;" horiz-adv-x="600" d="M524 -180h-366v1060h356v-136h-198v-788l208 0z" />
<glyph unicode="&#92;" horiz-adv-x="600" d="M536 -180h-111l-375 964v96h108l378 -964z" />
<glyph unicode="&#93;" horiz-adv-x="600" d="M284 -44v788h-198v136h356v-1060h-366l0 136z" />
<glyph unicode="&#94;" horiz-adv-x="600" d="M342 762l196 -170v-105h-130l-83 119h-48l-84 -119h-131v105l195 170z" />
<glyph unicode="&#95;" horiz-adv-x="600" d="M524 -44v-136h-448l0 136z" />
<glyph unicode="&#96;" horiz-adv-x="600" d="M261 640l-150 93v68h167l74 -161z" />
<glyph unicode="&#97;" horiz-adv-x="600" d="M80 559l43 3q44 3 89 6.5q45 3.5 91 3.5q45 0 84 -9q39 -9 67 -28.5q28 -19.5 44 -51q16 -31.5 16 -77.5v-276q0 -16 8.5 -24q8.5 -8 21.5 -6l22 3v-103q-32 -5 -50.5 -8.5q-18.5 -3.5 -41.5 -3.5q-42 0 -69 20q-27 20 -36 51l-41 0l-14 -16q-26 -29 -54.5 -42q-28.5 -13 -67.5 -13q-64 0 -104.5 47q-40.5 47 -40.5 134q0 54 14.5 89q14.5 35 40 55.5q25.5 20.5 61.5 28.5q36 8 79 8h123v28q0 73 -89 73q-29 0 -66 -5q-37 -5 -80 -13l-50 -10zM365 185v75h-103q-67 0 -67 -71q0 -34 13.5 -50.5q13.5 -16.5 35.5 -16.5q20 0 38.5 10.5q18.5 10.5 45.5 28.5z" />
<glyph unicode="&#98;" horiz-adv-x="600" d="M210 572l-11 -68h48l16 15q27 25 52 39q25 14 62 14q42 0 74.5 -14.5q32.5 -14.5 55 -48.5q22.5 -34 34.5 -90q12 -56 12 -139q0 -83 -12 -139q-12 -56 -34.5 -90q-22.5 -34 -55 -48.5q-32.5 -14.5 -74.5 -14.5q-37 0 -62 14q-25 14 -52 39l-16 15h-48l-10 -56h-129v760h150zM210 373v-186h1l36 -23q32 -20 50.5 -29.5q18.5 -9.5 36.5 -9.5q17 0 29.5 7q12.5 7 21 24.5q8.5 17.5 12.5 47.5q4 30 4 76q0 46 -4 76q-4 30 -12.5 47.5q-8.5 17.5 -21 24.5q-12.5 7 -29.5 7q-18 0 -36.5 -9.5q-18.5 -9.5 -50.5 -29.5l-36 -23z" />
<glyph unicode="&#99;" horiz-adv-x="600" d="M320 -12q-122 0 -186 67q-64 67 -64 219q0 155 63 226.5q63 71.5 182 71.5q35 0 74 -7.5q39 -7.5 74 -16.5l35 -9v-146l-37 18q-38 19 -70.5 30q-32.5 11 -58.5 11q-54 0 -82 -40.5q-28 -40.5 -28 -137.5q0 -87 31 -124.5q31 -37.5 90 -37.5q29 0 66 17q37 17 78 40l38 22v-153l-37 -13q-43 -15 -83 -26t-85 -11z" />
<glyph unicode="&#100;" horiz-adv-x="600" d="M390 760h150v-760h-128l-12 56h-46l-16 -15q-27 -25 -52 -39q-25 -14 -62 -14q-42 0 -75 14.5q-33 14.5 -55.5 48.5q-22.5 34 -34 90q-11.5 56 -11.5 139q0 83 11.5 139q11.5 56 34 90q22.5 34 55.5 48.5q33 14.5 75 14.5q37 0 62 -14q25 -14 52 -39l16 -15h47l-11 68zM354 396q-32 20 -50.5 29.5q-18.5 9.5 -36.5 9.5q-17 0 -29.5 -7q-12.5 -7 -21 -24.5q-8.5 -17.5 -12.5 -47.5q-4 -30 -4 -76q0 -46 4 -76q4 -30 12.5 -47.5q8.5 -17.5 21 -24.5q12.5 -7 29.5 -7q18 0 36.5 9.5q18.5 9.5 50.5 29.5l36 23l0 186z" />
<glyph unicode="&#101;" horiz-adv-x="600" d="M200 237q5 -69 32 -98q27 -29 81 -29q17 0 33.5 2q16.5 2 33.5 5.5q17 3.5 37 9q20 5.5 44 13.5l53 16v-142l-54 -9q-39 -7 -81.5 -12q-42.5 -5 -85.5 -5q-57 0 -101.5 16q-44.5 16 -75.5 51q-31 35 -47.5 90q-16.5 55 -16.5 132q0 79 16.5 135q16.5 56 48 91.5q31.5 35.5 77 52q45.5 16.5 103.5 16.5q52 0 95 -15q43 -15 73.5 -47.5q30.5 -32.5 47 -84q16.5 -51.5 16.5 -124.5v-64zM297 450q-44 0 -67.5 -27.5q-23.5 -27.5 -28.5 -95.5l185 0q-3 68 -25 95.5t-64 27.5z" />
<glyph unicode="&#102;" horiz-adv-x="600" d="M184 0v350h-139v125h139v116q0 93 47 137q47 44 126 44q35 0 68 -4q33 -4 65 -9l49 -7v-152l-50 16q-35 11 -56 17q-21 6 -42 6q-26 0 -41.5 -15q-15.5 -15 -15.5 -47v-102h203v-125h-203l0 -350z" />
<glyph unicode="&#103;" horiz-adv-x="600" d="M79 -84l51 -14q48 -14 90 -22.5q42 -8.5 80 -8.5q19 0 35.5 4.5q16.5 4.5 28.5 16.5q12 12 19 33q7 21 7 54v9l11 68h-47l-16 -15q-27 -25 -52 -39q-25 -14 -62 -14q-42 0 -75 14.5q-33 14.5 -55.5 48.5q-22.5 34 -34 90q-11.5 56 -11.5 139q0 83 11.5 139q11.5 56 34 90q22.5 34 55.5 48.5q33 14.5 75 14.5q37 0 62 -14q25 -14 52 -39l16 -15h41l6 56h139v-585q0 -62 -16 -107q-16 -45 -46 -74q-30 -29 -72 -42.5q-42 -13.5 -94 -13.5q-48 0 -94 5.5q-46 5.5 -89 11.5l-50 7zM390 187v186l-36 23q-32 20 -50.5 29.5q-18.5 9.5 -36.5 9.5q-17 0 -29.5 -6q-12.5 -6 -21 -22.5q-8.5 -16.5 -12.5 -47q-4 -30.5 -4 -79.5q0 -49 4 -79.5q4 -30.5 12.5 -47q8.5 -16.5 21 -22.5q12.5 -6 29.5 -6q18 0 36.5 9.5q18.5 9.5 50.5 29.5z" />
<glyph unicode="&#104;" horiz-adv-x="600" d="M217 760v-188l-11 -60h46l12 10q28 23 55.5 36.5q27.5 13.5 64.5 13.5q70 0 109.5 -45.5q39.5 -45.5 39.5 -128.5v-398h-150v366q0 31 -10.5 48.5q-10.5 17.5 -36.5 17.5q-11 0 -24.5 -5q-13.5 -5 -35.5 -16l-59 -29v-382h-150l0 760z" />
<glyph unicode="&#105;" horiz-adv-x="600" d="M537 0h-460v125h181v310h-143v125h293v-435h129zM326 635q-51 0 -71.5 19.5q-20.5 19.5 -20.5 69.5q0 51 20.5 69.5q20.5 18.5 71.5 18.5q51 0 71.5 -18.5q20.5 -18.5 20.5 -69.5q0 -50 -20.5 -69.5t-71.5 -19.5z" />
<glyph unicode="&#106;" horiz-adv-x="600" d="M426 -85q0 -93 -47 -135q-47 -42 -125 -42q-39 0 -76 4.5q-37 4.5 -73 9.5l-50 7v158l41 -17q32 -13 61 -22q29 -9 55 -9q26 0 45 16q19 16 19 58v492h-166v125h316zM345 635q-51 0 -71.5 19.5q-20.5 19.5 -20.5 69.5q0 51 20.5 69.5q20.5 18.5 71.5 18.5q51 0 71.5 -18.5q20.5 -18.5 20.5 -69.5q0 -50 -20.5 -69.5t-71.5 -19.5z" />
<glyph unicode="&#107;" horiz-adv-x="600" d="M212 355h77l105 205h135v-85l-129 -181l152 -209v-85h-136l-129 233h-75v-233h-150v760l150 0z" />
<glyph unicode="&#108;" horiz-adv-x="600" d="M317 189q0 -38 22 -53q22 -15 54 -15q23 0 50.5 10.5q27.5 10.5 57.5 27.5l40 22v-154l-46 -13q-35 -10 -74.5 -18q-39.5 -8 -79.5 -8q-78 0 -126 42q-48 42 -48 135v470h-147v125l297 0z" />
<glyph unicode="&#109;" horiz-adv-x="600" d="M119 560l20 -51h27l17 21q19 23 36 32.5q17 9.5 42 9.5q29 0 49 -14q20 -14 28 -49l32 0l17 21q35 42 87 42q38 0 64.5 -23q26.5 -23 26.5 -80v-469h-143v409q0 28 -21 28q-9 0 -17 -5.5q-8 -5.5 -25 -19.5l-14 -12v-400h-90v409q0 28 -21 28q-9 0 -17 -5.5q-8 -5.5 -25 -19.5l-14 -12v-400h-143l0 560z" />
<glyph unicode="&#110;" horiz-adv-x="600" d="M196 560l11 -56h40l11 10q29 26 58.5 42q29.5 16 67.5 16q70 0 109.5 -45.5q39.5 -45.5 39.5 -128.5v-398h-150v366q0 32 -11 50.5q-11 18.5 -38 18.5q-11 0 -24 -4.5q-13 -4.5 -35 -16.5l-58 -32v-382h-150l0 560z" />
<glyph unicode="&#111;" horiz-adv-x="600" d="M300 108q25 0 42.5 7.5q17.5 7.5 28.5 27q11 19.5 16.5 52.5q5.5 33 5.5 85q0 50 -5.5 83.5q-5.5 33.5 -16.5 53q-11 19.5 -28.5 27.5q-17.5 8 -42.5 8q-25 0 -42.5 -8q-17.5 -8 -29 -27.5q-11.5 -19.5 -16.5 -52.5q-5 -33 -5 -84q0 -52 5 -85q5 -33 16.5 -52.5q11.5 -19.5 29 -27q17.5 -7.5 42.5 -7.5zt0 0zM300 -12q-130 0 -187.5 70q-57.5 70 -57.5 222q0 151 57.5 221.5q57.5 70.5 187.5 70.5q130 0 187.5 -71q57.5 -71 57.5 -221q0 -152 -57.5 -222t-187.5 -70z" />
<glyph unicode="&#112;" horiz-adv-x="600" d="M199 560l6 -56h40l16 15q27 25 52 39q25 14 62 14q42 0 74.5 -14.5q32.5 -14.5 55 -48.5q22.5 -34 34.5 -90q12 -56 12 -139q0 -83 -12 -139q-12 -56 -34.5 -90q-22.5 -34 -55 -48.5q-32.5 -14.5 -74.5 -14.5q-37 0 -62 14q-25 14 -52 39l-16 15h-46l11 -68v-238h-150v810zM210 363v-167l35 -22q32 -20 50.5 -29.5q18.5 -9.5 36.5 -9.5q17 0 29.5 5q12.5 5 21 21q8.5 16 12.5 44q4 28 4 75q0 46 -4 74.5q-4 28.5 -12.5 44.5q-8.5 16 -21 21q-12.5 5 -29.5 5q-18 0 -36.5 -9.5q-18.5 -9.5 -50.5 -29.5z" />
<glyph unicode="&#113;" horiz-adv-x="600" d="M390 -12l11 68h-47l-16 -15q-27 -25 -52 -39q-25 -14 -62 -14q-42 0 -75 14.5q-33 14.5 -55.5 48.5q-22.5 34 -34 90q-11.5 56 -11.5 139q0 83 11.5 139q11.5 56 34 90q22.5 34 55.5 48.5q33 14.5 75 14.5q37 0 62 -14q25 -14 52 -39l16 -15h36l11 56h139v-810h-150zM390 197v166l-36 23q-32 20 -50.5 29.5q-18.5 9.5 -36.5 9.5q-17 0 -29.5 -5q-12.5 -5 -21 -21q-8.5 -16 -12.5 -44.5q-4 -28.5 -4 -74.5q0 -47 4 -75q4 -28 12.5 -44q8.5 -16 21 -21q12.5 -5 29.5 -5q18 0 36.5 9.5q18.5 9.5 50.5 29.5z" />
<glyph unicode="&#114;" horiz-adv-x="600" d="M492 0h-437v125h90v310h-90v125h224l9 -92h44l33 43q27 35 55 48q28 13 54 13q17 0 34.5 -2q17.5 -2 34.5 -4l0 -161q-26 2 -40.5 3.5q-14.5 1.5 -32.5 1.5q-35 0 -67 -11.5q-32 -11.5 -58 -28.5l-50 -32v-213l197 0z" />
<glyph unicode="&#115;" horiz-adv-x="600" d="M380 329q34 -11 59.5 -24q25.5 -13 42.5 -32q17 -19 25 -45q8 -26 8 -61q0 -85 -51.5 -132q-51.5 -47 -142.5 -47q-52 0 -99.5 10q-47.5 10 -93.5 21l-44 11v149l53 -19q48 -17 94.5 -28.5q46.5 -11.5 81.5 -11.5q30 0 42.5 11.5q12.5 11.5 12.5 32.5q0 18 -11 28.5q-11 10.5 -26 15.5l-122 40q-124 41 -124 159q0 81 48 123q48 42 135 42q40 0 87.5 -6.5q47.5 -6.5 85.5 -14.5l42 -8v-140l-46 14q-44 14 -87.5 24q-43.5 10 -72.5 10q-45 0 -45 -43q0 -18 10 -29q10 -11 26 -16z" />
<glyph unicode="&#116;" horiz-adv-x="600" d="M22 435v125h137v173h150v-173h205v-125h-205v-242q0 -37 18 -54.5q18 -17.5 49 -17.5q22 0 52.5 10q30.5 10 62.5 28l40 22v-152l-49 -15q-33 -10 -69 -18q-36 -8 -78 -8q-81 0 -128.5 44q-47.5 44 -47.5 137l0 266z" />
<glyph unicode="&#117;" horiz-adv-x="600" d="M388 56h-40l-11 -10q-29 -26 -57.5 -42q-28.5 -16 -66.5 -16q-68 0 -105.5 41.5q-37.5 41.5 -37.5 117.5v413h150v-378q0 -27 10 -42q10 -15 35 -15q11 0 22 4.5q11 4.5 33 16.5l58 33v381h150v-560l-129 0z" />
<glyph unicode="&#118;" horiz-adv-x="600" d="M43 476v84h160l85 -363h28l82 363h159v-84l-183 -476l-147 0z" />
<glyph unicode="&#119;" horiz-adv-x="600" d="M351 354l43 -186h31v392h156v-84l-81 -476h-150l-36 141h-29l-36 -141h-150l-80 476v84h156v-392h30l44 186z" />
<glyph unicode="&#120;" horiz-adv-x="600" d="M317 192h-33l-78 -192h-149v84l141 202l-129 190v84h142l72 -182h35l71 182h142v-84l-128 -190l140 -202v-84l-149 0z" />
<glyph unicode="&#121;" horiz-adv-x="600" d="M154 -164l92 158l-212 482v84h146l109 -349h32l77 349h148v-84l-247 -726l-145 0z" />
<glyph unicode="&#122;" horiz-adv-x="600" d="M327 438h-243v122h422v-95l-257 -342h277v-123h-460l0 85z" />
<glyph unicode="&#123;" horiz-adv-x="600" d="M483 -198h-84q-164 0 -164 127q0 32 8 69q8 37 19 91l21 103l-157 116v76l157 116l-20 93q-12 56 -20 92q-8 36 -8 68q0 127 164 127h84v-136h-48q-20 0 -33.5 -10.5q-13.5 -10.5 -13.5 -33.5q0 -20 1.5 -47.5q1.5 -27.5 8.5 -79.5l18 -137l-143 -89l143 -88l-17 -150q-3 -26 -5 -45.5q-2 -19.5 -3.5 -34q-1.5 -14.5 -2 -26q-0.5 -11.5 -0.5 -21.5q0 -23 13 -33.5q13 -10.5 34 -10.5l48 0z" />
<glyph unicode="&#124;" horiz-adv-x="600" d="M379 -90h-158v850l158 0z" />
<glyph unicode="&#125;" horiz-adv-x="600" d="M121 -62h48q21 0 34 10.5q13 10.5 13 33.5q0 10 -0.5 21.5q-0.5 11.5 -2 26q-1.5 14.5 -3.5 34q-2 19.5 -5 45.5l-17 150l143 88l-143 89l18 137q7 52 8.5 79.5q1.5 27.5 1.5 47.5q0 23 -13.5 33.5q-13.5 10.5 -33.5 10.5h-48v136h84q164 0 164 -127q0 -32 -8 -68q-8 -36 -20 -92l-20 -93l157 -116v-76l-157 -116l21 -103q11 -54 19 -91q8 -37 8 -69q0 -127 -164 -127l-84 0z" />
<glyph unicode="&#126;" horiz-adv-x="600" d="M186 437q31 0 57 -10.5q26 -10.5 57 -27.5l52 -29q14 -8 23 -12q9 -4 21 -4q25 0 25 34v48h133l-12 -84q-9 -66 -40 -101.5q-31 -35.5 -90 -35.5q-35 0 -59 10q-24 10 -54 28l-52 31q-14 8 -22.5 12.5q-8.5 4.5 -20.5 4.5q-10 0 -18 -8q-8 -8 -8 -30v-39h-132l10 77q8 66 39.5 101t90.5 35z" />
<glyph unicode="&#160;" horiz-adv-x="600" />
<glyph unicode="&#161;" horiz-adv-x="600" d="M300 572q50 0 71 -19q21 -19 21 -70q0 -52 -21 -70q-21 -18 -71 -18q-50 0 -71 18q-21 18 -21 70q0 51 21 70q21 19 71 19zt0 0zM199 -96l47 406h108l47 -406v-104l-202 0z" />
<glyph unicode="&#162;" horiz-adv-x="600" d="M387 651v-86q20 -4 39 -8q19 -4 37 -9l35 -9v-146l-37 18q-20 10 -38.5 18q-18.5 8 -35.5 13l0 -322q23 8 48 20.5q25 12.5 52 28.5l38 22v-153l-37 -13q-26 -9 -51 -17q-25 -8 -50 -13l0 -85h-80v78q-58 2 -102.5 19q-44.5 17 -74.5 51.5q-30 34.5 -45 88q-15 53.5 -15 127.5q0 153 60.5 224.5q60.5 71.5 176.5 73.5l0 79zM222 274q0 -72 21.5 -110q21.5 -38 63.5 -48l0 333q-42 -8 -63.5 -49t-21.5 -126z" />
<glyph unicode="&#163;" horiz-adv-x="600" d="M47 0v136h81v144h-81v136h81v90q0 100 55.5 153q55.5 53 167.5 53q29 0 66.5 -5q37.5 -5 72.5 -10l51 -8v-154l-49 16q-23 7 -40.5 12.5q-17.5 5.5 -31 9q-13.5 3.5 -25 5q-11.5 1.5 -23.5 1.5q-44 0 -65 -26.5q-21 -26.5 -21 -76.5v-60h255v-136h-255v-144h255l0 -136z" />
<glyph unicode="&#164;" horiz-adv-x="600" d="M82 284q0 79 26 129l-60 42v105h102l50 -67q42 16 100 16q58 0 100 -16l50 67h102v-105l-60 -42q26 -50 26 -129q0 -80 -29 -130l63 -49v-105h-109l-55 76q-41 -11 -88 -11q-25 0 -47 2.5q-22 2.5 -41 8.5l-55 -76h-109v105l62 49q-28 49 -28 130zt0 0zM204 285q0 -59 24 -84q24 -25 72 -25q48 0 72 25q24 25 24 84q0 63 -24.5 88.5q-24.5 25.5 -71.5 25.5q-48 0 -72 -25.5t-24 -88.5z" />
<glyph unicode="&#165;" horiz-adv-x="600" d="M533 94h-154v-94h-158v94h-154v89h154v50h-154v89h120l-159 274v104h151l110 -261h26l105 261h152v-104l-160 -274h121v-89h-154v-50l154 0z" />
<glyph unicode="&#166;" horiz-adv-x="600" d="M379 250v-340h-158v340zM379 760v-340h-158l0 340z" />
<glyph unicode="&#167;" horiz-adv-x="600" d="M422 569q-40 13 -68 20.5q-28 7.5 -53 7.5q-18 0 -31 -8.5q-13 -8.5 -12 -26.5q1 -12 7 -20q6 -8 17 -16l134 -90q48 -32 74 -62q26 -30 26 -73q0 -39 -21.5 -70q-21.5 -31 -56.5 -68l-22 -23q46 -34 62 -63q16 -29 16 -61q0 -69 -53 -107q-53 -38 -150 -38q-37 0 -80 8q-43 8 -91 17l-36 7v137l50 -14q28 -8 49 -13.5q21 -5.5 37.5 -9q16.5 -3.5 30.5 -5q14 -1.5 28 -1.5q24 0 38 7q14 7 14 27q0 19 -19 32l-135 90q-49 33 -75 64.5q-26 31.5 -26 78.5q0 39 23 71q23 32 60 70l17 17q-41 33 -54 63.5q-13 30.5 -13 62.5q0 67 45 104.5q45 37.5 127 37.5q32 0 70.5 -6q38.5 -6 80.5 -16l31 -7v-137zM205 306q0 -16 10.5 -27q10.5 -11 27.5 -22l88 -59l27 34q15 20 20 30.5q5 10.5 5 24.5q0 16 -10 26q-10 10 -28 23l-87 60l-28 -36q-16 -20 -20.5 -30t-4.5 -24z" />
<glyph unicode="&#168;" horiz-adv-x="600" d="M174 640q-46 0 -65 18q-19 18 -19 63q0 46 19 63q19 17 65 17q46 0 65 -17q19 -17 19 -63q0 -45 -19 -63q-19 -18 -65 -18zt0 0zM426 640q-46 0 -65 18q-19 18 -19 63q0 46 19 63q19 17 65 17q46 0 65 -17q19 -17 19 -63q0 -45 -19 -63t-65 -18z" />
<glyph unicode="&#169;" horiz-adv-x="600" d="M313 124q-71 0 -107.5 51.5q-36.5 51.5 -36.5 169.5q0 117 36.5 170q36.5 53 108.5 53q14 0 29 -2.5q15 -2.5 28 -5.5l24 -6v-103l-29 9q-27 9 -43 9q-32 0 -43.5 -27q-11.5 -27 -11.5 -96q0 -66 11.5 -93.5q11.5 -27.5 42.5 -27.5q11 0 25.5 4.5q14.5 4.5 31.5 10.5l28 11v-105l-20 -6q-17 -5 -36 -10.5q-19 -5.5 -38 -5.5zt0 0zM300 43q45 0 76 13.5q31 13.5 50.5 48.5q19.5 35 28 95q8.5 60 8.5 152q0 94 -8.5 154.5q-8.5 60.5 -28 96q-19.5 35.5 -50.5 49.5q-31 14 -76 14q-45 0 -76 -14q-31 -14 -50.5 -49.5q-19.5 -35.5 -28 -96q-8.5 -60.5 -8.5 -154.5q0 -92 8.5 -152q8.5 -60 28 -95q19.5 -35 50.5 -48.5q31 -13.5 76 -13.5zt0 0zM300 -63q-75 0 -126.5 22q-51.5 22 -82.5 71.5q-31 49.5 -44.5 128.5q-13.5 79 -13.5 193q0 115 13.5 195q13.5 80 44.5 130q31 50 82.5 72.5q51.5 22.5 126.5 22.5q75 0 126.5 -22.5q51.5 -22.5 82.5 -72.5q31 -50 44.5 -130q13.5 -80 13.5 -195q0 -114 -13.5 -193q-13.5 -79 -44.5 -128.5q-31 -49.5 -82.5 -71.5t-126.5 -22z" />
<glyph unicode="&#170;" horiz-adv-x="600" d="M162 696l40 6q30 5 55 7.5q25 2.5 50 2.5q23 0 45 -5.5q22 -5.5 39 -17.5q17 -12 27 -31q10 -19 10 -46v-114q0 -16 14 -16h11v-72q-15 -3 -28.5 -5q-13.5 -2 -27.5 -2q-26 0 -41.5 14.5q-15.5 14.5 -15.5 38.5l-17 0l-3 -6q-9 -18 -29.5 -32.5q-20.5 -14.5 -50.5 -14.5q-19 0 -36.5 5q-17.5 5 -31 17q-13.5 12 -21.5 30.5q-8 18.5 -8 45.5q0 57 32 77q32 20 89 20h76v5q0 14 -11.5 21q-11.5 7 -37.5 7q-20 0 -39.5 -2.5q-19.5 -2.5 -55.5 -8.5l-34 -6zM444 351v-90h-288v90zM340 514v16h-58q-21 0 -32 -6q-11 -6 -11 -22q0 -16 8.5 -21.5q8.5 -5.5 19.5 -5.5q8 0 15 3q7 3 20 11z" />
<glyph unicode="&#171;" horiz-adv-x="600" d="M375 0l-288 207v146l288 207v-152l-161 -96v-60l161 -95zM510 91l-183 159v66l183 159v-138l-60 -31v-42l60 -31z" />
<glyph unicode="&#172;" horiz-adv-x="600" d="M494 429v-253h-124v135h-264l0 118z" />
<glyph unicode="&#173;" horiz-adv-x="600" d="M514 252h-428v138l428 0z" />
<glyph unicode="&#174;" horiz-adv-x="600" d="M300 -63q-75 0 -126.5 22q-51.5 22 -82.5 71.5q-31 49.5 -44.5 128.5q-13.5 79 -13.5 193q0 115 13.5 195q13.5 80 44.5 130q31 50 82.5 72.5q51.5 22.5 126.5 22.5q75 0 126.5 -22.5q51.5 -22.5 82.5 -72.5q31 -50 44.5 -130q13.5 -80 13.5 -195q0 -114 -13.5 -193q-13.5 -79 -44.5 -128.5q-31 -49.5 -82.5 -71.5q-51.5 -22 -126.5 -22zt0 0zM300 43q45 0 76 13.5q31 13.5 50.5 48.5q19.5 35 28 95q8.5 60 8.5 152q0 94 -8.5 154.5q-8.5 60.5 -28 96q-19.5 35.5 -50.5 49.5q-31 14 -76 14q-45 0 -76 -14q-31 -14 -50.5 -49.5q-19.5 -35.5 -28 -96q-8.5 -60.5 -8.5 -154.5q0 -92 8.5 -152q8.5 -60 28 -95q19.5 -35 50.5 -48.5q31 -13.5 76 -13.5zt0 0zM294 557q33 0 58.5 -6q25.5 -6 42.5 -20.5q17 -14.5 25.5 -39q8.5 -24.5 8.5 -60.5q0 -49 -15.5 -76.5q-15.5 -27.5 -46.5 -39.5l52 -137v-45h-81l-55 173h-13v-173h-87v424zM294 380q25 0 37 10q12 10 12 41q0 29 -12 38q-12 9 -37 9h-24l0 -98z" />
<glyph unicode="&#175;" horiz-adv-x="600" d="M473 658h-346v119l346 0z" />
<glyph unicode="&#176;" horiz-adv-x="600" d="M251 544q0 -29 13 -41q13 -12 36 -12q23 0 36 12q13 12 13 41q0 32 -14 45.5q-14 13.5 -35 13.5q-23 0 -36 -13.5q-13 -13.5 -13 -45.5zt0 0zM123 544q0 89 46 133.5q46 44.5 131 44.5q85 0 131 -44.5q46 -44.5 46 -133.5q0 -85 -46.5 -128.5q-46.5 -43.5 -130.5 -43.5q-84 0 -130.5 43.5t-46.5 128.5z" />
<glyph unicode="&#177;" horiz-adv-x="600" d="M238 560h124v-124h152v-118h-152v-127h-124v127h-152v118h152zM514 118v-118h-428l0 118z" />
<glyph unicode="&#178;" horiz-adv-x="600" d="M171 649l125 28q31 7 38.5 14.5q7.5 7.5 7.5 17.5q0 11 -9.5 16.5q-9.5 5.5 -23.5 5.5q-24 0 -51.5 -5.5q-27.5 -5.5 -65.5 -16.5l-17 -5v86l15 4q30 8 63 13q33 5 62 5q61 0 95.5 -22.5q34.5 -22.5 34.5 -71.5q0 -16 -4 -33q-4 -17 -17 -31q-13 -14 -37 -24q-24 -10 -64 -13l-74 -5v-19h197v-80l-275 0z" />
<glyph unicode="&#179;" horiz-adv-x="600" d="M240 628v65h78q11 1 14.5 6.5q3.5 5.5 3.5 12.5q0 9 -8.5 14.5q-8.5 5.5 -29.5 5.5q-20 0 -42.5 -4.5q-22.5 -4.5 -54.5 -13.5l-17 -5v83l14 4q28 8 57.5 12q29.5 4 55.5 4q64 0 101 -17q37 -17 37 -56q0 -22 -12.5 -39.5q-12.5 -17.5 -50.5 -27.5l0 -17q42 -7 58.5 -24.5q16.5 -17.5 16.5 -40.5q0 -47 -40.5 -67q-40.5 -20 -113.5 -20q-27 0 -58 4.5q-31 4.5 -61 12.5l-19 5v83l16 -4q42 -11 70 -15.5q28 -4.5 54 -4.5q38 0 38 24q0 9 -6 14.5q-6 5.5 -25 5.5z" />
<glyph unicode="&#180;" horiz-adv-x="600" d="M244 640l74 161h167v-68l-150 -93z" />
<glyph unicode="&#181;" horiz-adv-x="600" d="M70 560h150v-386q1 -23 11.5 -36q10.5 -13 33.5 -13q11 0 22 4.5q11 4.5 33 16.5l58 33v381h150v-560h-129l-11 56h-40l-11 -10q-29 -26 -54 -42q-25 -16 -63 -16l0 -238l-150 0z" />
<glyph unicode="&#182;" horiz-adv-x="600" d="M561 690v-940h-138v794h-78v-794h-138v560q-33 0 -65 10q-32 10 -57 32.5q-25 22.5 -40.5 58q-15.5 35.5 -15.5 87.5q0 55 15.5 92q15.5 37 40.5 59.5q25 22.5 57 31.5q32 9 65 9z" />
<glyph unicode="&#183;" horiz-adv-x="600" d="M300 314q-54 0 -76.5 20.5q-22.5 20.5 -22.5 75.5q0 55 22.5 74.5q22.5 19.5 76.5 19.5q54 0 76.5 -19.5q22.5 -19.5 22.5 -74.5q0 -55 -22.5 -75.5t-76.5 -20.5z" />
<glyph unicode="&#184;" horiz-adv-x="600" d="M358 8v-60h5q30 0 48.5 -8.5q18.5 -8.5 29 -21.5q10.5 -13 14 -29.5q3.5 -16.5 3.5 -31.5q0 -52 -37 -79.5q-37 -27.5 -111 -27.5q-21 0 -43.5 4q-22.5 4 -51.5 14l0 86q30 -11 50.5 -15q20.5 -4 33.5 -4q39 0 39 33q0 20 -9.5 25.5q-9.5 5.5 -29.5 5.5h-36l0 109z" />
<glyph unicode="&#185;" horiz-adv-x="600" d="M167 660v63l47 77h188v-207h38v-80h-273v80h130v148h-18l-23 -81z" />
<glyph unicode="&#186;" horiz-adv-x="600" d="M156 351h288v-90h-288zM300 403q-72 0 -110 34.5q-38 34.5 -38 116.5q0 86 38 122q38 36 110 36q72 0 110 -36q38 -36 38 -122q0 -82 -38 -116.5q-38 -34.5 -110 -34.5zt0 0zM300 483q24 0 36 14.5q12 14.5 12 56.5q0 45 -12.5 61.5q-12.5 16.5 -35.5 16.5q-24 0 -36 -16.5q-12 -16.5 -12 -61.5q0 -42 12 -56.5t36 -14.5z" />
<glyph unicode="&#187;" horiz-adv-x="600" d="M217 157l161 95v60l-161 96v152l288 -207v-146l-288 -207zM82 233l60 31v42l-60 31v138l183 -159v-66l-183 -159z" />
<glyph unicode="&#188;" horiz-adv-x="600" d="M63 141v61l407 353h56v-61l-405 -353zM7 560v63l47 77h188v-207h38v-80h-273v80h130v148h-18l-23 -81zM551 168v-168h-105v38h-176v77l110 182h105v-58l-113 -134h74l0 63z" />
<glyph unicode="&#189;" horiz-adv-x="600" d="M63 141v61l407 353h56v-61l-405 -353zM7 560v63l47 77h188v-207h38v-80h-273v80h130v148h-18l-23 -81zM301 136l125 28q31 7 38.5 14.5q7.5 7.5 7.5 17.5q0 11 -9.5 16.5q-9.5 5.5 -23.5 5.5q-24 0 -51.5 -5.5q-27.5 -5.5 -65.5 -16.5l-17 -5v86l15 4q30 8 63 13q33 5 62 5q61 0 95.5 -22.5q34.5 -22.5 34.5 -71.5q0 -16 -4 -33q-4 -17 -17 -31q-13 -14 -37 -24q-24 -10 -64 -13l-74 -5v-19h197v-80l-275 0z" />
<glyph unicode="&#190;" horiz-adv-x="600" d="M63 141v61l407 353h56v-61l-405 -353zM110 528v65h78q11 1 14.5 6.5q3.5 5.5 3.5 12.5q0 9 -8.5 14.5q-8.5 5.5 -29.5 5.5q-20 0 -42.5 -4.5q-22.5 -4.5 -54.5 -13.5l-17 -5v83l14 4q28 8 57.5 12q29.5 4 55.5 4q64 0 101 -17q37 -17 37 -56q0 -22 -12.5 -39.5q-12.5 -17.5 -50.5 -27.5l0 -17q42 -7 58.5 -24.5q16.5 -17.5 16.5 -40.5q0 -47 -40.5 -67q-40.5 -20 -113.5 -20q-27 0 -58 4.5q-31 4.5 -61 12.5l-19 5v83l16 -4q42 -11 70 -15.5q28 -4.5 54 -4.5q38 0 38 24q0 9 -6 14.5q-6 5.5 -25 5.5zM551 168v-168h-105v38h-176v77l110 182h105v-58l-113 -134h74l0 63z" />
<glyph unicode="&#191;" horiz-adv-x="600" d="M347 572q50 0 71 -19q21 -19 21 -70q0 -52 -21 -70q-21 -18 -71 -18q-50 0 -71 18q-21 18 -21 70q0 51 21 70q21 19 71 19zt0 0zM404 310l10 -183h-67q-30 0 -53 -4q-23 -4 -38.5 -14.5q-15.5 -10.5 -23 -30q-7.5 -19.5 -7.5 -51.5q0 -45 23.5 -69q23.5 -24 71.5 -24q32 0 79 10.5q47 10.5 92 29.5l41 17v-144l-31 -11q-42 -15 -87.5 -26.5q-45.5 -11.5 -93.5 -11.5q-123 0 -184 58.5q-61 58.5 -61 170.5q0 37 7.5 75q7.5 38 28 69q20.5 31 57 50.5q36.5 19.5 94.5 19.5h14l7 69z" />
<glyph unicode="&#192;" horiz-adv-x="600" d="M26 0v105l199 595h153l196 -595v-105h-157l-12 122h-210l-12 -122zM226 243h148l-60 241h-26zM261 772l-150 93v68h167l74 -161z" />
<glyph unicode="&#193;" horiz-adv-x="600" d="M26 0v105l199 595h153l196 -595v-105h-157l-12 122h-210l-12 -122zM226 243h148l-60 241h-26zM254 772l74 161h167v-68l-150 -93z" />
<glyph unicode="&#194;" horiz-adv-x="600" d="M26 0v105l199 595h153l196 -595v-105h-157l-12 122h-210l-12 -122zM226 243h148l-60 241h-26zM283 838l-39 -66h-124v54l136 107h88l136 -107v-54h-124l-38 66z" />
<glyph unicode="&#195;" horiz-adv-x="600" d="M26 0v105l199 595h153l196 -595v-105h-157l-12 122h-210l-12 -122zM226 243h148l-60 241h-26zM220 933q24 0 45 -8q21 -8 39 -17q18 -9 33 -17q15 -8 27 -8q27 0 27 32v18h107l-5 -38q-7 -54 -33 -88.5q-26 -34.5 -78 -34.5q-24 0 -45.5 8.5q-21.5 8.5 -40.5 18.5q-19 10 -34.5 18.5q-15.5 8.5 -27.5 8.5q-12 0 -19.5 -6.5q-7.5 -6.5 -7.5 -20.5v-27h-105l4 40q5 54 33 87.5t81 33.5z" />
<glyph unicode="&#196;" horiz-adv-x="600" d="M26 0v105l199 595h153l196 -595v-105h-157l-12 122h-210l-12 -122zM226 243h148l-60 241h-26zM174 772q-46 0 -65 18q-19 18 -19 63q0 46 19 63q19 17 65 17q46 0 65 -17q19 -17 19 -63q0 -45 -19 -63q-19 -18 -65 -18zt0 0zM426 772q-46 0 -65 18q-19 18 -19 63q0 46 19 63q19 17 65 17q46 0 65 -17q19 -17 19 -63q0 -45 -19 -63t-65 -18z" />
<glyph unicode="&#197;" horiz-adv-x="600" d="M26 0v105l199 595h153l196 -595v-105h-157l-12 122h-210l-12 -122zM226 243h148l-60 241h-26zM254 840q0 -26 11.5 -35q11.5 -9 34.5 -9q23 0 34.5 9q11.5 9 11.5 35q0 26 -11.5 34.5q-11.5 8.5 -34.5 8.5q-23 0 -34.5 -8.5q-11.5 -8.5 -11.5 -34.5zt0 0zM155 840q0 60 37 85q37 25 108 25q71 0 108 -25q37 -25 37 -85q0 -60 -37 -85.5q-37 -25.5 -108 -25.5q-71 0 -108 25.5t-37 85.5z" />
<glyph unicode="&#198;" horiz-adv-x="600" d="M571 136v-136h-286v145h-97l-21 -145h-139v105l115 595h418v-136h-138v-138h108v-136h-108v-154zM285 564h-36l-42 -284l78 0z" />
<glyph unicode="&#199;" horiz-adv-x="600" d="M341 124q29 0 57.5 6.5q28.5 6.5 78.5 24.5l61 22v-164l-60 -11q-32 -6 -66.5 -10q-34.5 -4 -79.5 -4q-70 0 -121 17.5q-51 17.5 -84.5 59q-33.5 41.5 -50 110.5q-16.5 69 -16.5 172q0 106 15.5 176q15.5 70 48.5 112q33 42 83.5 59.5q50.5 17.5 120.5 17.5q29 0 68 -5q39 -5 72 -10l49 -8v-154l-50 16q-46 14 -73.5 20q-27.5 6 -52.5 6q-34 0 -57.5 -8.5q-23.5 -8.5 -38 -33.5q-14.5 -25 -21 -70q-6.5 -45 -6.5 -118q0 -71 6 -114.5q6 -43.5 20 -67.5q14 -24 37.5 -32.5q23.5 -8.5 59.5 -8.5zt0 0zM378 8v-60h5q30 0 48.5 -8.5q18.5 -8.5 29 -21.5q10.5 -13 14 -29.5q3.5 -16.5 3.5 -31.5q0 -52 -37 -79.5q-37 -27.5 -111 -27.5q-21 0 -43.5 4q-22.5 4 -51.5 14l0 86q30 -11 50.5 -15q20.5 -4 33.5 -4q39 0 39 33q0 20 -9.5 25.5q-9.5 5.5 -29.5 5.5h-36l0 109z" />
<glyph unicode="&#200;" horiz-adv-x="600" d="M531 0h-460v700h450v-136h-292v-138h262v-136h-262v-154h302zM261 772l-150 93v68h167l74 -161z" />
<glyph unicode="&#201;" horiz-adv-x="600" d="M531 0h-460v700h450v-136h-292v-138h262v-136h-262v-154h302zM254 772l74 161h167v-68l-150 -93z" />
<glyph unicode="&#202;" horiz-adv-x="600" d="M531 0h-460v700h450v-136h-292v-138h262v-136h-262v-154h302zM283 838l-39 -66h-124v54l136 107h88l136 -107v-54h-124l-38 66z" />
<glyph unicode="&#203;" horiz-adv-x="600" d="M531 0h-460v700h450v-136h-292v-138h262v-136h-262v-154h302zM174 772q-46 0 -65 18q-19 18 -19 63q0 46 19 63q19 17 65 17q46 0 65 -17q19 -17 19 -63q0 -45 -19 -63q-19 -18 -65 -18zt0 0zM426 772q-46 0 -65 18q-19 18 -19 63q0 46 19 63q19 17 65 17q46 0 65 -17q19 -17 19 -63q0 -45 -19 -63t-65 -18z" />
<glyph unicode="&#204;" horiz-adv-x="600" d="M514 0h-428v136h135v428h-135v136h428v-136h-135v-428h135zM261 772l-150 93v68h167l74 -161z" />
<glyph unicode="&#205;" horiz-adv-x="600" d="M514 0h-428v136h135v428h-135v136h428v-136h-135v-428h135zM254 772l74 161h167v-68l-150 -93z" />
<glyph unicode="&#206;" horiz-adv-x="600" d="M514 0h-428v136h135v428h-135v136h428v-136h-135v-428h135zM283 838l-39 -66h-124v54l136 107h88l136 -107v-54h-124l-38 66z" />
<glyph unicode="&#207;" horiz-adv-x="600" d="M514 0h-428v136h135v428h-135v136h428v-136h-135v-428h135zM174 772q-46 0 -65 18q-19 18 -19 63q0 46 19 63q19 17 65 17q46 0 65 -17q19 -17 19 -63q0 -45 -19 -63q-19 -18 -65 -18zt0 0zM426 772q-46 0 -65 18q-19 18 -19 63q0 46 19 63q19 17 65 17q46 0 65 -17q19 -17 19 -63q0 -45 -19 -63t-65 -18z" />
<glyph unicode="&#208;" horiz-adv-x="600" d="M60 0v290h-53v129h53v281h230q70 -1 120 -18q50 -17 82 -57.5q32 -40.5 47.5 -108q15.5 -67.5 15.5 -169.5q0 -103 -15.5 -170q-15.5 -67 -47.5 -106.5q-32 -39.5 -82 -55q-50 -15.5 -120 -15.5zM303 419v-129h-85v-154h72q31 0 51.5 8q20.5 8 33 31q12.5 23 17.5 64q5 41 5 108q0 69 -5 111.5q-5 42.5 -17.5 66q-12.5 23.5 -33 31.5q-20.5 8 -51.5 8h-72l0 -145z" />
<glyph unicode="&#209;" horiz-adv-x="600" d="M547 0h-201l-106 311l-47 165h-25l28 -322v-154h-143v700h202l104 -305l44 -162h25l-24 313v154h143zM220 933q24 0 45 -8q21 -8 39 -17q18 -9 33 -17q15 -8 27 -8q27 0 27 32v18h107l-5 -38q-7 -54 -33 -88.5q-26 -34.5 -78 -34.5q-24 0 -45.5 8.5q-21.5 8.5 -40.5 18.5q-19 10 -34.5 18.5q-15.5 8.5 -27.5 8.5q-12 0 -19.5 -6.5q-7.5 -6.5 -7.5 -20.5v-27h-105l4 40q5 54 33 87.5t81 33.5z" />
<glyph unicode="&#210;" horiz-adv-x="600" d="M193 347q0 -71 5 -114.5q5 -43.5 17.5 -67.5q12.5 -24 33 -32.5q20.5 -8.5 51.5 -8.5q31 0 51.5 8.5q20.5 8.5 33 32.5q12.5 24 17.5 67.5q5 43.5 5 114.5q0 72 -5 117q-5 45 -17.5 70q-12.5 25 -33 33.5q-20.5 8.5 -51.5 8.5q-31 0 -51.5 -8.5q-20.5 -8.5 -33 -33.5q-12.5 -25 -17.5 -69.5q-5 -44.5 -5 -117.5zt0 0zM35 347q0 106 15.5 176q15.5 70 47.5 112q32 42 82.5 59.5q50.5 17.5 119.5 17.5q70 0 120 -17.5q50 -17.5 82 -59.5q32 -42 47.5 -112q15.5 -70 15.5 -176q0 -103 -15.5 -172q-15.5 -69 -47.5 -110.5q-32 -41.5 -82 -59q-50 -17.5 -120 -17.5q-69 0 -119.5 17.5q-50.5 17.5 -82.5 59q-32 41.5 -47.5 110.5q-15.5 69 -15.5 172zt0 0zM261 772l-150 93v68h167l74 -161z" />
<glyph unicode="&#211;" horiz-adv-x="600" d="M193 347q0 -71 5 -114.5q5 -43.5 17.5 -67.5q12.5 -24 33 -32.5q20.5 -8.5 51.5 -8.5q31 0 51.5 8.5q20.5 8.5 33 32.5q12.5 24 17.5 67.5q5 43.5 5 114.5q0 72 -5 117q-5 45 -17.5 70q-12.5 25 -33 33.5q-20.5 8.5 -51.5 8.5q-31 0 -51.5 -8.5q-20.5 -8.5 -33 -33.5q-12.5 -25 -17.5 -69.5q-5 -44.5 -5 -117.5zt0 0zM35 347q0 106 15.5 176q15.5 70 47.5 112q32 42 82.5 59.5q50.5 17.5 119.5 17.5q70 0 120 -17.5q50 -17.5 82 -59.5q32 -42 47.5 -112q15.5 -70 15.5 -176q0 -103 -15.5 -172q-15.5 -69 -47.5 -110.5q-32 -41.5 -82 -59q-50 -17.5 -120 -17.5q-69 0 -119.5 17.5q-50.5 17.5 -82.5 59q-32 41.5 -47.5 110.5q-15.5 69 -15.5 172zt0 0zM254 772l74 161h167v-68l-150 -93z" />
<glyph unicode="&#212;" horiz-adv-x="600" d="M193 347q0 -71 5 -114.5q5 -43.5 17.5 -67.5q12.5 -24 33 -32.5q20.5 -8.5 51.5 -8.5q31 0 51.5 8.5q20.5 8.5 33 32.5q12.5 24 17.5 67.5q5 43.5 5 114.5q0 72 -5 117q-5 45 -17.5 70q-12.5 25 -33 33.5q-20.5 8.5 -51.5 8.5q-31 0 -51.5 -8.5q-20.5 -8.5 -33 -33.5q-12.5 -25 -17.5 -69.5q-5 -44.5 -5 -117.5zt0 0zM35 347q0 106 15.5 176q15.5 70 47.5 112q32 42 82.5 59.5q50.5 17.5 119.5 17.5q70 0 120 -17.5q50 -17.5 82 -59.5q32 -42 47.5 -112q15.5 -70 15.5 -176q0 -103 -15.5 -172q-15.5 -69 -47.5 -110.5q-32 -41.5 -82 -59q-50 -17.5 -120 -17.5q-69 0 -119.5 17.5q-50.5 17.5 -82.5 59q-32 41.5 -47.5 110.5q-15.5 69 -15.5 172zt0 0zM283 838l-39 -66h-124v54l136 107h88l136 -107v-54h-124l-38 66z" />
<glyph unicode="&#213;" horiz-adv-x="600" d="M193 347q0 -71 5 -114.5q5 -43.5 17.5 -67.5q12.5 -24 33 -32.5q20.5 -8.5 51.5 -8.5q31 0 51.5 8.5q20.5 8.5 33 32.5q12.5 24 17.5 67.5q5 43.5 5 114.5q0 72 -5 117q-5 45 -17.5 70q-12.5 25 -33 33.5q-20.5 8.5 -51.5 8.5q-31 0 -51.5 -8.5q-20.5 -8.5 -33 -33.5q-12.5 -25 -17.5 -69.5q-5 -44.5 -5 -117.5zt0 0zM35 347q0 106 15.5 176q15.5 70 47.5 112q32 42 82.5 59.5q50.5 17.5 119.5 17.5q70 0 120 -17.5q50 -17.5 82 -59.5q32 -42 47.5 -112q15.5 -70 15.5 -176q0 -103 -15.5 -172q-15.5 -69 -47.5 -110.5q-32 -41.5 -82 -59q-50 -17.5 -120 -17.5q-69 0 -119.5 17.5q-50.5 17.5 -82.5 59q-32 41.5 -47.5 110.5q-15.5 69 -15.5 172zt0 0zM220 933q24 0 45 -8q21 -8 39 -17q18 -9 33 -17q15 -8 27 -8q27 0 27 32v18h107l-5 -38q-7 -54 -33 -88.5q-26 -34.5 -78 -34.5q-24 0 -45.5 8.5q-21.5 8.5 -40.5 18.5q-19 10 -34.5 18.5q-15.5 8.5 -27.5 8.5q-12 0 -19.5 -6.5q-7.5 -6.5 -7.5 -20.5v-27h-105l4 40q5 54 33 87.5t81 33.5z" />
<glyph unicode="&#214;" horiz-adv-x="600" d="M193 347q0 -71 5 -114.5q5 -43.5 17.5 -67.5q12.5 -24 33 -32.5q20.5 -8.5 51.5 -8.5q31 0 51.5 8.5q20.5 8.5 33 32.5q12.5 24 17.5 67.5q5 43.5 5 114.5q0 72 -5 117q-5 45 -17.5 70q-12.5 25 -33 33.5q-20.5 8.5 -51.5 8.5q-31 0 -51.5 -8.5q-20.5 -8.5 -33 -33.5q-12.5 -25 -17.5 -69.5q-5 -44.5 -5 -117.5zt0 0zM35 347q0 106 15.5 176q15.5 70 47.5 112q32 42 82.5 59.5q50.5 17.5 119.5 17.5q70 0 120 -17.5q50 -17.5 82 -59.5q32 -42 47.5 -112q15.5 -70 15.5 -176q0 -103 -15.5 -172q-15.5 -69 -47.5 -110.5q-32 -41.5 -82 -59q-50 -17.5 -120 -17.5q-69 0 -119.5 17.5q-50.5 17.5 -82.5 59q-32 41.5 -47.5 110.5q-15.5 69 -15.5 172zt0 0zM174 772q-46 0 -65 18q-19 18 -19 63q0 46 19 63q19 17 65 17q46 0 65 -17q19 -17 19 -63q0 -45 -19 -63q-19 -18 -65 -18zt0 0zM426 772q-46 0 -65 18q-19 18 -19 63q0 46 19 63q19 17 65 17q46 0 65 -17q19 -17 19 -63q0 -45 -19 -63t-65 -18z" />
<glyph unicode="&#215;" horiz-adv-x="600" d="M185 536l115 -135l115 135l101 -101l-135 -115l135 -115l-101 -101l-115 135l-115 -135l-101 101l135 115l-135 115z" />
<glyph unicode="&#216;" horiz-adv-x="600" d="M35 347q0 106 15.5 176q15.5 70 47.5 112q32 42 82.5 59.5q50.5 17.5 119.5 17.5q31 0 58 -3q27 -3 50 -11l46 102h68v-66l-36 -81q41 -40 60 -114q19 -74 19 -192q0 -103 -15.5 -172q-15.5 -69 -47.5 -110.5q-32 -41.5 -82 -59q-50 -17.5 -120 -17.5q-59 0 -104 12l-49 -110h-71v66l40 89q-42 40 -61.5 112.5q-19.5 72.5 -19.5 189.5zt0 0zM193 347q0 -37 1 -66q1 -29 4 -52l152 339q-19 8 -50 8q-31 0 -51.5 -8.5q-20.5 -8.5 -33 -33.5q-12.5 -25 -17.5 -69.5q-5 -44.5 -5 -117.5zt0 0zM407 347q0 36 -1.5 65q-1.5 29 -3.5 52l-149 -334q10 -4 21.5 -5q11.5 -1 25.5 -1q31 0 51.5 8.5q20.5 8.5 33 32.5q12.5 24 17.5 67.5t5 114.5z" />
<glyph unicode="&#217;" horiz-adv-x="600" d="M48 700h158v-468q0 -59 25 -83.5q25 -24.5 69 -24.5q44 0 69 24.5q25 24.5 25 83.5v468h158v-468q0 -125 -67 -184.5q-67 -59.5 -185 -59.5q-118 0 -185 59.5q-67 59.5 -67 184.5zM261 772l-150 93v68h167l74 -161z" />
<glyph unicode="&#218;" horiz-adv-x="600" d="M48 700h158v-468q0 -59 25 -83.5q25 -24.5 69 -24.5q44 0 69 24.5q25 24.5 25 83.5v468h158v-468q0 -125 -67 -184.5q-67 -59.5 -185 -59.5q-118 0 -185 59.5q-67 59.5 -67 184.5zM254 772l74 161h167v-68l-150 -93z" />
<glyph unicode="&#219;" horiz-adv-x="600" d="M48 700h158v-468q0 -59 25 -83.5q25 -24.5 69 -24.5q44 0 69 24.5q25 24.5 25 83.5v468h158v-468q0 -125 -67 -184.5q-67 -59.5 -185 -59.5q-118 0 -185 59.5q-67 59.5 -67 184.5zM283 838l-39 -66h-124v54l136 107h88l136 -107v-54h-124l-38 66z" />
<glyph unicode="&#220;" horiz-adv-x="600" d="M48 700h158v-468q0 -59 25 -83.5q25 -24.5 69 -24.5q44 0 69 24.5q25 24.5 25 83.5v468h158v-468q0 -125 -67 -184.5q-67 -59.5 -185 -59.5q-118 0 -185 59.5q-67 59.5 -67 184.5zM174 772q-46 0 -65 18q-19 18 -19 63q0 46 19 63q19 17 65 17q46 0 65 -17q19 -17 19 -63q0 -45 -19 -63q-19 -18 -65 -18zt0 0zM426 772q-46 0 -65 18q-19 18 -19 63q0 46 19 63q19 17 65 17q46 0 65 -17q19 -17 19 -63q0 -45 -19 -63t-65 -18z" />
<glyph unicode="&#221;" horiz-adv-x="600" d="M289 439h26l105 261h152v-104l-193 -332v-264h-158v264l-193 332v104h151zM254 772l74 161h167v-68l-150 -93z" />
<glyph unicode="&#222;" horiz-adv-x="600" d="M226 126v-126h-158v700h158v-80h74q64 0 113 -12q49 -12 81.5 -41q32.5 -29 49 -77q16.5 -48 16.5 -120q0 -67 -16.5 -113.5q-16.5 -46.5 -49 -75.5q-32.5 -29 -81.5 -42q-49 -13 -113 -13zM295 262q55 0 81 22q26 22 26 86q0 36 -6.5 58.5q-6.5 22.5 -19.5 34.5q-13 12 -33.5 16.5q-20.5 4.5 -47.5 4.5h-69l0 -222z" />
<glyph unicode="&#223;" horiz-adv-x="600" d="M348 -12q-23 0 -48.5 3.5q-25.5 3.5 -49.5 8.5l0 137q21 -5 43.5 -10q22.5 -5 42.5 -5q35 0 53.5 25.5q18.5 25.5 18.5 84.5q0 60 -24 84.5q-24 24.5 -68 24.5h-56v127h50q35 0 52 21q17 21 17 71q0 44 -24.5 64q-24.5 20 -62.5 20q-44 0 -68 -22.5q-24 -22.5 -24 -77.5v-544h-150v544q0 119 63.5 173.5q63.5 54.5 178.5 54.5q110 0 171.5 -48q61.5 -48 61.5 -142q0 -64 -25.5 -101.5q-25.5 -37.5 -75.5 -54.5l0 -28q67 -14 100.5 -56.5q33.5 -42.5 33.5 -123.5q0 -120 -51 -175t-159 -55z" />
<glyph unicode="&#224;" horiz-adv-x="600" d="M80 559l43 3q44 3 89 6.5q45 3.5 91 3.5q45 0 84 -9q39 -9 67 -28.5q28 -19.5 44 -51q16 -31.5 16 -77.5v-276q0 -16 8.5 -24q8.5 -8 21.5 -6l22 3v-103q-32 -5 -50.5 -8.5q-18.5 -3.5 -41.5 -3.5q-42 0 -69 20q-27 20 -36 51l-41 0l-14 -16q-26 -29 -54.5 -42q-28.5 -13 -67.5 -13q-64 0 -104.5 47q-40.5 47 -40.5 134q0 54 14.5 89q14.5 35 40 55.5q25.5 20.5 61.5 28.5q36 8 79 8h123v28q0 73 -89 73q-29 0 -66 -5q-37 -5 -80 -13l-50 -10zM365 185v75h-103q-67 0 -67 -71q0 -34 13.5 -50.5q13.5 -16.5 35.5 -16.5q20 0 38.5 10.5q18.5 10.5 45.5 28.5zM261 640l-150 93v68h167l74 -161z" />
<glyph unicode="&#225;" horiz-adv-x="600" d="M80 559l43 3q44 3 89 6.5q45 3.5 91 3.5q45 0 84 -9q39 -9 67 -28.5q28 -19.5 44 -51q16 -31.5 16 -77.5v-276q0 -16 8.5 -24q8.5 -8 21.5 -6l22 3v-103q-32 -5 -50.5 -8.5q-18.5 -3.5 -41.5 -3.5q-42 0 -69 20q-27 20 -36 51l-41 0l-14 -16q-26 -29 -54.5 -42q-28.5 -13 -67.5 -13q-64 0 -104.5 47q-40.5 47 -40.5 134q0 54 14.5 89q14.5 35 40 55.5q25.5 20.5 61.5 28.5q36 8 79 8h123v28q0 73 -89 73q-29 0 -66 -5q-37 -5 -80 -13l-50 -10zM365 185v75h-103q-67 0 -67 -71q0 -34 13.5 -50.5q13.5 -16.5 35.5 -16.5q20 0 38.5 10.5q18.5 10.5 45.5 28.5zM244 640l74 161h167v-68l-150 -93z" />
<glyph unicode="&#226;" horiz-adv-x="600" d="M80 559l43 3q44 3 89 6.5q45 3.5 91 3.5q45 0 84 -9q39 -9 67 -28.5q28 -19.5 44 -51q16 -31.5 16 -77.5v-276q0 -16 8.5 -24q8.5 -8 21.5 -6l22 3v-103q-32 -5 -50.5 -8.5q-18.5 -3.5 -41.5 -3.5q-42 0 -69 20q-27 20 -36 51l-41 0l-14 -16q-26 -29 -54.5 -42q-28.5 -13 -67.5 -13q-64 0 -104.5 47q-40.5 47 -40.5 134q0 54 14.5 89q14.5 35 40 55.5q25.5 20.5 61.5 28.5q36 8 79 8h123v28q0 73 -89 73q-29 0 -66 -5q-37 -5 -80 -13l-50 -10zM365 185v75h-103q-67 0 -67 -71q0 -34 13.5 -50.5q13.5 -16.5 35.5 -16.5q20 0 38.5 10.5q18.5 10.5 45.5 28.5zM283 706l-39 -66h-124v54l136 107h88l136 -107v-54h-124l-38 66z" />
<glyph unicode="&#227;" horiz-adv-x="600" d="M80 559l43 3q44 3 89 6.5q45 3.5 91 3.5q45 0 84 -9q39 -9 67 -28.5q28 -19.5 44 -51q16 -31.5 16 -77.5v-276q0 -16 8.5 -24q8.5 -8 21.5 -6l22 3v-103q-32 -5 -50.5 -8.5q-18.5 -3.5 -41.5 -3.5q-42 0 -69 20q-27 20 -36 51l-41 0l-14 -16q-26 -29 -54.5 -42q-28.5 -13 -67.5 -13q-64 0 -104.5 47q-40.5 47 -40.5 134q0 54 14.5 89q14.5 35 40 55.5q25.5 20.5 61.5 28.5q36 8 79 8h123v28q0 73 -89 73q-29 0 -66 -5q-37 -5 -80 -13l-50 -10zM365 185v75h-103q-67 0 -67 -71q0 -34 13.5 -50.5q13.5 -16.5 35.5 -16.5q20 0 38.5 10.5q18.5 10.5 45.5 28.5zM220 801q24 0 45 -8q21 -8 39 -17q18 -9 33 -17q15 -8 27 -8q27 0 27 32v18h107l-5 -38q-7 -54 -33 -88.5q-26 -34.5 -78 -34.5q-24 0 -45.5 8.5q-21.5 8.5 -40.5 18.5q-19 10 -34.5 18.5q-15.5 8.5 -27.5 8.5q-12 0 -19.5 -6.5q-7.5 -6.5 -7.5 -20.5v-27h-105l4 40q5 54 33 87.5t81 33.5z" />
<glyph unicode="&#228;" horiz-adv-x="600" d="M80 559l43 3q44 3 89 6.5q45 3.5 91 3.5q45 0 84 -9q39 -9 67 -28.5q28 -19.5 44 -51q16 -31.5 16 -77.5v-276q0 -16 8.5 -24q8.5 -8 21.5 -6l22 3v-103q-32 -5 -50.5 -8.5q-18.5 -3.5 -41.5 -3.5q-42 0 -69 20q-27 20 -36 51l-41 0l-14 -16q-26 -29 -54.5 -42q-28.5 -13 -67.5 -13q-64 0 -104.5 47q-40.5 47 -40.5 134q0 54 14.5 89q14.5 35 40 55.5q25.5 20.5 61.5 28.5q36 8 79 8h123v28q0 73 -89 73q-29 0 -66 -5q-37 -5 -80 -13l-50 -10zM365 185v75h-103q-67 0 -67 -71q0 -34 13.5 -50.5q13.5 -16.5 35.5 -16.5q20 0 38.5 10.5q18.5 10.5 45.5 28.5zM174 640q-46 0 -65 18q-19 18 -19 63q0 46 19 63q19 17 65 17q46 0 65 -17q19 -17 19 -63q0 -45 -19 -63q-19 -18 -65 -18zt0 0zM426 640q-46 0 -65 18q-19 18 -19 63q0 46 19 63q19 17 65 17q46 0 65 -17q19 -17 19 -63q0 -45 -19 -63t-65 -18z" />
<glyph unicode="&#229;" horiz-adv-x="600" d="M80 559l43 3q44 3 89 6.5q45 3.5 91 3.5q45 0 84 -9q39 -9 67 -28.5q28 -19.5 44 -51q16 -31.5 16 -77.5v-276q0 -16 8.5 -24q8.5 -8 21.5 -6l22 3v-103q-32 -5 -50.5 -8.5q-18.5 -3.5 -41.5 -3.5q-42 0 -69 20q-27 20 -36 51l-41 0l-14 -16q-26 -29 -54.5 -42q-28.5 -13 -67.5 -13q-64 0 -104.5 47q-40.5 47 -40.5 134q0 54 14.5 89q14.5 35 40 55.5q25.5 20.5 61.5 28.5q36 8 79 8h123v28q0 73 -89 73q-29 0 -66 -5q-37 -5 -80 -13l-50 -10zM365 185v75h-103q-67 0 -67 -71q0 -34 13.5 -50.5q13.5 -16.5 35.5 -16.5q20 0 38.5 10.5q18.5 10.5 45.5 28.5zM254 741q0 -26 11.5 -35q11.5 -9 34.5 -9q23 0 34.5 9q11.5 9 11.5 35q0 26 -11.5 34.5q-11.5 8.5 -34.5 8.5q-23 0 -34.5 -8.5q-11.5 -8.5 -11.5 -34.5zt0 0zM155 741q0 60 37 85q37 25 108 25q71 0 108 -25q37 -25 37 -85q0 -60 -37 -85.5q-37 -25.5 -108 -25.5q-71 0 -108 25.5t-37 85.5z" />
<glyph unicode="&#230;" horiz-adv-x="600" d="M430 -12q-40 0 -69.5 17.5q-29.5 17.5 -46.5 46.5l-56 0l-22 -22q-22 -22 -44 -32q-22 -10 -51 -10q-24 0 -44.5 9.5q-20.5 9.5 -35.5 30.5q-15 21 -24 55q-9 34 -9 84q0 52 10.5 85.5q10.5 33.5 28.5 52.5q18 19 43 26q25 7 54 7h83v3q0 28 -1.5 48.5q-1.5 20.5 -7 33.5q-5.5 13 -17 19q-11.5 6 -31.5 6q-16 0 -37.5 -3.5q-21.5 -3.5 -46.5 -9.5l-50 -12v136l43 5q27 3 54.5 5.5q27.5 2.5 56.5 2.5q36 0 62 -15.5q26 -15.5 41 -44.5q16 26 43.5 43q27.5 17 69.5 17q36 0 63 -13.5q27 -13.5 45.5 -45q18.5 -31.5 27.5 -84q9 -52.5 9 -130.5v-51h-203q1 -45 7.5 -71.5q6.5 -26.5 16 -40q9.5 -13.5 21.5 -17.5q12 -4 24 -4q14 0 30.5 5.5q16.5 5.5 38.5 14.5l52 21v-142l-33 -9q-26 -7 -48 -12q-22 -5 -47 -5zt0 0zM154 176q0 -42 8 -55q8 -13 21 -13q11 0 20.5 5.5q9.5 5.5 21.5 15.5l22 18v101h-51q-20 0 -31 -14q-11 -14 -11 -58zt0 0zM414 447q-10 0 -18 -4.5q-8 -4.5 -13.5 -17q-5.5 -12.5 -9 -34.5q-3.5 -22 -4.5 -58l88 0q-1 34 -3.5 56.5q-2.5 22.5 -8 35q-5.5 12.5 -13 17.5t-18.5 5z" />
<glyph unicode="&#231;" horiz-adv-x="600" d="M320 -12q-122 0 -186 67q-64 67 -64 219q0 155 63 226.5q63 71.5 182 71.5q35 0 74 -7.5q39 -7.5 74 -16.5l35 -9v-146l-37 18q-38 19 -70.5 30q-32.5 11 -58.5 11q-54 0 -82 -40.5q-28 -40.5 -28 -137.5q0 -87 31 -124.5q31 -37.5 90 -37.5q29 0 66 17q37 17 78 40l38 22v-153l-37 -13q-43 -15 -83 -26q-40 -11 -85 -11zt0 0zM368 8v-60h5q30 0 48.5 -8.5q18.5 -8.5 29 -21.5q10.5 -13 14 -29.5q3.5 -16.5 3.5 -31.5q0 -52 -37 -79.5q-37 -27.5 -111 -27.5q-21 0 -43.5 4q-22.5 4 -51.5 14l0 86q30 -11 50.5 -15q20.5 -4 33.5 -4q39 0 39 33q0 20 -9.5 25.5q-9.5 5.5 -29.5 5.5h-36l0 109z" />
<glyph unicode="&#232;" horiz-adv-x="600" d="M200 237q5 -69 32 -98q27 -29 81 -29q17 0 33.5 2q16.5 2 33.5 5.5q17 3.5 37 9q20 5.5 44 13.5l53 16v-142l-54 -9q-39 -7 -81.5 -12q-42.5 -5 -85.5 -5q-57 0 -101.5 16q-44.5 16 -75.5 51q-31 35 -47.5 90q-16.5 55 -16.5 132q0 79 16.5 135q16.5 56 48 91.5q31.5 35.5 77 52q45.5 16.5 103.5 16.5q52 0 95 -15q43 -15 73.5 -47.5q30.5 -32.5 47 -84q16.5 -51.5 16.5 -124.5v-64zM297 450q-44 0 -67.5 -27.5q-23.5 -27.5 -28.5 -95.5l185 0q-3 68 -25 95.5q-22 27.5 -64 27.5zt0 0zM261 640l-150 93v68h167l74 -161z" />
<glyph unicode="&#233;" horiz-adv-x="600" d="M200 237q5 -69 32 -98q27 -29 81 -29q17 0 33.5 2q16.5 2 33.5 5.5q17 3.5 37 9q20 5.5 44 13.5l53 16v-142l-54 -9q-39 -7 -81.5 -12q-42.5 -5 -85.5 -5q-57 0 -101.5 16q-44.5 16 -75.5 51q-31 35 -47.5 90q-16.5 55 -16.5 132q0 79 16.5 135q16.5 56 48 91.5q31.5 35.5 77 52q45.5 16.5 103.5 16.5q52 0 95 -15q43 -15 73.5 -47.5q30.5 -32.5 47 -84q16.5 -51.5 16.5 -124.5v-64zM297 450q-44 0 -67.5 -27.5q-23.5 -27.5 -28.5 -95.5l185 0q-3 68 -25 95.5q-22 27.5 -64 27.5zt0 0zM244 640l74 161h167v-68l-150 -93z" />
<glyph unicode="&#234;" horiz-adv-x="600" d="M200 237q5 -69 32 -98q27 -29 81 -29q17 0 33.5 2q16.5 2 33.5 5.5q17 3.5 37 9q20 5.5 44 13.5l53 16v-142l-54 -9q-39 -7 -81.5 -12q-42.5 -5 -85.5 -5q-57 0 -101.5 16q-44.5 16 -75.5 51q-31 35 -47.5 90q-16.5 55 -16.5 132q0 79 16.5 135q16.5 56 48 91.5q31.5 35.5 77 52q45.5 16.5 103.5 16.5q52 0 95 -15q43 -15 73.5 -47.5q30.5 -32.5 47 -84q16.5 -51.5 16.5 -124.5v-64zM297 450q-44 0 -67.5 -27.5q-23.5 -27.5 -28.5 -95.5l185 0q-3 68 -25 95.5q-22 27.5 -64 27.5zt0 0zM283 706l-39 -66h-124v54l136 107h88l136 -107v-54h-124l-38 66z" />
<glyph unicode="&#235;" horiz-adv-x="600" d="M200 237q5 -69 32 -98q27 -29 81 -29q17 0 33.5 2q16.5 2 33.5 5.5q17 3.5 37 9q20 5.5 44 13.5l53 16v-142l-54 -9q-39 -7 -81.5 -12q-42.5 -5 -85.5 -5q-57 0 -101.5 16q-44.5 16 -75.5 51q-31 35 -47.5 90q-16.5 55 -16.5 132q0 79 16.5 135q16.5 56 48 91.5q31.5 35.5 77 52q45.5 16.5 103.5 16.5q52 0 95 -15q43 -15 73.5 -47.5q30.5 -32.5 47 -84q16.5 -51.5 16.5 -124.5v-64zM297 450q-44 0 -67.5 -27.5q-23.5 -27.5 -28.5 -95.5l185 0q-3 68 -25 95.5q-22 27.5 -64 27.5zt0 0zM174 640q-46 0 -65 18q-19 18 -19 63q0 46 19 63q19 17 65 17q46 0 65 -17q19 -17 19 -63q0 -45 -19 -63q-19 -18 -65 -18zt0 0zM426 640q-46 0 -65 18q-19 18 -19 63q0 46 19 63q19 17 65 17q46 0 65 -17q19 -17 19 -63q0 -45 -19 -63t-65 -18z" />
<glyph unicode="&#236;" horiz-adv-x="600" d="M537 0h-460v125h181v310h-143v125h293v-435h129zM261 640l-150 93v68h167l74 -161z" />
<glyph unicode="&#237;" horiz-adv-x="600" d="M537 0h-460v125h181v310h-143v125h293v-435h129zM244 640l74 161h167v-68l-150 -93z" />
<glyph unicode="&#238;" horiz-adv-x="600" d="M537 0h-460v125h181v310h-143v125h293v-435h129zM283 706l-39 -66h-124v54l136 107h88l136 -107v-54h-124l-38 66z" />
<glyph unicode="&#239;" horiz-adv-x="600" d="M537 0h-460v125h181v310h-143v125h293v-435h129zM174 640q-46 0 -65 18q-19 18 -19 63q0 46 19 63q19 17 65 17q46 0 65 -17q19 -17 19 -63q0 -45 -19 -63q-19 -18 -65 -18zt0 0zM426 640q-46 0 -65 18q-19 18 -19 63q0 46 19 63q19 17 65 17q46 0 65 -17q19 -17 19 -63q0 -45 -19 -63t-65 -18z" />
<glyph unicode="&#240;" horiz-adv-x="600" d="M131 798l199 -62l105 55l41 -79l-42 -22q37 -26 60.5 -61.5q23.5 -35.5 37 -81.5q13.5 -46 18.5 -101q5 -55 5 -118q0 -96 -17.5 -161q-17.5 -65 -50 -105q-32.5 -40 -79.5 -57q-47 -17 -107 -17q-62 0 -109 15q-47 15 -79 48q-32 33 -48.5 85.5q-16.5 52.5 -16.5 126.5q0 73 18.5 122.5q18.5 49.5 49 80.5q30.5 31 70 44.5q39.5 13.5 81.5 13.5q55 0 96 -22.5q41 -22.5 63 -67.5l31 0l-4 24q-11 57 -39 91.5q-28 34.5 -84 51.5l-43 13l-136 -70l-41 78l58 30l-78 25zM298 402q-44 0 -69 -31q-25 -31 -25 -107q0 -83 26 -117.5q26 -34.5 71 -34.5q46 0 72.5 35q26.5 35 26.5 117q0 76 -27 107t-75 31z" />
<glyph unicode="&#241;" horiz-adv-x="600" d="M196 560l11 -56h40l11 10q29 26 58.5 42q29.5 16 67.5 16q70 0 109.5 -45.5q39.5 -45.5 39.5 -128.5v-398h-150v366q0 32 -11 50.5q-11 18.5 -38 18.5q-11 0 -24 -4.5q-13 -4.5 -35 -16.5l-58 -32v-382h-150v560zM220 801q24 0 45 -8q21 -8 39 -17q18 -9 33 -17q15 -8 27 -8q27 0 27 32v18h107l-5 -38q-7 -54 -33 -88.5q-26 -34.5 -78 -34.5q-24 0 -45.5 8.5q-21.5 8.5 -40.5 18.5q-19 10 -34.5 18.5q-15.5 8.5 -27.5 8.5q-12 0 -19.5 -6.5q-7.5 -6.5 -7.5 -20.5v-27h-105l4 40q5 54 33 87.5t81 33.5z" />
<glyph unicode="&#242;" horiz-adv-x="600" d="M300 108q25 0 42.5 7.5q17.5 7.5 28.5 27q11 19.5 16.5 52.5q5.5 33 5.5 85q0 50 -5.5 83.5q-5.5 33.5 -16.5 53q-11 19.5 -28.5 27.5q-17.5 8 -42.5 8q-25 0 -42.5 -8q-17.5 -8 -29 -27.5q-11.5 -19.5 -16.5 -52.5q-5 -33 -5 -84q0 -52 5 -85q5 -33 16.5 -52.5q11.5 -19.5 29 -27q17.5 -7.5 42.5 -7.5zt0 0zM300 -12q-130 0 -187.5 70q-57.5 70 -57.5 222q0 151 57.5 221.5q57.5 70.5 187.5 70.5q130 0 187.5 -71q57.5 -71 57.5 -221q0 -152 -57.5 -222q-57.5 -70 -187.5 -70zt0 0zM261 640l-150 93v68h167l74 -161z" />
<glyph unicode="&#243;" horiz-adv-x="600" d="M300 108q25 0 42.5 7.5q17.5 7.5 28.5 27q11 19.5 16.5 52.5q5.5 33 5.5 85q0 50 -5.5 83.5q-5.5 33.5 -16.5 53q-11 19.5 -28.5 27.5q-17.5 8 -42.5 8q-25 0 -42.5 -8q-17.5 -8 -29 -27.5q-11.5 -19.5 -16.5 -52.5q-5 -33 -5 -84q0 -52 5 -85q5 -33 16.5 -52.5q11.5 -19.5 29 -27q17.5 -7.5 42.5 -7.5zt0 0zM300 -12q-130 0 -187.5 70q-57.5 70 -57.5 222q0 151 57.5 221.5q57.5 70.5 187.5 70.5q130 0 187.5 -71q57.5 -71 57.5 -221q0 -152 -57.5 -222q-57.5 -70 -187.5 -70zt0 0zM244 640l74 161h167v-68l-150 -93z" />
<glyph unicode="&#244;" horiz-adv-x="600" d="M300 108q25 0 42.5 7.5q17.5 7.5 28.5 27q11 19.5 16.5 52.5q5.5 33 5.5 85q0 50 -5.5 83.5q-5.5 33.5 -16.5 53q-11 19.5 -28.5 27.5q-17.5 8 -42.5 8q-25 0 -42.5 -8q-17.5 -8 -29 -27.5q-11.5 -19.5 -16.5 -52.5q-5 -33 -5 -84q0 -52 5 -85q5 -33 16.5 -52.5q11.5 -19.5 29 -27q17.5 -7.5 42.5 -7.5zt0 0zM300 -12q-130 0 -187.5 70q-57.5 70 -57.5 222q0 151 57.5 221.5q57.5 70.5 187.5 70.5q130 0 187.5 -71q57.5 -71 57.5 -221q0 -152 -57.5 -222q-57.5 -70 -187.5 -70zt0 0zM283 706l-39 -66h-124v54l136 107h88l136 -107v-54h-124l-38 66z" />
<glyph unicode="&#245;" horiz-adv-x="600" d="M300 108q25 0 42.5 7.5q17.5 7.5 28.5 27q11 19.5 16.5 52.5q5.5 33 5.5 85q0 50 -5.5 83.5q-5.5 33.5 -16.5 53q-11 19.5 -28.5 27.5q-17.5 8 -42.5 8q-25 0 -42.5 -8q-17.5 -8 -29 -27.5q-11.5 -19.5 -16.5 -52.5q-5 -33 -5 -84q0 -52 5 -85q5 -33 16.5 -52.5q11.5 -19.5 29 -27q17.5 -7.5 42.5 -7.5zt0 0zM300 -12q-130 0 -187.5 70q-57.5 70 -57.5 222q0 151 57.5 221.5q57.5 70.5 187.5 70.5q130 0 187.5 -71q57.5 -71 57.5 -221q0 -152 -57.5 -222q-57.5 -70 -187.5 -70zt0 0zM220 801q24 0 45 -8q21 -8 39 -17q18 -9 33 -17q15 -8 27 -8q27 0 27 32v18h107l-5 -38q-7 -54 -33 -88.5q-26 -34.5 -78 -34.5q-24 0 -45.5 8.5q-21.5 8.5 -40.5 18.5q-19 10 -34.5 18.5q-15.5 8.5 -27.5 8.5q-12 0 -19.5 -6.5q-7.5 -6.5 -7.5 -20.5v-27h-105l4 40q5 54 33 87.5t81 33.5z" />
<glyph unicode="&#246;" horiz-adv-x="600" d="M300 108q25 0 42.5 7.5q17.5 7.5 28.5 27q11 19.5 16.5 52.5q5.5 33 5.5 85q0 50 -5.5 83.5q-5.5 33.5 -16.5 53q-11 19.5 -28.5 27.5q-17.5 8 -42.5 8q-25 0 -42.5 -8q-17.5 -8 -29 -27.5q-11.5 -19.5 -16.5 -52.5q-5 -33 -5 -84q0 -52 5 -85q5 -33 16.5 -52.5q11.5 -19.5 29 -27q17.5 -7.5 42.5 -7.5zt0 0zM300 -12q-130 0 -187.5 70q-57.5 70 -57.5 222q0 151 57.5 221.5q57.5 70.5 187.5 70.5q130 0 187.5 -71q57.5 -71 57.5 -221q0 -152 -57.5 -222q-57.5 -70 -187.5 -70zt0 0zM174 640q-46 0 -65 18q-19 18 -19 63q0 46 19 63q19 17 65 17q46 0 65 -17q19 -17 19 -63q0 -45 -19 -63q-19 -18 -65 -18zt0 0zM426 640q-46 0 -65 18q-19 18 -19 63q0 46 19 63q19 17 65 17q46 0 65 -17q19 -17 19 -63q0 -45 -19 -63t-65 -18z" />
<glyph unicode="&#247;" horiz-adv-x="600" d="M514 211h-428v138h428zM300 -12q-54 0 -76.5 20.5q-22.5 20.5 -22.5 75.5q0 55 22.5 74.5q22.5 19.5 76.5 19.5q54 0 76.5 -19.5q22.5 -19.5 22.5 -74.5q0 -55 -22.5 -75.5q-22.5 -20.5 -76.5 -20.5zt0 0zM300 382q-54 0 -76.5 20.5q-22.5 20.5 -22.5 75.5q0 55 22.5 74.5q22.5 19.5 76.5 19.5q54 0 76.5 -19.5q22.5 -19.5 22.5 -74.5q0 -55 -22.5 -75.5t-76.5 -20.5z" />
<glyph unicode="&#248;" horiz-adv-x="600" d="M300 -12q-50 0 -92 11l-41 -79h-71v66l30 57q-37 35 -54 93.5q-17 58.5 -17 143.5q0 151 57.5 221.5q57.5 70.5 187.5 70.5q29 0 54 -3q25 -3 47 -11l39 73h68v-66l-29 -55q66 -69 66 -230q0 -152 -57.5 -222q-57.5 -70 -187.5 -70zt0 0zM300 452q-25 0 -42.5 -8q-17.5 -8 -29 -27.5q-11.5 -19.5 -16.5 -52.5q-5 -33 -5 -84q0 -24 1 -43q1 -19 3 -36l129 244q-15 7 -40 7zt0 0zM300 108q25 0 42.5 7.5q17.5 7.5 28.5 27q11 19.5 16.5 52.5q5.5 33 5.5 85q0 36 -3 63l-122 -232q13 -3 32 -3z" />
<glyph unicode="&#249;" horiz-adv-x="600" d="M388 56h-40l-11 -10q-29 -26 -57.5 -42q-28.5 -16 -66.5 -16q-68 0 -105.5 41.5q-37.5 41.5 -37.5 117.5v413h150v-378q0 -27 10 -42q10 -15 35 -15q11 0 22 4.5q11 4.5 33 16.5l58 33v381h150v-560h-129zM261 640l-150 93v68h167l74 -161z" />
<glyph unicode="&#250;" horiz-adv-x="600" d="M388 56h-40l-11 -10q-29 -26 -57.5 -42q-28.5 -16 -66.5 -16q-68 0 -105.5 41.5q-37.5 41.5 -37.5 117.5v413h150v-378q0 -27 10 -42q10 -15 35 -15q11 0 22 4.5q11 4.5 33 16.5l58 33v381h150v-560h-129zM244 640l74 161h167v-68l-150 -93z" />
<glyph unicode="&#251;" horiz-adv-x="600" d="M388 56h-40l-11 -10q-29 -26 -57.5 -42q-28.5 -16 -66.5 -16q-68 0 -105.5 41.5q-37.5 41.5 -37.5 117.5v413h150v-378q0 -27 10 -42q10 -15 35 -15q11 0 22 4.5q11 4.5 33 16.5l58 33v381h150v-560h-129zM283 706l-39 -66h-124v54l136 107h88l136 -107v-54h-124l-38 66z" />
<glyph unicode="&#252;" horiz-adv-x="600" d="M388 56h-40l-11 -10q-29 -26 -57.5 -42q-28.5 -16 -66.5 -16q-68 0 -105.5 41.5q-37.5 41.5 -37.5 117.5v413h150v-378q0 -27 10 -42q10 -15 35 -15q11 0 22 4.5q11 4.5 33 16.5l58 33v381h150v-560h-129zM174 640q-46 0 -65 18q-19 18 -19 63q0 46 19 63q19 17 65 17q46 0 65 -17q19 -17 19 -63q0 -45 -19 -63q-19 -18 -65 -18zt0 0zM426 640q-46 0 -65 18q-19 18 -19 63q0 46 19 63q19 17 65 17q46 0 65 -17q19 -17 19 -63q0 -45 -19 -63t-65 -18z" />
<glyph unicode="&#253;" horiz-adv-x="600" d="M154 -164l92 158l-212 482v84h146l109 -349h32l77 349h148v-84l-247 -726h-145zM244 640l74 161h167v-68l-150 -93z" />
<glyph unicode="&#254;" horiz-adv-x="600" d="M199 56l11 -68v-238h-150v1010h150v-188l-11 -68h46l16 15q27 25 52 39q25 14 62 14q42 0 74.5 -14.5q32.5 -14.5 55 -48.5q22.5 -34 34.5 -90q12 -56 12 -139q0 -83 -12 -139q-12 -56 -34.5 -90q-22.5 -34 -55 -48.5q-32.5 -14.5 -74.5 -14.5q-37 0 -62 14q-25 14 -52 39l-16 15zM210 363v-167l35 -22q32 -20 50.5 -29.5q18.5 -9.5 36.5 -9.5q17 0 29.5 5q12.5 5 21 21q8.5 16 12.5 44q4 28 4 75q0 46 -4 74.5q-4 28.5 -12.5 44.5q-8.5 16 -21 21q-12.5 5 -29.5 5q-18 0 -36.5 -9.5q-18.5 -9.5 -50.5 -29.5z" />
<glyph unicode="&#255;" horiz-adv-x="600" d="M154 -164l92 158l-212 482v84h146l109 -349h32l77 349h148v-84l-247 -726h-145zM174 640q-46 0 -65 18q-19 18 -19 63q0 46 19 63q19 17 65 17q46 0 65 -17q19 -17 19 -63q0 -45 -19 -63q-19 -18 -65 -18zt0 0zM426 640q-46 0 -65 18q-19 18 -19 63q0 46 19 63q19 17 65 17q46 0 65 -17q19 -17 19 -63q0 -45 -19 -63t-65 -18z" />
<glyph unicode="&#256;" horiz-adv-x="600" d="M26 0v105l199 595h153l196 -595v-105h-157l-12 122h-210l-12 -122zM226 243h148l-60 241h-26zM473 791h-346v119l346 0z" />
<glyph unicode="&#257;" horiz-adv-x="600" d="M80 559l43 3q44 3 89 6.5q45 3.5 91 3.5q45 0 84 -9q39 -9 67 -28.5q28 -19.5 44 -51q16 -31.5 16 -77.5v-276q0 -16 8.5 -24q8.5 -8 21.5 -6l22 3v-103q-32 -5 -50.5 -8.5q-18.5 -3.5 -41.5 -3.5q-42 0 -69 20q-27 20 -36 51l-41 0l-14 -16q-26 -29 -54.5 -42q-28.5 -13 -67.5 -13q-64 0 -104.5 47q-40.5 47 -40.5 134q0 54 14.5 89q14.5 35 40 55.5q25.5 20.5 61.5 28.5q36 8 79 8h123v28q0 73 -89 73q-29 0 -66 -5q-37 -5 -80 -13l-50 -10zM365 185v75h-103q-67 0 -67 -71q0 -34 13.5 -50.5q13.5 -16.5 35.5 -16.5q20 0 38.5 10.5q18.5 10.5 45.5 28.5zM473 658h-346v119l346 0z" />
<glyph unicode="&#258;" horiz-adv-x="600" d="M26 0v105l199 595h153l196 -595v-105h-157l-12 122h-210l-12 -122zM226 243h148l-60 241h-26zM300 772q-40 0 -73 8.5q-33 8.5 -56.5 28q-23.5 19.5 -36.5 50q-13 30.5 -13 74.5l103 0q0 -37 20.5 -54.5q20.5 -17.5 55.5 -17.5q35 0 55.5 17.5q20.5 17.5 20.5 54.5l103 0q0 -44 -13 -74.5q-13 -30.5 -36.5 -50q-23.5 -19.5 -56.5 -28t-73 -8.5z" />
<glyph unicode="&#259;" horiz-adv-x="600" d="M80 559l43 3q44 3 89 6.5q45 3.5 91 3.5q45 0 84 -9q39 -9 67 -28.5q28 -19.5 44 -51q16 -31.5 16 -77.5v-276q0 -16 8.5 -24q8.5 -8 21.5 -6l22 3v-103q-32 -5 -50.5 -8.5q-18.5 -3.5 -41.5 -3.5q-42 0 -69 20q-27 20 -36 51l-41 0l-14 -16q-26 -29 -54.5 -42q-28.5 -13 -67.5 -13q-64 0 -104.5 47q-40.5 47 -40.5 134q0 54 14.5 89q14.5 35 40 55.5q25.5 20.5 61.5 28.5q36 8 79 8h123v28q0 73 -89 73q-29 0 -66 -5q-37 -5 -80 -13l-50 -10zM365 185v75h-103q-67 0 -67 -71q0 -34 13.5 -50.5q13.5 -16.5 35.5 -16.5q20 0 38.5 10.5q18.5 10.5 45.5 28.5zM300 640q-40 0 -73 8.5q-33 8.5 -56.5 28q-23.5 19.5 -36.5 50q-13 30.5 -13 74.5l103 0q0 -37 20.5 -54.5q20.5 -17.5 55.5 -17.5q35 0 55.5 17.5q20.5 17.5 20.5 54.5l103 0q0 -44 -13 -74.5q-13 -30.5 -36.5 -50q-23.5 -19.5 -56.5 -28t-73 -8.5z" />
<glyph unicode="&#260;" horiz-adv-x="600" d="M26 0v105l199 595h153l196 -595v-105h-157l-12 122h-210l-12 -122zM226 243h148l-60 241h-26zM574 14v-14l-63 -68q-20 -21 -26 -30.5q-6 -9.5 -6 -20.5q0 -14 8.5 -20q8.5 -6 19.5 -6q14 0 29.5 5.5q15.5 5.5 37.5 13.5l0 -106q-21 -7 -50 -12.5q-29 -5.5 -54 -5.5q-53 0 -80.5 24.5q-27.5 24.5 -27.5 68.5q0 31 17.5 57q17.5 26 53.5 58l64 56z" />
<glyph unicode="&#261;" horiz-adv-x="600" d="M80 559l43 3q44 3 89 6.5q45 3.5 91 3.5q45 0 84 -9q39 -9 67 -28.5q28 -19.5 44 -51q16 -31.5 16 -77.5v-276q0 -16 8.5 -24q8.5 -8 21.5 -6l22 3v-103q-32 -5 -50.5 -8.5q-18.5 -3.5 -41.5 -3.5q-42 0 -69 20q-27 20 -36 51l-41 0l-14 -16q-26 -29 -54.5 -42q-28.5 -13 -67.5 -13q-64 0 -104.5 47q-40.5 47 -40.5 134q0 54 14.5 89q14.5 35 40 55.5q25.5 20.5 61.5 28.5q36 8 79 8h123v28q0 73 -89 73q-29 0 -66 -5q-37 -5 -80 -13l-50 -10zM365 185v75h-103q-67 0 -67 -71q0 -34 13.5 -50.5q13.5 -16.5 35.5 -16.5q20 0 38.5 10.5q18.5 10.5 45.5 28.5zM566 14v-14l-63 -68q-20 -21 -26 -30.5q-6 -9.5 -6 -20.5q0 -14 8.5 -20q8.5 -6 19.5 -6q14 0 29.5 5.5q15.5 5.5 37.5 13.5l0 -106q-21 -7 -50 -12.5q-29 -5.5 -54 -5.5q-53 0 -80.5 24.5q-27.5 24.5 -27.5 68.5q0 31 18.5 56.5q18.5 25.5 53.5 57.5l63 57z" />
<glyph unicode="&#262;" horiz-adv-x="600" d="M341 124q29 0 57.5 6.5q28.5 6.5 78.5 24.5l61 22v-164l-60 -11q-32 -6 -66.5 -10q-34.5 -4 -79.5 -4q-70 0 -121 17.5q-51 17.5 -84.5 59q-33.5 41.5 -50 110.5q-16.5 69 -16.5 172q0 106 15.5 176q15.5 70 48.5 112q33 42 83.5 59.5q50.5 17.5 120.5 17.5q29 0 68 -5q39 -5 72 -10l49 -8v-154l-50 16q-46 14 -73.5 20q-27.5 6 -52.5 6q-34 0 -57.5 -8.5q-23.5 -8.5 -38 -33.5q-14.5 -25 -21 -70q-6.5 -45 -6.5 -118q0 -71 6 -114.5q6 -43.5 20 -67.5q14 -24 37.5 -32.5q23.5 -8.5 59.5 -8.5zt0 0zM284 772l74 161h167v-68l-150 -93z" />
<glyph unicode="&#263;" horiz-adv-x="600" d="M320 -12q-122 0 -186 67q-64 67 -64 219q0 155 63 226.5q63 71.5 182 71.5q35 0 74 -7.5q39 -7.5 74 -16.5l35 -9v-146l-37 18q-38 19 -70.5 30q-32.5 11 -58.5 11q-54 0 -82 -40.5q-28 -40.5 -28 -137.5q0 -87 31 -124.5q31 -37.5 90 -37.5q29 0 66 17q37 17 78 40l38 22v-153l-37 -13q-43 -15 -83 -26q-40 -11 -85 -11zt0 0zM244 640l74 161h167v-68l-150 -93z" />
<glyph unicode="&#266;" horiz-adv-x="600" d="M341 124q29 0 57.5 6.5q28.5 6.5 78.5 24.5l61 22v-164l-60 -11q-32 -6 -66.5 -10q-34.5 -4 -79.5 -4q-70 0 -121 17.5q-51 17.5 -84.5 59q-33.5 41.5 -50 110.5q-16.5 69 -16.5 172q0 106 15.5 176q15.5 70 48.5 112q33 42 83.5 59.5q50.5 17.5 120.5 17.5q29 0 68 -5q39 -5 72 -10l49 -8v-154l-50 16q-46 14 -73.5 20q-27.5 6 -52.5 6q-34 0 -57.5 -8.5q-23.5 -8.5 -38 -33.5q-14.5 -25 -21 -70q-6.5 -45 -6.5 -118q0 -71 6 -114.5q6 -43.5 20 -67.5q14 -24 37.5 -32.5q23.5 -8.5 59.5 -8.5zt0 0zM330 780q-48 0 -67.5 19q-19.5 19 -19.5 67q0 48 19.5 65.5q19.5 17.5 67.5 17.5q48 0 67.5 -17.5q19.5 -17.5 19.5 -65.5q0 -48 -19.5 -67t-67.5 -19z" />
<glyph unicode="&#267;" horiz-adv-x="600" d="M320 -12q-122 0 -186 67q-64 67 -64 219q0 155 63 226.5q63 71.5 182 71.5q35 0 74 -7.5q39 -7.5 74 -16.5l35 -9v-146l-37 18q-38 19 -70.5 30q-32.5 11 -58.5 11q-54 0 -82 -40.5q-28 -40.5 -28 -137.5q0 -87 31 -124.5q31 -37.5 90 -37.5q29 0 66 17q37 17 78 40l38 22v-153l-37 -13q-43 -15 -83 -26q-40 -11 -85 -11zt0 0zM300 648q-48 0 -67.5 19q-19.5 19 -19.5 67q0 48 19.5 65.5q19.5 17.5 67.5 17.5q48 0 67.5 -17.5q19.5 -17.5 19.5 -65.5q0 -48 -19.5 -67t-67.5 -19z" />
<glyph unicode="&#268;" horiz-adv-x="600" d="M341 124q29 0 57.5 6.5q28.5 6.5 78.5 24.5l61 22v-164l-60 -11q-32 -6 -66.5 -10q-34.5 -4 -79.5 -4q-70 0 -121 17.5q-51 17.5 -84.5 59q-33.5 41.5 -50 110.5q-16.5 69 -16.5 172q0 106 15.5 176q15.5 70 48.5 112q33 42 83.5 59.5q50.5 17.5 120.5 17.5q29 0 68 -5q39 -5 72 -10l49 -8v-154l-50 16q-46 14 -73.5 20q-27.5 6 -52.5 6q-34 0 -57.5 -8.5q-23.5 -8.5 -38 -33.5q-14.5 -25 -21 -70q-6.5 -45 -6.5 -118q0 -71 6 -114.5q6 -43.5 20 -67.5q14 -24 37.5 -32.5q23.5 -8.5 59.5 -8.5zt0 0zM313 867h35l38 66h124v-54l-136 -107h-88l-136 107v54l124 0z" />
<glyph unicode="&#269;" horiz-adv-x="600" d="M320 -12q-122 0 -186 67q-64 67 -64 219q0 155 63 226.5q63 71.5 182 71.5q35 0 74 -7.5q39 -7.5 74 -16.5l35 -9v-146l-37 18q-38 19 -70.5 30q-32.5 11 -58.5 11q-54 0 -82 -40.5q-28 -40.5 -28 -137.5q0 -87 31 -124.5q31 -37.5 90 -37.5q29 0 66 17q37 17 78 40l38 22v-153l-37 -13q-43 -15 -83 -26q-40 -11 -85 -11zt0 0zM283 735h35l38 66h124v-54l-136 -107h-88l-136 107v54l124 0z" />
<glyph unicode="&#270;" horiz-adv-x="600" d="M60 0v700h230q70 -1 120 -18q50 -17 82 -57.5q32 -40.5 47.5 -108q15.5 -67.5 15.5 -169.5q0 -103 -15.5 -170q-15.5 -67 -47.5 -106.5q-32 -39.5 -82 -55q-50 -15.5 -120 -15.5zM290 136q31 0 51.5 8q20.5 8 33 31q12.5 23 17.5 64q5 41 5 108q0 69 -5 111.5q-5 42.5 -17.5 66q-12.5 23.5 -33 31.5q-20.5 8 -51.5 8h-72v-428zM263 867h35l38 66h124v-54l-136 -107h-88l-136 107v54l124 0z" />
<glyph unicode="&#271;" horiz-adv-x="600" d="M290 760h130v-760h-108l-12 56h-26l-10 -16q-17 -28 -38.5 -40q-21.5 -12 -46.5 -12q-31 0 -55 11.5q-24 11.5 -41 43.5q-17 32 -26 89q-9 57 -9 148q0 91 9.5 148q9.5 57 27 89q17.5 32 42.5 43.5q25 11.5 57 11.5q23 0 45 -12q22 -12 37 -41l8 -15h27l-11 68zM276 392q-19 26 -30.5 34.5q-11.5 8.5 -22.5 8.5q-9 0 -17 -4q-8 -4 -13.5 -20q-5.5 -16 -8.5 -46.5q-3 -30.5 -3 -84.5q0 -54 3 -84.5q3 -30.5 8.5 -46.5q5.5 -16 13.5 -20q8 -4 17 -4q10 0 21 7q11 7 26 28l20 27v186zM452 521v239h131l-38 -239z" />
<glyph unicode="&#272;" horiz-adv-x="600" d="M60 0v290h-53v129h53v281h230q70 -1 120 -18q50 -17 82 -57.5q32 -40.5 47.5 -108q15.5 -67.5 15.5 -169.5q0 -103 -15.5 -170q-15.5 -67 -47.5 -106.5q-32 -39.5 -82 -55q-50 -15.5 -120 -15.5zM303 419v-129h-85v-154h72q31 0 51.5 8q20.5 8 33 31q12.5 23 17.5 64q5 41 5 108q0 69 -5 111.5q-5 42.5 -17.5 66q-12.5 23.5 -33 31.5q-20.5 8 -51.5 8h-72l0 -145z" />
<glyph unicode="&#273;" horiz-adv-x="600" d="M593 712v-89h-53v-623h-128l-12 56h-46l-16 -15q-27 -25 -52 -39q-25 -14 -62 -14q-42 0 -75 14.5q-33 14.5 -55.5 48.5q-22.5 34 -34 90q-11.5 56 -11.5 139q0 83 11.5 139q11.5 56 34 90q22.5 34 55.5 48.5q33 14.5 75 14.5q37 0 62 -14q25 -14 52 -39l16 -15h47l-11 68v51h-163v89h163v48h150v-48zM354 396q-32 20 -50.5 29.5q-18.5 9.5 -36.5 9.5q-17 0 -29.5 -7q-12.5 -7 -21 -24.5q-8.5 -17.5 -12.5 -47.5q-4 -30 -4 -76q0 -46 4 -76q4 -30 12.5 -47.5q8.5 -17.5 21 -24.5q12.5 -7 29.5 -7q18 0 36.5 9.5q18.5 9.5 50.5 29.5l36 23l0 186z" />
<glyph unicode="&#274;" horiz-adv-x="600" d="M531 0h-460v700h450v-136h-292v-138h262v-136h-262v-154h302zM473 791h-346v119l346 0z" />
<glyph unicode="&#275;" horiz-adv-x="600" d="M200 237q5 -69 32 -98q27 -29 81 -29q17 0 33.5 2q16.5 2 33.5 5.5q17 3.5 37 9q20 5.5 44 13.5l53 16v-142l-54 -9q-39 -7 -81.5 -12q-42.5 -5 -85.5 -5q-57 0 -101.5 16q-44.5 16 -75.5 51q-31 35 -47.5 90q-16.5 55 -16.5 132q0 79 16.5 135q16.5 56 48 91.5q31.5 35.5 77 52q45.5 16.5 103.5 16.5q52 0 95 -15q43 -15 73.5 -47.5q30.5 -32.5 47 -84q16.5 -51.5 16.5 -124.5v-64zM297 450q-44 0 -67.5 -27.5q-23.5 -27.5 -28.5 -95.5l185 0q-3 68 -25 95.5q-22 27.5 -64 27.5zt0 0zM473 658h-346v119l346 0z" />
<glyph unicode="&#278;" horiz-adv-x="600" d="M531 0h-460v700h450v-136h-292v-138h262v-136h-262v-154h302zM300 780q-48 0 -67.5 19q-19.5 19 -19.5 67q0 48 19.5 65.5q19.5 17.5 67.5 17.5q48 0 67.5 -17.5q19.5 -17.5 19.5 -65.5q0 -48 -19.5 -67t-67.5 -19z" />
<glyph unicode="&#279;" horiz-adv-x="600" d="M200 237q5 -69 32 -98q27 -29 81 -29q17 0 33.5 2q16.5 2 33.5 5.5q17 3.5 37 9q20 5.5 44 13.5l53 16v-142l-54 -9q-39 -7 -81.5 -12q-42.5 -5 -85.5 -5q-57 0 -101.5 16q-44.5 16 -75.5 51q-31 35 -47.5 90q-16.5 55 -16.5 132q0 79 16.5 135q16.5 56 48 91.5q31.5 35.5 77 52q45.5 16.5 103.5 16.5q52 0 95 -15q43 -15 73.5 -47.5q30.5 -32.5 47 -84q16.5 -51.5 16.5 -124.5v-64zM297 450q-44 0 -67.5 -27.5q-23.5 -27.5 -28.5 -95.5l185 0q-3 68 -25 95.5q-22 27.5 -64 27.5zt0 0zM300 648q-48 0 -67.5 19q-19.5 19 -19.5 67q0 48 19.5 65.5q19.5 17.5 67.5 17.5q48 0 67.5 -17.5q19.5 -17.5 19.5 -65.5q0 -48 -19.5 -67t-67.5 -19z" />
<glyph unicode="&#280;" horiz-adv-x="600" d="M531 0h-460v700h450v-136h-292v-138h262v-136h-262v-154h302zM531 14v-14l-63 -68q-20 -21 -26 -30.5q-6 -9.5 -6 -20.5q0 -14 8.5 -20q8.5 -6 19.5 -6q14 0 29.5 5.5q15.5 5.5 37.5 13.5l0 -106q-21 -7 -50 -12.5q-29 -5.5 -54 -5.5q-53 0 -80.5 24.5q-27.5 24.5 -27.5 68.5q0 31 17.5 57q17.5 26 53.5 58l64 56z" />
<glyph unicode="&#281;" horiz-adv-x="600" d="M200 237q5 -69 32 -98q27 -29 81 -29q17 0 33.5 2q16.5 2 33.5 5.5q17 3.5 37 9q20 5.5 44 13.5l53 16v-142l-54 -9q-39 -7 -81.5 -12q-42.5 -5 -85.5 -5q-57 0 -101.5 16q-44.5 16 -75.5 51q-31 35 -47.5 90q-16.5 55 -16.5 132q0 79 16.5 135q16.5 56 48 91.5q31.5 35.5 77 52q45.5 16.5 103.5 16.5q52 0 95 -15q43 -15 73.5 -47.5q30.5 -32.5 47 -84q16.5 -51.5 16.5 -124.5v-64zM297 450q-44 0 -67.5 -27.5q-23.5 -27.5 -28.5 -95.5l185 0q-3 68 -25 95.5q-22 27.5 -64 27.5zt0 0zM514 14v-14l-63 -68q-20 -21 -26 -30.5q-6 -9.5 -6 -20.5q0 -14 8.5 -20q8.5 -6 19.5 -6q14 0 29.5 5.5q15.5 5.5 37.5 13.5l0 -106q-21 -7 -50 -12.5q-29 -5.5 -54 -5.5q-53 0 -80.5 24.5q-27.5 24.5 -27.5 68.5q0 31 18.5 56.5q18.5 25.5 53.5 57.5l63 57z" />
<glyph unicode="&#282;" horiz-adv-x="600" d="M531 0h-460v700h450v-136h-292v-138h262v-136h-262v-154h302zM283 867h35l38 66h124v-54l-136 -107h-88l-136 107v54l124 0z" />
<glyph unicode="&#283;" horiz-adv-x="600" d="M200 237q5 -69 32 -98q27 -29 81 -29q17 0 33.5 2q16.5 2 33.5 5.5q17 3.5 37 9q20 5.5 44 13.5l53 16v-142l-54 -9q-39 -7 -81.5 -12q-42.5 -5 -85.5 -5q-57 0 -101.5 16q-44.5 16 -75.5 51q-31 35 -47.5 90q-16.5 55 -16.5 132q0 79 16.5 135q16.5 56 48 91.5q31.5 35.5 77 52q45.5 16.5 103.5 16.5q52 0 95 -15q43 -15 73.5 -47.5q30.5 -32.5 47 -84q16.5 -51.5 16.5 -124.5v-64zM297 450q-44 0 -67.5 -27.5q-23.5 -27.5 -28.5 -95.5l185 0q-3 68 -25 95.5q-22 27.5 -64 27.5zt0 0zM283 735h35l38 66h124v-54l-136 -107h-88l-136 107v54l124 0z" />
<glyph unicode="&#286;" horiz-adv-x="600" d="M336 124q19 0 36 2q17 2 40 9l0 112h-86v131h220v-363l-20 -4l-53 -9q-32 -6 -66.5 -10q-34.5 -4 -79.5 -4q-70 0 -121 17.5q-51 17.5 -84.5 59q-33.5 41.5 -50 110.5q-16.5 69 -16.5 172q0 106 15.5 176q15.5 70 48.5 112q33 42 83.5 59.5q50.5 17.5 120.5 17.5q29 0 68 -5q39 -5 72 -10l49 -8v-154l-50 16q-46 14 -73.5 20q-27.5 6 -52.5 6q-34 0 -57.5 -8.5q-23.5 -8.5 -38 -33.5q-14.5 -25 -21 -70q-6.5 -45 -6.5 -118q0 -71 6 -114.5q6 -43.5 20 -67.5q14 -24 37.5 -32.5q23.5 -8.5 59.5 -8.5zt0 0zM330 772q-40 0 -73 8.5q-33 8.5 -56.5 28q-23.5 19.5 -36.5 50q-13 30.5 -13 74.5l103 0q0 -37 20.5 -54.5q20.5 -17.5 55.5 -17.5q35 0 55.5 17.5q20.5 17.5 20.5 54.5l103 0q0 -44 -13 -74.5q-13 -30.5 -36.5 -50q-23.5 -19.5 -56.5 -28t-73 -8.5z" />
<glyph unicode="&#287;" horiz-adv-x="600" d="M79 -84l51 -14q48 -14 90 -22.5q42 -8.5 80 -8.5q19 0 35.5 4.5q16.5 4.5 28.5 16.5q12 12 19 33q7 21 7 54v9l11 68h-47l-16 -15q-27 -25 -52 -39q-25 -14 -62 -14q-42 0 -75 14.5q-33 14.5 -55.5 48.5q-22.5 34 -34 90q-11.5 56 -11.5 139q0 83 11.5 139q11.5 56 34 90q22.5 34 55.5 48.5q33 14.5 75 14.5q37 0 62 -14q25 -14 52 -39l16 -15h41l6 56h139v-585q0 -62 -16 -107q-16 -45 -46 -74q-30 -29 -72 -42.5q-42 -13.5 -94 -13.5q-48 0 -94 5.5q-46 5.5 -89 11.5l-50 7zM390 187v186l-36 23q-32 20 -50.5 29.5q-18.5 9.5 -36.5 9.5q-17 0 -29.5 -6q-12.5 -6 -21 -22.5q-8.5 -16.5 -12.5 -47q-4 -30.5 -4 -79.5q0 -49 4 -79.5q4 -30.5 12.5 -47q8.5 -16.5 21 -22.5q12.5 -6 29.5 -6q18 0 36.5 9.5q18.5 9.5 50.5 29.5zM300 640q-40 0 -73 8.5q-33 8.5 -56.5 28q-23.5 19.5 -36.5 50q-13 30.5 -13 74.5l103 0q0 -37 20.5 -54.5q20.5 -17.5 55.5 -17.5q35 0 55.5 17.5q20.5 17.5 20.5 54.5l103 0q0 -44 -13 -74.5q-13 -30.5 -36.5 -50q-23.5 -19.5 -56.5 -28t-73 -8.5z" />
<glyph unicode="&#288;" horiz-adv-x="600" d="M336 124q19 0 36 2q17 2 40 9l0 112h-86v131h220v-363l-20 -4l-53 -9q-32 -6 -66.5 -10q-34.5 -4 -79.5 -4q-70 0 -121 17.5q-51 17.5 -84.5 59q-33.5 41.5 -50 110.5q-16.5 69 -16.5 172q0 106 15.5 176q15.5 70 48.5 112q33 42 83.5 59.5q50.5 17.5 120.5 17.5q29 0 68 -5q39 -5 72 -10l49 -8v-154l-50 16q-46 14 -73.5 20q-27.5 6 -52.5 6q-34 0 -57.5 -8.5q-23.5 -8.5 -38 -33.5q-14.5 -25 -21 -70q-6.5 -45 -6.5 -118q0 -71 6 -114.5q6 -43.5 20 -67.5q14 -24 37.5 -32.5q23.5 -8.5 59.5 -8.5zt0 0zM330 780q-48 0 -67.5 19q-19.5 19 -19.5 67q0 48 19.5 65.5q19.5 17.5 67.5 17.5q48 0 67.5 -17.5q19.5 -17.5 19.5 -65.5q0 -48 -19.5 -67t-67.5 -19z" />
<glyph unicode="&#289;" horiz-adv-x="600" d="M79 -84l51 -14q48 -14 90 -22.5q42 -8.5 80 -8.5q19 0 35.5 4.5q16.5 4.5 28.5 16.5q12 12 19 33q7 21 7 54v9l11 68h-47l-16 -15q-27 -25 -52 -39q-25 -14 -62 -14q-42 0 -75 14.5q-33 14.5 -55.5 48.5q-22.5 34 -34 90q-11.5 56 -11.5 139q0 83 11.5 139q11.5 56 34 90q22.5 34 55.5 48.5q33 14.5 75 14.5q37 0 62 -14q25 -14 52 -39l16 -15h41l6 56h139v-585q0 -62 -16 -107q-16 -45 -46 -74q-30 -29 -72 -42.5q-42 -13.5 -94 -13.5q-48 0 -94 5.5q-46 5.5 -89 11.5l-50 7zM390 187v186l-36 23q-32 20 -50.5 29.5q-18.5 9.5 -36.5 9.5q-17 0 -29.5 -6q-12.5 -6 -21 -22.5q-8.5 -16.5 -12.5 -47q-4 -30.5 -4 -79.5q0 -49 4 -79.5q4 -30.5 12.5 -47q8.5 -16.5 21 -22.5q12.5 -6 29.5 -6q18 0 36.5 9.5q18.5 9.5 50.5 29.5zM300 648q-48 0 -67.5 19q-19.5 19 -19.5 67q0 48 19.5 65.5q19.5 17.5 67.5 17.5q48 0 67.5 -17.5q19.5 -17.5 19.5 -65.5q0 -48 -19.5 -67t-67.5 -19z" />
<glyph unicode="&#290;" horiz-adv-x="600" d="M336 124q19 0 36 2q17 2 40 9l0 112h-86v131h220v-363l-20 -4l-53 -9q-32 -6 -66.5 -10q-34.5 -4 -79.5 -4q-70 0 -121 17.5q-51 17.5 -84.5 59q-33.5 41.5 -50 110.5q-16.5 69 -16.5 172q0 106 15.5 176q15.5 70 48.5 112q33 42 83.5 59.5q50.5 17.5 120.5 17.5q29 0 68 -5q39 -5 72 -10l49 -8v-154l-50 16q-46 14 -73.5 20q-27.5 6 -52.5 6q-34 0 -57.5 -8.5q-23.5 -8.5 -38 -33.5q-14.5 -25 -21 -70q-6.5 -45 -6.5 -118q0 -71 6 -114.5q6 -43.5 20 -67.5q14 -24 37.5 -32.5q23.5 -8.5 59.5 -8.5zt0 0zM366 -262h-66v38l30 42q-42 -5 -60 12q-18 17 -18 53q0 34 19 50.5q19 16.5 61 16.5q42 0 61 -14.5q19 -14.5 19 -52.5q0 -17 -5 -33.5q-5 -16.5 -18 -50.5z" />
<glyph unicode="&#291;" horiz-adv-x="600" d="M79 -84l51 -14q48 -14 90 -22.5q42 -8.5 80 -8.5q19 0 35.5 4.5q16.5 4.5 28.5 16.5q12 12 19 33q7 21 7 54v9l11 68h-47l-16 -15q-27 -25 -52 -39q-25 -14 -62 -14q-42 0 -75 14.5q-33 14.5 -55.5 48.5q-22.5 34 -34 90q-11.5 56 -11.5 139q0 83 11.5 139q11.5 56 34 90q22.5 34 55.5 48.5q33 14.5 75 14.5q37 0 62 -14q25 -14 52 -39l16 -15h41l6 56h139v-585q0 -62 -16 -107q-16 -45 -46 -74q-30 -29 -72 -42.5q-42 -13.5 -94 -13.5q-48 0 -94 5.5q-46 5.5 -89 11.5l-50 7zM390 187v186l-36 23q-32 20 -50.5 29.5q-18.5 9.5 -36.5 9.5q-17 0 -29.5 -6q-12.5 -6 -21 -22.5q-8.5 -16.5 -12.5 -47q-4 -30.5 -4 -79.5q0 -49 4 -79.5q4 -30.5 12.5 -47q8.5 -16.5 21 -22.5q12.5 -6 29.5 -6q18 0 36.5 9.5q18.5 9.5 50.5 29.5zM266 852h66v-38l-30 -42q42 5 60 -12q18 -17 18 -53q0 -34 -19 -50.5q-19 -16.5 -61 -16.5q-42 0 -61 14.5q-19 14.5 -19 52.5q0 17 5 33.5q5 16.5 18 50.5z" />
<glyph unicode="&#294;" horiz-adv-x="600" d="M564 550h-42v-550h-158v301h-128v-301h-158v550h-42v89h42v61h158v-61h128v61h158v-61h42zM236 437h128v113l-128 0z" />
<glyph unicode="&#295;" horiz-adv-x="600" d="M377 712v-89h-160v-51l-11 -60h46l12 10q28 23 55.5 36.5q27.5 13.5 64.5 13.5q70 0 109.5 -45.5q39.5 -45.5 39.5 -128.5v-398h-150v366q0 31 -10.5 48.5q-10.5 17.5 -36.5 17.5q-11 0 -24.5 -5q-13.5 -5 -35.5 -16l-59 -29v-382h-150v623h-56v89h56v48h150l0 -48z" />
<glyph unicode="&#298;" horiz-adv-x="600" d="M514 0h-428v136h135v428h-135v136h428v-136h-135v-428h135zM473 791h-346v119l346 0z" />
<glyph unicode="&#299;" horiz-adv-x="600" d="M537 0h-460v125h181v310h-143v125h293v-435h129zM473 658h-346v119l346 0z" />
<glyph unicode="&#302;" horiz-adv-x="600" d="M514 0h-428v136h135v428h-135v136h428v-136h-135v-428h135zM514 14v-14l-63 -68q-20 -21 -26 -30.5q-6 -9.5 -6 -20.5q0 -14 8.5 -20q8.5 -6 19.5 -6q14 0 29.5 5.5q15.5 5.5 37.5 13.5l0 -106q-21 -7 -50 -12.5q-29 -5.5 -54 -5.5q-53 0 -80.5 24.5q-27.5 24.5 -27.5 68.5q0 31 17.5 57q17.5 26 53.5 58l64 56z" />
<glyph unicode="&#303;" horiz-adv-x="600" d="M537 0h-460v125h181v310h-143v125h293v-435h129zM326 635q-51 0 -71.5 19.5q-20.5 19.5 -20.5 69.5q0 51 20.5 69.5q20.5 18.5 71.5 18.5q51 0 71.5 -18.5q20.5 -18.5 20.5 -69.5q0 -50 -20.5 -69.5q-20.5 -19.5 -71.5 -19.5zt0 0zM537 14v-14l-63 -68q-20 -21 -26 -30.5q-6 -9.5 -6 -20.5q0 -14 8.5 -20q8.5 -6 19.5 -6q14 0 29.5 5.5q15.5 5.5 37.5 13.5l0 -106q-21 -7 -50 -12.5q-29 -5.5 -54 -5.5q-53 0 -80.5 24.5q-27.5 24.5 -27.5 68.5q0 31 18.5 56.5q18.5 25.5 53.5 57.5l63 57z" />
<glyph unicode="&#304;" horiz-adv-x="600" d="M514 0h-428v136h135v428h-135v136h428v-136h-135v-428h135zM300 780q-48 0 -67.5 19q-19.5 19 -19.5 67q0 48 19.5 65.5q19.5 17.5 67.5 17.5q48 0 67.5 -17.5q19.5 -17.5 19.5 -65.5q0 -48 -19.5 -67t-67.5 -19z" />
<glyph unicode="&#305;" horiz-adv-x="600" d="M537 0h-460v125h181v310h-143v125h293v-435l129 0z" />
<glyph unicode="&#310;" horiz-adv-x="600" d="M215 700v-267h76l121 267h135v-104l-131 -225l155 -267v-104h-149l-131 291h-76v-291h-158v700zM338 -262h-66v38l30 42q-42 -5 -60 12q-18 17 -18 53q0 34 19 50.5q19 16.5 61 16.5q42 0 61 -14.5q19 -14.5 19 -52.5q0 -17 -5 -33.5q-5 -16.5 -18 -50.5z" />
<glyph unicode="&#311;" horiz-adv-x="600" d="M212 355h77l105 205h135v-85l-129 -181l152 -209v-85h-136l-129 233h-75v-233h-150v760h150zM334 -262h-66v38l30 42q-42 -5 -60 12q-18 17 -18 53q0 34 19 50.5q19 16.5 61 16.5q42 0 61 -14.5q19 -14.5 19 -52.5q0 -17 -5 -33.5q-5 -16.5 -18 -50.5z" />
<glyph unicode="&#313;" horiz-adv-x="600" d="M236 136h298v-136h-456v700h158zM114 772l74 161h167v-68l-150 -93z" />
<glyph unicode="&#314;" horiz-adv-x="600" d="M317 189q0 -38 22 -53q22 -15 54 -15q23 0 50.5 10.5q27.5 10.5 57.5 27.5l40 22v-154l-46 -13q-35 -10 -74.5 -18q-39.5 -8 -79.5 -8q-78 0 -126 42q-48 42 -48 135v470h-147v125h297zM192 819l74 161h167v-68l-150 -93z" />
<glyph unicode="&#315;" horiz-adv-x="600" d="M236 136h298v-136h-456v700h158zM342 -262h-66v38l30 42q-42 -5 -60 12q-18 17 -18 53q0 34 19 50.5q19 16.5 61 16.5q42 0 61 -14.5q19 -14.5 19 -52.5q0 -17 -5 -33.5q-5 -16.5 -18 -50.5z" />
<glyph unicode="&#316;" horiz-adv-x="600" d="M317 189q0 -38 22 -53q22 -15 54 -15q23 0 50.5 10.5q27.5 10.5 57.5 27.5l40 22v-154l-46 -13q-35 -10 -74.5 -18q-39.5 -8 -79.5 -8q-78 0 -126 42q-48 42 -48 135v470h-147v125h297zM374 -262h-66v38l30 42q-42 -5 -60 12q-18 17 -18 53q0 34 19 50.5q19 16.5 61 16.5q42 0 61 -14.5q19 -14.5 19 -52.5q0 -17 -5 -33.5q-5 -16.5 -18 -50.5z" />
<glyph unicode="&#317;" horiz-adv-x="600" d="M534 136v-136h-456v700h158v-564zM382 441v259h166l-50 -259z" />
<glyph unicode="&#318;" horiz-adv-x="600" d="M317 189q0 -38 22 -53q22 -15 54 -15q23 0 50.5 10.5q27.5 10.5 57.5 27.5l40 22v-154l-46 -13q-35 -10 -74.5 -18q-39.5 -8 -79.5 -8q-78 0 -126 42q-48 42 -48 135v470h-147v125h297zM412 521v239h146l-50 -239z" />
<glyph unicode="&#319;" horiz-adv-x="600" d="M236 136h298v-136h-456v700h158zM453 314q-54 0 -76.5 20.5q-22.5 20.5 -22.5 75.5q0 55 22.5 74.5q22.5 19.5 76.5 19.5q54 0 76.5 -19.5q22.5 -19.5 22.5 -74.5q0 -55 -22.5 -75.5t-76.5 -20.5z" />
<glyph unicode="&#320;" horiz-adv-x="600" d="M317 189q0 -38 22 -53q22 -15 54 -15q23 0 50.5 10.5q27.5 10.5 57.5 27.5l40 22v-154l-46 -13q-35 -10 -74.5 -18q-39.5 -8 -79.5 -8q-78 0 -126 42q-48 42 -48 135v470h-147v125h297zM537 314q-54 0 -76.5 20.5q-22.5 20.5 -22.5 75.5q0 55 22.5 74.5q22.5 19.5 76.5 19.5q54 0 76.5 -19.5q22.5 -19.5 22.5 -74.5q0 -55 -22.5 -75.5t-76.5 -20.5z" />
<glyph unicode="&#321;" horiz-adv-x="600" d="M393 492v-89l-137 -53v-214h298v-136h-456v290l-71 -27v89l71 27v321h158l0 -261z" />
<glyph unicode="&#322;" horiz-adv-x="600" d="M443 492v-89l-126 -48v-166q0 -38 22 -53q22 -15 54 -15q23 0 50.5 10.5q27.5 10.5 57.5 27.5l40 22v-154l-46 -13q-35 -10 -74.5 -18q-39.5 -8 -79.5 -8q-78 0 -126 42q-48 42 -48 135v132l-90 -34v89l90 34v249h-147v125h297l0 -316z" />
<glyph unicode="&#323;" horiz-adv-x="600" d="M547 0h-201l-106 311l-47 165h-25l28 -322v-154h-143v700h202l104 -305l44 -162h25l-24 313v154h143zM254 772l74 161h167v-68l-150 -93z" />
<glyph unicode="&#324;" horiz-adv-x="600" d="M196 560l11 -56h40l11 10q29 26 58.5 42q29.5 16 67.5 16q70 0 109.5 -45.5q39.5 -45.5 39.5 -128.5v-398h-150v366q0 32 -11 50.5q-11 18.5 -38 18.5q-11 0 -24 -4.5q-13 -4.5 -35 -16.5l-58 -32v-382h-150v560zM244 640l74 161h167v-68l-150 -93z" />
<glyph unicode="&#325;" horiz-adv-x="600" d="M547 0h-201l-106 311l-47 165h-25l28 -322v-154h-143v700h202l104 -305l44 -162h25l-24 313v154h143zM334 -262h-66v38l30 42q-42 -5 -60 12q-18 17 -18 53q0 34 19 50.5q19 16.5 61 16.5q42 0 61 -14.5q19 -14.5 19 -52.5q0 -17 -5 -33.5q-5 -16.5 -18 -50.5z" />
<glyph unicode="&#326;" horiz-adv-x="600" d="M196 560l11 -56h40l11 10q29 26 58.5 42q29.5 16 67.5 16q70 0 109.5 -45.5q39.5 -45.5 39.5 -128.5v-398h-150v366q0 32 -11 50.5q-11 18.5 -38 18.5q-11 0 -24 -4.5q-13 -4.5 -35 -16.5l-58 -32v-382h-150v560zM334 -262h-66v38l30 42q-42 -5 -60 12q-18 17 -18 53q0 34 19 50.5q19 16.5 61 16.5q42 0 61 -14.5q19 -14.5 19 -52.5q0 -17 -5 -33.5q-5 -16.5 -18 -50.5z" />
<glyph unicode="&#327;" horiz-adv-x="600" d="M547 0h-201l-106 311l-47 165h-25l28 -322v-154h-143v700h202l104 -305l44 -162h25l-24 313v154h143zM283 867h35l38 66h124v-54l-136 -107h-88l-136 107v54l124 0z" />
<glyph unicode="&#328;" horiz-adv-x="600" d="M196 560l11 -56h40l11 10q29 26 58.5 42q29.5 16 67.5 16q70 0 109.5 -45.5q39.5 -45.5 39.5 -128.5v-398h-150v366q0 32 -11 50.5q-11 18.5 -38 18.5q-11 0 -24 -4.5q-13 -4.5 -35 -16.5l-58 -32v-382h-150v560zM283 735h35l38 66h124v-54l-136 -107h-88l-136 107v54l124 0z" />
<glyph unicode="&#332;" horiz-adv-x="600" d="M193 347q0 -71 5 -114.5q5 -43.5 17.5 -67.5q12.5 -24 33 -32.5q20.5 -8.5 51.5 -8.5q31 0 51.5 8.5q20.5 8.5 33 32.5q12.5 24 17.5 67.5q5 43.5 5 114.5q0 72 -5 117q-5 45 -17.5 70q-12.5 25 -33 33.5q-20.5 8.5 -51.5 8.5q-31 0 -51.5 -8.5q-20.5 -8.5 -33 -33.5q-12.5 -25 -17.5 -69.5q-5 -44.5 -5 -117.5zt0 0zM35 347q0 106 15.5 176q15.5 70 47.5 112q32 42 82.5 59.5q50.5 17.5 119.5 17.5q70 0 120 -17.5q50 -17.5 82 -59.5q32 -42 47.5 -112q15.5 -70 15.5 -176q0 -103 -15.5 -172q-15.5 -69 -47.5 -110.5q-32 -41.5 -82 -59q-50 -17.5 -120 -17.5q-69 0 -119.5 17.5q-50.5 17.5 -82.5 59q-32 41.5 -47.5 110.5q-15.5 69 -15.5 172zt0 0zM473 791h-346v119l346 0z" />
<glyph unicode="&#333;" horiz-adv-x="600" d="M300 108q25 0 42.5 7.5q17.5 7.5 28.5 27q11 19.5 16.5 52.5q5.5 33 5.5 85q0 50 -5.5 83.5q-5.5 33.5 -16.5 53q-11 19.5 -28.5 27.5q-17.5 8 -42.5 8q-25 0 -42.5 -8q-17.5 -8 -29 -27.5q-11.5 -19.5 -16.5 -52.5q-5 -33 -5 -84q0 -52 5 -85q5 -33 16.5 -52.5q11.5 -19.5 29 -27q17.5 -7.5 42.5 -7.5zt0 0zM300 -12q-130 0 -187.5 70q-57.5 70 -57.5 222q0 151 57.5 221.5q57.5 70.5 187.5 70.5q130 0 187.5 -71q57.5 -71 57.5 -221q0 -152 -57.5 -222q-57.5 -70 -187.5 -70zt0 0zM473 658h-346v119l346 0z" />
<glyph unicode="&#336;" horiz-adv-x="600" d="M193 347q0 -71 5 -114.5q5 -43.5 17.5 -67.5q12.5 -24 33 -32.5q20.5 -8.5 51.5 -8.5q31 0 51.5 8.5q20.5 8.5 33 32.5q12.5 24 17.5 67.5q5 43.5 5 114.5q0 72 -5 117q-5 45 -17.5 70q-12.5 25 -33 33.5q-20.5 8.5 -51.5 8.5q-31 0 -51.5 -8.5q-20.5 -8.5 -33 -33.5q-12.5 -25 -17.5 -69.5q-5 -44.5 -5 -117.5zt0 0zM35 347q0 106 15.5 176q15.5 70 47.5 112q32 42 82.5 59.5q50.5 17.5 119.5 17.5q70 0 120 -17.5q50 -17.5 82 -59.5q32 -42 47.5 -112q15.5 -70 15.5 -176q0 -103 -15.5 -172q-15.5 -69 -47.5 -110.5q-32 -41.5 -82 -59q-50 -17.5 -120 -17.5q-69 0 -119.5 17.5q-50.5 17.5 -82.5 59q-32 41.5 -47.5 110.5q-15.5 69 -15.5 172zt0 0zM180 772l44 161h113v-68l-70 -93zM330 772l74 161h107v-68l-90 -93z" />
<glyph unicode="&#337;" horiz-adv-x="600" d="M300 108q25 0 42.5 7.5q17.5 7.5 28.5 27q11 19.5 16.5 52.5q5.5 33 5.5 85q0 50 -5.5 83.5q-5.5 33.5 -16.5 53q-11 19.5 -28.5 27.5q-17.5 8 -42.5 8q-25 0 -42.5 -8q-17.5 -8 -29 -27.5q-11.5 -19.5 -16.5 -52.5q-5 -33 -5 -84q0 -52 5 -85q5 -33 16.5 -52.5q11.5 -19.5 29 -27q17.5 -7.5 42.5 -7.5zt0 0zM300 -12q-130 0 -187.5 70q-57.5 70 -57.5 222q0 151 57.5 221.5q57.5 70.5 187.5 70.5q130 0 187.5 -71q57.5 -71 57.5 -221q0 -152 -57.5 -222q-57.5 -70 -187.5 -70zt0 0zM175 640l44 161h113v-68l-70 -93zM325 640l74 161h107v-68l-90 -93z" />
<glyph unicode="&#338;" horiz-adv-x="600" d="M561 564h-138v-138h108v-136h-108v-154h148v-136h-306q-66 0 -108.5 18.5q-42.5 18.5 -67 59.5q-24.5 41 -34.5 107q-10 66 -10 162q0 99 10 166.5q10 67.5 34.5 109q24.5 41.5 67 59.5q42.5 18 108.5 18h296zM271 564q-26 0 -42 -8.5q-16 -8.5 -25 -32q-9 -23.5 -12.5 -66q-3.5 -42.5 -3.5 -110.5q0 -66 3.5 -107q3.5 -41 12.5 -64.5q9 -23.5 25 -31.5q16 -8 42 -8h14l0 428z" />
<glyph unicode="&#339;" horiz-adv-x="600" d="M430 -12q-43 0 -74 21q-31 21 -48 53q-14 -32 -43.5 -53q-29.5 -21 -74.5 -21q-83 0 -120.5 67q-37.5 67 -37.5 219q0 85 9 142.5q9 57.5 28.5 92q19.5 34.5 49 49q29.5 14.5 71.5 14.5q45 0 73.5 -20.5q28.5 -20.5 43.5 -51.5q14 32 43.5 52q29.5 20 75.5 20q36 0 63 -13.5q27 -13.5 45.5 -45q18.5 -31.5 27.5 -84q9 -52.5 9 -130.5v-66h-202q2 -40 8.5 -63.5q6.5 -23.5 15.5 -35.5q9 -12 20.5 -15.5q11.5 -3.5 23.5 -3.5q14 0 30.5 5.5q16.5 5.5 38.5 14.5l52 21v-142l-33 -9q-26 -7 -48 -12q-22 -5 -47 -5zt0 0zM157 274q0 -46 2.5 -76.5q2.5 -30.5 7.5 -49q5 -18.5 12.5 -26q7.5 -7.5 18.5 -7.5q25 0 34 36.5q9 36.5 9 122.5q0 94 -9 133.5q-9 39.5 -34 39.5q-11 0 -18.5 -7q-7.5 -7 -12.5 -26q-5 -19 -7.5 -52.5q-2.5 -33.5 -2.5 -87.5zt0 0zM414 447q-11 0 -19 -5q-8 -5 -13.5 -19q-5.5 -14 -9 -39.5q-3.5 -25.5 -4.5 -65.5l89 0q0 39 -2.5 64.5q-2.5 25.5 -8 39.5q-5.5 14 -13.5 19.5t-19 5.5z" />
<glyph unicode="&#340;" horiz-adv-x="600" d="M64 0v700h225q64 0 113 -11q49 -11 81.5 -38q32.5 -27 49 -71q16.5 -44 16.5 -110q0 -42 -8 -73.5q-8 -31.5 -22 -54.5q-14 -23 -33 -39.5q-19 -16.5 -41 -26.5l119 -191v-85h-142l-121 247h-79v-247zM284 377q55 0 81 19q26 19 26 74q0 30 -6.5 48.5q-6.5 18.5 -19.5 28.5q-13 10 -33.5 13.5q-20.5 3.5 -47.5 3.5h-62v-187zM254 772l74 161h167v-68l-150 -93z" />
<glyph unicode="&#341;" horiz-adv-x="600" d="M492 0h-437v125h90v310h-90v125h224l9 -92h44l33 43q27 35 55 48q28 13 54 13q17 0 34.5 -2q17.5 -2 34.5 -4l0 -161q-26 2 -40.5 3.5q-14.5 1.5 -32.5 1.5q-35 0 -67 -11.5q-32 -11.5 -58 -28.5l-50 -32v-213h197zM244 640l74 161h167v-68l-150 -93z" />
<glyph unicode="&#342;" horiz-adv-x="600" d="M64 0v700h225q64 0 113 -11q49 -11 81.5 -38q32.5 -27 49 -71q16.5 -44 16.5 -110q0 -42 -8 -73.5q-8 -31.5 -22 -54.5q-14 -23 -33 -39.5q-19 -16.5 -41 -26.5l119 -191v-85h-142l-121 247h-79v-247zM284 377q55 0 81 19q26 19 26 74q0 30 -6.5 48.5q-6.5 18.5 -19.5 28.5q-13 10 -33.5 13.5q-20.5 3.5 -47.5 3.5h-62v-187zM343 -262h-66v38l30 42q-42 -5 -60 12q-18 17 -18 53q0 34 19 50.5q19 16.5 61 16.5q42 0 61 -14.5q19 -14.5 19 -52.5q0 -17 -5 -33.5q-5 -16.5 -18 -50.5z" />
<glyph unicode="&#343;" horiz-adv-x="600" d="M492 0h-437v125h90v310h-90v125h224l9 -92h44l33 43q27 35 55 48q28 13 54 13q17 0 34.5 -2q17.5 -2 34.5 -4l0 -161q-26 2 -40.5 3.5q-14.5 1.5 -32.5 1.5q-35 0 -67 -11.5q-32 -11.5 -58 -28.5l-50 -32v-213h197zM305 -262h-66v38l30 42q-42 -5 -60 12q-18 17 -18 53q0 34 19 50.5q19 16.5 61 16.5q42 0 61 -14.5q19 -14.5 19 -52.5q0 -17 -5 -33.5q-5 -16.5 -18 -50.5z" />
<glyph unicode="&#344;" horiz-adv-x="600" d="M64 0v700h225q64 0 113 -11q49 -11 81.5 -38q32.5 -27 49 -71q16.5 -44 16.5 -110q0 -42 -8 -73.5q-8 -31.5 -22 -54.5q-14 -23 -33 -39.5q-19 -16.5 -41 -26.5l119 -191v-85h-142l-121 247h-79v-247zM284 377q55 0 81 19q26 19 26 74q0 30 -6.5 48.5q-6.5 18.5 -19.5 28.5q-13 10 -33.5 13.5q-20.5 3.5 -47.5 3.5h-62v-187zM283 867h35l38 66h124v-54l-136 -107h-88l-136 107v54l124 0z" />
<glyph unicode="&#345;" horiz-adv-x="600" d="M492 0h-437v125h90v310h-90v125h224l9 -92h44l33 43q27 35 55 48q28 13 54 13q17 0 34.5 -2q17.5 -2 34.5 -4l0 -161q-26 2 -40.5 3.5q-14.5 1.5 -32.5 1.5q-35 0 -67 -11.5q-32 -11.5 -58 -28.5l-50 -32v-213h197zM283 735h35l38 66h124v-54l-136 -107h-88l-136 107v54l124 0z" />
<glyph unicode="&#346;" horiz-adv-x="600" d="M67 517q0 51 18.5 88q18.5 37 51.5 61q33 24 77.5 35q44.5 11 96.5 11q37 0 80 -6q43 -6 81 -14l31 -6v-163l-39 16q-51 21 -94.5 30.5q-43.5 9.5 -74.5 9.5q-30 0 -50 -14.5q-20 -14.5 -20 -46.5q0 -27 13.5 -44q13.5 -17 42.5 -29l115 -48q36 -15 64 -32.5q28 -17.5 47 -40q19 -22.5 29 -52.5q10 -30 10 -72q0 -57 -17 -97.5q-17 -40.5 -49 -66q-32 -25.5 -78 -37q-46 -11.5 -104 -11.5q-51 0 -102 10q-51 10 -96 21l-26 6v165l46 -21q49 -23 97.5 -35.5q48.5 -12.5 83.5 -12.5q45 0 65 18q20 18 20 56q0 29 -16.5 46q-16.5 17 -52.5 32l-127 54q-60 26 -91.5 73q-31.5 47 -31.5 117zt0 0zM254 772l74 161h167v-68l-150 -93z" />
<glyph unicode="&#347;" horiz-adv-x="600" d="M380 329q34 -11 59.5 -24q25.5 -13 42.5 -32q17 -19 25 -45q8 -26 8 -61q0 -85 -51.5 -132q-51.5 -47 -142.5 -47q-52 0 -99.5 10q-47.5 10 -93.5 21l-44 11v149l53 -19q48 -17 94.5 -28.5q46.5 -11.5 81.5 -11.5q30 0 42.5 11.5q12.5 11.5 12.5 32.5q0 18 -11 28.5q-11 10.5 -26 15.5l-122 40q-124 41 -124 159q0 81 48 123q48 42 135 42q40 0 87.5 -6.5q47.5 -6.5 85.5 -14.5l42 -8v-140l-46 14q-44 14 -87.5 24q-43.5 10 -72.5 10q-45 0 -45 -43q0 -18 10 -29q10 -11 26 -16zM244 640l74 161h167v-68l-150 -93z" />
<glyph unicode="&#350;" horiz-adv-x="600" d="M67 517q0 51 18.5 88q18.5 37 51.5 61q33 24 77.5 35q44.5 11 96.5 11q37 0 80 -6q43 -6 81 -14l31 -6v-163l-39 16q-51 21 -94.5 30.5q-43.5 9.5 -74.5 9.5q-30 0 -50 -14.5q-20 -14.5 -20 -46.5q0 -27 13.5 -44q13.5 -17 42.5 -29l115 -48q36 -15 64 -32.5q28 -17.5 47 -40q19 -22.5 29 -52.5q10 -30 10 -72q0 -57 -17 -97.5q-17 -40.5 -49 -66q-32 -25.5 -78 -37q-46 -11.5 -104 -11.5q-51 0 -102 10q-51 10 -96 21l-26 6v165l46 -21q49 -23 97.5 -35.5q48.5 -12.5 83.5 -12.5q45 0 65 18q20 18 20 56q0 29 -16.5 46q-16.5 17 -52.5 32l-127 54q-60 26 -91.5 73q-31.5 47 -31.5 117zt0 0zM338 8v-60h5q30 0 48.5 -8.5q18.5 -8.5 29 -21.5q10.5 -13 14 -29.5q3.5 -16.5 3.5 -31.5q0 -52 -37 -79.5q-37 -27.5 -111 -27.5q-21 0 -43.5 4q-22.5 4 -51.5 14l0 86q30 -11 50.5 -15q20.5 -4 33.5 -4q39 0 39 33q0 20 -9.5 25.5q-9.5 5.5 -29.5 5.5h-36l0 109z" />
<glyph unicode="&#351;" horiz-adv-x="600" d="M380 329q34 -11 59.5 -24q25.5 -13 42.5 -32q17 -19 25 -45q8 -26 8 -61q0 -85 -51.5 -132q-51.5 -47 -142.5 -47q-52 0 -99.5 10q-47.5 10 -93.5 21l-44 11v149l53 -19q48 -17 94.5 -28.5q46.5 -11.5 81.5 -11.5q30 0 42.5 11.5q12.5 11.5 12.5 32.5q0 18 -11 28.5q-11 10.5 -26 15.5l-122 40q-124 41 -124 159q0 81 48 123q48 42 135 42q40 0 87.5 -6.5q47.5 -6.5 85.5 -14.5l42 -8v-140l-46 14q-44 14 -87.5 24q-43.5 10 -72.5 10q-45 0 -45 -43q0 -18 10 -29q10 -11 26 -16zM344 8v-60h5q30 0 48.5 -8.5q18.5 -8.5 29 -21.5q10.5 -13 14 -29.5q3.5 -16.5 3.5 -31.5q0 -52 -37 -79.5q-37 -27.5 -111 -27.5q-21 0 -43.5 4q-22.5 4 -51.5 14l0 86q30 -11 50.5 -15q20.5 -4 33.5 -4q39 0 39 33q0 20 -9.5 25.5q-9.5 5.5 -29.5 5.5h-36l0 109z" />
<glyph unicode="&#352;" horiz-adv-x="600" d="M67 517q0 51 18.5 88q18.5 37 51.5 61q33 24 77.5 35q44.5 11 96.5 11q37 0 80 -6q43 -6 81 -14l31 -6v-163l-39 16q-51 21 -94.5 30.5q-43.5 9.5 -74.5 9.5q-30 0 -50 -14.5q-20 -14.5 -20 -46.5q0 -27 13.5 -44q13.5 -17 42.5 -29l115 -48q36 -15 64 -32.5q28 -17.5 47 -40q19 -22.5 29 -52.5q10 -30 10 -72q0 -57 -17 -97.5q-17 -40.5 -49 -66q-32 -25.5 -78 -37q-46 -11.5 -104 -11.5q-51 0 -102 10q-51 10 -96 21l-26 6v165l46 -21q49 -23 97.5 -35.5q48.5 -12.5 83.5 -12.5q45 0 65 18q20 18 20 56q0 29 -16.5 46q-16.5 17 -52.5 32l-127 54q-60 26 -91.5 73q-31.5 47 -31.5 117zt0 0zM283 867h35l38 66h124v-54l-136 -107h-88l-136 107v54l124 0z" />
<glyph unicode="&#353;" horiz-adv-x="600" d="M380 329q34 -11 59.5 -24q25.5 -13 42.5 -32q17 -19 25 -45q8 -26 8 -61q0 -85 -51.5 -132q-51.5 -47 -142.5 -47q-52 0 -99.5 10q-47.5 10 -93.5 21l-44 11v149l53 -19q48 -17 94.5 -28.5q46.5 -11.5 81.5 -11.5q30 0 42.5 11.5q12.5 11.5 12.5 32.5q0 18 -11 28.5q-11 10.5 -26 15.5l-122 40q-124 41 -124 159q0 81 48 123q48 42 135 42q40 0 87.5 -6.5q47.5 -6.5 85.5 -14.5l42 -8v-140l-46 14q-44 14 -87.5 24q-43.5 10 -72.5 10q-45 0 -45 -43q0 -18 10 -29q10 -11 26 -16zM283 735h35l38 66h124v-54l-136 -107h-88l-136 107v54l124 0z" />
<glyph unicode="&#354;" horiz-adv-x="600" d="M564 700v-136h-185v-564h-158v564h-185v136zM347 8v-60h5q30 0 48.5 -8.5q18.5 -8.5 29 -21.5q10.5 -13 14 -29.5q3.5 -16.5 3.5 -31.5q0 -52 -37 -79.5q-37 -27.5 -111 -27.5q-21 0 -43.5 4q-22.5 4 -51.5 14l0 86q30 -11 50.5 -15q20.5 -4 33.5 -4q39 0 39 33q0 20 -9.5 25.5q-9.5 5.5 -29.5 5.5h-36l0 109z" />
</font>
</defs>
</svg>
