<?xml version="1.0" encoding="UTF-8" standalone="no"?>
<!DOCTYPE svg PUBLIC "-//W3C//DTD SVG 1.1//EN" "http://www.w3.org/Graphics/SVG/1.1/DTD/svg11.dtd" >
<svg xmlns="http://www.w3.org/2000/svg">
<metadata>
Generated by SVGconv.
Copyright   : Copyright  2018 ParaType, Inc., ParaType Ltd. All rights reserved.
Designer    : Alexander Lubovenko
Foundry     : ParaType Ltd
Foundry URL : http://www.paratype.com
</metadata>
<defs>
<font id="ClincherMonoWeb-Italic" horiz-adv-x="597" >
<font-face units-per-em="1000" ascent="950" descent="300" >
<font-face-src>
<font-face-name/>
</font-face-src>
</font-face>
<missing-glyph horiz-adv-x="600" />
<glyph unicode="&#13;" horiz-adv-x="600" />
<glyph unicode="&#32;" horiz-adv-x="600" />
<glyph unicode="&#33;" horiz-adv-x="600" d="M475 696l-112 -456h-68l32 510h148zM304 -12q-44 0 -62 16.5q-18 16.5 -18 60.5q0 45 18 60.5q18 15.5 62 15.5q44 0 62 -15.5q18 -15.5 18 -60.5q0 -44 -18 -60.5t-62 -16.5z" />
<glyph unicode="&#34;" horiz-adv-x="600" d="M201 403l28 359h135l-87 -359zM431 403l28 359h135l-87 -359z" />
<glyph unicode="&#35;" horiz-adv-x="600" d="M628 494l-18 -78h-81l-36 -193h87l-18 -78h-84l-27 -145h-85l28 145h-166l-29 -145h-85l30 145h-82l18 78h81l40 193h-89l18 78h87l30 142h82l-29 -142h161l28 142h82l-27 -142zM244 223h165l37 193l-162 0z" />
<glyph unicode="&#36;" horiz-adv-x="600" d="M266 24q-38 8 -73 21q-35 13 -65 27l-43 19v92l61 -31q31 -16 63 -30q32 -14 69 -22l36 228l-52 20q-54 20 -85 58.5q-31 38.5 -31 89.5q0 45 17 77q17 32 46.5 51.5q29.5 19.5 70 28.5q40.5 9 87.5 9l16 100h80l-17 -105q28 -2 54.5 -5.5q26.5 -3.5 47.5 -5.5l40 -5v-86l-58 12q-50 10 -96 15l-32 -202l47 -18q70 -26 96.5 -65q26.5 -39 26.5 -93q0 -50 -17 -85q-17 -35 -47.5 -57q-30.5 -22 -72 -32.5q-41.5 -10.5 -90.5 -11.5l-17 -108h-80zM389 298l-32 -204q27 1 50.5 7q23.5 6 41 18.5q17.5 12.5 27 32q9.5 19.5 9.5 48.5q0 38 -20.5 57.5q-20.5 19.5 -55.5 33.5zM234 497q0 -33 19.5 -50.5q19.5 -17.5 45.5 -27.5l28 -11l28 178q-52 0 -86.5 -20t-34.5 -69z" />
<glyph unicode="&#37;" horiz-adv-x="600" d="M275 633q-81 0 -81 -115q0 -56 54 -56q80 0 80 112q0 59 -53 59zt0 0zM237 393q-62 0 -92.5 31q-30.5 31 -30.5 88q0 190 172 190q61 0 91.5 -32q30.5 -32 30.5 -90q0 -187 -171 -187zt0 0zM462 228q-81 0 -81 -115q0 -56 54 -56q80 0 80 112q0 59 -53 59zt0 0zM424 -12q-62 0 -92.5 31q-30.5 31 -30.5 88q0 190 172 190q61 0 91.5 -32q30.5 -32 30.5 -90q0 -187 -171 -187zt0 0zM112 141v41l437 373h44v-41l-435 -373z" />
<glyph unicode="&#38;" horiz-adv-x="600" d="M453 82h-25q-19 -18 -39 -35q-20 -17 -43.5 -30q-23.5 -13 -49.5 -21q-26 -8 -57 -8q-46 0 -81.5 13q-35.5 13 -60 36.5q-24.5 23.5 -37 56q-12.5 32.5 -12.5 71.5q0 22 5.5 48.5q5.5 26.5 22.5 53.5q17 27 47.5 54.5q30.5 27.5 80.5 53.5l39 20l-1 2q-20 31 -31 59.5q-11 28.5 -11 59.5q0 86 51 136q51 50 141 50q35 0 70 -8.5q35 -8.5 80 -21.5l28 -8v-88l-50 18q-26 9 -43.5 15.5q-17.5 6.5 -32 10q-14.5 3.5 -26.5 5q-12 1.5 -25 1.5q-54 0 -81 -30q-27 -30 -27 -81q0 -20 7 -39.5q7 -19.5 24 -44.5l139 -206h20l80 94h64v-56l-116 -110l76 -97v-56h-74zM241 64q49 0 85 23.5q36 23.5 74 58.5l6 6l-124 185l-46 -26q-32 -18 -52 -36.5q-20 -18.5 -31 -36.5q-11 -18 -14.5 -36q-3.5 -18 -3.5 -34q0 -46 30.5 -75t75.5 -29z" />
<glyph unicode="&#39;" horiz-adv-x="600" d="M316 403l28 359h135l-87 -359z" />
<glyph unicode="&#40;" horiz-adv-x="600" d="M443 -150q-116 23 -166 102.5q-50 79.5 -50 220.5q0 77 10 153.5q10 76.5 30 147q20 70.5 51 131q31 60.5 73.5 105.5q42.5 45 96 71.5q53.5 26.5 119.5 28.5l0 -76q-54 -4 -96.5 -30q-42.5 -26 -75 -68q-32.5 -42 -55.5 -96.5q-23 -54.5 -37.5 -116q-14.5 -61.5 -21.5 -127.5q-7 -66 -7 -129q0 -102 32 -157.5q32 -55.5 97 -80.5z" />
<glyph unicode="&#41;" horiz-adv-x="600" d="M91 -74q80 10 135 57.5q55 47.5 89.5 123q34.5 75.5 50 174q15.5 98.5 15.5 210.5q0 108 -35 165.5q-35 57.5 -104 77.5l0 76q227 -39 227 -323q0 -130 -21 -244.5q-21 -114.5 -66.5 -200.5q-45.5 -86 -117 -137.5q-71.5 -51.5 -173.5 -54.5z" />
<glyph unicode="&#42;" horiz-adv-x="600" d="M409 431l17 -172h-91l17 173l-141 -101l-45 79l156 71l-155 71l45 78l140 -100l-17 172h91l-17 -171l140 100l46 -78l-158 -72l159 -72l-46 -79z" />
<glyph unicode="&#43;" horiz-adv-x="600" d="M349 511h84l-27 -172h172v-78h-185l-28 -180h-84l28 180h-172v78l185 0z" />
<glyph unicode="&#44;" horiz-adv-x="600" d="M384 65q0 -20 -7 -41.5q-7 -21.5 -24 -56.5l-75 -153h-84v54l110 118q-16 4 -30.5 9.5q-14.5 5.5 -25.5 13.5q-11 8 -17.5 21.5q-6.5 13.5 -6.5 34.5q0 45 17.5 60.5q17.5 15.5 62.5 15.5q45 0 62.5 -15.5t17.5 -60.5z" />
<glyph unicode="&#45;" horiz-adv-x="600" d="M564 261h-428v78l428 0z" />
<glyph unicode="&#46;" horiz-adv-x="600" d="M300 -12q-44 0 -62 16.5q-18 16.5 -18 60.5q0 45 18 60.5q18 15.5 62 15.5q44 0 62 -15.5q18 -15.5 18 -60.5q0 -44 -18 -60.5t-62 -16.5z" />
<glyph unicode="&#47;" horiz-adv-x="600" d="M72 -34l394 784h62v-56l-390 -784l-66 0z" />
<glyph unicode="&#48;" horiz-adv-x="600" d="M301 -12q-102 0 -157 61.5q-55 61.5 -55 176.5q0 102 20.5 189q20.5 87 60.5 150.5q40 63.5 99.5 100q59.5 36.5 136.5 36.5q100 0 155.5 -62q55.5 -62 55.5 -188q0 -99 -20.5 -183.5q-20.5 -84.5 -60.5 -147q-40 -62.5 -99 -98q-59 -35.5 -136 -35.5zt0 0zM527 465q0 5 0 8.5q0 3.5 -1 8.5l-335 -340q14 -35 41 -56.5q27 -21.5 69 -21.5q57 0 99.5 31.5q42.5 31.5 70.5 86q28 54.5 42 127.5q14 73 14 156zt0 0zM406 626q-56 0 -98 -31q-42 -31 -70 -84.5q-28 -53.5 -43 -125.5q-15 -72 -16 -155l327 332q-15 29 -40 46.5t-60 17.5z" />
<glyph unicode="&#49;" horiz-adv-x="600" d="M530 76v-76h-438v76h223l102 538h-41l-130 -124h-74v63l192 137h156l-116 -614z" />
<glyph unicode="&#50;" horiz-adv-x="600" d="M108 166l270 175q66 42 94.5 90.5q28.5 48.5 28.5 96.5q0 27 -7.5 45.5q-7.5 18.5 -20.5 30q-13 11.5 -30.5 17q-17.5 5.5 -36.5 5.5q-33 0 -72.5 -8.5q-39.5 -8.5 -95.5 -28.5l-59 -21v87l60 17q41 11 84.5 20.5q43.5 9.5 85.5 9.5q38 0 71.5 -10q33.5 -10 58 -30.5q24.5 -20.5 39 -52q14.5 -31.5 14.5 -74.5q0 -72 -37.5 -132.5q-37.5 -60.5 -125.5 -116.5l-237 -150l-11 -60h339v-76l-441 0z" />
<glyph unicode="&#51;" horiz-adv-x="600" d="M402 626q-31 0 -68.5 -8q-37.5 -8 -89.5 -28l-59 -22v87l60 17q41 11 84.5 20.5q43.5 9.5 81.5 9.5q91 0 133.5 -39.5q42.5 -39.5 42.5 -111.5q0 -58 -35 -101.5q-35 -43.5 -92 -70.5l0 -19q47 -20 72.5 -59.5q25.5 -39.5 25.5 -91.5q0 -54 -18 -95q-18 -41 -50.5 -69q-32.5 -28 -77 -42.5q-44.5 -14.5 -96.5 -14.5q-51 0 -97 13q-46 13 -91 29l-43 15v102l69 -39q40 -23 81 -33.5q41 -10.5 72 -10.5q78 0 120 40.5q42 40.5 42 112.5q0 33 -9 54.5q-9 21.5 -27 34q-18 12.5 -45 17.5q-27 5 -64 5h-74v74h86q33 0 62.5 9q29.5 9 51 26.5q21.5 17.5 34 43.5q12.5 26 12.5 59q0 44 -26 65t-68 21z" />
<glyph unicode="&#52;" horiz-adv-x="600" d="M574 390l-62 -390h-90l19 121q-32 16 -68.5 27q-36.5 11 -75.5 17.5q-39 6.5 -79 9.5q-40 3 -79 3h-54v56l394 456h64v-56l-341 -385q67 -2 133 -14.5q66 -12.5 118 -36.5l31 192z" />
<glyph unicode="&#53;" horiz-adv-x="600" d="M225 690h368v-76h-296l-31 -193h85q62 0 102 -18q40 -18 63.5 -47q23.5 -29 32.5 -66q9 -37 9 -75q0 -56 -17.5 -98.5q-17.5 -42.5 -48.5 -71q-31 -28.5 -73.5 -43q-42.5 -14.5 -92.5 -14.5q-51 0 -97 13q-46 13 -91 29l-43 15v102l69 -39q40 -23 81 -33.5q41 -10.5 72 -10.5q74 0 113 40.5q39 40.5 39 112.5q0 40 -10 65.5q-10 25.5 -29 39.5q-19 14 -47 19.5q-28 5.5 -64 5.5l-148 0z" />
<glyph unicode="&#54;" horiz-adv-x="600" d="M440 626q-56 0 -98 -24.5q-42 -24.5 -71.5 -61q-29.5 -36.5 -47.5 -79q-18 -42.5 -25 -77.5l24 0q33 35 72.5 55.5q39.5 20.5 90.5 20.5q40 0 76 -13q36 -13 63.5 -39q27.5 -26 43.5 -64q16 -38 16 -87q0 -59 -19 -108.5q-19 -49.5 -54.5 -85q-35.5 -35.5 -86 -55.5q-50.5 -20 -114.5 -20q-51 0 -90.5 17.5q-39.5 17.5 -67.5 49.5q-28 32 -42.5 78.5q-14.5 46.5 -14.5 103.5q0 82 20 164.5q20 82.5 62.5 149.5q42.5 67 110.5 109q68 42 164 42q26 0 57.5 -3q31.5 -3 57.5 -5l36 -3v-94l-57 14q-33 8 -59.5 11.5q-26.5 3.5 -46.5 3.5zt0 0zM357 384q-40 0 -72.5 -13q-32.5 -13 -56 -36.5q-23.5 -23.5 -36 -56.5q-12.5 -33 -12.5 -72q0 -30 9.5 -55.5q9.5 -25.5 27 -45q17.5 -19.5 42.5 -30.5q25 -11 56 -11q39 0 71.5 13.5q32.5 13.5 56.5 37.5q24 24 37.5 57.5q13.5 33.5 13.5 74.5q0 36 -12 62q-12 26 -31.5 42.5q-19.5 16.5 -44 24.5t-49.5 8z" />
<glyph unicode="&#55;" horiz-adv-x="600" d="M251 614v-138h-80v214h498l-23 -126q-83 -77 -145.5 -149q-62.5 -72 -106 -141.5q-43.5 -69.5 -69 -137q-25.5 -67.5 -33.5 -136.5l-93 0v56q13 65 43.5 127.5q30.5 62.5 77 126q46.5 63.5 108 128.5q61.5 65 137.5 134l6 42z" />
<glyph unicode="&#56;" horiz-adv-x="600" d="M390 706q52 0 92.5 -12.5q40.5 -12.5 68.5 -34.5q28 -22 42 -52.5q14 -30.5 14 -65.5q0 -61 -36.5 -104q-36.5 -43 -96.5 -65l0 -26q51 -22 79.5 -60q28.5 -38 28.5 -89q0 -102 -66.5 -157.5q-66.5 -55.5 -194.5 -55.5q-113 0 -175.5 49q-62.5 49 -62.5 138q0 29 8.5 58q8.5 29 27.5 54q19 25 48.5 44.5q29.5 19.5 71.5 31.5l0 25q-39 23 -61 57.5q-22 34.5 -22 76.5q0 45 17.5 80q17.5 35 49 59q31.5 24 74 36.5q42.5 12.5 93.5 12.5zt0 0zM324 60q36 0 67 9.5q31 9.5 53.5 27.5q22.5 18 35.5 44q13 26 13 60q0 64 -42 95q-42 31 -112 31q-47 0 -79 -13q-32 -13 -52 -34q-20 -21 -29 -47.5q-9 -26.5 -9 -53.5q0 -59 41 -89q41 -30 113 -30zt0 0zM387 630q-69 0 -107.5 -33q-38.5 -33 -38.5 -89q0 -48 30 -78.5q30 -30.5 96 -30.5q32 0 59.5 8q27.5 8 48 23.5q20.5 15.5 32.5 38.5q12 23 12 53q0 51 -36 79.5t-96 28.5z" />
<glyph unicode="&#57;" horiz-adv-x="600" d="M296 64q52 0 89.5 23.5q37.5 23.5 62.5 59.5q25 36 39.5 78.5q14.5 42.5 20.5 80.5l-20 0q-64 -73 -164 -73q-39 0 -73.5 13q-34.5 13 -61 39q-26.5 26 -42 64q-15.5 38 -15.5 88q0 58 18.5 106.5q18.5 48.5 52.5 83.5q34 35 82 55q48 20 107 20q103 0 161.5 -60.5q58.5 -60.5 58.5 -175.5q0 -58 -7.5 -116.5q-7.5 -58.5 -23.5 -111.5q-16 -53 -41.5 -98.5q-25.5 -45.5 -62 -79.5q-36.5 -34 -84.5 -53q-48 -19 -109 -19q-32 0 -71.5 4q-39.5 4 -72.5 10l-37 7v98l58 -21q35 -13 69 -17.5q34 -4.5 66 -4.5zt0 0zM352 309q78 0 126 44q48 44 48 128q0 71 -38.5 108q-38.5 37 -104.5 37q-35 0 -64 -13.5q-29 -13.5 -51 -38.5q-22 -25 -34 -59.5q-12 -34.5 -12 -76.5q0 -34 11.5 -58.5q11.5 -24.5 30 -40q18.5 -15.5 41.5 -23t47 -7.5z" />
<glyph unicode="&#58;" horiz-adv-x="600" d="M293 -12q-44 0 -62 16.5q-18 16.5 -18 60.5q0 45 18 60.5q18 15.5 62 15.5q44 0 62 -15.5q18 -15.5 18 -60.5q0 -44 -18 -60.5q-18 -16.5 -62 -16.5zt0 0zM374 384q-44 0 -62 16.5q-18 16.5 -18 60.5q0 45 18 60.5q18 15.5 62 15.5q44 0 62 -15.5q18 -15.5 18 -60.5q0 -44 -18 -60.5t-62 -16.5z" />
<glyph unicode="&#59;" horiz-adv-x="600" d="M373 65q0 -20 -7 -41.5q-7 -21.5 -24 -56.5l-75 -153h-84v54l110 118q-16 4 -30.5 9.5q-14.5 5.5 -25.5 13.5q-11 8 -17.5 21.5q-6.5 13.5 -6.5 34.5q0 45 17.5 60.5q17.5 15.5 62.5 15.5q45 0 62.5 -15.5q17.5 -15.5 17.5 -60.5zt0 0zM374 384q-44 0 -62 16.5q-18 16.5 -18 60.5q0 45 18 60.5q18 15.5 62 15.5q44 0 62 -15.5q18 -15.5 18 -60.5q0 -44 -18 -60.5t-62 -16.5z" />
<glyph unicode="&#60;" horiz-adv-x="600" d="M507 59l-358 197v86l418 189v-85l-344 -147l284 -145z" />
<glyph unicode="&#61;" horiz-adv-x="600" d="M578 444v-78h-428v78zM545 234v-78h-428l0 78z" />
<glyph unicode="&#62;" horiz-adv-x="600" d="M193 549l358 -193v-86l-418 -189v89l341 144l-281 144z" />
<glyph unicode="&#63;" horiz-adv-x="600" d="M274 -12q-44 0 -62 16.5q-18 16.5 -18 60.5q0 45 18 60.5q18 15.5 62 15.5q44 0 62 -15.5q18 -15.5 18 -60.5q0 -44 -18 -60.5q-18 -16.5 -62 -16.5zt0 0zM401 686q-32 0 -70.5 -8.5q-38.5 -8.5 -92.5 -28.5l-59 -21v87l60 17q41 11 84.5 20.5q43.5 9.5 85.5 9.5q102 0 154 -50q52 -50 52 -145q0 -37 -12.5 -80q-12.5 -43 -41 -80.5q-28.5 -37.5 -75 -62.5q-46.5 -25 -115.5 -25h-14l-20 -79h-71l14 153h62q53 0 88.5 15.5q35.5 15.5 56.5 40q21 24.5 30 55.5q9 31 9 62q0 59 -31 89.5t-94 30.5z" />
<glyph unicode="&#64;" horiz-adv-x="600" d="M316 -58q-119 0 -176 63.5q-57 63.5 -57 203.5q0 51 6.5 112q6.5 61 21.5 122q15 61 41 119q26 58 64.5 102q38.5 44 91.5 71q53 27 123 27q50 0 89 -12q39 -12 65.5 -39.5q26.5 -27.5 40.5 -71.5q14 -44 14 -108q0 -40 -3.5 -84q-3.5 -44 -12.5 -86q-9 -42 -24.5 -80q-15.5 -38 -40.5 -66q-25 -28 -60.5 -45q-35.5 -17 -83.5 -17q-80 0 -117.5 43.5q-37.5 43.5 -37.5 109.5q0 114 50 177.5q50 63.5 138 63.5q35 0 57 -13q22 -13 36 -35l23 0v31q0 46 -8 76.5q-8 30.5 -24.5 49q-16.5 18.5 -42 26.5q-25.5 8 -59.5 8q-56 0 -97.5 -26q-41.5 -26 -71 -68q-29.5 -42 -48.5 -95q-19 -53 -29.5 -107q-10.5 -54 -14.5 -103.5q-4 -49.5 -4 -84.5q0 -55 10 -91.5q10 -36.5 30.5 -58q20.5 -21.5 51 -30.5q30.5 -9 72.5 -9q31 0 71.5 7.5q40.5 7.5 87.5 23.5l50 17v-84l-47 -11q-44 -11 -86 -20.5q-42 -9.5 -89 -7.5zt0 0zM418 223q33 0 56.5 14.5q23.5 14.5 37.5 37.5q14 23 20.5 51.5q6.5 28.5 6.5 57.5q0 40 -17.5 67.5q-17.5 27.5 -61.5 27.5q-61 0 -90 -46q-29 -46 -29 -123q0 -38 17 -62.5t60 -24.5z" />
<glyph unicode="&#65;" horiz-adv-x="600" d="M48 0v54l318 636h81l124 -636v-54h-85l-27 177h-257l-78 -177zM237 252h209l-49 295l-21 0z" />
<glyph unicode="&#66;" horiz-adv-x="600" d="M198 690h171q110 0 167 -34.5q57 -34.5 57 -115.5q0 -54 -29.5 -95.5q-29.5 -41.5 -77.5 -66.5l0 -20q44 -18 67 -54q23 -36 23 -84q0 -53 -19 -94q-19 -41 -51 -69q-32 -28 -74 -42.5q-42 -14.5 -88 -14.5h-261zM490 231q0 29 -9 48q-9 19 -26 29.5q-17 10.5 -43 14.5q-26 4 -60 4h-125l-42 -251h139q35 0 65.5 11q30.5 11 53 31q22.5 20 35 48.5q12.5 28.5 12.5 64.5zt0 0zM275 614l-35 -213h128q28 0 52.5 8.5q24.5 8.5 42.5 24q18 15.5 28.5 37.5q10.5 22 10.5 49q0 29 -8.5 47.5q-8.5 18.5 -25.5 29q-17 10.5 -42 14q-25 3.5 -58 3.5z" />
<glyph unicode="&#67;" horiz-adv-x="600" d="M429 626q-64 0 -107.5 -36q-43.5 -36 -70.5 -92.5q-27 -56.5 -39 -126.5q-12 -70 -12 -138q0 -50 8.5 -82.5q8.5 -32.5 24.5 -51.5q16 -19 39.5 -26.5q23.5 -7.5 52.5 -7.5q20 0 48 7.5q28 7.5 65 25.5l93 45v-93l-89 -33q-38 -14 -70 -21.5q-32 -7.5 -64 -7.5q-47 0 -83.5 12.5q-36.5 12.5 -62 41q-25.5 28.5 -39 74.5q-13.5 46 -13.5 112q0 88 18 173q18 85 56 152q38 67 97 108q59 41 141 41q29 0 57.5 -5.5q28.5 -5.5 57.5 -10.5l54 -10v-90l-77 22q-32 9 -50.5 13.5t-34.5 4.5z" />
<glyph unicode="&#68;" horiz-adv-x="600" d="M72 0l115 690h174q53 0 96.5 -11.5q43.5 -11.5 74.5 -38.5q31 -27 48 -71.5q17 -44.5 17 -110.5q0 -86 -17 -168q-17 -82 -55.5 -146.5q-38.5 -64.5 -99.5 -104q-61 -39.5 -148 -39.5zM264 614l-90 -538h92q70 0 117 34q47 34 75 88q28 54 39.5 121q11.5 67 11.5 133q0 49 -11.5 80.5q-11.5 31.5 -32.5 49.5q-21 18 -49.5 25q-28.5 7 -62.5 7z" />
<glyph unicode="&#69;" horiz-adv-x="600" d="M531 0h-443l115 690h381v-76h-304l-35 -210h268v-76h-281l-42 -252l341 0z" />
<glyph unicode="&#70;" horiz-adv-x="600" d="M533 286h-299l-47 -286h-90l115 690h403v-76h-326l-42 -252l286 0z" />
<glyph unicode="&#71;" horiz-adv-x="600" d="M330 65q20 0 48 7.5q28 7.5 65 25.5l44 21l25 173h-132v76h223l-45 -312l-100 -36q-42 -15 -76 -23.5q-34 -8.5 -69 -8.5q-47 0 -83.5 12.5q-36.5 12.5 -62 41q-25.5 28.5 -39 74.5q-13.5 46 -13.5 112q0 88 18 173q18 85 56 152q38 67 97 108q59 41 141 41q29 0 57.5 -5.5q28.5 -5.5 57.5 -10.5l54 -10v-90l-77 22q-32 9 -50.5 13.5q-18.5 4.5 -34.5 4.5q-64 0 -107.5 -36q-43.5 -36 -70.5 -92.5q-27 -56.5 -39 -126.5q-12 -70 -12 -138q0 -50 8.5 -82.5q8.5 -32.5 24.5 -51.5q16 -19 39.5 -26.5t52.5 -7.5z" />
<glyph unicode="&#72;" horiz-adv-x="600" d="M529 0h-90l51 326h-278l-51 -326h-90l109 690h90l-45 -286h278l45 286l90 0z" />
<glyph unicode="&#73;" horiz-adv-x="600" d="M494 0h-388v76h151l85 538h-147v76h388v-76h-151l-85 -538l147 0z" />
<glyph unicode="&#74;" horiz-adv-x="600" d="M507 614h-278v76h380l-12 -76l-62 -393q-11 -68 -30 -112.5q-19 -44.5 -46.5 -71.5q-27.5 -27 -63.5 -38q-36 -11 -81 -11q-54 0 -105.5 17.5q-51.5 17.5 -96.5 36.5l-42 18v93l64 -32q47 -23 96.5 -40q49.5 -17 85.5 -17q52 0 83.5 34.5q31.5 34.5 45.5 122.5z" />
<glyph unicode="&#75;" horiz-adv-x="600" d="M279 690l-48 -286h118l216 286h69v-54l-216 -273l154 -309v-54h-73l-153 326h-128l-54 -326h-90l115 690z" />
<glyph unicode="&#76;" horiz-adv-x="600" d="M552 76v-76h-450l115 690h90l-103 -614z" />
<glyph unicode="&#77;" horiz-adv-x="600" d="M227 523h-22l-36 -264l-41 -259h-83l114 690h102l77 -353h26l191 353h109l-109 -690h-83l41 259l51 264h-21l-180 -323l-63 0z" />
<glyph unicode="&#78;" horiz-adv-x="600" d="M532 0h-94l-122 330l-67 186h-22l-25 -186l-53 -330h-82l111 690h94l133 -360l55 -157h22l20 157l56 360l83 0z" />
<glyph unicode="&#79;" horiz-adv-x="600" d="M406 626q-57 0 -100 -32.5q-43 -32.5 -71 -88.5q-28 -56 -42 -131.5q-14 -75.5 -14 -161.5q0 -31 8 -58q8 -27 23.5 -47q15.5 -20 38 -31.5q22.5 -11.5 52.5 -11.5q57 0 99.5 31.5q42.5 31.5 70.5 86q28 54.5 42 127.5q14 73 14 156q0 33 -8 62.5q-8 29.5 -23 51.5q-15 22 -37.5 34.5q-22.5 12.5 -52.5 12.5zt0 0zM301 -12q-102 0 -157 61.5q-55 61.5 -55 176.5q0 102 20.5 189q20.5 87 60.5 150.5q40 63.5 99.5 100q59.5 36.5 136.5 36.5q100 0 155.5 -62q55.5 -62 55.5 -188q0 -99 -20.5 -183.5q-20.5 -84.5 -60.5 -147q-40 -62.5 -99 -98t-136 -35.5z" />
<glyph unicode="&#80;" horiz-adv-x="600" d="M214 250l-41 -250h-90l115 690h191q56 0 99 -8.5q43 -8.5 72.5 -29q29.5 -20.5 44.5 -54.5q15 -34 15 -85q0 -58 -20 -106q-20 -48 -55.5 -83q-35.5 -35 -85 -54.5q-49.5 -19.5 -109.5 -19.5zM352 326q41 0 74 13.5q33 13.5 56 37.5q23 24 35.5 56.5q12.5 32.5 12.5 70.5q0 34 -8.5 55.5q-8.5 21.5 -25 33.5q-16.5 12 -41.5 16.5q-25 4.5 -58 4.5h-122l-48 -288z" />
<glyph unicode="&#81;" horiz-adv-x="600" d="M303 -12q-103 0 -158.5 58q-55.5 58 -55.5 167q0 104 20 193.5q20 89.5 60 155q40 65.5 98.5 103q58.5 37.5 136.5 37.5q103 0 158 -60.5q55 -60.5 55 -176.5q0 -81 -13 -153.5q-13 -72.5 -38.5 -131.5q-25.5 -59 -63.5 -102.5q-38 -43.5 -88 -66.5q81 -55 125 -148l0 -70h-92q-8 55 -38 107q-30 52 -75 90q-8 -1 -15.5 -1.5q-7.5 -0.5 -15.5 -0.5zt0 0zM408 626q-57 0 -100 -32.5q-43 -32.5 -71.5 -88.5q-28.5 -56 -43 -131.5q-14.5 -75.5 -14.5 -161.5q0 -31 7.5 -58q7.5 -27 22.5 -47q15 -20 37.5 -31.5q22.5 -11.5 52.5 -11.5q57 0 99.5 31.5q42.5 31.5 71 86q28.5 54.5 43 127.5q14.5 73 14.5 156q0 33 -7.5 62.5q-7.5 29.5 -22.5 51.5q-15 22 -37 34.5t-52 12.5z" />
<glyph unicode="&#82;" horiz-adv-x="600" d="M81 0l115 690h197q55 0 96.5 -8.5q41.5 -8.5 69.5 -28q28 -19.5 42.5 -52.5q14.5 -33 14.5 -82q0 -42 -11.5 -79q-11.5 -37 -32.5 -67q-21 -30 -52 -52q-31 -22 -70 -32l97 -234v-55h-80l-101 272h-150l-45 -272zM351 348q39 0 71 12q32 12 55.5 34q23.5 22 36 52.5q12.5 30.5 12.5 67.5q0 31 -8.5 50.5q-8.5 19.5 -25.5 30.5q-17 11 -42.5 15q-25.5 4 -58.5 4h-118l-44 -266z" />
<glyph unicode="&#83;" horiz-adv-x="600" d="M379 627q-57 0 -86.5 -25q-29.5 -25 -29.5 -74q0 -12 3 -23.5q3 -11.5 11 -23q8 -11.5 21.5 -24.5q13.5 -13 35.5 -28l70 -49q37 -26 63 -48.5q26 -22.5 42.5 -44.5q16.5 -22 23.5 -45.5q7 -23.5 7 -51.5q0 -97 -51.5 -149.5q-51.5 -52.5 -154.5 -52.5q-51 0 -107 15.5q-56 15.5 -126 47.5l-35 16v101l63 -36q48 -27 102 -46q54 -19 96 -19q60 0 91 30q31 30 31 90q0 34 -17.5 59q-17.5 25 -62.5 57l-70 49q-34 24 -57.5 44.5q-23.5 20.5 -38.5 41.5q-15 21 -21.5 43.5q-6.5 22.5 -6.5 49.5q0 81 52.5 126q52.5 45 144.5 45q38 0 76.5 -4.5q38.5 -4.5 76.5 -11.5l54 -10v-90l-77 21q-46 13 -73 16.5t-50 3.5z" />
<glyph unicode="&#84;" horiz-adv-x="600" d="M638 690v-76h-201l-97 -614h-90l97 614h-197l0 76z" />
<glyph unicode="&#85;" horiz-adv-x="600" d="M185 690h90l-74 -463q-2 -16 -4 -29.5q-2 -13.5 -2 -26.5q0 -58 30.5 -82.5q30.5 -24.5 83.5 -24.5q64 0 105 37q41 37 55 121l74 468h90l-74 -468q-19 -121 -82.5 -177.5q-63.5 -56.5 -175.5 -56.5q-94 0 -145 48q-51 48 -51 132q0 14 2 28.5q2 14.5 4 30.5z" />
<glyph unicode="&#86;" horiz-adv-x="600" d="M306 155h24l252 535h77v-54l-324 -636h-77l-123 636v54l86 0z" />
<glyph unicode="&#87;" horiz-adv-x="600" d="M359 293h-18l-122 -293h-74l-23 636v54h95l-8 -511h16l105 248h73l39 -248h18l140 511h81v-54l-210 -636l-70 0z" />
<glyph unicode="&#88;" horiz-adv-x="600" d="M347 290h-30l-208 -290h-70v54l253 331l-136 251v54h76l128 -261h34l179 261h69v-54l-229 -302l152 -280v-54l-77 0z" />
<glyph unicode="&#89;" horiz-adv-x="600" d="M339 358h28l225 332h73v-54l-286 -381l-40 -255h-90l42 267l-158 369v54l79 0z" />
<glyph unicode="&#90;" horiz-adv-x="600" d="M526 0h-459v56l439 558h-313v76h430v-56l-439 -558l342 0z" />
<glyph unicode="&#91;" horiz-adv-x="600" d="M572 810v-76h-170l-128 -808h198v-76h-298l152 960z" />
<glyph unicode="&#92;" horiz-adv-x="600" d="M448 -90l-266 784v56h71l270 -784l0 -56z" />
<glyph unicode="&#93;" horiz-adv-x="600" d="M530 810l-152 -960h-256v76h180l128 808h-188l0 76z" />
<glyph unicode="&#94;" horiz-adv-x="600" d="M452 762l159 -170v-55h-80l-107 142h-49l-139 -142h-81v55l212 170z" />
<glyph unicode="&#95;" horiz-adv-x="600" d="M491 -44v-76h-408l0 76z" />
<glyph unicode="&#96;" horiz-adv-x="600" d="M367 629l-124 92v60h97l97 -152z" />
<glyph unicode="&#97;" horiz-adv-x="600" d="M447 109h-29l-59 -63q-31 -32 -60 -45q-29 -13 -60 -13q-37 0 -63.5 15q-26.5 15 -43.5 40q-17 25 -25 58.5q-8 33.5 -8 71.5q0 69 16 134.5q16 65.5 47.5 116.5q31.5 51 78 82q46.5 31 108.5 31q19 0 47 -5q28 -5 59.5 -11.5q31.5 -6.5 64 -12.5q32.5 -6 59.5 -8l-47 -300l-7 -200h-75zM452 229l32 209q-40 13 -75 23.5q-35 10.5 -63 10.5q-42 0 -72 -25.5q-30 -25.5 -49.5 -66.5q-19.5 -41 -28.5 -94q-9 -53 -9 -107q0 -52 17 -83.5q17 -31.5 56 -31.5q13 0 27 6.5q14 6.5 28 17q14 10.5 27 23.5q13 13 25 26l85 91z" />
<glyph unicode="&#98;" horiz-adv-x="600" d="M239 436h28l47 43q32 30 63 44q31 14 63 14q72 0 106 -50.5q34 -50.5 34 -140.5q0 -69 -14.5 -133.5q-14.5 -64.5 -46 -114.5q-31.5 -50 -80.5 -80q-49 -30 -118 -30q-18 0 -42 3.5q-24 3.5 -52.5 8.5q-28.5 5 -59.5 10.5q-31 5.5 -63 9.5l108 730h85l-39 -266zM234 326l-35 -238q41 -13 76.5 -23q35.5 -10 64.5 -10q44 0 73 25q29 25 46.5 65.5q17.5 40.5 24.5 93q7 52.5 7 107.5q0 63 -17 88.5q-17 25.5 -56 25.5q-14 0 -29 -6.5q-15 -6.5 -29.5 -16q-14.5 -9.5 -28.5 -22q-14 -12.5 -27 -24.5z" />
<glyph unicode="&#99;" horiz-adv-x="600" d="M321 64q32 0 70 17q38 17 79 44l44 29v-94l-47 -24q-40 -20 -84 -34q-44 -14 -87 -14q-50 0 -84.5 17.5q-34.5 17.5 -56 47q-21.5 29.5 -31 68.5q-9.5 39 -7.5 82q2 69 19.5 130q17.5 61 49.5 106.5q32 45.5 79 71.5q47 26 109 26q25 0 53 -3.5q28 -3.5 51 -11.5l62 -19v-83l-79 26q-27 9 -50 12.5q-23 3.5 -42 3.5q-45 0 -75.5 -21.5q-30.5 -21.5 -50 -57q-19.5 -35.5 -28.5 -81q-9 -45.5 -10 -93.5q-2 -65 24.5 -105t91.5 -40z" />
<glyph unicode="&#100;" horiz-adv-x="600" d="M450 109h-29l-59 -63q-31 -33 -60.5 -45.5q-29.5 -12.5 -62.5 -12.5q-36 0 -62.5 15q-26.5 15 -43.5 40q-17 25 -25.5 58.5q-8.5 33.5 -8.5 71.5q0 69 16.5 134.5q16.5 65.5 47.5 116.5q31 51 75.5 82q44.5 31 100.5 31q35 0 79 -9.5q44 -9.5 80 -17.5l37 240h86l-86 -550l-7 -200h-75zM263 64q13 0 27 6.5q14 6.5 28 17q14 10.5 27 23.5q13 13 25 26l84 91l32 209q-41 13 -76 24q-35 11 -64 11q-41 0 -71 -25.5q-30 -25.5 -49.5 -67q-19.5 -41.5 -29 -94q-9.5 -52.5 -9.5 -106.5q0 -52 18.5 -83.5t57.5 -31.5z" />
<glyph unicode="&#101;" horiz-adv-x="600" d="M472 36q-40 -20 -83.5 -34q-43.5 -14 -86.5 -14q-54 0 -91 17q-37 17 -60 46.5q-23 29.5 -33 68q-10 38.5 -10 81.5q0 72 21 133.5q21 61.5 59 106.5q38 45 92 70.5q54 25.5 120 25.5q80 0 125 -39q45 -39 45 -101q0 -59 -49 -95q-49 -36 -157 -64l-169 -45q1 -29 9 -53q8 -24 23.5 -41q15.5 -17 40 -26q24.5 -9 59.5 -9q31 0 69 17.5q38 17.5 79 43.5l44 29v-94zM391 462q-46 0 -80.5 -17q-34.5 -17 -58 -45.5q-23.5 -28.5 -37 -66q-13.5 -37.5 -18.5 -78.5l117 36q46 14 77.5 24.5q31.5 10.5 51.5 21q20 10.5 29 23.5q9 13 9 32q0 28 -21.5 49t-68.5 21z" />
<glyph unicode="&#102;" horiz-adv-x="600" d="M340 294l-98 -544h-86l98 544h-161v72h171l23 222q4 36 16 68q12 32 34 55.5q22 23.5 54.5 37q32.5 13.5 76.5 13.5q26 0 54 -2.5q28 -2.5 52 -5.5l71 -9v-85l-87 17q-50 10 -83 10q-30 0 -50 -11q-20 -11 -32 -28.5q-12 -17.5 -17.5 -39.5q-5.5 -22 -7.5 -43l-22 -199h218l0 -72z" />
<glyph unicode="&#103;" horiz-adv-x="600" d="M123 -139q59 -26 100.5 -37.5q41.5 -11.5 81.5 -11.5q32 0 58.5 9.5q26.5 9.5 45 32.5q18.5 23 29.5 61.5q11 38.5 11 97.5v96h-27l-59 -63q-31 -32 -60 -45q-29 -13 -60 -13q-37 0 -63.5 15q-26.5 15 -43.5 40q-17 25 -25 58.5q-8 33.5 -8 71.5q0 69 16.5 134.5q16.5 65.5 48.5 116.5q32 51 78.5 82q46.5 31 106.5 31q19 0 47 -5q28 -5 59.5 -11.5q31.5 -6.5 64 -12.5q32.5 -6 59.5 -8l-47 -300l-7 -200q-3 -70 -19 -120q-16 -50 -43.5 -81.5q-27.5 -31.5 -65.5 -46q-38 -14.5 -84 -14.5q-59 0 -110 13q-51 13 -107 30l-53 16v98zM456 229l32 209q-40 13 -75 23.5q-35 10.5 -63 10.5q-42 0 -72.5 -25.5q-30.5 -25.5 -49.5 -66.5q-19 -41 -28 -94q-9 -53 -9 -107q0 -52 17 -83.5q17 -31.5 56 -31.5q13 0 27 6.5q14 6.5 28 17q14 10.5 27 23.5q13 13 25 26l85 91z" />
<glyph unicode="&#104;" horiz-adv-x="600" d="M426 0l57 340q3 19 5 34q2 15 2 28q0 32 -15 43.5q-15 11.5 -41 11.5q-24 0 -54.5 -18.5q-30.5 -18.5 -73.5 -53.5l-77 -64l-51 -321h-86l119 750h86l-42 -266l-20 -53h34l51 43q40 35 72 49q32 14 66 14q62 0 90.5 -30.5q28.5 -30.5 28.5 -87.5q0 -17 -2.5 -36.5q-2.5 -19.5 -6.5 -42.5l-57 -340z" />
<glyph unicode="&#105;" horiz-adv-x="600" d="M544 152v-94l-47 -25q-33 -17 -66.5 -31q-33.5 -14 -68.5 -14q-56 0 -89.5 28.5q-33.5 28.5 -33.5 89.5q0 12 1.5 26.5q1.5 14.5 6 40q4.5 25.5 13 66.5q8.5 41 23.5 106l24 108h-179v72h279l-41 -187q-12 -59 -20 -97q-8 -38 -12 -62q-4 -24 -5.5 -37.5q-1.5 -13.5 -1.5 -25.5q0 -53 54 -53q28 0 57 17.5q29 17.5 62 40.5zM414 639q-38 0 -54 14.5q-16 14.5 -16 52.5q0 38 16 52q16 14 54 14q38 0 54 -14q16 -14 16 -52q0 -38 -16 -52.5t-54 -14.5z" />
<glyph unicode="&#106;" horiz-adv-x="600" d="M84 -144q42 -22 72 -33q30 -11 59 -11q24 0 42.5 6q18.5 6 32 22.5q13.5 16.5 21.5 45q8 28.5 11 74.5l16 246l52 247h-194v72h295l-66 -296l-23 -282q-9 -114 -54 -161.5q-45 -47.5 -121 -47.5q-45 0 -82.5 10.5q-37.5 10.5 -82.5 27.5l-43 16v98zM479 639q-38 0 -54 14.5q-16 14.5 -16 52.5q0 38 16 52q16 14 54 14q38 0 54 -14q16 -14 16 -52q0 -38 -16 -52.5t-54 -14.5z" />
<glyph unicode="&#107;" horiz-adv-x="600" d="M233 297h65l213 228h73v-55l-220 -208l173 -205v-57h-73l-170 225h-73l-35 -225h-86l119 750l86 0z" />
<glyph unicode="&#108;" horiz-adv-x="600" d="M504 36q-38 -21 -79.5 -34.5q-41.5 -13.5 -82.5 -13.5q-29 0 -55 8q-26 8 -45.5 25.5q-19.5 17.5 -31 44.5q-11.5 27 -11.5 66q0 18 2 42q2 24 9.5 63q7.5 39 22 96.5q14.5 57.5 38.5 142.5l58 202h-197v72h298l-77 -283q-23 -84 -36.5 -140q-13.5 -56 -20.5 -93q-7 -37 -9 -59q-2 -22 -2 -37q0 -42 22.5 -58q22.5 -16 59.5 -16q30 0 66 17q36 17 74 44l44 31l0 -94z" />
<glyph unicode="&#109;" horiz-adv-x="600" d="M254 0l64 340q5 26 7.5 47q2.5 21 2.5 39q0 18 -7.5 24.5q-7.5 6.5 -18.5 6.5q-8 0 -15.5 -5.5q-7.5 -5.5 -16 -17.5q-8.5 -12 -20 -31.5q-11.5 -19.5 -28.5 -47.5l-44 -74l-49 -281h-85l57 326l17 199h74l-3 -94h24l21 43q20 41 43.5 52q23.5 11 42.5 11q44 0 64 -27.5q20 -27.5 20 -78.5l22 0l21 43q10 21 21.5 33.5q11.5 12.5 23 19q11.5 6.5 22.5 8.5q11 2 21 2q45 0 67 -27q22 -27 22 -78q0 -21 -3.5 -45q-3.5 -24 -8.5 -51l-65 -336h-86l67 336q5 28 9 49.5q4 21.5 4 40.5q0 18 -8 24.5q-8 6.5 -19 6.5q-8 0 -14.5 -5q-6.5 -5 -15 -17q-8.5 -12 -20 -31.5q-11.5 -19.5 -29.5 -47.5l-45 -73l-53 -283z" />
<glyph unicode="&#110;" horiz-adv-x="600" d="M426 0l57 340q3 19 5 34q2 15 2 28q0 32 -15 43.5q-15 11.5 -41 11.5q-24 0 -54.5 -18.5q-30.5 -18.5 -73.5 -53.5l-77 -64l-52 -321h-85l53 326l17 199h74l-3 -94h36l51 43q40 35 72 49q32 14 66 14q62 0 90.5 -30.5q28.5 -30.5 28.5 -87.5q0 -17 -2.5 -36.5q-2.5 -19.5 -6.5 -42.5l-57 -340z" />
<glyph unicode="&#111;" horiz-adv-x="600" d="M367 466q-46 0 -78 -22.5q-32 -22.5 -51.5 -59.5q-19.5 -37 -28 -85q-8.5 -48 -8.5 -98q0 -72 26.5 -107q26.5 -35 86.5 -35q46 0 78 22q32 22 51.5 59q19.5 37 28.5 84q9 47 9 97q0 72 -26 108.5q-26 36.5 -88 36.5zt0 0zM312 -12q-98 0 -148.5 50.5q-50.5 50.5 -50.5 152.5q0 68 15.5 130.5q15.5 62.5 48 110.5q32.5 48 81 76.5q48.5 28.5 114.5 28.5q97 0 147 -52q50 -52 50 -154q0 -68 -15.5 -130q-15.5 -62 -47.5 -109.5q-32 -47.5 -80 -75.5t-114 -28z" />
<glyph unicode="&#112;" horiz-adv-x="600" d="M223 436h35l49 43q33 29 63.5 43.5q30.5 14.5 62.5 14.5q72 0 106 -50.5q34 -50.5 34 -140.5q0 -69 -15.5 -133.5q-15.5 -64.5 -48.5 -114.5q-33 -50 -84 -80q-51 -30 -123 -30q-25 0 -59.5 4.5q-34.5 4.5 -73.5 14.5l-41 -257h-86l92 576l17 199h74zM182 88q41 -13 76.5 -23q35.5 -10 64.5 -10q48 0 79 25q31 25 49 65.5q18 40.5 25.5 93q7.5 52.5 7.5 107.5q0 63 -17 88.5q-17 25.5 -56 25.5q-14 0 -29 -6q-15 -6 -29.5 -16q-14.5 -10 -28.5 -21.5q-14 -11.5 -27 -23.5l-77 -69l-1 0z" />
<glyph unicode="&#113;" horiz-adv-x="600" d="M444 109h-36l-58 -64q-29 -32 -57 -44.5q-28 -12.5 -57 -12.5q-36 0 -62 14.5q-26 14.5 -42.5 38.5q-16.5 24 -24 56q-7.5 32 -7.5 68q0 70 16.5 137q16.5 67 49 119.5q32.5 52.5 80.5 84q48 31.5 112 31.5q18 0 45 -4.5q27 -4.5 57.5 -10.5q30.5 -6 61.5 -12.5q31 -6.5 58 -9.5l-119 -750h-85l49 310zM347 472q-42 0 -72.5 -26.5q-30.5 -26.5 -49.5 -69q-19 -42.5 -28 -96.5q-9 -54 -9 -109q0 -48 16 -77.5q16 -29.5 52 -29.5q13 0 26.5 6.5q13.5 6.5 26.5 17q13 10.5 26 23.5q13 13 24 26l96 112l30 189q-40 13 -75 23.5t-63 10.5z" />
<glyph unicode="&#114;" horiz-adv-x="600" d="M615 443q-24 5 -41 8q-17 3 -37 3q-10 0 -22 -3q-12 -3 -28.5 -14.5q-16.5 -11.5 -38 -32.5q-21.5 -21 -49.5 -57l-80 -102l-28 -173h210v-72h-412v72h117l41 254l11 127h-143v72h211v-145h30l34 59q20 34 40.5 54q20.5 20 40.5 29.5q20 9.5 40 12q20 2.5 38 2.5q16 0 31 -2.5q15 -2.5 35 -5.5l0 -86z" />
<glyph unicode="&#115;" horiz-adv-x="600" d="M350 463q-39 0 -58.5 -16q-19.5 -16 -19.5 -44q0 -20 9.5 -35.5q9.5 -15.5 31.5 -29.5l95 -59q26 -16 45 -30.5q19 -14.5 31.5 -30.5q12.5 -16 18.5 -35.5q6 -19.5 6 -45.5q0 -71 -46.5 -110q-46.5 -39 -137.5 -39q-46 0 -87.5 12.5q-41.5 12.5 -87.5 32.5l-39 17v99l60 -34q51 -29 89 -41q38 -12 68 -12q42 0 68 19.5q26 19.5 26 53.5q0 29 -15 45q-15 16 -32 27l-103 64q-45 28 -66.5 60q-21.5 32 -21.5 74q0 57 43.5 94.5q43.5 37.5 128.5 37.5q28 0 59 -5.5q31 -5.5 59 -13.5l50 -13v-86l-69 23q-29 10 -58 15.5t-47 5.5z" />
<glyph unicode="&#116;" horiz-adv-x="600" d="M358 63q31 0 66.5 18.5q35.5 18.5 71.5 43.5l46 32v-91l-48 -28q-37 -22 -78 -36q-41 -14 -82 -14q-37 0 -65 10q-28 10 -45.5 31q-17.5 21 -24 54.5q-6.5 33.5 1.5 80.5l45 289h-150v72h162l31 195h86l-31 -195h220v-72h-232l-45 -289q-9 -56 11 -78.5t60 -22.5z" />
<glyph unicode="&#117;" horiz-adv-x="600" d="M521 0h-75l-5 109h-31l-56 -63q-27 -31 -57.5 -44.5q-30.5 -13.5 -67.5 -13.5q-31 0 -57.5 12q-26.5 12 -44 38q-17.5 26 -23.5 66q-6 40 4 97l58 324h86l-58 -324q-7 -37 -5.5 -63q1.5 -26 9 -42.5q7.5 -16.5 21 -24q13.5 -7.5 31.5 -7.5q16 0 31.5 6.5q15.5 6.5 29.5 17q14 10.5 26.5 23.5q12.5 13 24.5 26l82 92l49 296h86l-55 -325z" />
<glyph unicode="&#118;" horiz-adv-x="600" d="M525 525h79v-55l-269 -470h-86l-133 470v55h86l89 -396l34 0z" />
<glyph unicode="&#119;" horiz-adv-x="600" d="M391 404l47 -258h21l107 379h83v-55l-168 -470h-85l-47 263h-23l-106 -263h-90l-41 470v55h93l9 -379h20l102 258z" />
<glyph unicode="&#120;" horiz-adv-x="600" d="M337 204h-35l-156 -204h-73v55l206 234l-121 181v55h75l109 -188h33l137 188h71v-55l-186 -216l136 -199v-55l-76 0z" />
<glyph unicode="&#121;" horiz-adv-x="600" d="M297 -188q31 0 56.5 9.5q25.5 9.5 44 32.5q18.5 23 28.5 61.5q10 38.5 10 97.5v96h-28l-56 -63q-52 -58 -122 -58q-30 0 -55.5 11.5q-25.5 11.5 -42 36q-16.5 24.5 -22 63q-5.5 38.5 4.5 92.5l63 334h86l-63 -333q-7 -35 -6 -59.5q1 -24.5 8.5 -39.5q7.5 -15 19.5 -22q12 -7 28 -7q16 0 30.5 6.5q14.5 6.5 28.5 17q14 10.5 26.5 23.5q12.5 13 23.5 26l82 92l51 296h86l-57 -325l-6 -200q-2 -70 -17.5 -120q-15.5 -50 -42.5 -81.5q-27 -31.5 -64.5 -46q-37.5 -14.5 -82.5 -14.5q-59 0 -110 13q-51 13 -107 30l-53 16v98l76 -34q59 -26 100.5 -37.5t81.5 -11.5z" />
<glyph unicode="&#122;" horiz-adv-x="600" d="M429 449h-260v76h382v-55l-351 -394h306v-76h-425l0 55z" />
<glyph unicode="&#123;" horiz-adv-x="600" d="M488 -128h-81q-69 0 -106.5 28.5q-37.5 28.5 -37.5 88.5q0 29 12 64.5q12 35.5 30 87.5l37 105l-149 74v76l187 76l-4 71q-2 28 -3 50q-1 22 -1 42q0 33 6.5 64q6.5 31 26 56q19.5 25 56 40q36.5 15 97.5 15h49v-76h-60q-26 0 -44 -4.5q-18 -4.5 -29.5 -18q-11.5 -13.5 -17 -37q-5.5 -23.5 -5.5 -62.5q0 -14 0.5 -30.5q0.5 -16.5 1.5 -38.5l5 -122l-186 -64l164 -67l-50 -151q-9 -28 -16.5 -48q-7.5 -20 -12 -35.5q-4.5 -15.5 -7 -27.5q-2.5 -12 -2.5 -23q0 -30 20 -43.5q20 -13.5 52 -13.5l68 0z" />
<glyph unicode="&#124;" horiz-adv-x="600" d="M330 -90h-88l133 840l88 0z" />
<glyph unicode="&#125;" horiz-adv-x="600" d="M235 810h70q69 0 106.5 -28.5q37.5 -28.5 37.5 -88.5q0 -29 -10.5 -64.5q-10.5 -35.5 -33.5 -86.5l-34 -74l149 -74v-76l-187 -76l3 -104q1 -29 2.5 -51.5q1.5 -22.5 1.5 -42.5q0 -32 -6.5 -63q-6.5 -31 -26 -55q-19.5 -24 -56.5 -39q-37 -15 -98 -15h-67v76h78q26 0 44.5 4.5q18.5 4.5 30 17.5q11.5 13 17 36q5.5 23 5.5 61q0 14 -0.5 31q-0.5 17 -1.5 40l-4 155l186 65l-164 66l47 120q22 57 31.5 86.5q9.5 29.5 9.5 52.5q0 27 -20 39q-20 12 -53 12l-57 0z" />
<glyph unicode="&#126;" horiz-adv-x="600" d="M248 390q43 0 88 -36l54 -44q17 -14 29.5 -22.5q12.5 -8.5 29.5 -8.5q36 0 51 47l16 51h82l-19 -54q-20 -57 -50.5 -88q-30.5 -31 -84.5 -31q-27 0 -47 8.5q-20 8.5 -43 27.5l-54 45q-17 14 -28.5 22q-11.5 8 -28.5 8q-17 0 -30.5 -10q-13.5 -10 -21.5 -36l-13 -44h-81l15 47q18 57 50 87.5t86 30.5z" />
<glyph unicode="&#160;" horiz-adv-x="600" />
<glyph unicode="&#161;" horiz-adv-x="600" d="M191 -171l112 456h68l-32 -510h-148zM362 537q44 0 62 -16.5q18 -16.5 18 -60.5q0 -45 -18 -60.5q-18 -15.5 -62 -15.5q-44 0 -62 15.5q-18 15.5 -18 60.5q0 44 18 60.5t62 16.5z" />
<glyph unicode="&#162;" horiz-adv-x="600" d="M455 621l-14 -90l37 -9l62 -19v-83l-79 26l-32 9l-61 -383q24 8 49.5 21.5q25.5 13.5 52.5 31.5l44 29v-94l-47 -24q-26 -14 -54 -24.5q-28 -10.5 -57 -16.5l-13 -85h-80l12 79q-44 4 -74.5 22.5q-30.5 18.5 -49.5 47.5q-19 29 -27.5 66q-8.5 37 -6.5 78q2 67 18.5 126.5q16.5 59.5 47.5 104.5q31 45 75.5 72q44.5 27 103.5 30l13 85zM205 209q-2 -57 17 -94.5q19 -37.5 66 -47.5l62 394q-40 -5 -67 -28q-27 -23 -44 -58q-17 -35 -25 -78t-9 -88z" />
<glyph unicode="&#163;" horiz-adv-x="600" d="M87 0v76h92l40 249h-86v76h98l7 108q3 54 19.5 91q16.5 37 42.5 59.5q26 22.5 59.5 32.5q33.5 10 72.5 10q42 0 82 -9q40 -9 76 -17l26 -6v-84l-49 15q-33 11 -70 18q-37 7 -61 7q-21 0 -40.5 -5q-19.5 -5 -34 -18q-14.5 -13 -24 -36q-9.5 -23 -11.5 -58l-6 -108h226v-76h-238l-40 -249h257l0 -76z" />
<glyph unicode="&#164;" horiz-adv-x="600" d="M316 65q-63 0 -109 22l-77 -87h-79v55l95 87q-24 37 -24 93q0 51 14.5 92.5q14.5 41.5 41.5 71.5l-56 71v55h84l43 -75q26 11 56 17.5q30 6.5 65 6.5q36 0 65.5 -7.5q29.5 -7.5 52.5 -21.5l72 80h72v-55l-91 -80q21 -38 21 -90q0 -55 -17 -98q-17 -43 -48 -73l62 -74v-55h-82l-51 84q-47 -19 -110 -19zt0 0zM363 400q-40 0 -69 -12q-29 -12 -48 -34q-19 -22 -28 -52q-9 -30 -9 -66q0 -51 28.5 -74q28.5 -23 84.5 -23q79 0 116 44.5q37 44.5 37 115.5q0 53 -28.5 77t-83.5 24z" />
<glyph unicode="&#165;" horiz-adv-x="600" d="M531 91h-178l-14 -91h-90l14 91h-160v78h173l11 72h-164v78h146l-136 317v54h79l127 -332h28l225 332h73v-54l-238 -317h124v-78h-174l-11 -72l165 0z" />
<glyph unicode="&#166;" horiz-adv-x="600" d="M384 250l-54 -340h-88l54 340zM463 750l-54 -340h-88l54 340z" />
<glyph unicode="&#167;" horiz-adv-x="600" d="M79 21l80 -37q25 -11 44.5 -18q19.5 -7 37 -11q17.5 -4 34.5 -5.5q17 -1.5 35 -1.5q39 0 61.5 16q22.5 16 22.5 57q0 18 -9.5 36.5q-9.5 18.5 -34.5 34.5l-137 90q-28 19 -47 46.5q-19 27.5 -19 62.5q0 35 20.5 65q20.5 30 55.5 62l50 46q-32 27 -45 56q-13 29 -13 57q0 66 42.5 105.5q42.5 39.5 118.5 39.5q34 0 72.5 -9.5q38.5 -9.5 79.5 -21.5l42 -12v-90l-64 24q-47 18 -74 25.5q-27 7.5 -52 7.5q-39 0 -59.5 -18.5q-20.5 -18.5 -20.5 -48.5q0 -17 10 -34q10 -17 36 -34l135 -90q33 -23 50.5 -47.5q17.5 -24.5 17.5 -58.5q0 -35 -21.5 -67.5q-21.5 -32.5 -61.5 -67.5l-44 -39q33 -26 48 -54.5q15 -28.5 15 -62.5q0 -39 -13.5 -68q-13.5 -29 -37 -48q-23.5 -19 -55.5 -28q-32 -9 -70 -9q-42 0 -81.5 8.5q-39.5 8.5 -91.5 26.5l-57 20zM332 423l-58 -54q-37 -34 -37 -71q0 -19 11 -34.5q11 -15.5 29 -27.5l86 -56l52 49q27 26 35.5 44q8.5 18 8.5 35q0 17 -11 31.5q-11 14.5 -29 26.5z" />
<glyph unicode="&#168;" horiz-adv-x="600" d="M307 629q-35 0 -49 13.5q-14 13.5 -14 47.5q0 35 14 47.5q14 12.5 49 12.5q35 0 49.5 -12.5q14.5 -12.5 14.5 -47.5q0 -34 -14.5 -47.5q-14.5 -13.5 -49.5 -13.5zt0 0zM509 629q-35 0 -49.5 13.5q-14.5 13.5 -14.5 47.5q0 35 14.5 47.5q14.5 12.5 49.5 12.5q35 0 49 -12.5q14 -12.5 14 -47.5q0 -34 -14 -47.5t-49 -13.5z" />
<glyph unicode="&#169;" horiz-adv-x="600" d="M307 16q61 0 107.5 35q46.5 35 78 97.5q31.5 62.5 47.5 149.5q16 87 16 191q0 97 -41 147q-41 50 -110 50q-61 0 -107.5 -37.5q-46.5 -37.5 -78 -102q-31.5 -64.5 -47.5 -150q-16 -85.5 -16 -182.5q0 -97 39.5 -147.5q39.5 -50.5 111.5 -50.5zt0 0zM332 121q-64 0 -97.5 39.5q-33.5 39.5 -33.5 115.5q0 67 14 120.5q14 53.5 40.5 91q26.5 37.5 65 57.5q38.5 20 88.5 20q17 0 34 -2.5q17 -2.5 36 -7.5l21 -5v-73l-38 10q-14 4 -27.5 6.5q-13.5 2.5 -26.5 2.5q-59 0 -92.5 -56q-33.5 -56 -33.5 -150q0 -98 70 -98q17 0 36.5 5q19.5 5 41.5 13l24 9v-70l-27 -9q-56 -19 -95 -19zt0 0zM304 -60q-111 0 -170.5 69q-59.5 69 -59.5 202q0 116 21.5 216.5q21.5 100.5 64 175q42.5 74.5 104.5 117q62 42.5 143 42.5q108 0 169 -69q61 -69 61 -202q0 -124 -21.5 -225.5q-21.5 -101.5 -64 -174q-42.5 -72.5 -104.5 -112t-143 -39.5z" />
<glyph unicode="&#170;" horiz-adv-x="600" d="M431 461h-17l-35 -35q-18 -18 -34.5 -25.5q-16.5 -7.5 -33.5 -7.5q-46 0 -66.5 32.5q-20.5 32.5 -20.5 77.5q0 37 9.5 73q9.5 36 28 64q18.5 28 46 45q27.5 17 64.5 17q12 0 31 -2.5q19 -2.5 40.5 -6.5q21.5 -4 43.5 -7.5q22 -3.5 41 -4.5l-28 -166l-4 -115h-63zM481 339v-78h-288v78zM331 461q16 0 30 13q14 13 27 27l49 54l11 70q-23 8 -42.5 14q-19.5 6 -35.5 6q-20 0 -33.5 -12q-13.5 -12 -22.5 -32q-9 -20 -13 -45q-4 -25 -4 -51q0 -20 7.5 -32t26.5 -12z" />
<glyph unicode="&#171;" horiz-adv-x="600" d="M353 -12l-248 232v83l324 229v-99l-215 -147v-58l139 -128zM521 71l-181 150v66l230 156l3 -86l-130 -79v-48l78 -57z" />
<glyph unicode="&#172;" horiz-adv-x="600" d="M559 409l-6 -37l-34 -216h-84l27 175h-304l0 78z" />
<glyph unicode="&#173;" horiz-adv-x="600" d="M564 261h-428v78l428 0z" />
<glyph unicode="&#174;" horiz-adv-x="600" d="M304 -60q-111 0 -170.5 69q-59.5 69 -59.5 202q0 116 21.5 216.5q21.5 100.5 64 175q42.5 74.5 104.5 117q62 42.5 143 42.5q108 0 169 -69q61 -69 61 -202q0 -124 -21.5 -225.5q-21.5 -101.5 -64 -174q-42.5 -72.5 -104.5 -112q-62 -39.5 -143 -39.5zt0 0zM307 16q61 0 107.5 35q46.5 35 78 97.5q31.5 62.5 47.5 149.5q16 87 16 191q0 97 -41 147q-41 50 -110 50q-61 0 -107.5 -37.5q-46.5 -37.5 -78 -102q-31.5 -64.5 -47.5 -150q-16 -85.5 -16 -182.5q0 -97 39.5 -147.5q39.5 -50.5 111.5 -50.5zt0 0zM198 131l67 424h94q75 0 110 -28.5q35 -28.5 35 -84.5q0 -97 -88 -127l40 -139v-45h-69l-40 173h-45l-27 -173zM343 368q83 0 83 67q0 25 -15.5 38q-15.5 13 -55.5 13h-24l-19 -118z" />
<glyph unicode="&#175;" horiz-adv-x="600" d="M566 641h-326v74l326 0z" />
<glyph unicode="&#176;" horiz-adv-x="600" d="M389 633q-81 0 -81 -115q0 -56 54 -56q80 0 80 112q0 59 -53 59zt0 0zM351 393q-62 0 -92.5 31q-30.5 31 -30.5 88q0 190 172 190q61 0 91.5 -32q30.5 -32 30.5 -90q0 -187 -171 -187z" />
<glyph unicode="&#177;" horiz-adv-x="600" d="M344 608h84l-26 -163h167v-78h-179l-26 -165h-84l26 165h-165v78h177zM521 129v-78h-432l0 78z" />
<glyph unicode="&#178;" horiz-adv-x="600" d="M258 629l116 28q39 10 52.5 21q13.5 11 13.5 27q0 14 -11.5 21q-11.5 7 -29.5 7q-21 0 -46 -5.5q-25 -5.5 -61 -15.5l-18 -5v73l16 4q32 8 65 13q33 5 61 5q51 0 79 -21.5q28 -21.5 28 -63.5q0 -46 -30.5 -74.5q-30.5 -28.5 -89.5 -39.5l-97 -18l-2 -12h197v-70l-263 0z" />
<glyph unicode="&#179;" horiz-adv-x="600" d="M324 621v59h83q37 2 37 28q0 25 -41 25q-20 0 -44 -4.5q-24 -4.5 -59 -13.5l-19 -5v71l32 7q29 6 56.5 10q27.5 4 52.5 4q51 0 79.5 -16.5q28.5 -16.5 28.5 -54.5q0 -49 -63 -67l0 -19q28 -7 39.5 -23.5q11.5 -16.5 11.5 -37.5q0 -45 -38 -68q-38 -23 -111 -23q-28 0 -58.5 4.5q-30.5 4.5 -59.5 13.5l-13 4v77l27 -10q36 -14 62.5 -17q26.5 -3 49.5 -3q61 0 61 34q0 12 -9 18.5q-9 6.5 -35 6.5z" />
<glyph unicode="&#180;" horiz-adv-x="600" d="M365 629l97 152h97v-60l-124 -92z" />
<glyph unicode="&#181;" horiz-adv-x="600" d="M521 0h-75l-5 109h-31l-56 -63q-27 -31 -57.5 -44.5q-30.5 -13.5 -67.5 -13.5q-41 0 -70 19l-46 -257h-86l125 697l14 78h86l-58 -324q-7 -37 -5.5 -63q1.5 -26 9 -42.5q7.5 -16.5 21 -24q13.5 -7.5 31.5 -7.5q16 0 31.5 6.5q15.5 6.5 29.5 17q14 10.5 26.5 23.5q12.5 13 24.5 26l82 92l49 296h86l-55 -325z" />
<glyph unicode="&#182;" horiz-adv-x="600" d="M629 690l-149 -940h-88l137 864h-86l-137 -864h-88l98 620q-38 0 -70.5 8q-32.5 8 -56 26q-23.5 18 -37 47q-13.5 29 -13.5 71q0 82 58 125q58 43 170 43z" />
<glyph unicode="&#183;" horiz-adv-x="600" d="M300 314q-44 0 -62 16.5q-18 16.5 -18 60.5q0 45 18 60.5q18 15.5 62 15.5q44 0 62 -15.5q18 -15.5 18 -60.5q0 -44 -18 -60.5t-62 -16.5z" />
<glyph unicode="&#184;" horiz-adv-x="600" d="M336 8l-9 -60h20q24 0 40 -6.5q16 -6.5 25.5 -17q9.5 -10.5 13 -24.5q3.5 -14 3.5 -28q0 -58 -42.5 -90q-42.5 -32 -116.5 -32q-25 0 -52.5 4q-27.5 4 -47.5 10l0 76q34 -13 61 -19q27 -6 47 -6q29 0 46.5 14q17.5 14 17.5 39q0 23 -14 30.5q-14 7.5 -42 7.5h-36l19 102z" />
<glyph unicode="&#185;" horiz-adv-x="600" d="M266 660v63l107 67h128l-34 -217h47v-70h-273v70h148l25 158h-25l-54 -71z" />
<glyph unicode="&#186;" horiz-adv-x="600" d="M384 633q-81 0 -81 -115q0 -56 54 -56q80 0 80 112q0 59 -53 59zt0 0zM346 393q-62 0 -92.5 31q-30.5 31 -30.5 88q0 190 172 190q61 0 91.5 -32q30.5 -32 30.5 -90q0 -187 -171 -187zt0 0zM481 339v-78h-288l0 78z" />
<glyph unicode="&#187;" horiz-adv-x="600" d="M309 532l248 -232v-83l-324 -229v99l215 147v58l-139 128zM141 449l181 -150v-66l-230 -156l-3 86l130 79v48l-78 57z" />
<glyph unicode="&#188;" horiz-adv-x="600" d="M114 136v41l437 373h44v-41l-435 -373zM106 560v63l107 67h128l-34 -217h47v-70h-273v70h148l25 158h-25l-54 -71zM550 0h-79l5 31q-35 12 -85.5 18q-50.5 6 -110.5 4l0 67l180 177h73v-54l-164 -134q38 -2 67 -6.5q29 -4.5 49 -12.5l13 78l79 0z" />
<glyph unicode="&#189;" horiz-adv-x="600" d="M114 136v41l437 373h44v-41l-435 -373zM106 560v63l107 67h128l-34 -217h47v-70h-273v70h148l25 158h-25l-54 -71zM338 126l116 28q39 10 52.5 21q13.5 11 13.5 27q0 14 -11.5 21q-11.5 7 -29.5 7q-21 0 -46 -5.5q-25 -5.5 -61 -15.5l-18 -5v73l16 4q32 8 65 13q33 5 61 5q51 0 79 -21.5q28 -21.5 28 -63.5q0 -46 -30.5 -74.5q-30.5 -28.5 -89.5 -39.5l-97 -18l-2 -12h197v-70l-263 0z" />
<glyph unicode="&#190;" horiz-adv-x="600" d="M114 136v41l437 373h44v-41l-435 -373zM194 521v59h83q37 2 37 28q0 25 -41 25q-20 0 -44 -4.5q-24 -4.5 -59 -13.5l-19 -5v71l32 7q29 6 56.5 10q27.5 4 52.5 4q51 0 79.5 -16.5q28.5 -16.5 28.5 -54.5q0 -49 -63 -67l0 -19q28 -7 39.5 -23.5q11.5 -16.5 11.5 -37.5q0 -45 -38 -68q-38 -23 -111 -23q-28 0 -58.5 4.5q-30.5 4.5 -59.5 13.5l-13 4v77l27 -10q36 -14 62.5 -17q26.5 -3 49.5 -3q61 0 61 34q0 12 -9 18.5q-9 6.5 -35 6.5zM550 0h-79l5 31q-35 12 -85.5 18q-50.5 6 -110.5 4l0 67l180 177h73v-54l-164 -134q38 -2 67 -6.5q29 -4.5 49 -12.5l13 78l79 0z" />
<glyph unicode="&#191;" horiz-adv-x="600" d="M410 537q44 0 62 -16.5q18 -16.5 18 -60.5q0 -45 -18 -60.5q-18 -15.5 -62 -15.5q-44 0 -62 15.5q-18 15.5 -18 60.5q0 44 18 60.5q18 16.5 62 16.5zt0 0zM283 -161q32 0 70.5 8.5q38.5 8.5 92.5 28.5l59 21v-87l-60 -17q-41 -11 -84.5 -20.5q-43.5 -9.5 -85.5 -9.5q-102 0 -154 50q-52 50 -52 145q0 37 12.5 80q12.5 43 41 80.5q28.5 37.5 75 62.5q46.5 25 115.5 25h14l20 79h71l-14 -153h-62q-53 0 -88.5 -15.5q-35.5 -15.5 -56.5 -40q-21 -24.5 -30 -55.5q-9 -31 -9 -62q0 -59 31 -89.5t94 -30.5z" />
<glyph unicode="&#192;" horiz-adv-x="600" d="M48 0v54l318 636h81l124 -636v-54h-85l-27 177h-257l-78 -177zM237 252h209l-49 295h-21zM385 762l-104 92l-10 60h107l77 -152z" />
<glyph unicode="&#193;" horiz-adv-x="600" d="M48 0v54l318 636h81l124 -636v-54h-85l-27 177h-257l-78 -177zM237 252h209l-49 295h-21zM386 762l77 152h107l-10 -60l-104 -92z" />
<glyph unicode="&#194;" horiz-adv-x="600" d="M48 0v54l318 636h81l124 -636v-54h-85l-27 177h-257l-78 -177zM237 252h209l-49 295h-21zM469 914l132 -108v-44h-81l-63 77h-44l-79 -77h-81v44l168 108z" />
<glyph unicode="&#195;" horiz-adv-x="600" d="M48 0v54l318 636h81l124 -636v-54h-85l-27 177h-257l-78 -177zM237 252h209l-49 295h-21zM360 893q21 0 41 -8.5q20 -8.5 38 -18.5q18 -10 33.5 -18.5q15.5 -8.5 27.5 -8.5q28 0 34 36l3 18h83l-11 -40q-11 -40 -36 -65.5q-25 -25.5 -67 -25.5q-22 0 -42.5 9q-20.5 9 -38.5 20q-18 11 -34 20q-16 9 -28 9q-13 0 -22.5 -8q-9.5 -8 -11.5 -23l-4 -27h-81l10 40q11 41 37 66t69 25z" />
<glyph unicode="&#196;" horiz-adv-x="600" d="M48 0v54l318 636h81l124 -636v-54h-85l-27 177h-257l-78 -177zM237 252h209l-49 295h-21zM327 762q-35 0 -49 13.5q-14 13.5 -14 47.5q0 35 14 47.5q14 12.5 49 12.5q35 0 49.5 -12.5q14.5 -12.5 14.5 -47.5q0 -34 -14.5 -47.5q-14.5 -13.5 -49.5 -13.5zt0 0zM529 762q-35 0 -49.5 13.5q-14.5 13.5 -14.5 47.5q0 35 14.5 47.5q14.5 12.5 49.5 12.5q35 0 49 -12.5q14 -12.5 14 -47.5q0 -34 -14 -47.5t-49 -13.5z" />
<glyph unicode="&#197;" horiz-adv-x="600" d="M48 0v54l318 636h81l124 -636v-54h-85l-27 177h-257l-78 -177zM237 252h209l-49 295h-21zM441 895q-27 0 -42 -14q-15 -14 -15 -37q0 -20 11 -30q11 -10 31 -10q27 0 42.5 13.5q15.5 13.5 15.5 37.5q0 40 -43 40zt0 0zM422 749q-49 0 -77 24q-28 24 -28 67q0 52 33.5 81q33.5 29 94.5 29q50 0 78 -23.5q28 -23.5 28 -65.5q0 -53 -34 -82.5t-95 -29.5z" />
<glyph unicode="&#198;" horiz-adv-x="600" d="M595 0h-313l27 157h-139l-57 -157h-75v54l248 636h364v-76h-177l-35 -210h157v-76h-170l-42 -252h212zM197 232h125l66 382l-52 0z" />
<glyph unicode="&#199;" horiz-adv-x="600" d="M429 626q-64 0 -107.5 -36q-43.5 -36 -70.5 -92.5q-27 -56.5 -39 -126.5q-12 -70 -12 -138q0 -50 8.5 -82.5q8.5 -32.5 24.5 -51.5q16 -19 39.5 -26.5q23.5 -7.5 52.5 -7.5q20 0 48 7.5q28 7.5 65 25.5l93 45v-93l-89 -33q-28 -11 -51.5 -17.5q-23.5 -6.5 -46.5 -9.5l-6 -42h20q24 0 40 -6.5q16 -6.5 25.5 -17q9.5 -10.5 13 -24.5q3.5 -14 3.5 -28q0 -58 -42.5 -90q-42.5 -32 -116.5 -32q-25 0 -52.5 4q-27.5 4 -47.5 10l0 76q34 -13 61 -19q27 -6 47 -6q29 0 46.5 14q17.5 14 17.5 39q0 23 -14 30.5q-14 7.5 -42 7.5h-36l15 84q-39 4 -70 19q-31 15 -52.5 43.5q-21.5 28.5 -32.5 72q-11 43.5 -11 103.5q0 88 18 173q18 85 56 152q38 67 97 108q59 41 141 41q29 0 57.5 -5.5q28.5 -5.5 57.5 -10.5l54 -10v-90l-77 22q-32 9 -50.5 13.5t-34.5 4.5z" />
<glyph unicode="&#200;" horiz-adv-x="600" d="M531 0h-443l115 690h381v-76h-304l-35 -210h268v-76h-281l-42 -252h341zM385 762l-104 92l-10 60h107l77 -152z" />
<glyph unicode="&#201;" horiz-adv-x="600" d="M531 0h-443l115 690h381v-76h-304l-35 -210h268v-76h-281l-42 -252h341zM386 762l77 152h107l-10 -60l-104 -92z" />
<glyph unicode="&#202;" horiz-adv-x="600" d="M531 0h-443l115 690h381v-76h-304l-35 -210h268v-76h-281l-42 -252h341zM469 914l132 -108v-44h-81l-63 77h-44l-79 -77h-81v44l168 108z" />
<glyph unicode="&#203;" horiz-adv-x="600" d="M531 0h-443l115 690h381v-76h-304l-35 -210h268v-76h-281l-42 -252h341zM327 762q-35 0 -49 13.5q-14 13.5 -14 47.5q0 35 14 47.5q14 12.5 49 12.5q35 0 49.5 -12.5q14.5 -12.5 14.5 -47.5q0 -34 -14.5 -47.5q-14.5 -13.5 -49.5 -13.5zt0 0zM529 762q-35 0 -49.5 13.5q-14.5 13.5 -14.5 47.5q0 35 14.5 47.5q14.5 12.5 49.5 12.5q35 0 49 -12.5q14 -12.5 14 -47.5q0 -34 -14 -47.5t-49 -13.5z" />
<glyph unicode="&#204;" horiz-adv-x="600" d="M494 0h-388v76h151l85 538h-147v76h388v-76h-151l-85 -538h147zM385 762l-104 92l-10 60h107l77 -152z" />
<glyph unicode="&#205;" horiz-adv-x="600" d="M494 0h-388v76h151l85 538h-147v76h388v-76h-151l-85 -538h147zM386 762l77 152h107l-10 -60l-104 -92z" />
<glyph unicode="&#206;" horiz-adv-x="600" d="M494 0h-388v76h151l85 538h-147v76h388v-76h-151l-85 -538h147zM469 914l132 -108v-44h-81l-63 77h-44l-79 -77h-81v44l168 108z" />
<glyph unicode="&#207;" horiz-adv-x="600" d="M494 0h-388v76h151l85 538h-147v76h388v-76h-151l-85 -538h147zM327 762q-35 0 -49 13.5q-14 13.5 -14 47.5q0 35 14 47.5q14 12.5 49 12.5q35 0 49.5 -12.5q14.5 -12.5 14.5 -47.5q0 -34 -14.5 -47.5q-14.5 -13.5 -49.5 -13.5zt0 0zM529 762q-35 0 -49.5 13.5q-14.5 13.5 -14.5 47.5q0 35 14.5 47.5q14.5 12.5 49.5 12.5q35 0 49 -12.5q14 -12.5 14 -47.5q0 -34 -14 -47.5t-49 -13.5z" />
<glyph unicode="&#208;" horiz-adv-x="600" d="M82 0l55 330h-81v74h93l48 286h174q53 0 96.5 -11.5q43.5 -11.5 74.5 -38.5q31 -27 48 -71.5q17 -44.5 17 -110.5q0 -86 -17 -168q-17 -82 -55.5 -146.5q-38.5 -64.5 -99.5 -104q-61 -39.5 -148 -39.5zM364 330h-137l-43 -254h92q70 0 117 34q47 34 75 88q28 54 39.5 121q11.5 67 11.5 133q0 49 -11.5 80.5q-11.5 31.5 -32.5 49.5q-21 18 -49.5 25q-28.5 7 -62.5 7h-89l-35 -210l125 0z" />
<glyph unicode="&#209;" horiz-adv-x="600" d="M532 0h-94l-122 330l-67 186h-22l-25 -186l-53 -330h-82l111 690h94l133 -360l55 -157h22l20 157l56 360h83zM360 893q21 0 41 -8.5q20 -8.5 38 -18.5q18 -10 33.5 -18.5q15.5 -8.5 27.5 -8.5q28 0 34 36l3 18h83l-11 -40q-11 -40 -36 -65.5q-25 -25.5 -67 -25.5q-22 0 -42.5 9q-20.5 9 -38.5 20q-18 11 -34 20q-16 9 -28 9q-13 0 -22.5 -8q-9.5 -8 -11.5 -23l-4 -27h-81l10 40q11 41 37 66t69 25z" />
<glyph unicode="&#210;" horiz-adv-x="600" d="M406 626q-57 0 -100 -32.5q-43 -32.5 -71 -88.5q-28 -56 -42 -131.5q-14 -75.5 -14 -161.5q0 -31 8 -58q8 -27 23.5 -47q15.5 -20 38 -31.5q22.5 -11.5 52.5 -11.5q57 0 99.5 31.5q42.5 31.5 70.5 86q28 54.5 42 127.5q14 73 14 156q0 33 -8 62.5q-8 29.5 -23 51.5q-15 22 -37.5 34.5q-22.5 12.5 -52.5 12.5zt0 0zM301 -12q-102 0 -157 61.5q-55 61.5 -55 176.5q0 102 20.5 189q20.5 87 60.5 150.5q40 63.5 99.5 100q59.5 36.5 136.5 36.5q100 0 155.5 -62q55.5 -62 55.5 -188q0 -99 -20.5 -183.5q-20.5 -84.5 -60.5 -147q-40 -62.5 -99 -98q-59 -35.5 -136 -35.5zt0 0zM385 762l-104 92l-10 60h107l77 -152z" />
<glyph unicode="&#211;" horiz-adv-x="600" d="M406 626q-57 0 -100 -32.5q-43 -32.5 -71 -88.5q-28 -56 -42 -131.5q-14 -75.5 -14 -161.5q0 -31 8 -58q8 -27 23.5 -47q15.5 -20 38 -31.5q22.5 -11.5 52.5 -11.5q57 0 99.5 31.5q42.5 31.5 70.5 86q28 54.5 42 127.5q14 73 14 156q0 33 -8 62.5q-8 29.5 -23 51.5q-15 22 -37.5 34.5q-22.5 12.5 -52.5 12.5zt0 0zM301 -12q-102 0 -157 61.5q-55 61.5 -55 176.5q0 102 20.5 189q20.5 87 60.5 150.5q40 63.5 99.5 100q59.5 36.5 136.5 36.5q100 0 155.5 -62q55.5 -62 55.5 -188q0 -99 -20.5 -183.5q-20.5 -84.5 -60.5 -147q-40 -62.5 -99 -98q-59 -35.5 -136 -35.5zt0 0zM386 762l77 152h107l-10 -60l-104 -92z" />
<glyph unicode="&#212;" horiz-adv-x="600" d="M406 626q-57 0 -100 -32.5q-43 -32.5 -71 -88.5q-28 -56 -42 -131.5q-14 -75.5 -14 -161.5q0 -31 8 -58q8 -27 23.5 -47q15.5 -20 38 -31.5q22.5 -11.5 52.5 -11.5q57 0 99.5 31.5q42.5 31.5 70.5 86q28 54.5 42 127.5q14 73 14 156q0 33 -8 62.5q-8 29.5 -23 51.5q-15 22 -37.5 34.5q-22.5 12.5 -52.5 12.5zt0 0zM301 -12q-102 0 -157 61.5q-55 61.5 -55 176.5q0 102 20.5 189q20.5 87 60.5 150.5q40 63.5 99.5 100q59.5 36.5 136.5 36.5q100 0 155.5 -62q55.5 -62 55.5 -188q0 -99 -20.5 -183.5q-20.5 -84.5 -60.5 -147q-40 -62.5 -99 -98q-59 -35.5 -136 -35.5zt0 0zM469 914l132 -108v-44h-81l-63 77h-44l-79 -77h-81v44l168 108z" />
<glyph unicode="&#213;" horiz-adv-x="600" d="M406 626q-57 0 -100 -32.5q-43 -32.5 -71 -88.5q-28 -56 -42 -131.5q-14 -75.5 -14 -161.5q0 -31 8 -58q8 -27 23.5 -47q15.5 -20 38 -31.5q22.5 -11.5 52.5 -11.5q57 0 99.5 31.5q42.5 31.5 70.5 86q28 54.5 42 127.5q14 73 14 156q0 33 -8 62.5q-8 29.5 -23 51.5q-15 22 -37.5 34.5q-22.5 12.5 -52.5 12.5zt0 0zM301 -12q-102 0 -157 61.5q-55 61.5 -55 176.5q0 102 20.5 189q20.5 87 60.5 150.5q40 63.5 99.5 100q59.5 36.5 136.5 36.5q100 0 155.5 -62q55.5 -62 55.5 -188q0 -99 -20.5 -183.5q-20.5 -84.5 -60.5 -147q-40 -62.5 -99 -98q-59 -35.5 -136 -35.5zt0 0zM360 893q21 0 41 -8.5q20 -8.5 38 -18.5q18 -10 33.5 -18.5q15.5 -8.5 27.5 -8.5q28 0 34 36l3 18h83l-11 -40q-11 -40 -36 -65.5q-25 -25.5 -67 -25.5q-22 0 -42.5 9q-20.5 9 -38.5 20q-18 11 -34 20q-16 9 -28 9q-13 0 -22.5 -8q-9.5 -8 -11.5 -23l-4 -27h-81l10 40q11 41 37 66t69 25z" />
<glyph unicode="&#214;" horiz-adv-x="600" d="M406 626q-57 0 -100 -32.5q-43 -32.5 -71 -88.5q-28 -56 -42 -131.5q-14 -75.5 -14 -161.5q0 -31 8 -58q8 -27 23.5 -47q15.5 -20 38 -31.5q22.5 -11.5 52.5 -11.5q57 0 99.5 31.5q42.5 31.5 70.5 86q28 54.5 42 127.5q14 73 14 156q0 33 -8 62.5q-8 29.5 -23 51.5q-15 22 -37.5 34.5q-22.5 12.5 -52.5 12.5zt0 0zM301 -12q-102 0 -157 61.5q-55 61.5 -55 176.5q0 102 20.5 189q20.5 87 60.5 150.5q40 63.5 99.5 100q59.5 36.5 136.5 36.5q100 0 155.5 -62q55.5 -62 55.5 -188q0 -99 -20.5 -183.5q-20.5 -84.5 -60.5 -147q-40 -62.5 -99 -98q-59 -35.5 -136 -35.5zt0 0zM327 762q-35 0 -49 13.5q-14 13.5 -14 47.5q0 35 14 47.5q14 12.5 49 12.5q35 0 49.5 -12.5q14.5 -12.5 14.5 -47.5q0 -34 -14.5 -47.5q-14.5 -13.5 -49.5 -13.5zt0 0zM529 762q-35 0 -49.5 13.5q-14.5 13.5 -14.5 47.5q0 35 14.5 47.5q14.5 12.5 49.5 12.5q35 0 49 -12.5q14 -12.5 14 -47.5q0 -34 -14 -47.5t-49 -13.5z" />
<glyph unicode="&#215;" horiz-adv-x="600" d="M243 483l108 -139l151 142l56 -63l-160 -129l121 -125l-66 -59l-111 135l-150 -139l-56 63l160 128l-121 128z" />
<glyph unicode="&#216;" horiz-adv-x="600" d="M119 -34l36 72q-66 61 -66 188q0 102 20.5 189q20.5 87 60.5 150.5q40 63.5 99.5 100q59.5 36.5 136.5 36.5q42 0 77 -12l30 60h62v-56l-23 -45q32 -32 48.5 -80.5q16.5 -48.5 16.5 -116.5q0 -99 -20.5 -183.5q-20.5 -84.5 -60.5 -147q-40 -62.5 -99 -98q-59 -35.5 -136 -35.5q-42 0 -73 10l-43 -88h-66zM406 626q-57 0 -100 -32.5q-43 -32.5 -71 -88.5q-28 -56 -42 -131.5q-14 -75.5 -14 -161.5q0 -52 20 -88l248 494q-21 8 -41 8zt0 0zM527 465q0 53 -20 93l-243 -489q18 -5 37 -5q57 0 99.5 31.5q42.5 31.5 70.5 86q28 54.5 42 127.5t14 156z" />
<glyph unicode="&#217;" horiz-adv-x="600" d="M185 690h90l-74 -463q-2 -16 -4 -29.5q-2 -13.5 -2 -26.5q0 -58 30.5 -82.5q30.5 -24.5 83.5 -24.5q64 0 105 37q41 37 55 121l74 468h90l-74 -468q-19 -121 -82.5 -177.5q-63.5 -56.5 -175.5 -56.5q-94 0 -145 48q-51 48 -51 132q0 14 2 28.5q2 14.5 4 30.5zM385 762l-104 92l-10 60h107l77 -152z" />
<glyph unicode="&#218;" horiz-adv-x="600" d="M185 690h90l-74 -463q-2 -16 -4 -29.5q-2 -13.5 -2 -26.5q0 -58 30.5 -82.5q30.5 -24.5 83.5 -24.5q64 0 105 37q41 37 55 121l74 468h90l-74 -468q-19 -121 -82.5 -177.5q-63.5 -56.5 -175.5 -56.5q-94 0 -145 48q-51 48 -51 132q0 14 2 28.5q2 14.5 4 30.5zM386 762l77 152h107l-10 -60l-104 -92z" />
<glyph unicode="&#219;" horiz-adv-x="600" d="M185 690h90l-74 -463q-2 -16 -4 -29.5q-2 -13.5 -2 -26.5q0 -58 30.5 -82.5q30.5 -24.5 83.5 -24.5q64 0 105 37q41 37 55 121l74 468h90l-74 -468q-19 -121 -82.5 -177.5q-63.5 -56.5 -175.5 -56.5q-94 0 -145 48q-51 48 -51 132q0 14 2 28.5q2 14.5 4 30.5zM469 914l132 -108v-44h-81l-63 77h-44l-79 -77h-81v44l168 108z" />
<glyph unicode="&#220;" horiz-adv-x="600" d="M185 690h90l-74 -463q-2 -16 -4 -29.5q-2 -13.5 -2 -26.5q0 -58 30.5 -82.5q30.5 -24.5 83.5 -24.5q64 0 105 37q41 37 55 121l74 468h90l-74 -468q-19 -121 -82.5 -177.5q-63.5 -56.5 -175.5 -56.5q-94 0 -145 48q-51 48 -51 132q0 14 2 28.5q2 14.5 4 30.5zM327 762q-35 0 -49 13.5q-14 13.5 -14 47.5q0 35 14 47.5q14 12.5 49 12.5q35 0 49.5 -12.5q14.5 -12.5 14.5 -47.5q0 -34 -14.5 -47.5q-14.5 -13.5 -49.5 -13.5zt0 0zM529 762q-35 0 -49.5 13.5q-14.5 13.5 -14.5 47.5q0 35 14.5 47.5q14.5 12.5 49.5 12.5q35 0 49 -12.5q14 -12.5 14 -47.5q0 -34 -14 -47.5t-49 -13.5z" />
<glyph unicode="&#221;" horiz-adv-x="600" d="M339 358h28l225 332h73v-54l-286 -381l-40 -255h-90l42 267l-158 369v54h79zM386 762l77 152h107l-10 -60l-104 -92z" />
<glyph unicode="&#222;" horiz-adv-x="600" d="M197 136l-21 -136h-90l109 690h90l-18 -114h109q56 0 99 -9q43 -9 72.5 -31q29.5 -22 44.5 -57.5q15 -35.5 15 -89.5q0 -57 -19.5 -104q-19.5 -47 -54 -80q-34.5 -33 -82.5 -51q-48 -18 -106 -18zM339 212q41 0 74 13q33 13 56 35.5q23 22.5 35.5 53q12.5 30.5 12.5 66.5q0 37 -8.5 60.5q-8.5 23.5 -25 36.5q-16.5 13 -41.5 18q-25 5 -58 5h-129l-46 -288z" />
<glyph unicode="&#223;" horiz-adv-x="600" d="M342 -12q-28 0 -55 3.5q-27 3.5 -52 8.5l0 78q23 -6 50.5 -11q27.5 -5 56.5 -5q69 0 104 46q35 46 35 135q0 64 -28 97.5q-28 33.5 -82 33.5h-51v73h57q61 0 92.5 35.5q31.5 35.5 31.5 103.5q0 46 -27 74q-27 28 -82 28q-57 0 -93 -34.5q-36 -34.5 -50 -119.5l-88 -534h-86l88 534q20 119 78 173.5q58 54.5 152 54.5q97 0 146.5 -47.5q49.5 -47.5 49.5 -126.5q0 -128 -112 -166l0 -20q90 -37 90 -159q0 -125 -54.5 -190t-170.5 -65z" />
<glyph unicode="&#224;" horiz-adv-x="600" d="M447 109h-29l-59 -63q-31 -32 -60 -45q-29 -13 -60 -13q-37 0 -63.5 15q-26.5 15 -43.5 40q-17 25 -25 58.5q-8 33.5 -8 71.5q0 69 16 134.5q16 65.5 47.5 116.5q31.5 51 78 82q46.5 31 108.5 31q19 0 47 -5q28 -5 59.5 -11.5q31.5 -6.5 64 -12.5q32.5 -6 59.5 -8l-47 -300l-7 -200h-75zM452 229l32 209q-40 13 -75 23.5q-35 10.5 -63 10.5q-42 0 -72 -25.5q-30 -25.5 -49.5 -66.5q-19.5 -41 -28.5 -94q-9 -53 -9 -107q0 -52 17 -83.5q17 -31.5 56 -31.5q13 0 27 6.5q14 6.5 28 17q14 10.5 27 23.5q13 13 25 26l85 91zM367 629l-124 92v60h97l97 -152z" />
<glyph unicode="&#225;" horiz-adv-x="600" d="M447 109h-29l-59 -63q-31 -32 -60 -45q-29 -13 -60 -13q-37 0 -63.5 15q-26.5 15 -43.5 40q-17 25 -25 58.5q-8 33.5 -8 71.5q0 69 16 134.5q16 65.5 47.5 116.5q31.5 51 78 82q46.5 31 108.5 31q19 0 47 -5q28 -5 59.5 -11.5q31.5 -6.5 64 -12.5q32.5 -6 59.5 -8l-47 -300l-7 -200h-75zM452 229l32 209q-40 13 -75 23.5q-35 10.5 -63 10.5q-42 0 -72 -25.5q-30 -25.5 -49.5 -66.5q-19.5 -41 -28.5 -94q-9 -53 -9 -107q0 -52 17 -83.5q17 -31.5 56 -31.5q13 0 27 6.5q14 6.5 28 17q14 10.5 27 23.5q13 13 25 26l85 91zM365 629l97 152h97v-60l-124 -92z" />
<glyph unicode="&#226;" horiz-adv-x="600" d="M447 109h-29l-59 -63q-31 -32 -60 -45q-29 -13 -60 -13q-37 0 -63.5 15q-26.5 15 -43.5 40q-17 25 -25 58.5q-8 33.5 -8 71.5q0 69 16 134.5q16 65.5 47.5 116.5q31.5 51 78 82q46.5 31 108.5 31q19 0 47 -5q28 -5 59.5 -11.5q31.5 -6.5 64 -12.5q32.5 -6 59.5 -8l-47 -300l-7 -200h-75zM452 229l32 209q-40 13 -75 23.5q-35 10.5 -63 10.5q-42 0 -72 -25.5q-30 -25.5 -49.5 -66.5q-19.5 -41 -28.5 -94q-9 -53 -9 -107q0 -52 17 -83.5q17 -31.5 56 -31.5q13 0 27 6.5q14 6.5 28 17q14 10.5 27 23.5q13 13 25 26l85 91zM447 781l132 -108v-44h-75l-68 77h-46l-84 -77h-75v44l168 108z" />
<glyph unicode="&#227;" horiz-adv-x="600" d="M447 109h-29l-59 -63q-31 -32 -60 -45q-29 -13 -60 -13q-37 0 -63.5 15q-26.5 15 -43.5 40q-17 25 -25 58.5q-8 33.5 -8 71.5q0 69 16 134.5q16 65.5 47.5 116.5q31.5 51 78 82q46.5 31 108.5 31q19 0 47 -5q28 -5 59.5 -11.5q31.5 -6.5 64 -12.5q32.5 -6 59.5 -8l-47 -300l-7 -200h-75zM452 229l32 209q-40 13 -75 23.5q-35 10.5 -63 10.5q-42 0 -72 -25.5q-30 -25.5 -49.5 -66.5q-19.5 -41 -28.5 -94q-9 -53 -9 -107q0 -52 17 -83.5q17 -31.5 56 -31.5q13 0 27 6.5q14 6.5 28 17q14 10.5 27 23.5q13 13 25 26l85 91zM334 760q21 0 41 -9q20 -9 38 -19.5q18 -10.5 33.5 -19.5q15.5 -9 27.5 -9q14 0 22.5 11q8.5 11 11.5 28l3 18h83l-11 -40q-11 -40 -36 -65.5q-25 -25.5 -67 -25.5q-22 0 -42.5 9.5q-20.5 9.5 -38.5 21q-18 11.5 -34 21q-16 9.5 -28 9.5q-13 0 -22.5 -9.5q-9.5 -9.5 -11.5 -24.5l-4 -27h-81l10 40q11 41 37 66t69 25z" />
<glyph unicode="&#228;" horiz-adv-x="600" d="M447 109h-29l-59 -63q-31 -32 -60 -45q-29 -13 -60 -13q-37 0 -63.5 15q-26.5 15 -43.5 40q-17 25 -25 58.5q-8 33.5 -8 71.5q0 69 16 134.5q16 65.5 47.5 116.5q31.5 51 78 82q46.5 31 108.5 31q19 0 47 -5q28 -5 59.5 -11.5q31.5 -6.5 64 -12.5q32.5 -6 59.5 -8l-47 -300l-7 -200h-75zM452 229l32 209q-40 13 -75 23.5q-35 10.5 -63 10.5q-42 0 -72 -25.5q-30 -25.5 -49.5 -66.5q-19.5 -41 -28.5 -94q-9 -53 -9 -107q0 -52 17 -83.5q17 -31.5 56 -31.5q13 0 27 6.5q14 6.5 28 17q14 10.5 27 23.5q13 13 25 26l85 91zM307 629q-35 0 -49 13.5q-14 13.5 -14 47.5q0 35 14 47.5q14 12.5 49 12.5q35 0 49.5 -12.5q14.5 -12.5 14.5 -47.5q0 -34 -14.5 -47.5q-14.5 -13.5 -49.5 -13.5zt0 0zM509 629q-35 0 -49.5 13.5q-14.5 13.5 -14.5 47.5q0 35 14.5 47.5q14.5 12.5 49.5 12.5q35 0 49 -12.5q14 -12.5 14 -47.5q0 -34 -14 -47.5t-49 -13.5z" />
<glyph unicode="&#229;" horiz-adv-x="600" d="M447 109h-29l-59 -63q-31 -32 -60 -45q-29 -13 -60 -13q-37 0 -63.5 15q-26.5 15 -43.5 40q-17 25 -25 58.5q-8 33.5 -8 71.5q0 69 16 134.5q16 65.5 47.5 116.5q31.5 51 78 82q46.5 31 108.5 31q19 0 47 -5q28 -5 59.5 -11.5q31.5 -6.5 64 -12.5q32.5 -6 59.5 -8l-47 -300l-7 -200h-75zM452 229l32 209q-40 13 -75 23.5q-35 10.5 -63 10.5q-42 0 -72 -25.5q-30 -25.5 -49.5 -66.5q-19.5 -41 -28.5 -94q-9 -53 -9 -107q0 -52 17 -83.5q17 -31.5 56 -31.5q13 0 27 6.5q14 6.5 28 17q14 10.5 27 23.5q13 13 25 26l85 91zM422 775q-27 0 -42 -14q-15 -14 -15 -37q0 -20 11 -30q11 -10 31 -10q27 0 42.5 13.5q15.5 13.5 15.5 37.5q0 40 -43 40zt0 0zM403 629q-49 0 -77 24q-28 24 -28 67q0 52 33.5 81q33.5 29 94.5 29q50 0 78 -23.5q28 -23.5 28 -65.5q0 -53 -34 -82.5t-95 -29.5z" />
<glyph unicode="&#230;" horiz-adv-x="600" d="M152 -12q-94 0 -94 124q0 102 45 155q45 53 132 53h83l4 21q3 18 5 33q2 15 2 27q0 31 -12.5 45q-12.5 14 -43.5 14q-19 0 -39.5 -4.5q-20.5 -4.5 -52.5 -13.5l-46 -13v76l65 16q24 6 49.5 11q25.5 5 45.5 5q38 0 62 -17q24 -17 34 -49q20 31 48.5 48.5q28.5 17.5 66.5 17.5q59 0 89.5 -34q30.5 -34 30.5 -109q0 -23 -2.5 -51q-2.5 -28 -7.5 -60l-5 -31h-228q-6 -42 -6 -73q0 -63 19.5 -90q19.5 -27 46.5 -27q23 0 41 5.5q18 5.5 47 20.5l45 24v-73l-42 -23q-23 -13 -45 -20.5q-22 -7.5 -53 -7.5q-36 0 -61 16.5q-25 16.5 -39 44.5l-60 0l-16 -14q-25 -22 -49.5 -34.5q-24.5 -12.5 -58.5 -12.5zt0 0zM145 117q0 -55 36 -55q20 0 36 6.5q16 6.5 33 19.5l36 28l22 136h-82q-40 0 -60.5 -34.5q-20.5 -34.5 -20.5 -100.5zt0 0zM553 393q0 70 -55 70q-36 0 -61 -32.5q-25 -32.5 -42 -110.5l151 0q4 23 5.5 40.5t1.5 32.5z" />
<glyph unicode="&#231;" horiz-adv-x="600" d="M321 64q32 0 70 17q38 17 79 44l44 29v-94l-47 -24q-31 -16 -64 -28q-33 -12 -67 -17l-6 -43h20q24 0 40 -6.5q16 -6.5 25.5 -17q9.5 -10.5 13 -24.5q3.5 -14 3.5 -28q0 -58 -42.5 -90q-42.5 -32 -116.5 -32q-25 0 -52.5 4q-27.5 4 -47.5 10l0 76q34 -13 61 -19q27 -6 47 -6q29 0 46.5 14q17.5 14 17.5 39q0 23 -14 30.5q-14 7.5 -42 7.5h-36l15 84q-42 4 -71 23q-29 19 -47.5 48q-18.5 29 -26.5 65.5q-8 36.5 -6 76.5q2 69 19.5 130q17.5 61 49.5 106.5q32 45.5 79 71.5q47 26 109 26q25 0 53 -3.5q28 -3.5 51 -11.5l62 -19v-83l-79 26q-27 9 -50 12.5q-23 3.5 -42 3.5q-45 0 -75.5 -21.5q-30.5 -21.5 -50 -57q-19.5 -35.5 -28.5 -81q-9 -45.5 -10 -93.5q-2 -65 24.5 -105t91.5 -40z" />
<glyph unicode="&#232;" horiz-adv-x="600" d="M472 36q-40 -20 -83.5 -34q-43.5 -14 -86.5 -14q-54 0 -91 17q-37 17 -60 46.5q-23 29.5 -33 68q-10 38.5 -10 81.5q0 72 21 133.5q21 61.5 59 106.5q38 45 92 70.5q54 25.5 120 25.5q80 0 125 -39q45 -39 45 -101q0 -59 -49 -95q-49 -36 -157 -64l-169 -45q1 -29 9 -53q8 -24 23.5 -41q15.5 -17 40 -26q24.5 -9 59.5 -9q31 0 69 17.5q38 17.5 79 43.5l44 29v-94zM391 462q-46 0 -80.5 -17q-34.5 -17 -58 -45.5q-23.5 -28.5 -37 -66q-13.5 -37.5 -18.5 -78.5l117 36q46 14 77.5 24.5q31.5 10.5 51.5 21q20 10.5 29 23.5q9 13 9 32q0 28 -21.5 49q-21.5 21 -68.5 21zt0 0zM367 629l-124 92v60h97l97 -152z" />
<glyph unicode="&#233;" horiz-adv-x="600" d="M472 36q-40 -20 -83.5 -34q-43.5 -14 -86.5 -14q-54 0 -91 17q-37 17 -60 46.5q-23 29.5 -33 68q-10 38.5 -10 81.5q0 72 21 133.5q21 61.5 59 106.5q38 45 92 70.5q54 25.5 120 25.5q80 0 125 -39q45 -39 45 -101q0 -59 -49 -95q-49 -36 -157 -64l-169 -45q1 -29 9 -53q8 -24 23.5 -41q15.5 -17 40 -26q24.5 -9 59.5 -9q31 0 69 17.5q38 17.5 79 43.5l44 29v-94zM391 462q-46 0 -80.5 -17q-34.5 -17 -58 -45.5q-23.5 -28.5 -37 -66q-13.5 -37.5 -18.5 -78.5l117 36q46 14 77.5 24.5q31.5 10.5 51.5 21q20 10.5 29 23.5q9 13 9 32q0 28 -21.5 49q-21.5 21 -68.5 21zt0 0zM365 629l97 152h97v-60l-124 -92z" />
<glyph unicode="&#234;" horiz-adv-x="600" d="M472 36q-40 -20 -83.5 -34q-43.5 -14 -86.5 -14q-54 0 -91 17q-37 17 -60 46.5q-23 29.5 -33 68q-10 38.5 -10 81.5q0 72 21 133.5q21 61.5 59 106.5q38 45 92 70.5q54 25.5 120 25.5q80 0 125 -39q45 -39 45 -101q0 -59 -49 -95q-49 -36 -157 -64l-169 -45q1 -29 9 -53q8 -24 23.5 -41q15.5 -17 40 -26q24.5 -9 59.5 -9q31 0 69 17.5q38 17.5 79 43.5l44 29v-94zM391 462q-46 0 -80.5 -17q-34.5 -17 -58 -45.5q-23.5 -28.5 -37 -66q-13.5 -37.5 -18.5 -78.5l117 36q46 14 77.5 24.5q31.5 10.5 51.5 21q20 10.5 29 23.5q9 13 9 32q0 28 -21.5 49q-21.5 21 -68.5 21zt0 0zM447 781l132 -108v-44h-75l-68 77h-46l-84 -77h-75v44l168 108z" />
<glyph unicode="&#235;" horiz-adv-x="600" d="M472 36q-40 -20 -83.5 -34q-43.5 -14 -86.5 -14q-54 0 -91 17q-37 17 -60 46.5q-23 29.5 -33 68q-10 38.5 -10 81.5q0 72 21 133.5q21 61.5 59 106.5q38 45 92 70.5q54 25.5 120 25.5q80 0 125 -39q45 -39 45 -101q0 -59 -49 -95q-49 -36 -157 -64l-169 -45q1 -29 9 -53q8 -24 23.5 -41q15.5 -17 40 -26q24.5 -9 59.5 -9q31 0 69 17.5q38 17.5 79 43.5l44 29v-94zM391 462q-46 0 -80.5 -17q-34.5 -17 -58 -45.5q-23.5 -28.5 -37 -66q-13.5 -37.5 -18.5 -78.5l117 36q46 14 77.5 24.5q31.5 10.5 51.5 21q20 10.5 29 23.5q9 13 9 32q0 28 -21.5 49q-21.5 21 -68.5 21zt0 0zM307 629q-35 0 -49 13.5q-14 13.5 -14 47.5q0 35 14 47.5q14 12.5 49 12.5q35 0 49.5 -12.5q14.5 -12.5 14.5 -47.5q0 -34 -14.5 -47.5q-14.5 -13.5 -49.5 -13.5zt0 0zM509 629q-35 0 -49.5 13.5q-14.5 13.5 -14.5 47.5q0 35 14.5 47.5q14.5 12.5 49.5 12.5q35 0 49 -12.5q14 -12.5 14 -47.5q0 -34 -14 -47.5t-49 -13.5z" />
<glyph unicode="&#236;" horiz-adv-x="600" d="M564 152v-94l-47 -25q-33 -17 -66.5 -31q-33.5 -14 -68.5 -14q-56 0 -89.5 28.5q-33.5 28.5 -33.5 89.5q0 12 1.5 26.5q1.5 14.5 6 40q4.5 25.5 13 66.5q8.5 41 23.5 106l24 108h-179v72h279l-41 -187q-12 -59 -20 -97q-8 -38 -12 -62q-4 -24 -5.5 -37.5q-1.5 -13.5 -1.5 -25.5q0 -53 54 -53q28 0 57 17.5q29 17.5 62 40.5zM367 629l-124 92v60h97l97 -152z" />
<glyph unicode="&#237;" horiz-adv-x="600" d="M564 152v-94l-47 -25q-33 -17 -66.5 -31q-33.5 -14 -68.5 -14q-56 0 -89.5 28.5q-33.5 28.5 -33.5 89.5q0 12 1.5 26.5q1.5 14.5 6 40q4.5 25.5 13 66.5q8.5 41 23.5 106l24 108h-179v72h279l-41 -187q-12 -59 -20 -97q-8 -38 -12 -62q-4 -24 -5.5 -37.5q-1.5 -13.5 -1.5 -25.5q0 -53 54 -53q28 0 57 17.5q29 17.5 62 40.5zM365 629l97 152h97v-60l-124 -92z" />
<glyph unicode="&#238;" horiz-adv-x="600" d="M564 152v-94l-47 -25q-33 -17 -66.5 -31q-33.5 -14 -68.5 -14q-56 0 -89.5 28.5q-33.5 28.5 -33.5 89.5q0 12 1.5 26.5q1.5 14.5 6 40q4.5 25.5 13 66.5q8.5 41 23.5 106l24 108h-179v72h279l-41 -187q-12 -59 -20 -97q-8 -38 -12 -62q-4 -24 -5.5 -37.5q-1.5 -13.5 -1.5 -25.5q0 -53 54 -53q28 0 57 17.5q29 17.5 62 40.5zM447 781l132 -108v-44h-75l-68 77h-46l-84 -77h-75v44l168 108z" />
<glyph unicode="&#239;" horiz-adv-x="600" d="M564 152v-94l-47 -25q-33 -17 -66.5 -31q-33.5 -14 -68.5 -14q-56 0 -89.5 28.5q-33.5 28.5 -33.5 89.5q0 12 1.5 26.5q1.5 14.5 6 40q4.5 25.5 13 66.5q8.5 41 23.5 106l24 108h-179v72h279l-41 -187q-12 -59 -20 -97q-8 -38 -12 -62q-4 -24 -5.5 -37.5q-1.5 -13.5 -1.5 -25.5q0 -53 54 -53q28 0 57 17.5q29 17.5 62 40.5zM307 629q-35 0 -49 13.5q-14 13.5 -14 47.5q0 35 14 47.5q14 12.5 49 12.5q35 0 49.5 -12.5q14.5 -12.5 14.5 -47.5q0 -34 -14.5 -47.5q-14.5 -13.5 -49.5 -13.5zt0 0zM509 629q-35 0 -49.5 13.5q-14.5 13.5 -14.5 47.5q0 35 14.5 47.5q14.5 12.5 49.5 12.5q35 0 49 -12.5q14 -12.5 14 -47.5q0 -34 -14 -47.5t-49 -13.5z" />
<glyph unicode="&#240;" horiz-adv-x="600" d="M237 763l176 -62l138 66l27 -56l-84 -40q60 -30 85 -82q25 -52 25 -133q0 -230 -73 -349q-73 -119 -220 -119q-100 0 -152.5 54q-52.5 54 -52.5 159q0 74 20 131q20 57 53.5 95.5q33.5 38.5 77.5 58q44 19.5 92 19.5q58 0 98 -21.5q40 -21.5 63 -59.5l22 0v42q0 33 -7 57q-7 24 -20.5 40.5q-13.5 16.5 -33 28q-19.5 11.5 -44.5 20.5l-32 11l-171 -81l-26 56l114 55l-103 37zM361 431q-36 0 -67 -14.5q-31 -14.5 -53.5 -43q-22.5 -28.5 -35 -71q-12.5 -42.5 -12.5 -97.5q0 -70 30.5 -106.5q30.5 -36.5 88.5 -36.5q50 0 85 20q35 20 57.5 52q22.5 32 32.5 73q10 41 10 82q0 78 -36.5 110t-99.5 32z" />
<glyph unicode="&#241;" horiz-adv-x="600" d="M426 0l57 340q3 19 5 34q2 15 2 28q0 32 -15 43.5q-15 11.5 -41 11.5q-24 0 -54.5 -18.5q-30.5 -18.5 -73.5 -53.5l-77 -64l-52 -321h-85l53 326l17 199h74l-3 -94h36l51 43q40 35 72 49q32 14 66 14q62 0 90.5 -30.5q28.5 -30.5 28.5 -87.5q0 -17 -2.5 -36.5q-2.5 -19.5 -6.5 -42.5l-57 -340zM334 760q21 0 41 -9q20 -9 38 -19.5q18 -10.5 33.5 -19.5q15.5 -9 27.5 -9q14 0 22.5 11q8.5 11 11.5 28l3 18h83l-11 -40q-11 -40 -36 -65.5q-25 -25.5 -67 -25.5q-22 0 -42.5 9.5q-20.5 9.5 -38.5 21q-18 11.5 -34 21q-16 9.5 -28 9.5q-13 0 -22.5 -9.5q-9.5 -9.5 -11.5 -24.5l-4 -27h-81l10 40q11 41 37 66t69 25z" />
<glyph unicode="&#242;" horiz-adv-x="600" d="M367 466q-46 0 -78 -22.5q-32 -22.5 -51.5 -59.5q-19.5 -37 -28 -85q-8.5 -48 -8.5 -98q0 -72 26.5 -107q26.5 -35 86.5 -35q46 0 78 22q32 22 51.5 59q19.5 37 28.5 84q9 47 9 97q0 72 -26 108.5q-26 36.5 -88 36.5zt0 0zM312 -12q-98 0 -148.5 50.5q-50.5 50.5 -50.5 152.5q0 68 15.5 130.5q15.5 62.5 48 110.5q32.5 48 81 76.5q48.5 28.5 114.5 28.5q97 0 147 -52q50 -52 50 -154q0 -68 -15.5 -130q-15.5 -62 -47.5 -109.5q-32 -47.5 -80 -75.5q-48 -28 -114 -28zt0 0zM367 629l-124 92v60h97l97 -152z" />
<glyph unicode="&#243;" horiz-adv-x="600" d="M367 466q-46 0 -78 -22.5q-32 -22.5 -51.5 -59.5q-19.5 -37 -28 -85q-8.5 -48 -8.5 -98q0 -72 26.5 -107q26.5 -35 86.5 -35q46 0 78 22q32 22 51.5 59q19.5 37 28.5 84q9 47 9 97q0 72 -26 108.5q-26 36.5 -88 36.5zt0 0zM312 -12q-98 0 -148.5 50.5q-50.5 50.5 -50.5 152.5q0 68 15.5 130.5q15.5 62.5 48 110.5q32.5 48 81 76.5q48.5 28.5 114.5 28.5q97 0 147 -52q50 -52 50 -154q0 -68 -15.5 -130q-15.5 -62 -47.5 -109.5q-32 -47.5 -80 -75.5q-48 -28 -114 -28zt0 0zM365 629l97 152h97v-60l-124 -92z" />
<glyph unicode="&#244;" horiz-adv-x="600" d="M367 466q-46 0 -78 -22.5q-32 -22.5 -51.5 -59.5q-19.5 -37 -28 -85q-8.5 -48 -8.5 -98q0 -72 26.5 -107q26.5 -35 86.5 -35q46 0 78 22q32 22 51.5 59q19.5 37 28.5 84q9 47 9 97q0 72 -26 108.5q-26 36.5 -88 36.5zt0 0zM312 -12q-98 0 -148.5 50.5q-50.5 50.5 -50.5 152.5q0 68 15.5 130.5q15.5 62.5 48 110.5q32.5 48 81 76.5q48.5 28.5 114.5 28.5q97 0 147 -52q50 -52 50 -154q0 -68 -15.5 -130q-15.5 -62 -47.5 -109.5q-32 -47.5 -80 -75.5q-48 -28 -114 -28zt0 0zM447 781l132 -108v-44h-75l-68 77h-46l-84 -77h-75v44l168 108z" />
<glyph unicode="&#245;" horiz-adv-x="600" d="M367 466q-46 0 -78 -22.5q-32 -22.5 -51.5 -59.5q-19.5 -37 -28 -85q-8.5 -48 -8.5 -98q0 -72 26.5 -107q26.5 -35 86.5 -35q46 0 78 22q32 22 51.5 59q19.5 37 28.5 84q9 47 9 97q0 72 -26 108.5q-26 36.5 -88 36.5zt0 0zM312 -12q-98 0 -148.5 50.5q-50.5 50.5 -50.5 152.5q0 68 15.5 130.5q15.5 62.5 48 110.5q32.5 48 81 76.5q48.5 28.5 114.5 28.5q97 0 147 -52q50 -52 50 -154q0 -68 -15.5 -130q-15.5 -62 -47.5 -109.5q-32 -47.5 -80 -75.5q-48 -28 -114 -28zt0 0zM334 760q21 0 41 -9q20 -9 38 -19.5q18 -10.5 33.5 -19.5q15.5 -9 27.5 -9q14 0 22.5 11q8.5 11 11.5 28l3 18h83l-11 -40q-11 -40 -36 -65.5q-25 -25.5 -67 -25.5q-22 0 -42.5 9.5q-20.5 9.5 -38.5 21q-18 11.5 -34 21q-16 9.5 -28 9.5q-13 0 -22.5 -9.5q-9.5 -9.5 -11.5 -24.5l-4 -27h-81l10 40q11 41 37 66t69 25z" />
<glyph unicode="&#246;" horiz-adv-x="600" d="M367 466q-46 0 -78 -22.5q-32 -22.5 -51.5 -59.5q-19.5 -37 -28 -85q-8.5 -48 -8.5 -98q0 -72 26.5 -107q26.5 -35 86.5 -35q46 0 78 22q32 22 51.5 59q19.5 37 28.5 84q9 47 9 97q0 72 -26 108.5q-26 36.5 -88 36.5zt0 0zM312 -12q-98 0 -148.5 50.5q-50.5 50.5 -50.5 152.5q0 68 15.5 130.5q15.5 62.5 48 110.5q32.5 48 81 76.5q48.5 28.5 114.5 28.5q97 0 147 -52q50 -52 50 -154q0 -68 -15.5 -130q-15.5 -62 -47.5 -109.5q-32 -47.5 -80 -75.5q-48 -28 -114 -28zt0 0zM307 629q-35 0 -49 13.5q-14 13.5 -14 47.5q0 35 14 47.5q14 12.5 49 12.5q35 0 49.5 -12.5q14.5 -12.5 14.5 -47.5q0 -34 -14.5 -47.5q-14.5 -13.5 -49.5 -13.5zt0 0zM509 629q-35 0 -49.5 13.5q-14.5 13.5 -14.5 47.5q0 35 14.5 47.5q14.5 12.5 49.5 12.5q35 0 49 -12.5q14 -12.5 14 -47.5q0 -34 -14 -47.5t-49 -13.5z" />
<glyph unicode="&#247;" horiz-adv-x="600" d="M564 261h-428v78h428zM320 60q-44 0 -62 16.5q-18 16.5 -18 60.5q0 45 18 60.5q18 15.5 62 15.5q44 0 62 -15.5q18 -15.5 18 -60.5q0 -44 -18 -60.5q-18 -16.5 -62 -16.5zt0 0zM370 384q-44 0 -62 16.5q-18 16.5 -18 60.5q0 45 18 60.5q18 15.5 62 15.5q44 0 62 -15.5q18 -15.5 18 -60.5q0 -44 -18 -60.5t-62 -16.5z" />
<glyph unicode="&#248;" horiz-adv-x="600" d="M312 -12q-52 0 -88 13l-56 -91h-61v56l50 80q-44 50 -44 145q0 68 15.5 130.5q15.5 62.5 48 110.5q32.5 48 81 76.5q48.5 28.5 114.5 28.5q48 0 83 -13l47 75h60v-56l-39 -63q46 -54 46 -149q0 -68 -15.5 -130q-15.5 -62 -47.5 -109.5q-32 -47.5 -80 -75.5q-48 -28 -114 -28zt0 0zM481 321q0 46 -10 76l-206 -331q20 -7 49 -7q46 0 78 22q32 22 51.5 59q19.5 37 28.5 84q9 47 9 97zt0 0zM367 466q-46 0 -78 -22.5q-32 -22.5 -51.5 -59.5q-19.5 -37 -28 -85q-8.5 -48 -8.5 -98q0 -41 9 -71l204 328q-21 8 -47 8z" />
<glyph unicode="&#249;" horiz-adv-x="600" d="M521 0h-75l-5 109h-31l-56 -63q-27 -31 -57.5 -44.5q-30.5 -13.5 -67.5 -13.5q-31 0 -57.5 12q-26.5 12 -44 38q-17.5 26 -23.5 66q-6 40 4 97l58 324h86l-58 -324q-7 -37 -5.5 -63q1.5 -26 9 -42.5q7.5 -16.5 21 -24q13.5 -7.5 31.5 -7.5q16 0 31.5 6.5q15.5 6.5 29.5 17q14 10.5 26.5 23.5q12.5 13 24.5 26l82 92l49 296h86l-55 -325zM367 629l-124 92v60h97l97 -152z" />
<glyph unicode="&#250;" horiz-adv-x="600" d="M521 0h-75l-5 109h-31l-56 -63q-27 -31 -57.5 -44.5q-30.5 -13.5 -67.5 -13.5q-31 0 -57.5 12q-26.5 12 -44 38q-17.5 26 -23.5 66q-6 40 4 97l58 324h86l-58 -324q-7 -37 -5.5 -63q1.5 -26 9 -42.5q7.5 -16.5 21 -24q13.5 -7.5 31.5 -7.5q16 0 31.5 6.5q15.5 6.5 29.5 17q14 10.5 26.5 23.5q12.5 13 24.5 26l82 92l49 296h86l-55 -325zM365 629l97 152h97v-60l-124 -92z" />
<glyph unicode="&#251;" horiz-adv-x="600" d="M521 0h-75l-5 109h-31l-56 -63q-27 -31 -57.5 -44.5q-30.5 -13.5 -67.5 -13.5q-31 0 -57.5 12q-26.5 12 -44 38q-17.5 26 -23.5 66q-6 40 4 97l58 324h86l-58 -324q-7 -37 -5.5 -63q1.5 -26 9 -42.5q7.5 -16.5 21 -24q13.5 -7.5 31.5 -7.5q16 0 31.5 6.5q15.5 6.5 29.5 17q14 10.5 26.5 23.5q12.5 13 24.5 26l82 92l49 296h86l-55 -325zM447 781l132 -108v-44h-75l-68 77h-46l-84 -77h-75v44l168 108z" />
<glyph unicode="&#252;" horiz-adv-x="600" d="M521 0h-75l-5 109h-31l-56 -63q-27 -31 -57.5 -44.5q-30.5 -13.5 -67.5 -13.5q-31 0 -57.5 12q-26.5 12 -44 38q-17.5 26 -23.5 66q-6 40 4 97l58 324h86l-58 -324q-7 -37 -5.5 -63q1.5 -26 9 -42.5q7.5 -16.5 21 -24q13.5 -7.5 31.5 -7.5q16 0 31.5 6.5q15.5 6.5 29.5 17q14 10.5 26.5 23.5q12.5 13 24.5 26l82 92l49 296h86l-55 -325zM307 629q-35 0 -49 13.5q-14 13.5 -14 47.5q0 35 14 47.5q14 12.5 49 12.5q35 0 49.5 -12.5q14.5 -12.5 14.5 -47.5q0 -34 -14.5 -47.5q-14.5 -13.5 -49.5 -13.5zt0 0zM509 629q-35 0 -49.5 13.5q-14.5 13.5 -14.5 47.5q0 35 14.5 47.5q14.5 12.5 49.5 12.5q35 0 49 -12.5q14 -12.5 14 -47.5q0 -34 -14 -47.5t-49 -13.5z" />
<glyph unicode="&#253;" horiz-adv-x="600" d="M297 -188q31 0 56.5 9.5q25.5 9.5 44 32.5q18.5 23 28.5 61.5q10 38.5 10 97.5v96h-28l-56 -63q-52 -58 -122 -58q-30 0 -55.5 11.5q-25.5 11.5 -42 36q-16.5 24.5 -22 63q-5.5 38.5 4.5 92.5l63 334h86l-63 -333q-7 -35 -6 -59.5q1 -24.5 8.5 -39.5q7.5 -15 19.5 -22q12 -7 28 -7q16 0 30.5 6.5q14.5 6.5 28.5 17q14 10.5 26.5 23.5q12.5 13 23.5 26l82 92l51 296h86l-57 -325l-6 -200q-2 -70 -17.5 -120q-15.5 -50 -42.5 -81.5q-27 -31.5 -64.5 -46q-37.5 -14.5 -82.5 -14.5q-59 0 -110 13q-51 13 -107 30l-53 16v98l76 -34q59 -26 100.5 -37.5q41.5 -11.5 81.5 -11.5zt0 0zM365 629l97 152h97v-60l-124 -92z" />
<glyph unicode="&#254;" horiz-adv-x="600" d="M227 436h31l49 43q33 29 63.5 43.5q30.5 14.5 62.5 14.5q72 0 106 -50.5q34 -50.5 34 -140.5q0 -69 -15.5 -133.5q-15.5 -64.5 -48.5 -114.5q-33 -50 -84 -80q-51 -30 -123 -30q-25 0 -59 5q-34 5 -73 14l-41 -257h-87l159 1000h86l-40 -253zM220 324l-37 -237q40 -13 75.5 -22.5q35.5 -9.5 64.5 -9.5q48 0 79 25q31 25 49 65.5q18 40.5 25.5 93q7.5 52.5 7.5 107.5q0 63 -17 88.5q-17 25.5 -56 25.5q-14 0 -29 -6q-15 -6 -29.5 -16q-14.5 -10 -28.5 -21.5q-14 -11.5 -27 -23.5z" />
<glyph unicode="&#255;" horiz-adv-x="600" d="M297 -188q31 0 56.5 9.5q25.5 9.5 44 32.5q18.5 23 28.5 61.5q10 38.5 10 97.5v96h-28l-56 -63q-52 -58 -122 -58q-30 0 -55.5 11.5q-25.5 11.5 -42 36q-16.5 24.5 -22 63q-5.5 38.5 4.5 92.5l63 334h86l-63 -333q-7 -35 -6 -59.5q1 -24.5 8.5 -39.5q7.5 -15 19.5 -22q12 -7 28 -7q16 0 30.5 6.5q14.5 6.5 28.5 17q14 10.5 26.5 23.5q12.5 13 23.5 26l82 92l51 296h86l-57 -325l-6 -200q-2 -70 -17.5 -120q-15.5 -50 -42.5 -81.5q-27 -31.5 -64.5 -46q-37.5 -14.5 -82.5 -14.5q-59 0 -110 13q-51 13 -107 30l-53 16v98l76 -34q59 -26 100.5 -37.5q41.5 -11.5 81.5 -11.5zt0 0zM307 629q-35 0 -49 13.5q-14 13.5 -14 47.5q0 35 14 47.5q14 12.5 49 12.5q35 0 49.5 -12.5q14.5 -12.5 14.5 -47.5q0 -34 -14.5 -47.5q-14.5 -13.5 -49.5 -13.5zt0 0zM509 629q-35 0 -49.5 13.5q-14.5 13.5 -14.5 47.5q0 35 14.5 47.5q14.5 12.5 49.5 12.5q35 0 49 -12.5q14 -12.5 14 -47.5q0 -34 -14 -47.5t-49 -13.5z" />
<glyph unicode="&#256;" horiz-adv-x="600" d="M48 0v54l318 636h81l124 -636v-54h-85l-27 177h-257l-78 -177zM237 252h209l-49 295h-21zM584 771h-326v74l326 0z" />
<glyph unicode="&#257;" horiz-adv-x="600" d="M447 109h-29l-59 -63q-31 -32 -60 -45q-29 -13 -60 -13q-37 0 -63.5 15q-26.5 15 -43.5 40q-17 25 -25 58.5q-8 33.5 -8 71.5q0 69 16 134.5q16 65.5 47.5 116.5q31.5 51 78 82q46.5 31 108.5 31q19 0 47 -5q28 -5 59.5 -11.5q31.5 -6.5 64 -12.5q32.5 -6 59.5 -8l-47 -300l-7 -200h-75zM452 229l32 209q-40 13 -75 23.5q-35 10.5 -63 10.5q-42 0 -72 -25.5q-30 -25.5 -49.5 -66.5q-19.5 -41 -28.5 -94q-9 -53 -9 -107q0 -52 17 -83.5q17 -31.5 56 -31.5q13 0 27 6.5q14 6.5 28 17q14 10.5 27 23.5q13 13 25 26l85 91zM566 641h-326v74l326 0z" />
<glyph unicode="&#258;" horiz-adv-x="600" d="M48 0v54l318 636h81l124 -636v-54h-85l-27 177h-257l-78 -177zM237 252h209l-49 295h-21zM421 762q-78 0 -109.5 37q-31.5 37 -18.5 115l69 0q-8 -45 7.5 -64.5q15.5 -19.5 57.5 -19.5q42 0 63.5 19.5q21.5 19.5 29.5 64.5l77 0q-13 -78 -55.5 -115t-120.5 -37z" />
<glyph unicode="&#259;" horiz-adv-x="600" d="M447 109h-29l-59 -63q-31 -32 -60 -45q-29 -13 -60 -13q-37 0 -63.5 15q-26.5 15 -43.5 40q-17 25 -25 58.5q-8 33.5 -8 71.5q0 69 16 134.5q16 65.5 47.5 116.5q31.5 51 78 82q46.5 31 108.5 31q19 0 47 -5q28 -5 59.5 -11.5q31.5 -6.5 64 -12.5q32.5 -6 59.5 -8l-47 -300l-7 -200h-75zM452 229l32 209q-40 13 -75 23.5q-35 10.5 -63 10.5q-42 0 -72 -25.5q-30 -25.5 -49.5 -66.5q-19.5 -41 -28.5 -94q-9 -53 -9 -107q0 -52 17 -83.5q17 -31.5 56 -31.5q13 0 27 6.5q14 6.5 28 17q14 10.5 27 23.5q13 13 25 26l85 91zM400 629q-78 0 -109.5 37q-31.5 37 -18.5 115l69 0q-8 -45 7.5 -64.5q15.5 -19.5 57.5 -19.5q42 0 63.5 19.5q21.5 19.5 29.5 64.5l77 0q-13 -78 -55.5 -115t-120.5 -37z" />
<glyph unicode="&#260;" horiz-adv-x="600" d="M48 0v54l318 636h81l124 -636v-54l-106 -72q-21 -14 -33 -25q-12 -11 -18 -19.5q-6 -8.5 -7.5 -15.5q-1.5 -7 -1.5 -14q0 -17 12 -26.5q12 -9.5 32 -9.5q17 0 39 6.5q22 6.5 46 16.5l0 -68q-31 -11 -56.5 -17q-25.5 -6 -51.5 -6q-27 0 -46.5 7.5q-19.5 7.5 -32 20.5q-12.5 13 -18.5 29q-6 16 -6 34q0 14 4 28q4 14 15.5 29.5q11.5 15.5 32 32.5q20.5 17 53.5 36l58 33l-27 177h-257l-78 -177zM237 252h209l-49 295l-21 0z" />
<glyph unicode="&#261;" horiz-adv-x="600" d="M512 0l-93 -72q-20 -15 -32 -26q-12 -11 -18 -19.5q-6 -8.5 -8 -15q-2 -6.5 -2 -13.5q0 -17 12 -26.5q12 -9.5 32 -9.5q17 0 39 6.5q22 6.5 46 16.5l0 -68q-31 -11 -56.5 -17q-25.5 -6 -51.5 -6q-27 0 -46.5 7.5q-19.5 7.5 -32 20.5q-12.5 13 -18.5 29q-6 16 -6 34q0 14 4.5 28q4.5 14 16 29q11.5 15 32 32q20.5 17 52.5 37l67 42l-2 100h-29l-59 -63q-31 -32 -60 -45q-29 -13 -60 -13q-37 0 -63.5 15q-26.5 15 -43.5 40q-17 25 -25 58.5q-8 33.5 -8 71.5q0 69 16 134.5q16 65.5 47.5 116.5q31.5 51 78 82q46.5 31 108.5 31q19 0 47 -5q28 -5 59.5 -11.5q31.5 -6.5 64 -12.5q32.5 -6 59.5 -8l-47 -300l-7 -200zM452 229l32 209q-40 13 -75 23.5q-35 10.5 -63 10.5q-42 0 -72 -25.5q-30 -25.5 -49.5 -66.5q-19.5 -41 -28.5 -94q-9 -53 -9 -107q0 -52 17 -83.5q17 -31.5 56 -31.5q13 0 27 6.5q14 6.5 28 17q14 10.5 27 23.5q13 13 25 26l85 91z" />
<glyph unicode="&#262;" horiz-adv-x="600" d="M429 626q-64 0 -107.5 -36q-43.5 -36 -70.5 -92.5q-27 -56.5 -39 -126.5q-12 -70 -12 -138q0 -50 8.5 -82.5q8.5 -32.5 24.5 -51.5q16 -19 39.5 -26.5q23.5 -7.5 52.5 -7.5q20 0 48 7.5q28 7.5 65 25.5l93 45v-93l-89 -33q-38 -14 -70 -21.5q-32 -7.5 -64 -7.5q-47 0 -83.5 12.5q-36.5 12.5 -62 41q-25.5 28.5 -39 74.5q-13.5 46 -13.5 112q0 88 18 173q18 85 56 152q38 67 97 108q59 41 141 41q29 0 57.5 -5.5q28.5 -5.5 57.5 -10.5l54 -10v-90l-77 22q-32 9 -50.5 13.5q-18.5 4.5 -34.5 4.5zt0 0zM386 762l77 152h107l-10 -60l-104 -92z" />
<glyph unicode="&#263;" horiz-adv-x="600" d="M321 64q32 0 70 17q38 17 79 44l44 29v-94l-47 -24q-40 -20 -84 -34q-44 -14 -87 -14q-50 0 -84.5 17.5q-34.5 17.5 -56 47q-21.5 29.5 -31 68.5q-9.5 39 -7.5 82q2 69 19.5 130q17.5 61 49.5 106.5q32 45.5 79 71.5q47 26 109 26q25 0 53 -3.5q28 -3.5 51 -11.5l62 -19v-83l-79 26q-27 9 -50 12.5q-23 3.5 -42 3.5q-45 0 -75.5 -21.5q-30.5 -21.5 -50 -57q-19.5 -35.5 -28.5 -81q-9 -45.5 -10 -93.5q-2 -65 24.5 -105q26.5 -40 91.5 -40zt0 0zM365 629l97 152h97v-60l-124 -92z" />
<glyph unicode="&#266;" horiz-adv-x="600" d="M429 626q-64 0 -107.5 -36q-43.5 -36 -70.5 -92.5q-27 -56.5 -39 -126.5q-12 -70 -12 -138q0 -50 8.5 -82.5q8.5 -32.5 24.5 -51.5q16 -19 39.5 -26.5q23.5 -7.5 52.5 -7.5q20 0 48 7.5q28 7.5 65 25.5l93 45v-93l-89 -33q-38 -14 -70 -21.5q-32 -7.5 -64 -7.5q-47 0 -83.5 12.5q-36.5 12.5 -62 41q-25.5 28.5 -39 74.5q-13.5 46 -13.5 112q0 88 18 173q18 85 56 152q38 67 97 108q59 41 141 41q29 0 57.5 -5.5q28.5 -5.5 57.5 -10.5l54 -10v-90l-77 22q-32 9 -50.5 13.5q-18.5 4.5 -34.5 4.5zt0 0zM428 762q-38 0 -54 14.5q-16 14.5 -16 52.5q0 38 16 52q16 14 54 14q38 0 54 -14q16 -14 16 -52q0 -38 -16 -52.5t-54 -14.5z" />
<glyph unicode="&#267;" horiz-adv-x="600" d="M321 64q32 0 70 17q38 17 79 44l44 29v-94l-47 -24q-40 -20 -84 -34q-44 -14 -87 -14q-50 0 -84.5 17.5q-34.5 17.5 -56 47q-21.5 29.5 -31 68.5q-9.5 39 -7.5 82q2 69 19.5 130q17.5 61 49.5 106.5q32 45.5 79 71.5q47 26 109 26q25 0 53 -3.5q28 -3.5 51 -11.5l62 -19v-83l-79 26q-27 9 -50 12.5q-23 3.5 -42 3.5q-45 0 -75.5 -21.5q-30.5 -21.5 -50 -57q-19.5 -35.5 -28.5 -81q-9 -45.5 -10 -93.5q-2 -65 24.5 -105q26.5 -40 91.5 -40zt0 0zM400 629q-38 0 -54 14.5q-16 14.5 -16 52.5q0 38 16 52q16 14 54 14q38 0 54 -14q16 -14 16 -52q0 -38 -16 -52.5t-54 -14.5z" />
<glyph unicode="&#268;" horiz-adv-x="600" d="M429 626q-64 0 -107.5 -36q-43.5 -36 -70.5 -92.5q-27 -56.5 -39 -126.5q-12 -70 -12 -138q0 -50 8.5 -82.5q8.5 -32.5 24.5 -51.5q16 -19 39.5 -26.5q23.5 -7.5 52.5 -7.5q20 0 48 7.5q28 7.5 65 25.5l93 45v-93l-89 -33q-38 -14 -70 -21.5q-32 -7.5 -64 -7.5q-47 0 -83.5 12.5q-36.5 12.5 -62 41q-25.5 28.5 -39 74.5q-13.5 46 -13.5 112q0 88 18 173q18 85 56 152q38 67 97 108q59 41 141 41q29 0 57.5 -5.5q28.5 -5.5 57.5 -10.5l54 -10v-90l-77 22q-32 9 -50.5 13.5q-18.5 4.5 -34.5 4.5zt0 0zM397 762l-130 108v44h83l60 -77h42l78 77h85v-44l-170 -108z" />
<glyph unicode="&#269;" horiz-adv-x="600" d="M321 64q32 0 70 17q38 17 79 44l44 29v-94l-47 -24q-40 -20 -84 -34q-44 -14 -87 -14q-50 0 -84.5 17.5q-34.5 17.5 -56 47q-21.5 29.5 -31 68.5q-9.5 39 -7.5 82q2 69 19.5 130q17.5 61 49.5 106.5q32 45.5 79 71.5q47 26 109 26q25 0 53 -3.5q28 -3.5 51 -11.5l62 -19v-83l-79 26q-27 9 -50 12.5q-23 3.5 -42 3.5q-45 0 -75.5 -21.5q-30.5 -21.5 -50 -57q-19.5 -35.5 -28.5 -81q-9 -45.5 -10 -93.5q-2 -65 24.5 -105q26.5 -40 91.5 -40zt0 0zM376 629l-130 108v44h75l66 -77h46l86 77h75v-44l-170 -108z" />
<glyph unicode="&#270;" horiz-adv-x="600" d="M72 0l115 690h174q53 0 96.5 -11.5q43.5 -11.5 74.5 -38.5q31 -27 48 -71.5q17 -44.5 17 -110.5q0 -86 -17 -168q-17 -82 -55.5 -146.5q-38.5 -64.5 -99.5 -104q-61 -39.5 -148 -39.5zM264 614l-90 -538h92q70 0 117 34q47 34 75 88q28 54 39.5 121q11.5 67 11.5 133q0 49 -11.5 80.5q-11.5 31.5 -32.5 49.5q-21 18 -49.5 25q-28.5 7 -62.5 7zM397 762l-130 108v44h83l60 -77h42l78 77h85v-44l-170 -108z" />
<glyph unicode="&#271;" horiz-adv-x="600" d="M352 109h-21l-27 -44q-15 -25 -28.5 -40q-13.5 -15 -27 -23.5q-13.5 -8.5 -27 -11q-13.5 -2.5 -28.5 -2.5q-29 0 -50.5 15q-21.5 15 -35.5 40q-14 25 -21 58.5q-7 33.5 -7 71.5q0 69 15.5 134.5q15.5 65.5 44.5 116.5q29 51 70.5 82q41.5 31 94.5 31q26 0 52 -4q26 -4 44 -6l35 223h86l-86 -550l-7 -200h-72zM389 455q-12 5 -35 11q-23 6 -43 6q-38 0 -65 -25.5q-27 -25.5 -44.5 -67q-17.5 -41.5 -26 -94q-8.5 -52.5 -8.5 -106.5q0 -52 13 -83.5q13 -31.5 39 -31.5q18 0 35 19.5q17 19.5 35 48.5l66 104zM559 553l31 197h107l-80 -197z" />
<glyph unicode="&#272;" horiz-adv-x="600" d="M82 0l55 330h-81v74h93l48 286h174q53 0 96.5 -11.5q43.5 -11.5 74.5 -38.5q31 -27 48 -71.5q17 -44.5 17 -110.5q0 -86 -17 -168q-17 -82 -55.5 -146.5q-38.5 -64.5 -99.5 -104q-61 -39.5 -148 -39.5zM364 330h-137l-43 -254h92q70 0 117 34q47 34 75 88q28 54 39.5 121q11.5 67 11.5 133q0 49 -11.5 80.5q-11.5 31.5 -32.5 49.5q-21 18 -49.5 25q-28.5 7 -62.5 7h-89l-35 -210l125 0z" />
<glyph unicode="&#273;" horiz-adv-x="600" d="M675 610h-76l-64 -410l-7 -200h-75l-3 109h-29l-59 -63q-31 -33 -60.5 -45.5q-29.5 -12.5 -62.5 -12.5q-36 0 -62.5 15q-26.5 15 -43.5 40q-17 25 -25.5 58.5q-8.5 33.5 -8.5 71.5q0 69 16.5 134.5q16.5 65.5 47.5 116.5q31 51 75.5 82q44.5 31 100.5 31q35 0 79 -9.5q44 -9.5 80 -17.5l15 100h-206v74h218l10 66h86l-11 -66h65zM263 64q13 0 27 6.5q14 6.5 28 17q14 10.5 27 23.5q13 13 25 26l84 91l32 209q-41 13 -76 24q-35 11 -64 11q-41 0 -71 -25.5q-30 -25.5 -49.5 -67q-19.5 -41.5 -29 -94q-9.5 -52.5 -9.5 -106.5q0 -52 18.5 -83.5t57.5 -31.5z" />
<glyph unicode="&#274;" horiz-adv-x="600" d="M531 0h-443l115 690h381v-76h-304l-35 -210h268v-76h-281l-42 -252h341zM584 771h-326v74l326 0z" />
<glyph unicode="&#275;" horiz-adv-x="600" d="M472 36q-40 -20 -83.5 -34q-43.5 -14 -86.5 -14q-54 0 -91 17q-37 17 -60 46.5q-23 29.5 -33 68q-10 38.5 -10 81.5q0 72 21 133.5q21 61.5 59 106.5q38 45 92 70.5q54 25.5 120 25.5q80 0 125 -39q45 -39 45 -101q0 -59 -49 -95q-49 -36 -157 -64l-169 -45q1 -29 9 -53q8 -24 23.5 -41q15.5 -17 40 -26q24.5 -9 59.5 -9q31 0 69 17.5q38 17.5 79 43.5l44 29v-94zM391 462q-46 0 -80.5 -17q-34.5 -17 -58 -45.5q-23.5 -28.5 -37 -66q-13.5 -37.5 -18.5 -78.5l117 36q46 14 77.5 24.5q31.5 10.5 51.5 21q20 10.5 29 23.5q9 13 9 32q0 28 -21.5 49q-21.5 21 -68.5 21zt0 0zM566 641h-326v74l326 0z" />
<glyph unicode="&#278;" horiz-adv-x="600" d="M531 0h-443l115 690h381v-76h-304l-35 -210h268v-76h-281l-42 -252h341zM428 762q-38 0 -54 14.5q-16 14.5 -16 52.5q0 38 16 52q16 14 54 14q38 0 54 -14q16 -14 16 -52q0 -38 -16 -52.5t-54 -14.5z" />
<glyph unicode="&#279;" horiz-adv-x="600" d="M472 36q-40 -20 -83.5 -34q-43.5 -14 -86.5 -14q-54 0 -91 17q-37 17 -60 46.5q-23 29.5 -33 68q-10 38.5 -10 81.5q0 72 21 133.5q21 61.5 59 106.5q38 45 92 70.5q54 25.5 120 25.5q80 0 125 -39q45 -39 45 -101q0 -59 -49 -95q-49 -36 -157 -64l-169 -45q1 -29 9 -53q8 -24 23.5 -41q15.5 -17 40 -26q24.5 -9 59.5 -9q31 0 69 17.5q38 17.5 79 43.5l44 29v-94zM391 462q-46 0 -80.5 -17q-34.5 -17 -58 -45.5q-23.5 -28.5 -37 -66q-13.5 -37.5 -18.5 -78.5l117 36q46 14 77.5 24.5q31.5 10.5 51.5 21q20 10.5 29 23.5q9 13 9 32q0 28 -21.5 49q-21.5 21 -68.5 21zt0 0zM400 629q-38 0 -54 14.5q-16 14.5 -16 52.5q0 38 16 52q16 14 54 14q38 0 54 -14q16 -14 16 -52q0 -38 -16 -52.5t-54 -14.5z" />
<glyph unicode="&#280;" horiz-adv-x="600" d="M531 0l-106 -72q-21 -14 -33 -25q-12 -11 -18 -19.5q-6 -8.5 -7.5 -15.5q-1.5 -7 -1.5 -14q0 -17 12 -26.5q12 -9.5 32 -9.5q17 0 39 6.5q22 6.5 46 16.5l0 -68q-31 -11 -56.5 -17q-25.5 -6 -51.5 -6q-27 0 -46.5 7.5q-19.5 7.5 -32 20.5q-12.5 13 -18.5 29q-6 16 -6 34q0 14 4 28q4 14 15.5 29.5q11.5 15.5 32 32.5q20.5 17 53.5 36l57 33h-357l115 690h381v-76h-304l-35 -210h268v-76h-281l-42 -252l341 0z" />
<glyph unicode="&#281;" horiz-adv-x="600" d="M519 40l-116 -112q-18 -18 -28.5 -30q-10.5 -12 -15 -20.5q-4.5 -8.5 -5.5 -15q-1 -6.5 -1 -12.5q0 -15 12 -23.5q12 -8.5 32 -8.5q17 0 39 6.5q22 6.5 46 16.5l0 -68q-31 -11 -56.5 -17q-25.5 -6 -51.5 -6q-55 0 -79 26.5q-24 26.5 -24 61.5q0 14 4 26.5q4 12.5 14.5 27q10.5 14.5 29 32.5q18.5 18 47.5 43l50 44q-28 -10 -56.5 -16.5q-28.5 -6.5 -57.5 -6.5q-54 0 -91 17q-37 17 -60 46.5q-23 29.5 -33 68q-10 38.5 -10 81.5q0 72 21 133.5q21 61.5 59 106.5q38 45 92 70.5q54 25.5 120 25.5q80 0 125 -39q45 -39 45 -101q0 -59 -49 -95q-49 -36 -157 -64l-169 -45q1 -29 9 -53q8 -24 23.5 -41q15.5 -17 40 -26q24.5 -9 59.5 -9q31 0 69 17.5q38 17.5 79 43.5l44 29zM391 462q-46 0 -80.5 -17q-34.5 -17 -58 -45.5q-23.5 -28.5 -37 -66q-13.5 -37.5 -18.5 -78.5l117 36q46 14 77.5 24.5q31.5 10.5 51.5 21q20 10.5 29 23.5q9 13 9 32q0 28 -21.5 49t-68.5 21z" />
<glyph unicode="&#282;" horiz-adv-x="600" d="M531 0h-443l115 690h381v-76h-304l-35 -210h268v-76h-281l-42 -252h341zM397 762l-130 108v44h83l60 -77h42l78 77h85v-44l-170 -108z" />
<glyph unicode="&#283;" horiz-adv-x="600" d="M472 36q-40 -20 -83.5 -34q-43.5 -14 -86.5 -14q-54 0 -91 17q-37 17 -60 46.5q-23 29.5 -33 68q-10 38.5 -10 81.5q0 72 21 133.5q21 61.5 59 106.5q38 45 92 70.5q54 25.5 120 25.5q80 0 125 -39q45 -39 45 -101q0 -59 -49 -95q-49 -36 -157 -64l-169 -45q1 -29 9 -53q8 -24 23.5 -41q15.5 -17 40 -26q24.5 -9 59.5 -9q31 0 69 17.5q38 17.5 79 43.5l44 29v-94zM391 462q-46 0 -80.5 -17q-34.5 -17 -58 -45.5q-23.5 -28.5 -37 -66q-13.5 -37.5 -18.5 -78.5l117 36q46 14 77.5 24.5q31.5 10.5 51.5 21q20 10.5 29 23.5q9 13 9 32q0 28 -21.5 49q-21.5 21 -68.5 21zt0 0zM376 629l-130 108v44h75l66 -77h46l86 77h75v-44l-170 -108z" />
<glyph unicode="&#286;" horiz-adv-x="600" d="M330 65q20 0 48 7.5q28 7.5 65 25.5l44 21l25 173h-132v76h223l-45 -312l-100 -36q-42 -15 -76 -23.5q-34 -8.5 -69 -8.5q-47 0 -83.5 12.5q-36.5 12.5 -62 41q-25.5 28.5 -39 74.5q-13.5 46 -13.5 112q0 88 18 173q18 85 56 152q38 67 97 108q59 41 141 41q29 0 57.5 -5.5q28.5 -5.5 57.5 -10.5l54 -10v-90l-77 22q-32 9 -50.5 13.5q-18.5 4.5 -34.5 4.5q-64 0 -107.5 -36q-43.5 -36 -70.5 -92.5q-27 -56.5 -39 -126.5q-12 -70 -12 -138q0 -50 8.5 -82.5q8.5 -32.5 24.5 -51.5q16 -19 39.5 -26.5q23.5 -7.5 52.5 -7.5zt0 0zM421 762q-78 0 -109.5 37q-31.5 37 -18.5 115l69 0q-8 -45 7.5 -64.5q15.5 -19.5 57.5 -19.5q42 0 63.5 19.5q21.5 19.5 29.5 64.5l77 0q-13 -78 -55.5 -115t-120.5 -37z" />
<glyph unicode="&#287;" horiz-adv-x="600" d="M123 -139q59 -26 100.5 -37.5q41.5 -11.5 81.5 -11.5q32 0 58.5 9.5q26.5 9.5 45 32.5q18.5 23 29.5 61.5q11 38.5 11 97.5v96h-27l-59 -63q-31 -32 -60 -45q-29 -13 -60 -13q-37 0 -63.5 15q-26.5 15 -43.5 40q-17 25 -25 58.5q-8 33.5 -8 71.5q0 69 16.5 134.5q16.5 65.5 48.5 116.5q32 51 78.5 82q46.5 31 106.5 31q19 0 47 -5q28 -5 59.5 -11.5q31.5 -6.5 64 -12.5q32.5 -6 59.5 -8l-47 -300l-7 -200q-3 -70 -19 -120q-16 -50 -43.5 -81.5q-27.5 -31.5 -65.5 -46q-38 -14.5 -84 -14.5q-59 0 -110 13q-51 13 -107 30l-53 16v98zM456 229l32 209q-40 13 -75 23.5q-35 10.5 -63 10.5q-42 0 -72.5 -25.5q-30.5 -25.5 -49.5 -66.5q-19 -41 -28 -94q-9 -53 -9 -107q0 -52 17 -83.5q17 -31.5 56 -31.5q13 0 27 6.5q14 6.5 28 17q14 10.5 27 23.5q13 13 25 26l85 91zM400 629q-78 0 -109.5 37q-31.5 37 -18.5 115l69 0q-8 -45 7.5 -64.5q15.5 -19.5 57.5 -19.5q42 0 63.5 19.5q21.5 19.5 29.5 64.5l77 0q-13 -78 -55.5 -115t-120.5 -37z" />
<glyph unicode="&#288;" horiz-adv-x="600" d="M330 65q20 0 48 7.5q28 7.5 65 25.5l44 21l25 173h-132v76h223l-45 -312l-100 -36q-42 -15 -76 -23.5q-34 -8.5 -69 -8.5q-47 0 -83.5 12.5q-36.5 12.5 -62 41q-25.5 28.5 -39 74.5q-13.5 46 -13.5 112q0 88 18 173q18 85 56 152q38 67 97 108q59 41 141 41q29 0 57.5 -5.5q28.5 -5.5 57.5 -10.5l54 -10v-90l-77 22q-32 9 -50.5 13.5q-18.5 4.5 -34.5 4.5q-64 0 -107.5 -36q-43.5 -36 -70.5 -92.5q-27 -56.5 -39 -126.5q-12 -70 -12 -138q0 -50 8.5 -82.5q8.5 -32.5 24.5 -51.5q16 -19 39.5 -26.5q23.5 -7.5 52.5 -7.5zt0 0zM428 762q-38 0 -54 14.5q-16 14.5 -16 52.5q0 38 16 52q16 14 54 14q38 0 54 -14q16 -14 16 -52q0 -38 -16 -52.5t-54 -14.5z" />
<glyph unicode="&#289;" horiz-adv-x="600" d="M123 -139q59 -26 100.5 -37.5q41.5 -11.5 81.5 -11.5q32 0 58.5 9.5q26.5 9.5 45 32.5q18.5 23 29.5 61.5q11 38.5 11 97.5v96h-27l-59 -63q-31 -32 -60 -45q-29 -13 -60 -13q-37 0 -63.5 15q-26.5 15 -43.5 40q-17 25 -25 58.5q-8 33.5 -8 71.5q0 69 16.5 134.5q16.5 65.5 48.5 116.5q32 51 78.5 82q46.5 31 106.5 31q19 0 47 -5q28 -5 59.5 -11.5q31.5 -6.5 64 -12.5q32.5 -6 59.5 -8l-47 -300l-7 -200q-3 -70 -19 -120q-16 -50 -43.5 -81.5q-27.5 -31.5 -65.5 -46q-38 -14.5 -84 -14.5q-59 0 -110 13q-51 13 -107 30l-53 16v98zM456 229l32 209q-40 13 -75 23.5q-35 10.5 -63 10.5q-42 0 -72.5 -25.5q-30.5 -25.5 -49.5 -66.5q-19 -41 -28 -94q-9 -53 -9 -107q0 -52 17 -83.5q17 -31.5 56 -31.5q13 0 27 6.5q14 6.5 28 17q14 10.5 27 23.5q13 13 25 26l85 91zM400 629q-38 0 -54 14.5q-16 14.5 -16 52.5q0 38 16 52q16 14 54 14q38 0 54 -14q16 -14 16 -52q0 -38 -16 -52.5t-54 -14.5z" />
<glyph unicode="&#290;" horiz-adv-x="600" d="M330 65q20 0 48 7.5q28 7.5 65 25.5l44 21l25 173h-132v76h223l-45 -312l-100 -36q-42 -15 -76 -23.5q-34 -8.5 -69 -8.5q-47 0 -83.5 12.5q-36.5 12.5 -62 41q-25.5 28.5 -39 74.5q-13.5 46 -13.5 112q0 88 18 173q18 85 56 152q38 67 97 108q59 41 141 41q29 0 57.5 -5.5q28.5 -5.5 57.5 -10.5l54 -10v-90l-77 22q-32 9 -50.5 13.5q-18.5 4.5 -34.5 4.5q-64 0 -107.5 -36q-43.5 -36 -70.5 -92.5q-27 -56.5 -39 -126.5q-12 -70 -12 -138q0 -50 8.5 -82.5q8.5 -32.5 24.5 -51.5q16 -19 39.5 -26.5q23.5 -7.5 52.5 -7.5zt0 0zM312 -262h-71v38l61 42q-35 1 -54 15.5q-19 14.5 -19 41.5q0 30 19 47.5q19 17.5 54 17.5q30 0 47 -14.5q17 -14.5 17 -39.5q0 -13 -6.5 -36q-6.5 -23 -20.5 -53z" />
<glyph unicode="&#291;" horiz-adv-x="600" d="M123 -139q59 -26 100.5 -37.5q41.5 -11.5 81.5 -11.5q32 0 58.5 9.5q26.5 9.5 45 32.5q18.5 23 29.5 61.5q11 38.5 11 97.5v96h-27l-59 -63q-31 -32 -60 -45q-29 -13 -60 -13q-37 0 -63.5 15q-26.5 15 -43.5 40q-17 25 -25 58.5q-8 33.5 -8 71.5q0 69 16.5 134.5q16.5 65.5 48.5 116.5q32 51 78.5 82q46.5 31 106.5 31q19 0 47 -5q28 -5 59.5 -11.5q31.5 -6.5 64 -12.5q32.5 -6 59.5 -8l-47 -300l-7 -200q-3 -70 -19 -120q-16 -50 -43.5 -81.5q-27.5 -31.5 -65.5 -46q-38 -14.5 -84 -14.5q-59 0 -110 13q-51 13 -107 30l-53 16v98zM456 229l32 209q-40 13 -75 23.5q-35 10.5 -63 10.5q-42 0 -72.5 -25.5q-30.5 -25.5 -49.5 -66.5q-19 -41 -28 -94q-9 -53 -9 -107q0 -52 17 -83.5q17 -31.5 56 -31.5q13 0 27 6.5q14 6.5 28 17q14 10.5 27 23.5q13 13 25 26l85 91zM391 830h71v-38l-61 -42q33 -1 51 -15.5q18 -14.5 18 -41.5q0 -30 -18.5 -47.5q-18.5 -17.5 -52.5 -17.5q-29 0 -45.5 14.5q-16.5 14.5 -16.5 39.5q0 27 28 89z" />
<glyph unicode="&#294;" horiz-adv-x="600" d="M651 524h-39l-83 -524h-90l51 326h-278l-51 -326h-90l83 524h-31v78h43l14 88h90l-14 -88h278l14 88h90l-14 -88h27zM503 404l19 120h-278l-19 -120z" />
<glyph unicode="&#295;" horiz-adv-x="600" d="M487 610h-212l-20 -126l-20 -53h34l51 43q40 35 72 49q32 14 66 14q62 0 90.5 -30.5q28.5 -30.5 28.5 -87.5q0 -17 -2.5 -36.5q-2.5 -19.5 -6.5 -42.5l-57 -340h-85l57 340q3 19 5 34q2 15 2 28q0 32 -15 43.5q-15 11.5 -41 11.5q-24 0 -54.5 -18.5q-30.5 -18.5 -73.5 -53.5l-77 -64l-51 -321h-86l97 610h-70v74h81l11 66h86l-11 -66l201 0z" />
<glyph unicode="&#298;" horiz-adv-x="600" d="M494 0h-388v76h151l85 538h-147v76h388v-76h-151l-85 -538h147zM584 771h-326v74l326 0z" />
<glyph unicode="&#299;" horiz-adv-x="600" d="M564 152v-94l-47 -25q-33 -17 -66.5 -31q-33.5 -14 -68.5 -14q-56 0 -89.5 28.5q-33.5 28.5 -33.5 89.5q0 12 1.5 26.5q1.5 14.5 6 40q4.5 25.5 13 66.5q8.5 41 23.5 106l24 108h-179v72h279l-41 -187q-12 -59 -20 -97q-8 -38 -12 -62q-4 -24 -5.5 -37.5q-1.5 -13.5 -1.5 -25.5q0 -53 54 -53q28 0 57 17.5q29 17.5 62 40.5zM566 641h-326v74l326 0z" />
<glyph unicode="&#302;" horiz-adv-x="600" d="M494 0l-106 -72q-21 -14 -33 -25q-12 -11 -18 -19.5q-6 -8.5 -7.5 -15.5q-1.5 -7 -1.5 -14q0 -17 12 -26.5q12 -9.5 32 -9.5q17 0 39 6.5q22 6.5 46 16.5l0 -68q-31 -11 -56.5 -17q-25.5 -6 -51.5 -6q-27 0 -46.5 7.5q-19.5 7.5 -32 20.5q-12.5 13 -18.5 29q-6 16 -6 34q0 14 4 28q4 14 15.5 29.5q11.5 15.5 32 32.5q20.5 17 53.5 36l57 33h-302v76h151l85 538h-147v76h388v-76h-151l-85 -538l147 0z" />
<glyph unicode="&#303;" horiz-adv-x="600" d="M544 152v-112l-116 -112q-18 -18 -28.5 -30q-10.5 -12 -15 -20.5q-4.5 -8.5 -5.5 -15q-1 -6.5 -1 -12.5q0 -15 12 -23.5q12 -8.5 32 -8.5q17 0 39 6.5q22 6.5 46 16.5l0 -68q-31 -11 -56.5 -17q-25.5 -6 -51.5 -6q-55 0 -79 26.5q-24 26.5 -24 61.5q0 14 4 26.5q4 12.5 14.5 27q10.5 14.5 29 32.5q18.5 18 47.5 43l39 34q-17 -6 -34 -9.5q-17 -3.5 -34 -3.5q-56 0 -89.5 28.5q-33.5 28.5 -33.5 89.5q0 12 1.5 26.5q1.5 14.5 6 40q4.5 25.5 13 66.5q8.5 41 23.5 106l24 108h-179v72h279l-41 -187q-12 -59 -20 -97q-8 -38 -12 -62q-4 -24 -5.5 -37.5q-1.5 -13.5 -1.5 -25.5q0 -53 54 -53q28 0 57 17.5q29 17.5 62 40.5zM414 639q-38 0 -54 14.5q-16 14.5 -16 52.5q0 38 16 52q16 14 54 14q38 0 54 -14q16 -14 16 -52q0 -38 -16 -52.5t-54 -14.5z" />
<glyph unicode="&#304;" horiz-adv-x="600" d="M494 0h-388v76h151l85 538h-147v76h388v-76h-151l-85 -538h147zM428 762q-38 0 -54 14.5q-16 14.5 -16 52.5q0 38 16 52q16 14 54 14q38 0 54 -14q16 -14 16 -52q0 -38 -16 -52.5t-54 -14.5z" />
<glyph unicode="&#305;" horiz-adv-x="600" d="M564 152v-94l-47 -25q-33 -17 -66.5 -31q-33.5 -14 -68.5 -14q-56 0 -89.5 28.5q-33.5 28.5 -33.5 89.5q0 12 1.5 26.5q1.5 14.5 6 40q4.5 25.5 13 66.5q8.5 41 23.5 106l24 108h-179v72h279l-41 -187q-12 -59 -20 -97q-8 -38 -12 -62q-4 -24 -5.5 -37.5q-1.5 -13.5 -1.5 -25.5q0 -53 54 -53q28 0 57 17.5q29 17.5 62 40.5z" />
<glyph unicode="&#310;" horiz-adv-x="600" d="M279 690l-48 -286h118l216 286h69v-54l-216 -273l154 -309v-54h-73l-153 326h-128l-54 -326h-90l115 690zM298 -262h-71v38l61 42q-35 1 -54 15.5q-19 14.5 -19 41.5q0 30 19 47.5q19 17.5 54 17.5q30 0 47 -14.5q17 -14.5 17 -39.5q0 -13 -6.5 -36q-6.5 -23 -20.5 -53z" />
<glyph unicode="&#311;" horiz-adv-x="600" d="M233 297h65l213 228h73v-55l-220 -208l173 -205v-57h-73l-170 225h-73l-35 -225h-86l119 750h86zM296 -262h-71v38l61 42q-33 1 -51 15.5q-18 14.5 -18 41.5q0 30 18.5 47.5q18.5 17.5 52.5 17.5q29 0 45.5 -14.5q16.5 -14.5 16.5 -39.5q0 -27 -28 -89z" />
<glyph unicode="&#313;" horiz-adv-x="600" d="M552 76v-76h-450l115 690h90l-103 -614zM239 762l77 152h107l-10 -60l-104 -92z" />
<glyph unicode="&#314;" horiz-adv-x="600" d="M504 36q-38 -21 -79.5 -34.5q-41.5 -13.5 -82.5 -13.5q-29 0 -55 8q-26 8 -45.5 25.5q-19.5 17.5 -31 44.5q-11.5 27 -11.5 66q0 18 2 42q2 24 9.5 63q7.5 39 22 96.5q14.5 57.5 38.5 142.5l58 202h-197v72h298l-77 -283q-23 -84 -36.5 -140q-13.5 -56 -20.5 -93q-7 -37 -9 -59q-2 -22 -2 -37q0 -42 22.5 -58q22.5 -16 59.5 -16q30 0 66 17q36 17 74 44l44 31v-94zM378 798l97 152h97v-60l-124 -92z" />
<glyph unicode="&#315;" horiz-adv-x="600" d="M552 76v-76h-450l115 690h90l-103 -614zM312 -262h-71v38l61 42q-35 1 -54 15.5q-19 14.5 -19 41.5q0 30 19 47.5q19 17.5 54 17.5q30 0 47 -14.5q17 -14.5 17 -39.5q0 -13 -6.5 -36q-6.5 -23 -20.5 -53z" />
<glyph unicode="&#316;" horiz-adv-x="600" d="M504 36q-38 -21 -79.5 -34.5q-41.5 -13.5 -82.5 -13.5q-29 0 -55 8q-26 8 -45.5 25.5q-19.5 17.5 -31 44.5q-11.5 27 -11.5 66q0 18 2 42q2 24 9.5 63q7.5 39 22 96.5q14.5 57.5 38.5 142.5l58 202h-197v72h298l-77 -283q-23 -84 -36.5 -140q-13.5 -56 -20.5 -93q-7 -37 -9 -59q-2 -22 -2 -37q0 -42 22.5 -58q22.5 -16 59.5 -16q30 0 66 17q36 17 74 44l44 31v-94zM326 -262h-71v38l61 42q-33 1 -51 15.5q-18 14.5 -18 41.5q0 30 18.5 47.5q18.5 17.5 52.5 17.5q29 0 45.5 -14.5q16.5 -14.5 16.5 -39.5q0 -27 -28 -89z" />
<glyph unicode="&#317;" horiz-adv-x="600" d="M552 76v-76h-450l115 690h90l-103 -614zM455 453l37 237h115l-96 -237z" />
<glyph unicode="&#318;" horiz-adv-x="600" d="M504 36q-38 -21 -79.5 -34.5q-41.5 -13.5 -82.5 -13.5q-29 0 -55 8q-26 8 -45.5 25.5q-19.5 17.5 -31 44.5q-11.5 27 -11.5 66q0 18 2 42q2 24 9.5 63q7.5 39 22 96.5q14.5 57.5 38.5 142.5l58 202h-197v72h298l-77 -283q-23 -84 -36.5 -140q-13.5 -56 -20.5 -93q-7 -37 -9 -59q-2 -22 -2 -37q0 -42 22.5 -58q22.5 -16 59.5 -16q30 0 66 17q36 17 74 44l44 31v-94zM539 553l31 197h107l-80 -197z" />
<glyph unicode="&#319;" horiz-adv-x="600" d="M552 76v-76h-450l115 690h90l-103 -614zM497 294q-44 0 -62 16.5q-18 16.5 -18 60.5q0 45 18 60.5q18 15.5 62 15.5q44 0 62 -15.5q18 -15.5 18 -60.5q0 -44 -18 -60.5t-62 -16.5z" />
<glyph unicode="&#320;" horiz-adv-x="600" d="M504 36q-38 -21 -79.5 -34.5q-41.5 -13.5 -82.5 -13.5q-29 0 -55 8q-26 8 -45.5 25.5q-19.5 17.5 -31 44.5q-11.5 27 -11.5 66q0 18 2 42q2 24 9.5 63q7.5 39 22 96.5q14.5 57.5 38.5 142.5l58 202h-197v72h298l-77 -283q-23 -84 -36.5 -140q-13.5 -56 -20.5 -93q-7 -37 -9 -59q-2 -22 -2 -37q0 -42 22.5 -58q22.5 -16 59.5 -16q30 0 66 17q36 17 74 44l44 31v-94zM604 334q-44 0 -62 16.5q-18 16.5 -18 60.5q0 45 18 60.5q18 15.5 62 15.5q44 0 62 -15.5q18 -15.5 18 -60.5q0 -44 -18 -60.5t-62 -16.5z" />
<glyph unicode="&#321;" horiz-adv-x="600" d="M164 373l53 317h90l-44 -263l141 77v-85l-157 -85l-43 -258h348v-76h-450l46 280l-112 -61l0 85z" />
<glyph unicode="&#322;" horiz-adv-x="600" d="M250 403l21 73l58 202h-197v72h298l-77 -283l-3 -10l141 77v-85l-167 -91q-13 -52 -21 -88q-8 -36 -12 -61.5q-4 -25.5 -5 -42q-1 -16.5 -1 -28.5q0 -42 22.5 -58q22.5 -16 59.5 -16q30 0 66 17q36 17 74 44l44 31v-94l-47 -26q-38 -21 -79.5 -34.5q-41.5 -13.5 -82.5 -13.5q-29 0 -55 8q-26 8 -45.5 25.5q-19.5 17.5 -31 44.5q-11.5 27 -11.5 66q0 12 1 27q1 15 3.5 35.5q2.5 20.5 7.5 47q5 26.5 14 62.5l-102 -55l0 85z" />
<glyph unicode="&#323;" horiz-adv-x="600" d="M532 0h-94l-122 330l-67 186h-22l-25 -186l-53 -330h-82l111 690h94l133 -360l55 -157h22l20 157l56 360h83zM386 762l77 152h107l-10 -60l-104 -92z" />
<glyph unicode="&#324;" horiz-adv-x="600" d="M426 0l57 340q3 19 5 34q2 15 2 28q0 32 -15 43.5q-15 11.5 -41 11.5q-24 0 -54.5 -18.5q-30.5 -18.5 -73.5 -53.5l-77 -64l-52 -321h-85l53 326l17 199h74l-3 -94h36l51 43q40 35 72 49q32 14 66 14q62 0 90.5 -30.5q28.5 -30.5 28.5 -87.5q0 -17 -2.5 -36.5q-2.5 -19.5 -6.5 -42.5l-57 -340zM365 629l97 152h97v-60l-124 -92z" />
<glyph unicode="&#325;" horiz-adv-x="600" d="M532 0h-94l-122 330l-67 186h-22l-25 -186l-53 -330h-82l111 690h94l133 -360l55 -157h22l20 157l56 360h83zM298 -262h-71v38l61 42q-35 1 -54 15.5q-19 14.5 -19 41.5q0 30 19 47.5q19 17.5 54 17.5q30 0 47 -14.5q17 -14.5 17 -39.5q0 -13 -6.5 -36q-6.5 -23 -20.5 -53z" />
<glyph unicode="&#326;" horiz-adv-x="600" d="M426 0l57 340q3 19 5 34q2 15 2 28q0 32 -15 43.5q-15 11.5 -41 11.5q-24 0 -54.5 -18.5q-30.5 -18.5 -73.5 -53.5l-77 -64l-52 -321h-85l53 326l17 199h74l-3 -94h36l51 43q40 35 72 49q32 14 66 14q62 0 90.5 -30.5q28.5 -30.5 28.5 -87.5q0 -17 -2.5 -36.5q-2.5 -19.5 -6.5 -42.5l-57 -340zM296 -262h-71v38l61 42q-33 1 -51 15.5q-18 14.5 -18 41.5q0 30 18.5 47.5q18.5 17.5 52.5 17.5q29 0 45.5 -14.5q16.5 -14.5 16.5 -39.5q0 -27 -28 -89z" />
<glyph unicode="&#327;" horiz-adv-x="600" d="M532 0h-94l-122 330l-67 186h-22l-25 -186l-53 -330h-82l111 690h94l133 -360l55 -157h22l20 157l56 360h83zM397 762l-130 108v44h83l60 -77h42l78 77h85v-44l-170 -108z" />
<glyph unicode="&#328;" horiz-adv-x="600" d="M426 0l57 340q3 19 5 34q2 15 2 28q0 32 -15 43.5q-15 11.5 -41 11.5q-24 0 -54.5 -18.5q-30.5 -18.5 -73.5 -53.5l-77 -64l-52 -321h-85l53 326l17 199h74l-3 -94h36l51 43q40 35 72 49q32 14 66 14q62 0 90.5 -30.5q28.5 -30.5 28.5 -87.5q0 -17 -2.5 -36.5q-2.5 -19.5 -6.5 -42.5l-57 -340zM376 629l-130 108v44h75l66 -77h46l86 77h75v-44l-170 -108z" />
<glyph unicode="&#332;" horiz-adv-x="600" d="M406 626q-57 0 -100 -32.5q-43 -32.5 -71 -88.5q-28 -56 -42 -131.5q-14 -75.5 -14 -161.5q0 -31 8 -58q8 -27 23.5 -47q15.5 -20 38 -31.5q22.5 -11.5 52.5 -11.5q57 0 99.5 31.5q42.5 31.5 70.5 86q28 54.5 42 127.5q14 73 14 156q0 33 -8 62.5q-8 29.5 -23 51.5q-15 22 -37.5 34.5q-22.5 12.5 -52.5 12.5zt0 0zM301 -12q-102 0 -157 61.5q-55 61.5 -55 176.5q0 102 20.5 189q20.5 87 60.5 150.5q40 63.5 99.5 100q59.5 36.5 136.5 36.5q100 0 155.5 -62q55.5 -62 55.5 -188q0 -99 -20.5 -183.5q-20.5 -84.5 -60.5 -147q-40 -62.5 -99 -98q-59 -35.5 -136 -35.5zt0 0zM584 771h-326v74l326 0z" />
<glyph unicode="&#333;" horiz-adv-x="600" d="M367 466q-46 0 -78 -22.5q-32 -22.5 -51.5 -59.5q-19.5 -37 -28 -85q-8.5 -48 -8.5 -98q0 -72 26.5 -107q26.5 -35 86.5 -35q46 0 78 22q32 22 51.5 59q19.5 37 28.5 84q9 47 9 97q0 72 -26 108.5q-26 36.5 -88 36.5zt0 0zM312 -12q-98 0 -148.5 50.5q-50.5 50.5 -50.5 152.5q0 68 15.5 130.5q15.5 62.5 48 110.5q32.5 48 81 76.5q48.5 28.5 114.5 28.5q97 0 147 -52q50 -52 50 -154q0 -68 -15.5 -130q-15.5 -62 -47.5 -109.5q-32 -47.5 -80 -75.5q-48 -28 -114 -28zt0 0zM566 641h-326v74l326 0z" />
<glyph unicode="&#336;" horiz-adv-x="600" d="M406 626q-57 0 -100 -32.5q-43 -32.5 -71 -88.5q-28 -56 -42 -131.5q-14 -75.5 -14 -161.5q0 -31 8 -58q8 -27 23.5 -47q15.5 -20 38 -31.5q22.5 -11.5 52.5 -11.5q57 0 99.5 31.5q42.5 31.5 70.5 86q28 54.5 42 127.5q14 73 14 156q0 33 -8 62.5q-8 29.5 -23 51.5q-15 22 -37.5 34.5q-22.5 12.5 -52.5 12.5zt0 0zM301 -12q-102 0 -157 61.5q-55 61.5 -55 176.5q0 102 20.5 189q20.5 87 60.5 150.5q40 63.5 99.5 100q59.5 36.5 136.5 36.5q100 0 155.5 -62q55.5 -62 55.5 -188q0 -99 -20.5 -183.5q-20.5 -84.5 -60.5 -147q-40 -62.5 -99 -98q-59 -35.5 -136 -35.5zt0 0zM318 762l51 161h93l-11 -68l-66 -93zM453 762l96 161h87l-11 -68l-101 -93z" />
</font>
</defs>
</svg>
