<?xml version="1.0" encoding="UTF-8" standalone="no"?>
<!DOCTYPE svg PUBLIC "-//W3C//DTD SVG 1.1//EN" "http://www.w3.org/Graphics/SVG/1.1/DTD/svg11.dtd" >
<svg xmlns="http://www.w3.org/2000/svg">
<metadata>
Generated by SVGconv.
Copyright   : Copyright  2018 ParaType, Inc., ParaType Ltd. All rights reserved.
Designer    : Alexander Lubovenko
Foundry     : ParaType Ltd
Foundry URL : http://www.paratype.com
</metadata>
<defs>
<font id="ClincherMonoWeb-Regular" horiz-adv-x="598" >
<font-face units-per-em="1000" ascent="950" descent="300" >
<font-face-src>
<font-face-name/>
</font-face-src>
</font-face>
<missing-glyph horiz-adv-x="600" />
<glyph unicode="&#13;" horiz-adv-x="600" />
<glyph unicode="&#32;" horiz-adv-x="600" />
<glyph unicode="&#33;" horiz-adv-x="600" d="M300 -12q-44 0 -62 16.5q-18 16.5 -18 60.5q0 45 18 60.5q18 15.5 62 15.5q44 0 62 -15.5q18 -15.5 18 -60.5q0 -44 -18 -60.5q-18 -16.5 -62 -16.5zt0 0zM374 696l-40 -456h-68l-40 456v54l148 0z" />
<glyph unicode="&#34;" horiz-adv-x="600" d="M147 403l-29 359h135l-30 -359zM377 403l-29 359h135l-30 -359z" />
<glyph unicode="&#35;" horiz-adv-x="600" d="M578 494l-18 -78h-81l-36 -193h87l-18 -78h-84l-27 -145h-85l28 145h-166l-29 -145h-85l30 145h-82l18 78h81l40 193h-89l18 78h87l30 142h82l-29 -142h161l28 142h82l-27 -142zM194 223h165l37 193l-162 0z" />
<glyph unicode="&#36;" horiz-adv-x="600" d="M256 19q-44 5 -85.5 16q-41.5 11 -79.5 25l-25 9v84l35 -15q39 -17 79.5 -27q40.5 -10 75.5 -15l0 230l-58 14q-68 17 -102 59q-34 42 -34 100q0 41 14.5 70.5q14.5 29.5 40 49q25.5 19.5 61 29.5q35.5 10 78.5 13l0 101h80v-103q30 -4 61 -10.5q31 -6.5 58 -15.5l27 -9v-83l-36 13q-31 11 -58.5 18q-27.5 7 -51.5 10l0 -197l45 -11q86 -21 121 -64q35 -43 35 -115q0 -85 -52 -127q-52 -42 -149 -49l0 -109h-80zM336 306v-210q55 5 84.5 29q29.5 24 29.5 72q0 24 -8 41.5q-8 17.5 -21.5 30q-13.5 12.5 -32 21q-18.5 8.5 -38.5 13.5zM149 497q0 -35 24 -56q24 -21 55 -29l28 -7v180q-49 -4 -78 -23.5t-29 -64.5z" />
<glyph unicode="&#37;" horiz-adv-x="600" d="M111 544q0 -48 16 -65q16 -17 48 -17q32 0 48 17q16 17 16 65q0 52 -16 70.5q-16 18.5 -48 18.5q-32 0 -48 -18.5q-16 -18.5 -16 -70.5zt0 0zM30 544q0 86 37 122q37 36 108 36q71 0 108 -36q37 -36 37 -122q0 -82 -37 -116.5q-37 -34.5 -108 -34.5q-71 0 -108 34.5q-37 34.5 -37 116.5zt0 0zM361 139q0 -48 16 -65q16 -17 48 -17q32 0 48 17q16 17 16 65q0 52 -16 70.5q-16 18.5 -48 18.5q-32 0 -48 -18.5q-16 -18.5 -16 -70.5zt0 0zM280 139q0 86 37 122q37 36 108 36q71 0 108 -36q37 -36 37 -122q0 -82 -37 -116.5q-37 -34.5 -108 -34.5q-71 0 -108 34.5q-37 34.5 -37 116.5zt0 0zM49 136v51l437 363h54v-51l-435 -363z" />
<glyph unicode="&#38;" horiz-adv-x="600" d="M440 82h-24q-32 -39 -76 -66.5q-44 -27.5 -109 -27.5q-51 0 -90 15q-39 15 -65.5 41q-26.5 26 -40 62q-13.5 36 -13.5 78q0 21 5.5 45q5.5 24 19 49q13.5 25 37.5 49q24 24 61 46l36 21l-2 3q-30 36 -45.5 70.5q-15.5 34.5 -15.5 74.5q0 36 13.5 65.5q13.5 29.5 37.5 50.5q24 21 57 32.5q33 11.5 72 11.5q32 0 65 -9q33 -9 74 -28l30 -14v-83l-40 19q-24 12 -42 19.5q-18 7.5 -31.5 12q-13.5 4.5 -25.5 6q-12 1.5 -24 1.5q-20 0 -38.5 -5.5q-18.5 -5.5 -32.5 -17q-14 -11.5 -22.5 -29q-8.5 -17.5 -8.5 -41.5q0 -24 10 -47.5q10 -23.5 36 -54.5l172 -206h20l64 94h64v-56l-91 -106l96 -101v-56h-68zM231 64q50 0 82.5 23q32.5 23 63.5 61l4 5l-154 186l-39 -25q-50 -32 -65 -66q-15 -34 -15 -64q0 -26 9 -48q9 -22 25.5 -38q16.5 -16 39 -25t49.5 -9z" />
<glyph unicode="&#39;" horiz-adv-x="600" d="M262 403l-29 359h135l-30 -359z" />
<glyph unicode="&#40;" horiz-adv-x="600" d="M475 -150q-130 34 -203.5 154q-73.5 120 -73.5 338q0 103 19 183q19 80 55 137.5q36 57.5 88 94q52 36.5 118 53.5l0 -76q-44 -19 -79.5 -48.5q-35.5 -29.5 -60.5 -75.5q-25 -46 -38.5 -111.5q-13.5 -65.5 -13.5 -156.5q0 -97 13 -167q13 -70 38 -119q25 -49 59.5 -80q34.5 -31 78.5 -50z" />
<glyph unicode="&#41;" horiz-adv-x="600" d="M125 -74q43 19 78 50q35 31 60 80q25 49 38 119q13 70 13 167q0 91 -13.5 156.5q-13.5 65.5 -38.5 111.5q-25 46 -60.5 75.5q-35.5 29.5 -79.5 48.5l0 76q66 -17 118 -53.5q52 -36.5 88 -94q36 -57.5 55 -137.5q19 -80 19 -183q0 -218 -73.5 -338q-73.5 -120 -203.5 -154z" />
<glyph unicode="&#42;" horiz-adv-x="600" d="M81 435v90l166 -14l-99 141l79 45l73 -160l73 160l79 -45l-99 -141l166 14v-90l-166 14l99 -141l-79 -45l-73 160l-73 -160l-79 45l99 141z" />
<glyph unicode="&#43;" horiz-adv-x="600" d="M258 511h84v-172h172v-78h-172v-180h-84v180h-172v78l172 0z" />
<glyph unicode="&#44;" horiz-adv-x="600" d="M328 -186h-84v54l67 115q-18 5 -34 10q-16 5 -29 13.5q-13 8.5 -20.5 22q-7.5 13.5 -7.5 36.5q0 45 17.5 60.5q17.5 15.5 62.5 15.5q45 0 62.5 -15.5q17.5 -15.5 17.5 -60.5q0 -18 -3.5 -37q-3.5 -19 -11.5 -51z" />
<glyph unicode="&#45;" horiz-adv-x="600" d="M514 261h-428v78l428 0z" />
<glyph unicode="&#46;" horiz-adv-x="600" d="M300 -12q-44 0 -62 16.5q-18 16.5 -18 60.5q0 45 18 60.5q18 15.5 62 15.5q44 0 62 -15.5q18 -15.5 18 -60.5q0 -44 -18 -60.5t-62 -16.5z" />
<glyph unicode="&#47;" horiz-adv-x="600" d="M72 -34l394 784h62v-56l-390 -784l-66 0z" />
<glyph unicode="&#48;" horiz-adv-x="600" d="M60 342q0 100 15 169q15 69 45 111.5q30 42.5 75 61q45 18.5 105 18.5q60 0 105 -18.5q45 -18.5 75 -61q30 -42.5 45 -111.5q15 -69 15 -169q0 -98 -15 -165.5q-15 -67.5 -45 -109.5q-30 -42 -75 -60.5q-45 -18.5 -105 -18.5q-60 0 -105 18.5q-45 18.5 -75 60.5q-30 42 -45 109.5q-15 67.5 -15 165.5zt0 0zM454 342q0 64 -6 112l-284 -289q17 -59 50.5 -80q33.5 -21 85.5 -21q39 0 68 12q29 12 48 43.5q19 31.5 28.5 85.5q9.5 54 9.5 137zt0 0zM146 342q0 -52 3 -91l281 285q-18 51 -50 70.5q-32 19.5 -80 19.5q-39 0 -68 -12.5q-29 -12.5 -48 -44q-19 -31.5 -28.5 -87t-9.5 -140.5z" />
<glyph unicode="&#49;" horiz-adv-x="600" d="M85 510v63l174 117h133v-614h138v-76h-438v76h212v538h-34l-121 -104z" />
<glyph unicode="&#50;" horiz-adv-x="600" d="M78 157l209 148q74 52 107.5 101q33.5 49 33.5 108q0 30 -10.5 51.5q-10.5 21.5 -28 35q-17.5 13.5 -40 19.5q-22.5 6 -47.5 6q-36 0 -77 -12q-41 -12 -97 -38l-42 -20v84l37 16q44 19 92 32.5q48 13.5 93 13.5q43 0 80.5 -11q37.5 -11 66 -34q28.5 -23 45 -58.5q16.5 -35.5 16.5 -83.5q0 -33 -6 -63q-6 -30 -24 -60.5q-18 -30.5 -50.5 -62.5q-32.5 -32 -85.5 -68l-190 -131v-54h353v-76l-435 0z" />
<glyph unicode="&#51;" horiz-adv-x="600" d="M86 122l41 -17q48 -20 97 -30.5q49 -10.5 84 -10.5q70 0 103.5 35.5q33.5 35.5 33.5 101.5q0 39 -9.5 63.5q-9.5 24.5 -29 38.5q-19.5 14 -50.5 19.5q-31 5.5 -73 5.5h-74v74h74q36 0 62.5 3.5q26.5 3.5 44 14q17.5 10.5 26 31q8.5 20.5 8.5 55.5q0 62 -28 91.5q-28 29.5 -89 29.5q-31 0 -66.5 -9.5q-35.5 -9.5 -83.5 -29.5l-47 -20v85l37 13q40 14 83.5 25q43.5 11 82.5 11q103 0 150.5 -48q47.5 -48 47.5 -134q0 -51 -24 -86.5q-24 -35.5 -66 -57.5l0 -17q53 -20 82.5 -63q29.5 -43 29.5 -98q0 -100 -56 -155q-56 -55 -169 -55q-51 0 -98.5 11.5q-47.5 11.5 -92.5 27.5l-31 11z" />
<glyph unicode="&#52;" horiz-adv-x="600" d="M522 390v-390h-88v149h-374v56l310 485h76v-56l-287 -412h275l0 168z" />
<glyph unicode="&#53;" horiz-adv-x="600" d="M116 690h378v-76h-295v-193h115q69 0 112 -19.5q43 -19.5 67 -50q24 -30.5 32.5 -68q8.5 -37.5 8.5 -73.5q0 -108 -58 -165q-58 -57 -176 -57q-49 0 -95.5 11.5q-46.5 11.5 -89.5 28.5l-29 11v84l39 -17q46 -20 94 -31q48 -11 81 -11q75 0 110.5 37.5q35.5 37.5 35.5 108.5q0 43 -10.5 70q-10.5 27 -32 42q-21.5 15 -54 20q-32.5 5 -75.5 5l-158 0z" />
<glyph unicode="&#54;" horiz-adv-x="600" d="M300 -12q-121 0 -181.5 76q-60.5 76 -60.5 223q0 96 15.5 173q15.5 77 49 130.5q33.5 53.5 87 82.5q53.5 29 129.5 29q23 0 50.5 -2.5q27.5 -2.5 50.5 -5.5l33 -4v-83l-41 8q-27 5 -51.5 8q-24.5 3 -41.5 3q-57 0 -93.5 -22q-36.5 -22 -58.5 -57.5q-22 -35.5 -32.5 -81q-10.5 -45.5 -15.5 -91.5l26 0q29 33 68 51.5q39 18.5 96 18.5q100 0 155.5 -52q55.5 -52 55.5 -167q0 -116 -60 -176.5q-60 -60.5 -180 -60.5zt0 0zM300 64q78 0 115.5 38.5q37.5 38.5 37.5 122.5q0 78 -35.5 110.5q-35.5 32.5 -110.5 32.5q-81 0 -120.5 -38.5q-39.5 -38.5 -39.5 -110.5q0 -70 37.5 -112.5t115.5 -42.5z" />
<glyph unicode="&#55;" horiz-adv-x="600" d="M229 0v56l249 513v45h-319v-164h-82v240h477v-127l-242 -563z" />
<glyph unicode="&#56;" horiz-adv-x="600" d="M300 702q113 0 169 -47q56 -47 56 -134q0 -41 -24 -81q-24 -40 -73 -63l0 -18q62 -25 90.5 -70q28.5 -45 28.5 -99q0 -95 -61.5 -148.5q-61.5 -53.5 -185.5 -53.5q-124 0 -185.5 53.5q-61.5 53.5 -61.5 148.5q0 54 28.5 99q28.5 45 90.5 70l0 17q-50 23 -73.5 63.5q-23.5 40.5 -23.5 81.5q0 87 56 134q56 47 169 47zt0 0zM300 64q81 0 120 35q39 35 39 101q0 66 -39 96.5q-39 30.5 -120 30.5q-81 0 -120 -30.5q-39 -30.5 -39 -96.5q0 -66 39 -101q39 -35 120 -35zt0 0zM300 626q-137 0 -137 -120q0 -51 33.5 -79q33.5 -28 103.5 -28q70 0 103.5 28q33.5 28 33.5 79q0 120 -137 120z" />
<glyph unicode="&#57;" horiz-adv-x="600" d="M261 -12q-27 0 -60 2.5q-33 2.5 -61 6.5l-33 4v83l41 -8q32 -6 62.5 -9q30.5 -3 50.5 -3q54 0 89 21.5q35 21.5 56 57q21 35.5 31 81q10 45.5 15 92.5l-24 0q-27 -29 -64.5 -44q-37.5 -15 -89.5 -15q-98 0 -152 55.5q-54 55.5 -54 161.5q0 109 58.5 168.5q58.5 59.5 176.5 59.5q122 0 176.5 -73.5q54.5 -73.5 54.5 -225.5q0 -102 -15 -179.5q-15 -77.5 -47.5 -130q-32.5 -52.5 -84.5 -79q-52 -26.5 -126 -26.5zt0 0zM445 468q0 69 -34.5 113.5q-34.5 44.5 -107.5 44.5q-76 0 -112 -38q-36 -38 -36 -114q0 -69 34.5 -105q34.5 -36 106.5 -36q76 0 112.5 35t36.5 100z" />
<glyph unicode="&#58;" horiz-adv-x="600" d="M300 -12q-44 0 -62 16.5q-18 16.5 -18 60.5q0 45 18 60.5q18 15.5 62 15.5q44 0 62 -15.5q18 -15.5 18 -60.5q0 -44 -18 -60.5q-18 -16.5 -62 -16.5zt0 0zM300 384q-44 0 -62 16.5q-18 16.5 -18 60.5q0 45 18 60.5q18 15.5 62 15.5q44 0 62 -15.5q18 -15.5 18 -60.5q0 -44 -18 -60.5t-62 -16.5z" />
<glyph unicode="&#59;" horiz-adv-x="600" d="M328 -186h-84v54l67 115q-18 5 -34 10q-16 5 -29 13.5q-13 8.5 -20.5 22q-7.5 13.5 -7.5 36.5q0 45 17.5 60.5q17.5 15.5 62.5 15.5q45 0 62.5 -15.5q17.5 -15.5 17.5 -60.5q0 -18 -3.5 -37q-3.5 -19 -11.5 -51zM300 384q-44 0 -62 16.5q-18 16.5 -18 60.5q0 45 18 60.5q18 15.5 62 15.5q44 0 62 -15.5q18 -15.5 18 -60.5q0 -44 -18 -60.5t-62 -16.5z" />
<glyph unicode="&#60;" horiz-adv-x="600" d="M494 67l-388 189v86l388 189v-85l-313 -146l313 -146z" />
<glyph unicode="&#61;" horiz-adv-x="600" d="M514 444v-78h-428v78zM514 234v-78h-428l0 78z" />
<glyph unicode="&#62;" horiz-adv-x="600" d="M106 154l312 146l-312 146v85l388 -189v-86l-388 -189z" />
<glyph unicode="&#63;" horiz-adv-x="600" d="M273 -12q-44 0 -62 16.5q-18 16.5 -18 60.5q0 45 18 60.5q18 15.5 62 15.5q44 0 62 -15.5q18 -15.5 18 -60.5q0 -44 -18 -60.5q-18 -16.5 -62 -16.5zt0 0zM236 240l-10 153h62q40 0 69.5 5.5q29.5 5.5 49 20.5q19.5 15 29.5 42.5q10 27.5 10 71.5q0 75 -35.5 114q-35.5 39 -110.5 39q-33 0 -81 -11q-48 -11 -94 -31l-39 -17v84l29 11q43 17 89.5 28.5q46.5 11.5 95.5 11.5q118 0 176 -58.5q58 -58.5 58 -170.5q0 -37 -8 -75q-8 -38 -30.5 -69q-22.5 -31 -63 -50.5q-40.5 -19.5 -104.5 -19.5h-14l-7 -79z" />
<glyph unicode="&#64;" horiz-adv-x="600" d="M326 -60q-74 0 -129 22q-55 22 -91 71.5q-36 49.5 -54 128.5q-18 79 -18 193q0 114 18 191.5q18 77.5 53.5 125.5q35.5 48 88 69q52.5 21 121.5 21q62 0 108.5 -18q46.5 -18 78 -59.5q31.5 -41.5 47.5 -109q16 -67.5 16 -165.5q0 -61 -9.5 -109q-9.5 -48 -31 -81.5q-21.5 -33.5 -56.5 -51q-35 -17.5 -86 -17.5q-96 0 -135 51.5q-39 51.5 -39 147.5q0 97 36.5 147q36.5 50 117.5 50q39 0 62 -13q23 -13 40 -35l21 0q-6 56 -19 92.5q-13 36.5 -34 58.5q-21 22 -50.5 30.5q-29.5 8.5 -66.5 8.5q-50 0 -87.5 -14.5q-37.5 -14.5 -62 -52q-24.5 -37.5 -37 -102.5q-12.5 -65 -12.5 -165q0 -101 13 -167q13 -66 39 -104q26 -38 65.5 -53q39.5 -15 92.5 -15q32 0 82 8q50 8 94 25l35 14v-84l-25 -8q-41 -13 -90 -22q-49 -9 -96 -9zt0 0zM384 478q-28 0 -46 -8.5q-18 -8.5 -28.5 -24.5q-10.5 -16 -15 -40q-4.5 -24 -4.5 -55q0 -62 18 -94.5q18 -32.5 74 -32.5q28 0 46.5 11q18.5 11 30 29q11.5 18 16.5 40.5q5 22.5 5 46.5q0 61 -20 94.5t-76 33.5z" />
<glyph unicode="&#65;" horiz-adv-x="600" d="M38 0v54l229 636h69l226 -636v-54h-72l-61 177h-260l-61 -177zM193 252h212l-94 295l-22 0z" />
<glyph unicode="&#66;" horiz-adv-x="600" d="M285 690q59 0 103.5 -9q44.5 -9 74.5 -29.5q30 -20.5 45 -54.5q15 -34 15 -85q0 -42 -22.5 -77.5q-22.5 -35.5 -61.5 -58.5l0 -17q53 -20 82 -64.5q29 -44.5 29 -101.5q0 -105 -60.5 -149q-60.5 -44 -179.5 -44h-222v690zM462 199q0 40 -9.5 65q-9.5 25 -28 39q-18.5 14 -47 19q-28.5 5 -67.5 5h-134v-251h134q39 0 67.5 5.5q28.5 5.5 47 19.5q18.5 14 28 38q9.5 24 9.5 60zt0 0zM176 614v-213h134q32 0 55.5 4.5q23.5 4.5 39 16q15.5 11.5 23 32q7.5 20.5 7.5 52.5q0 34 -9 55q-9 21 -27.5 33q-18.5 12 -47 16q-28.5 4 -66.5 4z" />
<glyph unicode="&#67;" horiz-adv-x="600" d="M327 64q15 0 35.5 3.5q20.5 3.5 43.5 10q23 6.5 47 15q24 8.5 46 17.5l35 15v-84l-25 -9q-42 -15 -89 -29.5q-47 -14.5 -93 -14.5q-63 0 -112.5 18.5q-49.5 18.5 -84 60.5q-34.5 42 -52.5 109.5q-18 67.5 -18 165.5q0 100 18.5 169q18.5 69 53 111.5q34.5 42.5 85 61q50.5 18.5 113.5 18.5q36 0 78 -9q42 -9 77 -20l27 -9v-83l-36 13q-43 15 -80 23.5q-37 8.5 -66 8.5q-43 0 -76.5 -12.5q-33.5 -12.5 -57 -44q-23.5 -31.5 -36 -87q-12.5 -55.5 -12.5 -140.5q0 -83 12 -137q12 -54 35.5 -85.5q23.5 -31.5 56.5 -43.5t75 -12z" />
<glyph unicode="&#68;" horiz-adv-x="600" d="M88 0v690h202q64 0 113 -16.5q49 -16.5 81.5 -57q32.5 -40.5 49 -107.5q16.5 -67 16.5 -167q0 -95 -16.5 -160q-16.5 -65 -49 -105.5q-32.5 -40.5 -81.5 -58.5q-49 -18 -113 -18zM290 76q44 0 76.5 12q32.5 12 53.5 42q21 30 31.5 81.5q10.5 51.5 10.5 130.5q0 85 -10.5 138q-10.5 53 -32 83q-21.5 30 -54 40.5q-32.5 10.5 -75.5 10.5h-114l0 -538z" />
<glyph unicode="&#69;" horiz-adv-x="600" d="M514 0h-426v690h416v-76h-328v-210h298v-76h-298v-252l338 0z" />
<glyph unicode="&#70;" horiz-adv-x="600" d="M473 298h-288v-298h-88v690h416v-76h-328v-240l288 0z" />
<glyph unicode="&#71;" horiz-adv-x="600" d="M327 64q23 0 56.5 7.5q33.5 7.5 68.5 19.5l0 211h-146v76h228v-337l-25 -9q-42 -15 -89 -29.5q-47 -14.5 -93 -14.5q-63 0 -112.5 18.5q-49.5 18.5 -84 60.5q-34.5 42 -52.5 109.5q-18 67.5 -18 165.5q0 100 18.5 169q18.5 69 53 111.5q34.5 42.5 85 61q50.5 18.5 113.5 18.5q36 0 78 -9q42 -9 77 -20l27 -9v-83l-36 13q-43 15 -80 23.5q-37 8.5 -66 8.5q-43 0 -76.5 -12.5q-33.5 -12.5 -57 -44q-23.5 -31.5 -36 -87q-12.5 -55.5 -12.5 -140.5q0 -83 12 -137q12 -54 35.5 -85.5q23.5 -31.5 56.5 -43.5t75 -12z" />
<glyph unicode="&#72;" horiz-adv-x="600" d="M532 0h-88v326h-288v-326h-88v690h88v-286h288v286l88 0z" />
<glyph unicode="&#73;" horiz-adv-x="600" d="M484 0h-368v76h140v538h-140v76h368v-76h-140v-538l140 0z" />
<glyph unicode="&#74;" horiz-adv-x="600" d="M500 690v-469q0 -65 -15 -109q-15 -44 -44 -72q-29 -28 -70.5 -40q-41.5 -12 -93.5 -12q-47 0 -95.5 14.5q-48.5 14.5 -90.5 29.5l-25 9v84l35 -15q22 -10 46.5 -18.5q24.5 -8.5 48 -14.5q23.5 -6 44.5 -9.5q21 -3.5 37 -3.5q32 0 57 7q25 7 42.5 24.5q17.5 17.5 26.5 48q9 30.5 9 77.5v393h-280l0 76z" />
<glyph unicode="&#75;" horiz-adv-x="600" d="M158 690v-286h119l184 286h69v-54l-179 -265l203 -317v-54h-74l-199 326h-123v-326h-88l0 690z" />
<glyph unicode="&#76;" horiz-adv-x="600" d="M533 76v-76h-436v690h88l0 -614z" />
<glyph unicode="&#77;" horiz-adv-x="600" d="M267 200l-124 313h-21l6 -254v-259h-83v690h97l147 -353h21l148 353h97v-690h-83v259l6 254h-21l-124 -313z" />
<glyph unicode="&#78;" horiz-adv-x="600" d="M354 330l80 -157h20l-5 157v360h83v-690h-89l-180 330l-97 186h-21l6 -186v-330h-83v690l89 0z" />
<glyph unicode="&#79;" horiz-adv-x="600" d="M138 342q0 -83 10 -137q10 -54 30 -85.5q20 -31.5 50.5 -43.5q30.5 -12 71.5 -12q41 0 71.5 12q30.5 12 50.5 43.5q20 31.5 30 85.5q10 54 10 137q0 85 -10 140q-10 55 -30 87q-20 32 -50.5 44.5q-30.5 12.5 -71.5 12.5q-41 0 -71.5 -12.5q-30.5 -12.5 -50.5 -44q-20 -31.5 -30 -87q-10 -55.5 -10 -140.5zt0 0zM50 342q0 100 16 169q16 69 47.5 111.5q31.5 42.5 78 61q46.5 18.5 108.5 18.5q62 0 108.5 -18.5q46.5 -18.5 78 -61q31.5 -42.5 47.5 -111.5q16 -69 16 -169q0 -98 -16 -165.5q-16 -67.5 -47.5 -109.5q-31.5 -42 -78 -60.5q-46.5 -18.5 -108.5 -18.5q-62 0 -108.5 18.5q-46.5 18.5 -78 60.5q-31.5 42 -47.5 109.5t-16 165.5z" />
<glyph unicode="&#80;" horiz-adv-x="600" d="M176 250v-250h-88v690h222q60 0 105 -10.5q45 -10.5 75 -36.5q30 -26 45 -69q15 -43 15 -107q0 -60 -15 -101q-15 -41 -45 -67q-30 -26 -75 -37.5q-45 -11.5 -105 -11.5zM310 326q39 0 67.5 6.5q28.5 6.5 47 22q18.5 15.5 28 43q9.5 27.5 9.5 69.5q0 46 -9.5 75q-9.5 29 -28 45q-18.5 16 -47 21.5q-28.5 5.5 -67.5 5.5h-134l0 -288z" />
<glyph unicode="&#81;" horiz-adv-x="600" d="M560 -207h-72l-145 198q-21 -3 -43 -3q-62 0 -108.5 18.5q-46.5 18.5 -78 60.5q-31.5 42 -47.5 109.5q-16 67.5 -16 165.5q0 100 16 169q16 69 47.5 111.5q31.5 42.5 78 61q46.5 18.5 108.5 18.5q62 0 108.5 -18.5q46.5 -18.5 78 -61q31.5 -42.5 47.5 -111.5q16 -69 16 -169q0 -138 -31 -216.5q-31 -78.5 -93 -111.5l134 -146zM138 342q0 -83 10 -137q10 -54 30 -85.5q20 -31.5 50.5 -43.5q30.5 -12 71.5 -12q41 0 71.5 12q30.5 12 50.5 43.5q20 31.5 30 85.5q10 54 10 137q0 85 -10 140q-10 55 -30 87q-20 32 -50.5 44.5q-30.5 12.5 -71.5 12.5q-41 0 -71.5 -12.5q-30.5 -12.5 -50.5 -44q-20 -31.5 -30 -87t-10 -140.5z" />
<glyph unicode="&#82;" horiz-adv-x="600" d="M88 0v690h222q60 0 105 -10q45 -10 75 -33.5q30 -23.5 45 -63q15 -39.5 15 -99.5q0 -81 -34 -124.5q-34 -43.5 -102 -60.5l136 -244v-55h-73l-146 282h-155v-282zM310 358q39 0 67.5 5.5q28.5 5.5 47 19.5q18.5 14 28 38.5q9.5 24.5 9.5 62.5q0 41 -9.5 66.5q-9.5 25.5 -28 39.5q-18.5 14 -47 19q-28.5 5 -67.5 5h-134l0 -256z" />
<glyph unicode="&#83;" horiz-adv-x="600" d="M83 511q0 52 16 88.5q16 36.5 44 59.5q28 23 66.5 33q38.5 10 83.5 10q35 0 74.5 -8q39.5 -8 74.5 -19l27 -9v-83l-36 13q-43 16 -78 23q-35 7 -62 7q-27 0 -49.5 -5q-22.5 -5 -38.5 -17.5q-16 -12.5 -25 -33.5q-9 -21 -9 -53q0 -45 22 -70q22 -25 64 -36l97 -27q85 -23 123.5 -70q38.5 -47 38.5 -125q0 -105 -57.5 -153q-57.5 -48 -157.5 -48q-50 0 -98 11q-48 11 -92 27l-25 9v84l35 -15q48 -20 97 -30q49 -10 83 -10q59 0 93 27.5q34 27.5 34 93.5q0 54 -29.5 81q-29.5 27 -74.5 40l-96 27q-70 20 -107.5 66.5t-37.5 111.5z" />
<glyph unicode="&#84;" horiz-adv-x="600" d="M544 690v-76h-200v-614h-88v614h-200l0 76z" />
<glyph unicode="&#85;" horiz-adv-x="600" d="M68 690h88v-468q0 -86 38 -122q38 -36 106 -36q67 0 105.5 36q38.5 36 38.5 122v468h88v-468q0 -120 -61.5 -177q-61.5 -57 -170.5 -57q-109 0 -170.5 57q-61.5 57 -61.5 177z" />
<glyph unicode="&#86;" horiz-adv-x="600" d="M291 155h20l178 535h73v-54l-226 -636h-69l-229 636v54l72 0z" />
<glyph unicode="&#87;" horiz-adv-x="600" d="M314 293h-24l-86 -293h-71l-105 636v54h79l65 -511h20l76 248h68l78 -248h18l58 511h82v-54l-100 -636l-71 0z" />
<glyph unicode="&#88;" horiz-adv-x="600" d="M313 289h-26l-175 -289h-69v54l199 305l-179 277v54h68l157 -262h25l154 262h70v-54l-180 -276l200 -306v-54l-69 0z" />
<glyph unicode="&#89;" horiz-adv-x="600" d="M284 359h31l176 331h71v-54l-218 -374v-262h-88v266l-218 370v54l68 0z" />
<glyph unicode="&#90;" horiz-adv-x="600" d="M514 0h-447v56l344 558h-315v76h418v-56l-345 -558l345 0z" />
<glyph unicode="&#91;" horiz-adv-x="600" d="M464 -150h-266v960h256v-76h-168v-808l178 0z" />
<glyph unicode="&#92;" horiz-adv-x="600" d="M528 -90h-66l-390 784v56h62l394 -784z" />
<glyph unicode="&#93;" horiz-adv-x="600" d="M314 -74v808h-168v76h256v-960h-266l0 76z" />
<glyph unicode="&#94;" horiz-adv-x="600" d="M342 762l186 -170v-55h-80l-122 142h-50l-123 -142h-81v55l185 170z" />
<glyph unicode="&#95;" horiz-adv-x="600" d="M504 -44v-76h-408l0 76z" />
<glyph unicode="&#96;" horiz-adv-x="600" d="M261 629l-110 92v60h97l83 -152z" />
<glyph unicode="&#97;" horiz-adv-x="600" d="M99 505l63 12q42 8 80.5 14q38.5 6 74.5 6q33 0 65 -9q32 -9 57 -30q25 -21 40 -54q15 -33 15 -81v-270q0 -19 10 -29.5q10 -10.5 25 -10.5h22v-57q-20 -5 -33 -6.5q-13 -1.5 -22 -1.5q-30 0 -51.5 16q-21.5 16 -30.5 45l-16 0l-45 -21q-33 -15 -64.5 -27.5q-31.5 -12.5 -68.5 -12.5q-30 0 -57 10.5q-27 10.5 -47.5 31.5q-20.5 21 -33 53q-12.5 32 -12.5 75q0 49 17.5 82q17.5 33 48 52.5q30.5 19.5 72.5 27.5q42 8 91 8h109v13q0 63 -26 91q-26 28 -83 28q-31 0 -63 -5q-32 -5 -84 -17l-53 -12zM241 62q25 0 56 11.5q31 11.5 57 24.5l54 26v136h-110q-69 0 -105.5 -22q-36.5 -22 -36.5 -78q0 -56 24.5 -77t60.5 -21z" />
<glyph unicode="&#98;" horiz-adv-x="600" d="M171 537l-10 -61h30l44 23q29 15 59 26.5q30 11.5 62 11.5q42 0 76.5 -14q34.5 -14 59.5 -45.5q25 -31.5 39 -82.5q14 -51 14 -126q0 -78 -17 -131.5q-17 -53.5 -44.5 -87q-27.5 -33.5 -63.5 -48q-36 -14.5 -74 -14.5q-31 0 -60 10.5q-29 10.5 -57 27.5l-38 23h-30l-10 -49h-66v750h86zM171 396v-267l57 -30q25 -13 52 -24.5q27 -11.5 50 -11.5q24 0 47 9.5q23 9.5 41 33q18 23.5 29.5 63.5q11.5 40 11.5 100q0 57 -9 94.5q-9 37.5 -25 59q-16 21.5 -38 30.5q-22 9 -47 9q-23 0 -51.5 -12q-28.5 -12 -54.5 -24z" />
<glyph unicode="&#99;" horiz-adv-x="600" d="M316 -12q-54 0 -99.5 15q-45.5 15 -77.5 48q-32 33 -50 84.5q-18 51.5 -18 123.5q0 72 17.5 124.5q17.5 52.5 49.5 86.5q32 34 76 50.5q44 16.5 97 16.5q35 0 76.5 -9q41.5 -9 76.5 -20l27 -9v-80l-36 13q-38 14 -72.5 22.5q-34.5 8.5 -60.5 8.5q-36 0 -66 -10.5q-30 -10.5 -52 -34.5q-22 -24 -34.5 -63q-12.5 -39 -12.5 -96q0 -54 13 -91.5q13 -37.5 35.5 -61q22.5 -23.5 54 -34q31.5 -10.5 67.5 -10.5q30 0 71.5 12.5q41.5 12.5 84.5 31.5l35 15v-80l-25 -9q-42 -15 -87 -29.5t-90 -14.5z" />
<glyph unicode="&#100;" horiz-adv-x="600" d="M429 750h86v-750h-66l-11 49h-29l-41 -21q-30 -15 -58.5 -27.5q-28.5 -12.5 -60.5 -12.5q-37 0 -72 14q-35 14 -62 46q-27 32 -43.5 84q-16.5 52 -16.5 128q0 76 16 128.5q16 52.5 43 85.5q27 33 63 48q36 15 77 15q31 0 60 -9q29 -9 57 -24l38 -21h30l-10 54zM373 432q-25 13 -51 21.5q-26 8.5 -49 8.5q-28 0 -52 -10q-24 -10 -42 -33.5q-18 -23.5 -28 -62.5q-10 -39 -10 -96q0 -58 11.5 -95.5q11.5 -37.5 29.5 -60q18 -22.5 41 -31.5q23 -9 47 -9q22 0 48 11.5q26 11.5 51 23.5l60 30l0 273z" />
<glyph unicode="&#101;" horiz-adv-x="600" d="M150 253q1 -52 13 -88.5q12 -36.5 33 -59q21 -22.5 50.5 -33q29.5 -10.5 64.5 -10.5q32 0 75.5 12.5q43.5 12.5 93.5 32.5l35 14v-77l-25 -9q-45 -17 -92.5 -32q-47.5 -15 -97.5 -15q-54 0 -97.5 15q-43.5 15 -74 48q-30.5 33 -47.5 84.5q-17 51.5 -17 123.5q0 145 62 211.5q62 66.5 175 66.5q51 0 93 -14q42 -14 71.5 -44.5q29.5 -30.5 46 -79q16.5 -48.5 16.5 -116.5v-30zM301 463q-61 0 -98.5 -31q-37.5 -31 -48.5 -107l289 0q-8 75 -43.5 106.5t-98.5 31.5z" />
<glyph unicode="&#102;" horiz-adv-x="600" d="M204 0v401h-137v74h137v118q0 91 44.5 130q44.5 39 121.5 39q30 0 64.5 -4.5q34.5 -4.5 64.5 -9.5l44 -8v-80l-53 12q-35 8 -65.5 12q-30.5 4 -53.5 4q-35 0 -58 -21q-23 -21 -23 -74v-118h225v-74h-225l0 -401z" />
<glyph unicode="&#103;" horiz-adv-x="600" d="M87 -144l45 -14q99 -30 164 -30q33 0 58 7q25 7 41.5 23.5q16.5 16.5 25 45q8.5 28.5 8.5 71.5v29l10 60l-1 1h-29l-41 -21q-30 -15 -58.5 -27.5q-28.5 -12.5 -60.5 -12.5q-37 0 -72 14q-35 14 -62 46q-27 32 -43.5 84q-16.5 52 -16.5 128q0 76 16 128.5q16 52.5 43 85.5q27 33 63 48q36 15 77 15q31 0 60 -9q29 -9 57 -24l38 -21h31l9 42h66v-567q0 -59 -14.5 -100.5q-14.5 -41.5 -41.5 -68q-27 -26.5 -65.5 -39q-38.5 -12.5 -85.5 -12.5q-48 0 -96 10.5q-48 10.5 -91 21.5l-34 9zM429 129v273l-56 30q-25 13 -51 21.5q-26 8.5 -49 8.5q-28 0 -52 -10q-24 -10 -42 -33.5q-18 -23.5 -28 -62.5q-10 -39 -10 -96q0 -58 11.5 -95.5q11.5 -37.5 29.5 -60q18 -22.5 41 -31.5q23 -9 47 -9q22 0 48 11.5q26 11.5 51 23.5z" />
<glyph unicode="&#104;" horiz-adv-x="600" d="M171 750v-213l-10 -61h30l44 22q29 15 63 27q34 12 66 12q30 0 57.5 -9.5q27.5 -9.5 48.5 -30q21 -20.5 33 -54q12 -33.5 12 -81.5v-362h-86v350q0 57 -18.5 83.5q-18.5 26.5 -66.5 26.5q-23 0 -53 -11.5q-30 -11.5 -57 -23.5l-63 -29v-396h-86l0 750z" />
<glyph unicode="&#105;" horiz-adv-x="600" d="M527 0h-440v72h213v381h-197v72h283v-453h141zM334 639q-38 0 -54 14.5q-16 14.5 -16 52.5q0 38 16 52q16 14 54 14q38 0 54 -14q16 -14 16 -52q0 -38 -16 -52.5t-54 -14.5z" />
<glyph unicode="&#106;" horiz-adv-x="600" d="M419 -86q0 -47 -12 -80.5q-12 -33.5 -33.5 -54.5q-21.5 -21 -52.5 -31q-31 -10 -70 -10q-38 0 -75 12.5q-37 12.5 -71 27.5l-29 13v77l39 -18q38 -17 69.5 -27.5q31.5 -10.5 54.5 -10.5q41 0 67.5 23q26.5 23 26.5 79v539h-192v72h278zM367 639q-38 0 -54 14.5q-16 14.5 -16 52.5q0 38 16 52q16 14 54 14q38 0 54 -14q16 -14 16 -52q0 -38 -16 -52.5t-54 -14.5z" />
<glyph unicode="&#107;" horiz-adv-x="600" d="M171 309h135l149 216h69v-55l-142 -196l167 -219v-55h-76l-168 237h-134v-237h-86v750l86 0z" />
<glyph unicode="&#108;" horiz-adv-x="600" d="M282 164q0 -57 23 -79.5q23 -22.5 58 -22.5q22 0 51 10.5q29 10.5 64 29.5l35 19v-77l-25 -14q-31 -17 -66.5 -29.5q-35.5 -12.5 -70.5 -12.5q-35 0 -64 10q-29 10 -49 31q-20 21 -31 54.5q-11 33.5 -11 80.5v514h-148v72l234 0z" />
<glyph unicode="&#109;" horiz-adv-x="600" d="M116 525l10 -49h31l26 24q20 19 35.5 28q15.5 9 39.5 9q28 0 47.5 -13.5q19.5 -13.5 27.5 -47.5l29 0l26 24q21 20 37.5 28.5q16.5 8.5 40.5 8.5q35 0 58.5 -23q23.5 -23 23.5 -80v-434h-84v417q0 21 -9 30.5q-9 9.5 -24 9.5q-11 0 -21 -5q-10 -5 -29 -20l-42 -33v-399h-78v417q0 21 -9 30.5q-9 9.5 -24 9.5q-11 0 -22 -4.5q-11 -4.5 -30 -20.5l-40 -33v-399h-84l0 525z" />
<glyph unicode="&#110;" horiz-adv-x="600" d="M151 525l10 -49h30l44 22q29 15 63 27q34 12 66 12q30 0 57.5 -9.5q27.5 -9.5 48.5 -30q21 -20.5 33 -54q12 -33.5 12 -81.5v-362h-86v350q0 57 -18.5 83.5q-18.5 26.5 -66.5 26.5q-23 0 -53 -11.5q-30 -11.5 -57 -23.5l-63 -29v-396h-86l0 525z" />
<glyph unicode="&#111;" horiz-adv-x="600" d="M300 62q37 0 66.5 11q29.5 11 50 34.5q20.5 23.5 31.5 61q11 37.5 11 90.5q0 55 -11 94q-11 39 -31.5 63.5q-20.5 24.5 -50 35.5q-29.5 11 -66.5 11q-37 0 -66.5 -11q-29.5 -11 -50 -35q-20.5 -24 -31.5 -63q-11 -39 -11 -95q0 -53 11 -90.5q11 -37.5 31.5 -61q20.5 -23.5 50 -34.5q29.5 -11 66.5 -11zt0 0zM300 -12q-115 0 -180 66q-65 66 -65 205q0 144 65 211q65 67 180 67q115 0 180 -67q65 -67 65 -211q0 -139 -65 -205t-180 -66z" />
<glyph unicode="&#112;" horiz-adv-x="600" d="M148 525l10 -49h30l44 23q29 15 59 26.5q30 11.5 62 11.5q42 0 76.5 -14q34.5 -14 59.5 -45.5q25 -31.5 39 -82.5q14 -51 14 -126q0 -78 -17 -131.5q-17 -53.5 -44.5 -87q-27.5 -33.5 -63.5 -48q-36 -14.5 -74 -14.5q-31 0 -60 10.5q-29 10.5 -57 27.5l-38 23h-30l10 -61v-238h-86v775zM168 396v-267l57 -30q25 -13 52 -24.5q27 -11.5 50 -11.5q24 0 47 9.5q23 9.5 41 33q18 23.5 29.5 63.5q11.5 40 11.5 100q0 57 -9 94.5q-9 37.5 -25 59q-16 21.5 -38 30.5q-22 9 -47 9q-23 0 -51.5 -12q-28.5 -12 -54.5 -24z" />
<glyph unicode="&#113;" horiz-adv-x="600" d="M432 -12l10 61h-30l-41 -21q-30 -15 -58.5 -27.5q-28.5 -12.5 -60.5 -12.5q-37 0 -72 14q-35 14 -62 46q-27 32 -43.5 84q-16.5 52 -16.5 128q0 76 16 128.5q16 52.5 43 85.5q27 33 63 48q36 15 77 15q31 0 60 -9q29 -9 57 -24l38 -21h31l9 42h66v-775h-86zM432 129v273l-56 30q-25 13 -51 21.5q-26 8.5 -49 8.5q-28 0 -52 -10q-24 -10 -42 -33.5q-18 -23.5 -28 -62.5q-10 -39 -10 -96q0 -58 11.5 -95.5q11.5 -37.5 29.5 -60q18 -22.5 41 -31.5q23 -9 47 -9q22 0 48 11.5q26 11.5 51 23.5z" />
<glyph unicode="&#114;" horiz-adv-x="600" d="M482 0h-412v72h104v381h-104v72h170l11 -92h29l61 51q37 31 71 42q34 11 69 11q17 0 32.5 -2.5q15.5 -2.5 30.5 -5.5l0 -88q-23 6 -40 8.5q-17 2.5 -29 2.5q-28 0 -64 -11q-36 -11 -72 -40l-81 -66v-263l224 0z" />
<glyph unicode="&#115;" horiz-adv-x="600" d="M361 291q38 -11 64 -24q26 -13 42.5 -31q16.5 -18 24 -41.5q7.5 -23.5 7.5 -55.5q0 -71 -45.5 -111q-45.5 -40 -134.5 -40q-53 0 -101.5 11q-48.5 11 -97.5 25l-30 9v80l41 -15q51 -19 97 -27.5q46 -8.5 82 -8.5q54 0 78.5 20q24.5 20 24.5 58q0 18 -5.5 30.5q-5.5 12.5 -15.5 21q-10 8.5 -23.5 13.5q-13.5 5 -28.5 10l-116 34q-61 18 -92.5 53.5q-31.5 35.5 -31.5 92.5q0 67 43 104.5q43 37.5 124 37.5q42 0 84 -7q42 -7 80 -15l30 -6v-79l-36 9q-46 11 -83 17.5q-37 6.5 -69 6.5q-49 0 -68 -16q-19 -16 -19 -51q0 -33 19.5 -49.5q19.5 -16.5 48.5 -24.5z" />
<glyph unicode="&#116;" horiz-adv-x="600" d="M41 453v72h137v195h86v-195h235v-72h-235v-289q0 -56 26.5 -79q26.5 -23 67.5 -23q23 0 54.5 12q31.5 12 69.5 29l39 18v-77l-29 -13q-34 -15 -71 -29q-37 -14 -75 -14q-39 0 -70 10q-31 10 -52.5 31q-21.5 21 -33.5 54.5q-12 33.5 -12 80.5l0 289z" />
<glyph unicode="&#117;" horiz-adv-x="600" d="M433 49h-29l-44 -23q-29 -15 -58 -26.5q-29 -11.5 -60 -11.5q-30 0 -58.5 9.5q-28.5 9.5 -50 30q-21.5 20.5 -35 54q-13.5 33.5 -13.5 81.5v362h86v-350q0 -58 20.5 -84.5q20.5 -26.5 67.5 -26.5q23 0 49.5 11.5q26.5 11.5 52.5 23.5l63 30v396h86v-525l-66 0z" />
<glyph unicode="&#118;" horiz-adv-x="600" d="M52 470v55h81l155 -408h28l152 408h80v-55l-206 -470l-85 0z" />
<glyph unicode="&#119;" horiz-adv-x="600" d="M337 404l82 -258h21l55 379h82v-55l-97 -470h-85l-84 263h-24l-83 -263h-85l-96 470v55h82l57 -379h19l82 258z" />
<glyph unicode="&#120;" horiz-adv-x="600" d="M314 215h-27l-144 -215h-79v55l171 220l-151 195v55h72l130 -189h29l129 189h72v-55l-149 -195l169 -220v-55l-79 0z" />
<glyph unicode="&#121;" horiz-adv-x="600" d="M174 -195l84 180l-231 485v55h76l175 -401h41l145 401h80v-55l-295 -720l-75 0z" />
<glyph unicode="&#122;" horiz-adv-x="600" d="M371 449h-265v76h375v-55l-294 -394h311v-76h-420l0 55z" />
<glyph unicode="&#123;" horiz-adv-x="600" d="M458 -128h-49q-163 0 -163 138q0 26 6.5 56.5q6.5 30.5 15.5 72.5l20 92l-162 76v76l162 76l-20 84q-10 42 -16 72.5q-6 30.5 -6 56.5q0 138 163 138h49v-76h-48q-36 0 -59 -17q-23 -17 -23 -55q0 -19 4 -45.5q4 -26.5 14 -73.5l28 -129l-174 -69l174 -68l-28 -138q-10 -47 -14 -73.5q-4 -26.5 -4 -45.5q0 -38 23 -55q23 -17 59 -17l48 0z" />
<glyph unicode="&#124;" horiz-adv-x="600" d="M344 -90h-88v840l88 0z" />
<glyph unicode="&#125;" horiz-adv-x="600" d="M146 -52h48q36 0 59 17q23 17 23 55q0 19 -4 45.5q-4 26.5 -14 73.5l-28 138l173 68l-173 69l28 129q10 47 14 73.5q4 26.5 4 45.5q0 38 -23 55q-23 17 -59 17h-48v76h49q163 0 163 -138q0 -26 -6 -56.5q-6 -30.5 -16 -72.5l-20 -84l162 -76v-76l-162 -76l20 -92q9 -42 15.5 -72.5q6.5 -30.5 6.5 -56.5q0 -138 -163 -138l-49 0z" />
<glyph unicode="&#126;" horiz-adv-x="600" d="M196 390q25 0 47.5 -9q22.5 -9 48.5 -27l61 -44q19 -14 32.5 -22.5q13.5 -8.5 31.5 -8.5q35 0 43 47l8 51h77l-10 -54q-11 -57 -37.5 -88q-26.5 -31 -82.5 -31q-29 0 -50.5 8.5q-21.5 8.5 -46.5 27.5l-61 45q-19 14 -32 22q-13 8 -30 8q-17 0 -29 -10q-12 -10 -16 -36l-6 -44h-76l8 47q10 57 37 87.5t83 30.5z" />
<glyph unicode="&#160;" horiz-adv-x="600" />
<glyph unicode="&#161;" horiz-adv-x="600" d="M300 537q44 0 62 -16.5q18 -16.5 18 -60.5q0 -45 -18 -60.5q-18 -15.5 -62 -15.5q-44 0 -62 15.5q-18 15.5 -18 60.5q0 44 18 60.5q18 16.5 62 16.5zt0 0zM226 -171l40 456h68l40 -456v-54l-148 0z" />
<glyph unicode="&#162;" horiz-adv-x="600" d="M354 621v-87q28 -4 56.5 -11q28.5 -7 53.5 -15l27 -9v-80l-36 13q-28 10 -53.5 17.5q-25.5 7.5 -47.5 10.5l0 -396q28 5 61.5 16q33.5 11 67.5 26l35 15v-80l-25 -9q-33 -12 -68.5 -24q-35.5 -12 -70.5 -17l0 -81h-74v80q-47 4 -85.5 22q-38.5 18 -66 50.5q-27.5 32.5 -42.5 81.5q-15 49 -15 115q0 67 15 116.5q15 49.5 42.5 83.5q27.5 34 66 52.5q38.5 18.5 85.5 23.5l0 86zM157 259q0 -89 34 -135q34 -46 89 -58l0 393q-55 -11 -89 -57.5t-34 -142.5z" />
<glyph unicode="&#163;" horiz-adv-x="600" d="M77 0v76h80v249h-80v76h80v108q0 53 12 90q12 37 35.5 60q23.5 23 56.5 33q33 10 75 10q38 0 76.5 -9q38.5 -9 73.5 -19l25 -7v-84l-35 13q-18 6 -37.5 11.5q-19.5 5.5 -38 9.5q-18.5 4 -35.5 6.5q-17 2.5 -29 2.5q-21 0 -38 -5q-17 -5 -29 -18.5q-12 -13.5 -18 -36q-6 -22.5 -6 -57.5v-108h260v-76h-260v-249h260l0 -76z" />
<glyph unicode="&#164;" horiz-adv-x="600" d="M85 266q0 85 31 132l-65 72v55h72l55 -73q48 22 122 22q75 0 122 -23l55 74h72v-55l-65 -73q15 -24 23 -56.5q8 -32.5 8 -74.5q0 -84 -34 -132l68 -79v-55h-79l-59 82q-44 -17 -111 -17q-67 0 -111 17l-59 -82h-79v55l68 79q-34 46 -34 132zt0 0zM171 266q0 -74 32 -100.5q32 -26.5 97 -26.5q65 0 97 26.5q32 26.5 32 100.5q0 39 -8 65q-8 26 -24 41.5q-16 15.5 -40.5 21.5q-24.5 6 -56.5 6q-33 0 -57 -6q-24 -6 -40 -21.5q-16 -15.5 -24 -41.5t-8 -65z" />
<glyph unicode="&#165;" horiz-adv-x="600" d="M514 91h-170v-91h-88v91h-170v78h170v72h-170v78h139l-187 317v54h68l178 -331h31l176 331h71v-54l-185 -317h137v-78h-170v-72l170 0z" />
<glyph unicode="&#166;" horiz-adv-x="600" d="M344 250v-340h-88v340zM344 750v-340h-88l0 340z" />
<glyph unicode="&#167;" horiz-adv-x="600" d="M421 611q-45 22 -73.5 28.5q-28.5 6.5 -52.5 6.5q-35 0 -61 -15q-26 -15 -26 -47q0 -18 12.5 -37.5q12.5 -19.5 45.5 -37.5l155 -86q38 -21 57.5 -48.5q19.5 -27.5 19.5 -66.5q0 -34 -16.5 -64.5q-16.5 -30.5 -44.5 -65.5l-33 -41q40 -28 58 -58q18 -30 18 -68q0 -62 -49 -101q-49 -39 -142 -39q-37 0 -78.5 9q-41.5 9 -89.5 30l-30 13v83l40 -18q51 -23 87.5 -32q36.5 -9 74.5 -9q45 0 71.5 17.5q26.5 17.5 26.5 49.5q0 20 -12.5 38.5q-12.5 18.5 -41.5 35.5l-155 87q-38 21 -57.5 48.5q-19.5 27.5 -19.5 66.5q0 34 16.5 64.5q16.5 30.5 44.5 65.5l33 41q-45 32 -60 63q-15 31 -15 63q0 64 45.5 99.5q45.5 35.5 119.5 35.5q30 0 67 -7.5q37 -7.5 75 -25.5l31 -15v-83zM186 295q0 -20 15 -34q15 -14 38 -28l99 -58l41 51q20 26 29 42q9 16 9 35q0 20 -15 34q-15 14 -38 28l-100 57l-40 -50q-20 -26 -29 -42t-9 -35z" />
<glyph unicode="&#168;" horiz-adv-x="600" d="M199 629q-35 0 -49 13.5q-14 13.5 -14 47.5q0 35 14 47.5q14 12.5 49 12.5q35 0 49.5 -12.5q14.5 -12.5 14.5 -47.5q0 -34 -14.5 -47.5q-14.5 -13.5 -49.5 -13.5zt0 0zM401 629q-35 0 -49.5 13.5q-14.5 13.5 -14.5 47.5q0 35 14.5 47.5q14.5 12.5 49.5 12.5q35 0 49 -12.5q14 -12.5 14 -47.5q0 -34 -14 -47.5t-49 -13.5z" />
<glyph unicode="&#169;" horiz-adv-x="600" d="M313 121q-35 0 -64.5 12.5q-29.5 12.5 -50.5 39q-21 26.5 -33 68.5q-12 42 -12 101q0 116 44 169.5q44 53.5 114 53.5q20 0 42.5 -3.5q22.5 -3.5 41.5 -8.5l24 -7v-73l-29 10q-21 8 -38.5 10.5q-17.5 2.5 -31.5 2.5q-38 0 -63 -34q-25 -34 -25 -119q0 -41 7 -70q7 -29 19 -47q12 -18 28.5 -26q16.5 -8 35.5 -8q15 0 37 5q22 5 44 14l28 12v-75l-20 -7q-22 -8 -47.5 -14q-25.5 -6 -50.5 -6zt0 0zM300 16q47 0 81.5 15q34.5 15 57.5 52.5q23 37.5 34.5 102.5q11.5 65 11.5 166q0 100 -11.5 164.5q-11.5 64.5 -34.5 102q-23 37.5 -57.5 52.5q-34.5 15 -81.5 15q-47 0 -81.5 -15q-34.5 -15 -57.5 -52.5q-23 -37.5 -34.5 -102q-11.5 -64.5 -11.5 -164.5q0 -101 11.5 -166q11.5 -65 34.5 -102.5q23 -37.5 57.5 -52.5q34.5 -15 81.5 -15zt0 0zM300 -60q-68 0 -118 22q-50 22 -83 71q-33 49 -49.5 127.5q-16.5 78.5 -16.5 191.5q0 112 16.5 190.5q16.5 78.5 49.5 127q33 48.5 83 70.5q50 22 118 22q68 0 118 -22q50 -22 83 -70.5q33 -48.5 49.5 -127q16.5 -78.5 16.5 -190.5q0 -113 -16.5 -191.5q-16.5 -78.5 -49.5 -127.5q-33 -49 -83 -71t-118 -22z" />
<glyph unicode="&#170;" horiz-adv-x="600" d="M172 686l34 6q29 5 53 7.5q24 2.5 48 2.5q23 0 45 -5.5q22 -5.5 39 -17.5q17 -12 27 -31q10 -19 10 -46v-138q0 -16 14 -16h10v-52q-14 -2 -23.5 -2.5q-9.5 -0.5 -16.5 -0.5q-23 0 -37.5 14.5q-14.5 14.5 -14.5 38.5l-17 0l-25 -25q-28 -28 -75 -28q-35 0 -62 24q-27 24 -27 75q0 28 9.5 46.5q9.5 18.5 26 29.5q16.5 11 39.5 15.5q23 4.5 49 4.5h82v5q0 25 -16 36.5q-16 11.5 -53 11.5q-19 0 -38 -1.5q-19 -1.5 -53 -9.5l-28 -6zM434 339v-78h-268v78zM360 494v38h-78q-26 0 -40 -8q-14 -8 -14 -28q0 -24 12.5 -32.5q12.5 -8.5 29.5 -8.5q11 0 24.5 5q13.5 5 27.5 13z" />
<glyph unicode="&#171;" horiz-adv-x="600" d="M355 -12l-288 229v86l288 229v-104l-181 -140v-53l181 -138zM510 71l-213 159v66l213 159v-98l-100 -67v-50l100 -67z" />
<glyph unicode="&#172;" horiz-adv-x="600" d="M494 409v-253h-84v175h-304l0 78z" />
<glyph unicode="&#173;" horiz-adv-x="600" d="M514 261h-428v78l428 0z" />
<glyph unicode="&#174;" horiz-adv-x="600" d="M300 -60q-68 0 -118 22q-50 22 -83 71q-33 49 -49.5 127.5q-16.5 78.5 -16.5 191.5q0 112 16.5 190.5q16.5 78.5 49.5 127q33 48.5 83 70.5q50 22 118 22q68 0 118 -22q50 -22 83 -70.5q33 -48.5 49.5 -127q16.5 -78.5 16.5 -190.5q0 -113 -16.5 -191.5q-16.5 -78.5 -49.5 -127.5q-33 -49 -83 -71q-50 -22 -118 -22zt0 0zM300 16q47 0 81.5 15q34.5 15 57.5 52.5q23 37.5 34.5 102.5q11.5 65 11.5 166q0 100 -11.5 164.5q-11.5 64.5 -34.5 102q-23 37.5 -57.5 52.5q-34.5 15 -81.5 15q-47 0 -81.5 -15q-34.5 -15 -57.5 -52.5q-23 -37.5 -34.5 -102q-11.5 -64.5 -11.5 -164.5q0 -101 11.5 -166q11.5 -65 34.5 -102.5q23 -37.5 57.5 -52.5q34.5 -15 81.5 -15zt0 0zM175 131v424h101q76 0 115.5 -26.5q39.5 -26.5 39.5 -99.5q0 -45 -15.5 -71q-15.5 -26 -47.5 -40l63 -142v-45h-67l-67 173h-45v-173zM276 368q40 0 59.5 12q19.5 12 19.5 49q0 35 -19.5 46q-19.5 11 -59.5 11h-24l0 -118z" />
<glyph unicode="&#175;" horiz-adv-x="600" d="M463 641h-326v74l326 0z" />
<glyph unicode="&#176;" horiz-adv-x="600" d="M231 544q0 -41 18.5 -62.5q18.5 -21.5 50.5 -21.5q32 0 50.5 21.5q18.5 21.5 18.5 62.5q0 45 -18.5 67q-18.5 22 -50.5 22q-32 0 -50.5 -22q-18.5 -22 -18.5 -67zt0 0zM150 544q0 78 39.5 118q39.5 40 110.5 40q71 0 110.5 -40q39.5 -40 39.5 -118q0 -75 -39.5 -114q-39.5 -39 -110.5 -39q-71 0 -110.5 39t-39.5 114z" />
<glyph unicode="&#177;" horiz-adv-x="600" d="M258 608h84v-163h172v-78h-172v-165h-84v165h-172v78h172zM514 129v-78h-428l0 78z" />
<glyph unicode="&#178;" horiz-adv-x="600" d="M174 629l112 28q38 10 48 21q10 11 10 25q0 16 -12.5 23q-12.5 7 -32.5 7q-21 0 -45.5 -5q-24.5 -5 -59.5 -16l-16 -5v73l14 4q28 8 57.5 13q29.5 5 55.5 5q57 0 88.5 -23.5q31.5 -23.5 31.5 -71.5q0 -17 -3.5 -33q-3.5 -16 -14.5 -29.5q-11 -13.5 -31 -24.5q-20 -11 -53 -17l-94 -18v-12h197v-70l-252 0z" />
<glyph unicode="&#179;" horiz-adv-x="600" d="M240 621v59h76q20 1 26 9q6 8 6 18q0 12 -12.5 19q-12.5 7 -32.5 7q-21 0 -45 -4q-24 -4 -57 -15l-16 -5v73l14 4q28 8 57 12q29 4 55 4q55 0 86.5 -17q31.5 -17 31.5 -56q0 -22 -10.5 -39q-10.5 -17 -42.5 -26l0 -18q37 -7 51 -25.5q14 -18.5 14 -42.5q0 -46 -35.5 -65.5q-35.5 -19.5 -98.5 -19.5q-29 0 -61 4.5q-32 4.5 -63 13.5l-14 4v73l16 -5q39 -12 67 -16.5q28 -4.5 52 -4.5q24 0 39.5 7.5q15.5 7.5 15.5 23.5q0 13 -9.5 20.5q-9.5 7.5 -38.5 7.5z" />
<glyph unicode="&#180;" horiz-adv-x="600" d="M265 629l83 152h97v-60l-110 -92z" />
<glyph unicode="&#181;" horiz-adv-x="600" d="M85 525h86v-350q0 -58 20.5 -84.5q20.5 -26.5 67.5 -26.5q23 0 49.5 11.5q26.5 11.5 52.5 23.5l63 30v396h86v-525h-66l-11 49h-29l-44 -23q-29 -15 -58 -26.5q-29 -11.5 -60 -11.5q-37 0 -71 14l0 -252l-86 0z" />
<glyph unicode="&#182;" horiz-adv-x="600" d="M258 370q-42 0 -78.5 8.5q-36.5 8.5 -63.5 27q-27 18.5 -42.5 48.5q-15.5 30 -15.5 74q0 47 15.5 78q15.5 31 42.5 50q27 19 63.5 26.5q36.5 7.5 78.5 7.5h262v-940h-88v864h-86v-864h-88l0 620z" />
<glyph unicode="&#183;" horiz-adv-x="600" d="M300 314q-44 0 -62 16.5q-18 16.5 -18 60.5q0 45 18 60.5q18 15.5 62 15.5q44 0 62 -15.5q18 -15.5 18 -60.5q0 -44 -18 -60.5t-62 -16.5z" />
<glyph unicode="&#184;" horiz-adv-x="600" d="M335 8v-60h20q30 0 48.5 -8.5q18.5 -8.5 29 -21.5q10.5 -13 14 -29.5q3.5 -16.5 3.5 -31.5q0 -52 -36 -79.5q-36 -27.5 -108 -27.5q-22 0 -49.5 4q-27.5 4 -49.5 10l0 70q35 -11 59 -15q24 -4 39 -4q58 0 58 46q0 29 -15 37q-15 8 -47 8h-36l0 102z" />
<glyph unicode="&#185;" horiz-adv-x="600" d="M177 660v63l87 67h128v-217h58v-70h-273v70h137v158h-25l-43 -71z" />
<glyph unicode="&#186;" horiz-adv-x="600" d="M166 339h268v-78h-268zM300 393q-71 0 -108 34.5q-37 34.5 -37 116.5q0 86 37 122q37 36 108 36q71 0 108 -36q37 -36 37 -122q0 -82 -37 -116.5q-37 -34.5 -108 -34.5zt0 0zM300 462q32 0 48 17q16 17 16 65q0 52 -16 70.5q-16 18.5 -48 18.5q-32 0 -48 -18.5q-16 -18.5 -16 -70.5q0 -48 16 -65t48 -17z" />
<glyph unicode="&#187;" horiz-adv-x="600" d="M237 97l181 138v53l-181 140v104l288 -229v-86l-288 -229zM82 173l100 67v50l-100 67v98l213 -159v-66l-213 -159z" />
<glyph unicode="&#188;" horiz-adv-x="600" d="M49 136v51l437 363h54v-51l-435 -363zM17 560v63l87 67h128v-217h58v-70h-273v70h137v158h-25l-43 -71zM538 168v-168h-82v48h-196v67l150 182h83v-58l-145 -134h108l0 63z" />
<glyph unicode="&#189;" horiz-adv-x="600" d="M49 136v51l437 363h54v-51l-435 -363zM17 560v63l87 67h128v-217h58v-70h-273v70h137v158h-25l-43 -71zM304 126l112 28q38 10 48 21q10 11 10 25q0 16 -12.5 23q-12.5 7 -32.5 7q-21 0 -45.5 -5q-24.5 -5 -59.5 -16l-16 -5v73l14 4q28 8 57.5 13q29.5 5 55.5 5q57 0 88.5 -23.5q31.5 -23.5 31.5 -71.5q0 -17 -3.5 -33q-3.5 -16 -14.5 -29.5q-11 -13.5 -31 -24.5q-20 -11 -53 -17l-94 -18v-12h197v-70l-252 0z" />
<glyph unicode="&#190;" horiz-adv-x="600" d="M49 136v51l437 363h54v-51l-435 -363zM110 521v59h76q20 1 26 9q6 8 6 18q0 12 -12.5 19q-12.5 7 -32.5 7q-21 0 -45 -4q-24 -4 -57 -15l-16 -5v73l14 4q28 8 57 12q29 4 55 4q55 0 86.5 -17q31.5 -17 31.5 -56q0 -22 -10.5 -39q-10.5 -17 -42.5 -26l0 -18q37 -7 51 -25.5q14 -18.5 14 -42.5q0 -46 -35.5 -65.5q-35.5 -19.5 -98.5 -19.5q-29 0 -61 4.5q-32 4.5 -63 13.5l-14 4v73l16 -5q39 -12 67 -16.5q28 -4.5 52 -4.5q24 0 39.5 7.5q15.5 7.5 15.5 23.5q0 13 -9.5 20.5q-9.5 7.5 -38.5 7.5zM538 168v-168h-82v48h-196v67l150 182h83v-58l-145 -134h108l0 63z" />
<glyph unicode="&#191;" horiz-adv-x="600" d="M347 537q44 0 62 -16.5q18 -16.5 18 -60.5q0 -45 -18 -60.5q-18 -15.5 -62 -15.5q-44 0 -62 15.5q-18 15.5 -18 60.5q0 44 18 60.5q18 16.5 62 16.5zt0 0zM384 285l10 -153h-62q-40 0 -69.5 -5.5q-29.5 -5.5 -49 -20.5q-19.5 -15 -29.5 -42.5q-10 -27.5 -10 -71.5q0 -75 35.5 -114q35.5 -39 110.5 -39q33 0 81 11q48 11 94 31l39 17v-84l-29 -11q-43 -17 -89.5 -28.5q-46.5 -11.5 -95.5 -11.5q-118 0 -176 58.5q-58 58.5 -58 170.5q0 37 8 75q8 38 30.5 69q22.5 31 63 50.5q40.5 19.5 104.5 19.5h14l7 79z" />
<glyph unicode="&#192;" horiz-adv-x="600" d="M38 0v54l229 636h69l226 -636v-54h-72l-61 177h-260l-61 -177zM193 252h212l-94 295h-22zM261 762l-110 92v60h97l83 -152z" />
<glyph unicode="&#193;" horiz-adv-x="600" d="M38 0v54l229 636h69l226 -636v-54h-72l-61 177h-260l-61 -177zM193 252h212l-94 295h-22zM265 762l83 152h97v-60l-110 -92z" />
<glyph unicode="&#194;" horiz-adv-x="600" d="M38 0v54l229 636h69l226 -636v-54h-72l-61 177h-260l-61 -177zM193 252h212l-94 295h-22zM324 914l136 -101v-51h-62l-89 81h-17l-90 -81h-62v51l136 101z" />
<glyph unicode="&#195;" horiz-adv-x="600" d="M38 0v54l229 636h69l226 -636v-54h-72l-61 177h-260l-61 -177zM193 252h212l-94 295h-22zM220 893q24 0 45.5 -8.5q21.5 -8.5 40 -18.5q18.5 -10 33.5 -18.5q15 -8.5 27 -8.5q29 0 29 36v18h83l-5 -38q-5 -41 -26.5 -67q-21.5 -26 -64.5 -26q-25 0 -47 9q-22 9 -40.5 20q-18.5 11 -34.5 20q-16 9 -28 9q-13 0 -21 -8q-8 -8 -8 -23v-27h-81l4 40q4 41 27 66t67 25z" />
<glyph unicode="&#196;" horiz-adv-x="600" d="M38 0v54l229 636h69l226 -636v-54h-72l-61 177h-260l-61 -177zM193 252h212l-94 295h-22zM199 762q-35 0 -49 13.5q-14 13.5 -14 47.5q0 35 14 47.5q14 12.5 49 12.5q35 0 49.5 -12.5q14.5 -12.5 14.5 -47.5q0 -34 -14.5 -47.5q-14.5 -13.5 -49.5 -13.5zt0 0zM401 762q-35 0 -49.5 13.5q-14.5 13.5 -14.5 47.5q0 35 14.5 47.5q14.5 12.5 49.5 12.5q35 0 49 -12.5q14 -12.5 14 -47.5q0 -34 -14 -47.5t-49 -13.5z" />
<glyph unicode="&#197;" horiz-adv-x="600" d="M38 0v54l229 636h69l226 -636v-54h-72l-61 177h-260l-61 -177zM193 252h212l-94 295h-22zM251 850q0 -46 49 -46q49 0 49 46q0 45 -49 45q-49 0 -49 -45zt0 0zM185 850q0 100 115 100q115 0 115 -100q0 -101 -115 -101q-115 0 -115 101z" />
<glyph unicode="&#198;" horiz-adv-x="600" d="M571 76v-76h-286v157h-140l-31 -157h-76v54l138 636h197h188v-76h-188v-210h158v-76h-158v-252zM285 614h-47l-78 -382l125 0z" />
<glyph unicode="&#199;" horiz-adv-x="600" d="M327 64q15 0 35.5 3.5q20.5 3.5 43.5 10q23 6.5 47 15q24 8.5 46 17.5l35 15v-84l-25 -9q-42 -15 -89 -29.5q-47 -14.5 -93 -14.5q-63 0 -112.5 18.5q-49.5 18.5 -84 60.5q-34.5 42 -52.5 109.5q-18 67.5 -18 165.5q0 100 18.5 169q18.5 69 53 111.5q34.5 42.5 85 61q50.5 18.5 113.5 18.5q36 0 78 -9q42 -9 77 -20l27 -9v-83l-36 13q-43 15 -80 23.5q-37 8.5 -66 8.5q-43 0 -76.5 -12.5q-33.5 -12.5 -57 -44q-23.5 -31.5 -36 -87q-12.5 -55.5 -12.5 -140.5q0 -83 12 -137q12 -54 35.5 -85.5q23.5 -31.5 56.5 -43.5q33 -12 75 -12zt0 0zM355 8v-60h20q30 0 48.5 -8.5q18.5 -8.5 29 -21.5q10.5 -13 14 -29.5q3.5 -16.5 3.5 -31.5q0 -52 -36 -79.5q-36 -27.5 -108 -27.5q-22 0 -49.5 4q-27.5 4 -49.5 10l0 70q35 -11 59 -15q24 -4 39 -4q58 0 58 46q0 29 -15 37q-15 8 -47 8h-36l0 102z" />
<glyph unicode="&#200;" horiz-adv-x="600" d="M514 0h-426v690h416v-76h-328v-210h298v-76h-298v-252h338zM261 762l-110 92v60h97l83 -152z" />
<glyph unicode="&#201;" horiz-adv-x="600" d="M514 0h-426v690h416v-76h-328v-210h298v-76h-298v-252h338zM265 762l83 152h97v-60l-110 -92z" />
<glyph unicode="&#202;" horiz-adv-x="600" d="M514 0h-426v690h416v-76h-328v-210h298v-76h-298v-252h338zM324 914l136 -101v-51h-62l-89 81h-17l-90 -81h-62v51l136 101z" />
<glyph unicode="&#203;" horiz-adv-x="600" d="M514 0h-426v690h416v-76h-328v-210h298v-76h-298v-252h338zM199 762q-35 0 -49 13.5q-14 13.5 -14 47.5q0 35 14 47.5q14 12.5 49 12.5q35 0 49.5 -12.5q14.5 -12.5 14.5 -47.5q0 -34 -14.5 -47.5q-14.5 -13.5 -49.5 -13.5zt0 0zM401 762q-35 0 -49.5 13.5q-14.5 13.5 -14.5 47.5q0 35 14.5 47.5q14.5 12.5 49.5 12.5q35 0 49 -12.5q14 -12.5 14 -47.5q0 -34 -14 -47.5t-49 -13.5z" />
<glyph unicode="&#204;" horiz-adv-x="600" d="M484 0h-368v76h140v538h-140v76h368v-76h-140v-538h140zM261 762l-110 92v60h97l83 -152z" />
<glyph unicode="&#205;" horiz-adv-x="600" d="M484 0h-368v76h140v538h-140v76h368v-76h-140v-538h140zM265 762l83 152h97v-60l-110 -92z" />
<glyph unicode="&#206;" horiz-adv-x="600" d="M484 0h-368v76h140v538h-140v76h368v-76h-140v-538h140zM324 914l136 -101v-51h-62l-89 81h-17l-90 -81h-62v51l136 101z" />
<glyph unicode="&#207;" horiz-adv-x="600" d="M484 0h-368v76h140v538h-140v76h368v-76h-140v-538h140zM199 762q-35 0 -49 13.5q-14 13.5 -14 47.5q0 35 14 47.5q14 12.5 49 12.5q35 0 49.5 -12.5q14.5 -12.5 14.5 -47.5q0 -34 -14.5 -47.5q-14.5 -13.5 -49.5 -13.5zt0 0zM401 762q-35 0 -49.5 13.5q-14.5 13.5 -14.5 47.5q0 35 14.5 47.5q14.5 12.5 49.5 12.5q35 0 49 -12.5q14 -12.5 14 -47.5q0 -34 -14 -47.5t-49 -13.5z" />
<glyph unicode="&#208;" horiz-adv-x="600" d="M88 0v316h-82v78h82v296h202q64 0 113 -16.5q49 -16.5 81.5 -57q32.5 -40.5 49 -107.5q16.5 -67 16.5 -167q0 -95 -16.5 -160q-16.5 -65 -49 -105.5q-32.5 -40.5 -81.5 -58.5q-49 -18 -113 -18zM304 394v-78h-128v-240h114q44 0 76.5 12q32.5 12 53.5 42q21 30 31.5 81.5q10.5 51.5 10.5 130.5q0 85 -10.5 138q-10.5 53 -32 83q-21.5 30 -54 40.5q-32.5 10.5 -75.5 10.5h-114l0 -220z" />
<glyph unicode="&#209;" horiz-adv-x="600" d="M354 330l80 -157h20l-5 157v360h83v-690h-89l-180 330l-97 186h-21l6 -186v-330h-83v690h89zM220 893q24 0 45.5 -8.5q21.5 -8.5 40 -18.5q18.5 -10 33.5 -18.5q15 -8.5 27 -8.5q29 0 29 36v18h83l-5 -38q-5 -41 -26.5 -67q-21.5 -26 -64.5 -26q-25 0 -47 9q-22 9 -40.5 20q-18.5 11 -34.5 20q-16 9 -28 9q-13 0 -21 -8q-8 -8 -8 -23v-27h-81l4 40q4 41 27 66t67 25z" />
<glyph unicode="&#210;" horiz-adv-x="600" d="M138 342q0 -83 10 -137q10 -54 30 -85.5q20 -31.5 50.5 -43.5q30.5 -12 71.5 -12q41 0 71.5 12q30.5 12 50.5 43.5q20 31.5 30 85.5q10 54 10 137q0 85 -10 140q-10 55 -30 87q-20 32 -50.5 44.5q-30.5 12.5 -71.5 12.5q-41 0 -71.5 -12.5q-30.5 -12.5 -50.5 -44q-20 -31.5 -30 -87q-10 -55.5 -10 -140.5zt0 0zM50 342q0 100 16 169q16 69 47.5 111.5q31.5 42.5 78 61q46.5 18.5 108.5 18.5q62 0 108.5 -18.5q46.5 -18.5 78 -61q31.5 -42.5 47.5 -111.5q16 -69 16 -169q0 -98 -16 -165.5q-16 -67.5 -47.5 -109.5q-31.5 -42 -78 -60.5q-46.5 -18.5 -108.5 -18.5q-62 0 -108.5 18.5q-46.5 18.5 -78 60.5q-31.5 42 -47.5 109.5q-16 67.5 -16 165.5zt0 0zM261 762l-110 92v60h97l83 -152z" />
<glyph unicode="&#211;" horiz-adv-x="600" d="M138 342q0 -83 10 -137q10 -54 30 -85.5q20 -31.5 50.5 -43.5q30.5 -12 71.5 -12q41 0 71.5 12q30.5 12 50.5 43.5q20 31.5 30 85.5q10 54 10 137q0 85 -10 140q-10 55 -30 87q-20 32 -50.5 44.5q-30.5 12.5 -71.5 12.5q-41 0 -71.5 -12.5q-30.5 -12.5 -50.5 -44q-20 -31.5 -30 -87q-10 -55.5 -10 -140.5zt0 0zM50 342q0 100 16 169q16 69 47.5 111.5q31.5 42.5 78 61q46.5 18.5 108.5 18.5q62 0 108.5 -18.5q46.5 -18.5 78 -61q31.5 -42.5 47.5 -111.5q16 -69 16 -169q0 -98 -16 -165.5q-16 -67.5 -47.5 -109.5q-31.5 -42 -78 -60.5q-46.5 -18.5 -108.5 -18.5q-62 0 -108.5 18.5q-46.5 18.5 -78 60.5q-31.5 42 -47.5 109.5q-16 67.5 -16 165.5zt0 0zM265 762l83 152h97v-60l-110 -92z" />
<glyph unicode="&#212;" horiz-adv-x="600" d="M138 342q0 -83 10 -137q10 -54 30 -85.5q20 -31.5 50.5 -43.5q30.5 -12 71.5 -12q41 0 71.5 12q30.5 12 50.5 43.5q20 31.5 30 85.5q10 54 10 137q0 85 -10 140q-10 55 -30 87q-20 32 -50.5 44.5q-30.5 12.5 -71.5 12.5q-41 0 -71.5 -12.5q-30.5 -12.5 -50.5 -44q-20 -31.5 -30 -87q-10 -55.5 -10 -140.5zt0 0zM50 342q0 100 16 169q16 69 47.5 111.5q31.5 42.5 78 61q46.5 18.5 108.5 18.5q62 0 108.5 -18.5q46.5 -18.5 78 -61q31.5 -42.5 47.5 -111.5q16 -69 16 -169q0 -98 -16 -165.5q-16 -67.5 -47.5 -109.5q-31.5 -42 -78 -60.5q-46.5 -18.5 -108.5 -18.5q-62 0 -108.5 18.5q-46.5 18.5 -78 60.5q-31.5 42 -47.5 109.5q-16 67.5 -16 165.5zt0 0zM324 914l136 -101v-51h-62l-89 81h-17l-90 -81h-62v51l136 101z" />
<glyph unicode="&#213;" horiz-adv-x="600" d="M138 342q0 -83 10 -137q10 -54 30 -85.5q20 -31.5 50.5 -43.5q30.5 -12 71.5 -12q41 0 71.5 12q30.5 12 50.5 43.5q20 31.5 30 85.5q10 54 10 137q0 85 -10 140q-10 55 -30 87q-20 32 -50.5 44.5q-30.5 12.5 -71.5 12.5q-41 0 -71.5 -12.5q-30.5 -12.5 -50.5 -44q-20 -31.5 -30 -87q-10 -55.5 -10 -140.5zt0 0zM50 342q0 100 16 169q16 69 47.5 111.5q31.5 42.5 78 61q46.5 18.5 108.5 18.5q62 0 108.5 -18.5q46.5 -18.5 78 -61q31.5 -42.5 47.5 -111.5q16 -69 16 -169q0 -98 -16 -165.5q-16 -67.5 -47.5 -109.5q-31.5 -42 -78 -60.5q-46.5 -18.5 -108.5 -18.5q-62 0 -108.5 18.5q-46.5 18.5 -78 60.5q-31.5 42 -47.5 109.5q-16 67.5 -16 165.5zt0 0zM220 893q24 0 45.5 -8.5q21.5 -8.5 40 -18.5q18.5 -10 33.5 -18.5q15 -8.5 27 -8.5q29 0 29 36v18h83l-5 -38q-5 -41 -26.5 -67q-21.5 -26 -64.5 -26q-25 0 -47 9q-22 9 -40.5 20q-18.5 11 -34.5 20q-16 9 -28 9q-13 0 -21 -8q-8 -8 -8 -23v-27h-81l4 40q4 41 27 66t67 25z" />
<glyph unicode="&#214;" horiz-adv-x="600" d="M138 342q0 -83 10 -137q10 -54 30 -85.5q20 -31.5 50.5 -43.5q30.5 -12 71.5 -12q41 0 71.5 12q30.5 12 50.5 43.5q20 31.5 30 85.5q10 54 10 137q0 85 -10 140q-10 55 -30 87q-20 32 -50.5 44.5q-30.5 12.5 -71.5 12.5q-41 0 -71.5 -12.5q-30.5 -12.5 -50.5 -44q-20 -31.5 -30 -87q-10 -55.5 -10 -140.5zt0 0zM50 342q0 100 16 169q16 69 47.5 111.5q31.5 42.5 78 61q46.5 18.5 108.5 18.5q62 0 108.5 -18.5q46.5 -18.5 78 -61q31.5 -42.5 47.5 -111.5q16 -69 16 -169q0 -98 -16 -165.5q-16 -67.5 -47.5 -109.5q-31.5 -42 -78 -60.5q-46.5 -18.5 -108.5 -18.5q-62 0 -108.5 18.5q-46.5 18.5 -78 60.5q-31.5 42 -47.5 109.5q-16 67.5 -16 165.5zt0 0zM199 762q-35 0 -49 13.5q-14 13.5 -14 47.5q0 35 14 47.5q14 12.5 49 12.5q35 0 49.5 -12.5q14.5 -12.5 14.5 -47.5q0 -34 -14.5 -47.5q-14.5 -13.5 -49.5 -13.5zt0 0zM401 762q-35 0 -49.5 13.5q-14.5 13.5 -14.5 47.5q0 35 14.5 47.5q14.5 12.5 49.5 12.5q35 0 49 -12.5q14 -12.5 14 -47.5q0 -34 -14 -47.5t-49 -13.5z" />
<glyph unicode="&#215;" horiz-adv-x="600" d="M172 487l129 -139l127 138l62 -62l-138 -127l139 -129l-63 -63l-128 140l-128 -139l-62 62l139 128l-140 128z" />
<glyph unicode="&#216;" horiz-adv-x="600" d="M50 342q0 100 16 169q16 69 47.5 111.5q31.5 42.5 78 61q46.5 18.5 108.5 18.5q78 0 130 -29l38 77h55v-56l-36 -72q32 -43 47.5 -111.5q15.5 -68.5 15.5 -168.5q0 -98 -16 -165.5q-16 -67.5 -47.5 -109.5q-31.5 -42 -78 -60.5q-46.5 -18.5 -108.5 -18.5q-67 0 -116 21l-49 -99h-56v56l44 89q-37 42 -55 111.5q-18 69.5 -18 175.5zt0 0zM138 342q0 -71 7 -120q7 -49 21 -81l227 459q-35 26 -93 26q-41 0 -71.5 -12.5q-30.5 -12.5 -50.5 -44q-20 -31.5 -30 -87q-10 -55.5 -10 -140.5zt0 0zM462 342q0 62 -5 107.5q-5 45.5 -16 77.5l-222 -447q17 -9 37 -12.5q20 -3.5 44 -3.5q41 0 71.5 12q30.5 12 50.5 43.5q20 31.5 30 85.5t10 137z" />
<glyph unicode="&#217;" horiz-adv-x="600" d="M68 690h88v-468q0 -86 38 -122q38 -36 106 -36q67 0 105.5 36q38.5 36 38.5 122v468h88v-468q0 -120 -61.5 -177q-61.5 -57 -170.5 -57q-109 0 -170.5 57q-61.5 57 -61.5 177zM261 762l-110 92v60h97l83 -152z" />
<glyph unicode="&#218;" horiz-adv-x="600" d="M68 690h88v-468q0 -86 38 -122q38 -36 106 -36q67 0 105.5 36q38.5 36 38.5 122v468h88v-468q0 -120 -61.5 -177q-61.5 -57 -170.5 -57q-109 0 -170.5 57q-61.5 57 -61.5 177zM265 762l83 152h97v-60l-110 -92z" />
<glyph unicode="&#219;" horiz-adv-x="600" d="M68 690h88v-468q0 -86 38 -122q38 -36 106 -36q67 0 105.5 36q38.5 36 38.5 122v468h88v-468q0 -120 -61.5 -177q-61.5 -57 -170.5 -57q-109 0 -170.5 57q-61.5 57 -61.5 177zM324 914l136 -101v-51h-62l-89 81h-17l-90 -81h-62v51l136 101z" />
<glyph unicode="&#220;" horiz-adv-x="600" d="M68 690h88v-468q0 -86 38 -122q38 -36 106 -36q67 0 105.5 36q38.5 36 38.5 122v468h88v-468q0 -120 -61.5 -177q-61.5 -57 -170.5 -57q-109 0 -170.5 57q-61.5 57 -61.5 177zM199 762q-35 0 -49 13.5q-14 13.5 -14 47.5q0 35 14 47.5q14 12.5 49 12.5q35 0 49.5 -12.5q14.5 -12.5 14.5 -47.5q0 -34 -14.5 -47.5q-14.5 -13.5 -49.5 -13.5zt0 0zM401 762q-35 0 -49.5 13.5q-14.5 13.5 -14.5 47.5q0 35 14.5 47.5q14.5 12.5 49.5 12.5q35 0 49 -12.5q14 -12.5 14 -47.5q0 -34 -14 -47.5t-49 -13.5z" />
<glyph unicode="&#221;" horiz-adv-x="600" d="M284 359h31l176 331h71v-54l-218 -374v-262h-88v266l-218 370v54h68zM265 762l83 152h97v-60l-110 -92z" />
<glyph unicode="&#222;" horiz-adv-x="600" d="M176 134v-134h-88v690h88v-116h134q60 0 105 -10.5q45 -10.5 75 -36.5q30 -26 45 -69q15 -43 15 -107q0 -60 -15 -101q-15 -41 -45 -67q-30 -26 -75 -37.5q-45 -11.5 -105 -11.5zM310 210q39 0 67.5 6.5q28.5 6.5 47 22q18.5 15.5 28 43q9.5 27.5 9.5 69.5q0 46 -9.5 75q-9.5 29 -28 45q-18.5 16 -47 21.5q-28.5 5.5 -67.5 5.5h-134l0 -288z" />
<glyph unicode="&#223;" horiz-adv-x="600" d="M339 -12q-28 0 -55.5 3.5q-27.5 3.5 -53.5 8.5l0 77q22 -5 46.5 -10q24.5 -5 50.5 -5q57 0 86.5 34.5q29.5 34.5 29.5 118.5q0 45 -9 75q-9 30 -26 49q-17 19 -41 27q-24 8 -55 8h-73v73h67q54 0 81 28q27 28 27 93q0 62 -34 91q-34 29 -84 29q-64 0 -99.5 -34.5q-35.5 -34.5 -35.5 -119.5v-534h-86v534q0 119 58 173.5q58 54.5 163 54.5q43 0 80.5 -12q37.5 -12 65 -36q27.5 -24 43 -59.5q15.5 -35.5 15.5 -82.5q0 -46 -22 -85.5q-22 -39.5 -65 -60.5l0 -22q57 -18 86.5 -65.5q29.5 -47.5 29.5 -121.5q0 -62 -13 -105.5q-13 -43.5 -37 -71q-24 -27.5 -59.5 -40t-80.5 -12.5z" />
<glyph unicode="&#224;" horiz-adv-x="600" d="M99 505l63 12q42 8 80.5 14q38.5 6 74.5 6q33 0 65 -9q32 -9 57 -30q25 -21 40 -54q15 -33 15 -81v-270q0 -19 10 -29.5q10 -10.5 25 -10.5h22v-57q-20 -5 -33 -6.5q-13 -1.5 -22 -1.5q-30 0 -51.5 16q-21.5 16 -30.5 45l-16 0l-45 -21q-33 -15 -64.5 -27.5q-31.5 -12.5 -68.5 -12.5q-30 0 -57 10.5q-27 10.5 -47.5 31.5q-20.5 21 -33 53q-12.5 32 -12.5 75q0 49 17.5 82q17.5 33 48 52.5q30.5 19.5 72.5 27.5q42 8 91 8h109v13q0 63 -26 91q-26 28 -83 28q-31 0 -63 -5q-32 -5 -84 -17l-53 -12zM241 62q25 0 56 11.5q31 11.5 57 24.5l54 26v136h-110q-69 0 -105.5 -22q-36.5 -22 -36.5 -78q0 -56 24.5 -77q24.5 -21 60.5 -21zt0 0zM261 629l-110 92v60h97l83 -152z" />
<glyph unicode="&#225;" horiz-adv-x="600" d="M99 505l63 12q42 8 80.5 14q38.5 6 74.5 6q33 0 65 -9q32 -9 57 -30q25 -21 40 -54q15 -33 15 -81v-270q0 -19 10 -29.5q10 -10.5 25 -10.5h22v-57q-20 -5 -33 -6.5q-13 -1.5 -22 -1.5q-30 0 -51.5 16q-21.5 16 -30.5 45l-16 0l-45 -21q-33 -15 -64.5 -27.5q-31.5 -12.5 -68.5 -12.5q-30 0 -57 10.5q-27 10.5 -47.5 31.5q-20.5 21 -33 53q-12.5 32 -12.5 75q0 49 17.5 82q17.5 33 48 52.5q30.5 19.5 72.5 27.5q42 8 91 8h109v13q0 63 -26 91q-26 28 -83 28q-31 0 -63 -5q-32 -5 -84 -17l-53 -12zM241 62q25 0 56 11.5q31 11.5 57 24.5l54 26v136h-110q-69 0 -105.5 -22q-36.5 -22 -36.5 -78q0 -56 24.5 -77q24.5 -21 60.5 -21zt0 0zM265 629l83 152h97v-60l-110 -92z" />
<glyph unicode="&#226;" horiz-adv-x="600" d="M99 505l63 12q42 8 80.5 14q38.5 6 74.5 6q33 0 65 -9q32 -9 57 -30q25 -21 40 -54q15 -33 15 -81v-270q0 -19 10 -29.5q10 -10.5 25 -10.5h22v-57q-20 -5 -33 -6.5q-13 -1.5 -22 -1.5q-30 0 -51.5 16q-21.5 16 -30.5 45l-16 0l-45 -21q-33 -15 -64.5 -27.5q-31.5 -12.5 -68.5 -12.5q-30 0 -57 10.5q-27 10.5 -47.5 31.5q-20.5 21 -33 53q-12.5 32 -12.5 75q0 49 17.5 82q17.5 33 48 52.5q30.5 19.5 72.5 27.5q42 8 91 8h109v13q0 63 -26 91q-26 28 -83 28q-31 0 -63 -5q-32 -5 -84 -17l-53 -12zM241 62q25 0 56 11.5q31 11.5 57 24.5l54 26v136h-110q-69 0 -105.5 -22q-36.5 -22 -36.5 -78q0 -56 24.5 -77q24.5 -21 60.5 -21zt0 0zM324 781l136 -101v-51h-62l-89 81h-17l-90 -81h-62v51l136 101z" />
<glyph unicode="&#227;" horiz-adv-x="600" d="M99 505l63 12q42 8 80.5 14q38.5 6 74.5 6q33 0 65 -9q32 -9 57 -30q25 -21 40 -54q15 -33 15 -81v-270q0 -19 10 -29.5q10 -10.5 25 -10.5h22v-57q-20 -5 -33 -6.5q-13 -1.5 -22 -1.5q-30 0 -51.5 16q-21.5 16 -30.5 45l-16 0l-45 -21q-33 -15 -64.5 -27.5q-31.5 -12.5 -68.5 -12.5q-30 0 -57 10.5q-27 10.5 -47.5 31.5q-20.5 21 -33 53q-12.5 32 -12.5 75q0 49 17.5 82q17.5 33 48 52.5q30.5 19.5 72.5 27.5q42 8 91 8h109v13q0 63 -26 91q-26 28 -83 28q-31 0 -63 -5q-32 -5 -84 -17l-53 -12zM241 62q25 0 56 11.5q31 11.5 57 24.5l54 26v136h-110q-69 0 -105.5 -22q-36.5 -22 -36.5 -78q0 -56 24.5 -77q24.5 -21 60.5 -21zt0 0zM220 760q24 0 45.5 -8.5q21.5 -8.5 40 -18.5q18.5 -10 33.5 -18.5q15 -8.5 27 -8.5q29 0 29 36v18h83l-5 -38q-5 -41 -26.5 -67q-21.5 -26 -64.5 -26q-25 0 -47 9q-22 9 -40.5 20q-18.5 11 -34.5 20q-16 9 -28 9q-13 0 -21 -8q-8 -8 -8 -23v-27h-81l4 40q4 41 27 66t67 25z" />
<glyph unicode="&#228;" horiz-adv-x="600" d="M99 505l63 12q42 8 80.5 14q38.5 6 74.5 6q33 0 65 -9q32 -9 57 -30q25 -21 40 -54q15 -33 15 -81v-270q0 -19 10 -29.5q10 -10.5 25 -10.5h22v-57q-20 -5 -33 -6.5q-13 -1.5 -22 -1.5q-30 0 -51.5 16q-21.5 16 -30.5 45l-16 0l-45 -21q-33 -15 -64.5 -27.5q-31.5 -12.5 -68.5 -12.5q-30 0 -57 10.5q-27 10.5 -47.5 31.5q-20.5 21 -33 53q-12.5 32 -12.5 75q0 49 17.5 82q17.5 33 48 52.5q30.5 19.5 72.5 27.5q42 8 91 8h109v13q0 63 -26 91q-26 28 -83 28q-31 0 -63 -5q-32 -5 -84 -17l-53 -12zM241 62q25 0 56 11.5q31 11.5 57 24.5l54 26v136h-110q-69 0 -105.5 -22q-36.5 -22 -36.5 -78q0 -56 24.5 -77q24.5 -21 60.5 -21zt0 0zM199 629q-35 0 -49 13.5q-14 13.5 -14 47.5q0 35 14 47.5q14 12.5 49 12.5q35 0 49.5 -12.5q14.5 -12.5 14.5 -47.5q0 -34 -14.5 -47.5q-14.5 -13.5 -49.5 -13.5zt0 0zM401 629q-35 0 -49.5 13.5q-14.5 13.5 -14.5 47.5q0 35 14.5 47.5q14.5 12.5 49.5 12.5q35 0 49 -12.5q14 -12.5 14 -47.5q0 -34 -14 -47.5t-49 -13.5z" />
<glyph unicode="&#229;" horiz-adv-x="600" d="M99 505l63 12q42 8 80.5 14q38.5 6 74.5 6q33 0 65 -9q32 -9 57 -30q25 -21 40 -54q15 -33 15 -81v-270q0 -19 10 -29.5q10 -10.5 25 -10.5h22v-57q-20 -5 -33 -6.5q-13 -1.5 -22 -1.5q-30 0 -51.5 16q-21.5 16 -30.5 45l-16 0l-45 -21q-33 -15 -64.5 -27.5q-31.5 -12.5 -68.5 -12.5q-30 0 -57 10.5q-27 10.5 -47.5 31.5q-20.5 21 -33 53q-12.5 32 -12.5 75q0 49 17.5 82q17.5 33 48 52.5q30.5 19.5 72.5 27.5q42 8 91 8h109v13q0 63 -26 91q-26 28 -83 28q-31 0 -63 -5q-32 -5 -84 -17l-53 -12zM241 62q25 0 56 11.5q31 11.5 57 24.5l54 26v136h-110q-69 0 -105.5 -22q-36.5 -22 -36.5 -78q0 -56 24.5 -77q24.5 -21 60.5 -21zt0 0zM251 730q0 -46 49 -46q49 0 49 46q0 45 -49 45q-49 0 -49 -45zt0 0zM185 730q0 100 115 100q115 0 115 -100q0 -101 -115 -101q-115 0 -115 101z" />
<glyph unicode="&#230;" horiz-adv-x="600" d="M428 -12q-35 0 -62.5 16q-27.5 16 -45.5 45l-52 0l-14 -13q-23 -21 -44.5 -34.5q-21.5 -13.5 -55.5 -13.5q-52 0 -84 40.5q-32 40.5 -32 125.5q0 48 11.5 80q11.5 32 31.5 51q20 19 47 27q27 8 59 8h81v21q0 31 -1.5 53.5q-1.5 22.5 -8.5 37q-7 14.5 -20.5 21.5q-13.5 7 -37.5 7q-19 0 -38.5 -3.5q-19.5 -3.5 -50.5 -14.5l-44 -15v79l50 15q23 7 48 11.5q25 4.5 45 4.5q40 0 67 -18.5q27 -18.5 41 -53.5q17 31 43.5 51.5q26.5 20.5 64.5 20.5q36 0 63 -12.5q27 -12.5 45.5 -42q18.5 -29.5 27.5 -78q9 -48.5 9 -121.5v-31h-228q0 -52 8 -88q8 -36 20.5 -58.5q12.5 -22.5 28.5 -33q16 -10.5 33 -10.5q22 0 38.5 4.5q16.5 4.5 45.5 21.5l41 23v-77l-31 -16q-26 -14 -46.5 -22q-20.5 -8 -52.5 -8zt0 0zM124 156q0 -54 13.5 -74q13.5 -20 33.5 -20q20 0 34 7q14 7 30 20l33 27v136h-82q-30 0 -46 -21q-16 -21 -16 -75zt0 0zM425 463q-34 0 -54.5 -32.5q-20.5 -32.5 -25.5 -110.5l151 0q-1 43 -5 71q-4 28 -12.5 44q-8.5 16 -22 22t-31.5 6z" />
<glyph unicode="&#231;" horiz-adv-x="600" d="M316 -12q-54 0 -99.5 15q-45.5 15 -77.5 48q-32 33 -50 84.5q-18 51.5 -18 123.5q0 72 17.5 124.5q17.5 52.5 49.5 86.5q32 34 76 50.5q44 16.5 97 16.5q35 0 76.5 -9q41.5 -9 76.5 -20l27 -9v-80l-36 13q-38 14 -72.5 22.5q-34.5 8.5 -60.5 8.5q-36 0 -66 -10.5q-30 -10.5 -52 -34.5q-22 -24 -34.5 -63q-12.5 -39 -12.5 -96q0 -54 13 -91.5q13 -37.5 35.5 -61q22.5 -23.5 54 -34q31.5 -10.5 67.5 -10.5q30 0 71.5 12.5q41.5 12.5 84.5 31.5l35 15v-80l-25 -9q-42 -15 -87 -29.5q-45 -14.5 -90 -14.5zt0 0zM355 8v-60h20q30 0 48.5 -8.5q18.5 -8.5 29 -21.5q10.5 -13 14 -29.5q3.5 -16.5 3.5 -31.5q0 -52 -36 -79.5q-36 -27.5 -108 -27.5q-22 0 -49.5 4q-27.5 4 -49.5 10l0 70q35 -11 59 -15q24 -4 39 -4q58 0 58 46q0 29 -15 37q-15 8 -47 8h-36l0 102z" />
<glyph unicode="&#232;" horiz-adv-x="600" d="M150 253q1 -52 13 -88.5q12 -36.5 33 -59q21 -22.5 50.5 -33q29.5 -10.5 64.5 -10.5q32 0 75.5 12.5q43.5 12.5 93.5 32.5l35 14v-77l-25 -9q-45 -17 -92.5 -32q-47.5 -15 -97.5 -15q-54 0 -97.5 15q-43.5 15 -74 48q-30.5 33 -47.5 84.5q-17 51.5 -17 123.5q0 145 62 211.5q62 66.5 175 66.5q51 0 93 -14q42 -14 71.5 -44.5q29.5 -30.5 46 -79q16.5 -48.5 16.5 -116.5v-30zM301 463q-61 0 -98.5 -31q-37.5 -31 -48.5 -107l289 0q-8 75 -43.5 106.5q-35.5 31.5 -98.5 31.5zt0 0zM261 629l-110 92v60h97l83 -152z" />
<glyph unicode="&#233;" horiz-adv-x="600" d="M150 253q1 -52 13 -88.5q12 -36.5 33 -59q21 -22.5 50.5 -33q29.5 -10.5 64.5 -10.5q32 0 75.5 12.5q43.5 12.5 93.5 32.5l35 14v-77l-25 -9q-45 -17 -92.5 -32q-47.5 -15 -97.5 -15q-54 0 -97.5 15q-43.5 15 -74 48q-30.5 33 -47.5 84.5q-17 51.5 -17 123.5q0 145 62 211.5q62 66.5 175 66.5q51 0 93 -14q42 -14 71.5 -44.5q29.5 -30.5 46 -79q16.5 -48.5 16.5 -116.5v-30zM301 463q-61 0 -98.5 -31q-37.5 -31 -48.5 -107l289 0q-8 75 -43.5 106.5q-35.5 31.5 -98.5 31.5zt0 0zM265 629l83 152h97v-60l-110 -92z" />
<glyph unicode="&#234;" horiz-adv-x="600" d="M150 253q1 -52 13 -88.5q12 -36.5 33 -59q21 -22.5 50.5 -33q29.5 -10.5 64.5 -10.5q32 0 75.5 12.5q43.5 12.5 93.5 32.5l35 14v-77l-25 -9q-45 -17 -92.5 -32q-47.5 -15 -97.5 -15q-54 0 -97.5 15q-43.5 15 -74 48q-30.5 33 -47.5 84.5q-17 51.5 -17 123.5q0 145 62 211.5q62 66.5 175 66.5q51 0 93 -14q42 -14 71.5 -44.5q29.5 -30.5 46 -79q16.5 -48.5 16.5 -116.5v-30zM301 463q-61 0 -98.5 -31q-37.5 -31 -48.5 -107l289 0q-8 75 -43.5 106.5q-35.5 31.5 -98.5 31.5zt0 0zM324 781l136 -101v-51h-62l-89 81h-17l-90 -81h-62v51l136 101z" />
<glyph unicode="&#235;" horiz-adv-x="600" d="M150 253q1 -52 13 -88.5q12 -36.5 33 -59q21 -22.5 50.5 -33q29.5 -10.5 64.5 -10.5q32 0 75.5 12.5q43.5 12.5 93.5 32.5l35 14v-77l-25 -9q-45 -17 -92.5 -32q-47.5 -15 -97.5 -15q-54 0 -97.5 15q-43.5 15 -74 48q-30.5 33 -47.5 84.5q-17 51.5 -17 123.5q0 145 62 211.5q62 66.5 175 66.5q51 0 93 -14q42 -14 71.5 -44.5q29.5 -30.5 46 -79q16.5 -48.5 16.5 -116.5v-30zM301 463q-61 0 -98.5 -31q-37.5 -31 -48.5 -107l289 0q-8 75 -43.5 106.5q-35.5 31.5 -98.5 31.5zt0 0zM199 629q-35 0 -49 13.5q-14 13.5 -14 47.5q0 35 14 47.5q14 12.5 49 12.5q35 0 49.5 -12.5q14.5 -12.5 14.5 -47.5q0 -34 -14.5 -47.5q-14.5 -13.5 -49.5 -13.5zt0 0zM401 629q-35 0 -49.5 13.5q-14.5 13.5 -14.5 47.5q0 35 14.5 47.5q14.5 12.5 49.5 12.5q35 0 49 -12.5q14 -12.5 14 -47.5q0 -34 -14 -47.5t-49 -13.5z" />
<glyph unicode="&#236;" horiz-adv-x="600" d="M527 0h-440v72h213v381h-197v72h283v-453h141zM261 629l-110 92v60h97l83 -152z" />
<glyph unicode="&#237;" horiz-adv-x="600" d="M527 0h-440v72h213v381h-197v72h283v-453h141zM265 629l83 152h97v-60l-110 -92z" />
<glyph unicode="&#238;" horiz-adv-x="600" d="M527 0h-440v72h213v381h-197v72h283v-453h141zM324 781l136 -101v-51h-62l-89 81h-17l-90 -81h-62v51l136 101z" />
<glyph unicode="&#239;" horiz-adv-x="600" d="M527 0h-440v72h213v381h-197v72h283v-453h141zM199 629q-35 0 -49 13.5q-14 13.5 -14 47.5q0 35 14 47.5q14 12.5 49 12.5q35 0 49.5 -12.5q14.5 -12.5 14.5 -47.5q0 -34 -14.5 -47.5q-14.5 -13.5 -49.5 -13.5zt0 0zM401 629q-35 0 -49.5 13.5q-14.5 13.5 -14.5 47.5q0 35 14.5 47.5q14.5 12.5 49.5 12.5q35 0 49 -12.5q14 -12.5 14 -47.5q0 -34 -14 -47.5t-49 -13.5z" />
<glyph unicode="&#240;" horiz-adv-x="600" d="M125 761l178 -60l127 66l31 -59l-73 -38q46 -21 75.5 -52q29.5 -31 46.5 -75q17 -44 23.5 -103q6.5 -59 6.5 -136q0 -87 -16 -147.5q-16 -60.5 -47 -98q-31 -37.5 -75 -54q-44 -16.5 -100 -16.5q-113 0 -176.5 64q-63.5 64 -63.5 199q0 66 16 113.5q16 47.5 44 79q28 31.5 66 46.5q38 15 82 15q60 0 102.5 -21.5q42.5 -21.5 70.5 -59.5l16 0l-2 25q-3 38 -13 65q-10 27 -26.5 45.5q-16.5 18.5 -38.5 31q-22 12.5 -49 21.5l-33 11l-163 -84l-31 59l106 55l-109 37zM298 431q-69 0 -109.5 -41.5q-40.5 -41.5 -40.5 -138.5q0 -103 41 -146q41 -43 113 -43q69 0 110 44.5q41 44.5 41 146.5q0 95 -41 136.5t-114 41.5z" />
<glyph unicode="&#241;" horiz-adv-x="600" d="M151 525l10 -49h30l44 22q29 15 63 27q34 12 66 12q30 0 57.5 -9.5q27.5 -9.5 48.5 -30q21 -20.5 33 -54q12 -33.5 12 -81.5v-362h-86v350q0 57 -18.5 83.5q-18.5 26.5 -66.5 26.5q-23 0 -53 -11.5q-30 -11.5 -57 -23.5l-63 -29v-396h-86v525zM220 760q24 0 45.5 -8.5q21.5 -8.5 40 -18.5q18.5 -10 33.5 -18.5q15 -8.5 27 -8.5q29 0 29 36v18h83l-5 -38q-5 -41 -26.5 -67q-21.5 -26 -64.5 -26q-25 0 -47 9q-22 9 -40.5 20q-18.5 11 -34.5 20q-16 9 -28 9q-13 0 -21 -8q-8 -8 -8 -23v-27h-81l4 40q4 41 27 66t67 25z" />
<glyph unicode="&#242;" horiz-adv-x="600" d="M300 62q37 0 66.5 11q29.5 11 50 34.5q20.5 23.5 31.5 61q11 37.5 11 90.5q0 55 -11 94q-11 39 -31.5 63.5q-20.5 24.5 -50 35.5q-29.5 11 -66.5 11q-37 0 -66.5 -11q-29.5 -11 -50 -35q-20.5 -24 -31.5 -63q-11 -39 -11 -95q0 -53 11 -90.5q11 -37.5 31.5 -61q20.5 -23.5 50 -34.5q29.5 -11 66.5 -11zt0 0zM300 -12q-115 0 -180 66q-65 66 -65 205q0 144 65 211q65 67 180 67q115 0 180 -67q65 -67 65 -211q0 -139 -65 -205q-65 -66 -180 -66zt0 0zM261 629l-110 92v60h97l83 -152z" />
<glyph unicode="&#243;" horiz-adv-x="600" d="M300 62q37 0 66.5 11q29.5 11 50 34.5q20.5 23.5 31.5 61q11 37.5 11 90.5q0 55 -11 94q-11 39 -31.5 63.5q-20.5 24.5 -50 35.5q-29.5 11 -66.5 11q-37 0 -66.5 -11q-29.5 -11 -50 -35q-20.5 -24 -31.5 -63q-11 -39 -11 -95q0 -53 11 -90.5q11 -37.5 31.5 -61q20.5 -23.5 50 -34.5q29.5 -11 66.5 -11zt0 0zM300 -12q-115 0 -180 66q-65 66 -65 205q0 144 65 211q65 67 180 67q115 0 180 -67q65 -67 65 -211q0 -139 -65 -205q-65 -66 -180 -66zt0 0zM265 629l83 152h97v-60l-110 -92z" />
<glyph unicode="&#244;" horiz-adv-x="600" d="M300 62q37 0 66.5 11q29.5 11 50 34.5q20.5 23.5 31.5 61q11 37.5 11 90.5q0 55 -11 94q-11 39 -31.5 63.5q-20.5 24.5 -50 35.5q-29.5 11 -66.5 11q-37 0 -66.5 -11q-29.5 -11 -50 -35q-20.5 -24 -31.5 -63q-11 -39 -11 -95q0 -53 11 -90.5q11 -37.5 31.5 -61q20.5 -23.5 50 -34.5q29.5 -11 66.5 -11zt0 0zM300 -12q-115 0 -180 66q-65 66 -65 205q0 144 65 211q65 67 180 67q115 0 180 -67q65 -67 65 -211q0 -139 -65 -205q-65 -66 -180 -66zt0 0zM324 781l136 -101v-51h-62l-89 81h-17l-90 -81h-62v51l136 101z" />
<glyph unicode="&#245;" horiz-adv-x="600" d="M300 62q37 0 66.5 11q29.5 11 50 34.5q20.5 23.5 31.5 61q11 37.5 11 90.5q0 55 -11 94q-11 39 -31.5 63.5q-20.5 24.5 -50 35.5q-29.5 11 -66.5 11q-37 0 -66.5 -11q-29.5 -11 -50 -35q-20.5 -24 -31.5 -63q-11 -39 -11 -95q0 -53 11 -90.5q11 -37.5 31.5 -61q20.5 -23.5 50 -34.5q29.5 -11 66.5 -11zt0 0zM300 -12q-115 0 -180 66q-65 66 -65 205q0 144 65 211q65 67 180 67q115 0 180 -67q65 -67 65 -211q0 -139 -65 -205q-65 -66 -180 -66zt0 0zM220 760q24 0 45.5 -8.5q21.5 -8.5 40 -18.5q18.5 -10 33.5 -18.5q15 -8.5 27 -8.5q29 0 29 36v18h83l-5 -38q-5 -41 -26.5 -67q-21.5 -26 -64.5 -26q-25 0 -47 9q-22 9 -40.5 20q-18.5 11 -34.5 20q-16 9 -28 9q-13 0 -21 -8q-8 -8 -8 -23v-27h-81l4 40q4 41 27 66t67 25z" />
<glyph unicode="&#246;" horiz-adv-x="600" d="M300 62q37 0 66.5 11q29.5 11 50 34.5q20.5 23.5 31.5 61q11 37.5 11 90.5q0 55 -11 94q-11 39 -31.5 63.5q-20.5 24.5 -50 35.5q-29.5 11 -66.5 11q-37 0 -66.5 -11q-29.5 -11 -50 -35q-20.5 -24 -31.5 -63q-11 -39 -11 -95q0 -53 11 -90.5q11 -37.5 31.5 -61q20.5 -23.5 50 -34.5q29.5 -11 66.5 -11zt0 0zM300 -12q-115 0 -180 66q-65 66 -65 205q0 144 65 211q65 67 180 67q115 0 180 -67q65 -67 65 -211q0 -139 -65 -205q-65 -66 -180 -66zt0 0zM199 629q-35 0 -49 13.5q-14 13.5 -14 47.5q0 35 14 47.5q14 12.5 49 12.5q35 0 49.5 -12.5q14.5 -12.5 14.5 -47.5q0 -34 -14.5 -47.5q-14.5 -13.5 -49.5 -13.5zt0 0zM401 629q-35 0 -49.5 13.5q-14.5 13.5 -14.5 47.5q0 35 14.5 47.5q14.5 12.5 49.5 12.5q35 0 49 -12.5q14 -12.5 14 -47.5q0 -34 -14 -47.5t-49 -13.5z" />
<glyph unicode="&#247;" horiz-adv-x="600" d="M514 261h-428v78h428zM300 63q-44 0 -62 16.5q-18 16.5 -18 60.5q0 45 18 60.5q18 15.5 62 15.5q44 0 62 -15.5q18 -15.5 18 -60.5q0 -44 -18 -60.5q-18 -16.5 -62 -16.5zt0 0zM300 384q-44 0 -62 16.5q-18 16.5 -18 60.5q0 45 18 60.5q18 15.5 62 15.5q44 0 62 -15.5q18 -15.5 18 -60.5q0 -44 -18 -60.5t-62 -16.5z" />
<glyph unicode="&#248;" horiz-adv-x="600" d="M300 -12q-60 0 -109 19l-61 -97h-56v56l52 82q-35 33 -53 85.5q-18 52.5 -18 125.5q0 144 65 211q65 67 180 67q69 0 120 -24l54 86h55v-56l-48 -75q31 -35 47.5 -86.5q16.5 -51.5 16.5 -122.5q0 -139 -65 -205q-65 -66 -180 -66zt0 0zM300 463q-37 0 -66.5 -11q-29.5 -11 -50 -35q-20.5 -24 -31.5 -63q-11 -39 -11 -95q0 -46 8 -80q8 -34 23 -58l206 326q-32 16 -78 16zt0 0zM300 62q37 0 66.5 11q29.5 11 50 34.5q20.5 23.5 31.5 61q11 37.5 11 90.5q0 83 -26 132l-201 -318q15 -6 32 -8.5t36 -2.5z" />
<glyph unicode="&#249;" horiz-adv-x="600" d="M433 49h-29l-44 -23q-29 -15 -58 -26.5q-29 -11.5 -60 -11.5q-30 0 -58.5 9.5q-28.5 9.5 -50 30q-21.5 20.5 -35 54q-13.5 33.5 -13.5 81.5v362h86v-350q0 -58 20.5 -84.5q20.5 -26.5 67.5 -26.5q23 0 49.5 11.5q26.5 11.5 52.5 23.5l63 30v396h86v-525h-66zM261 629l-110 92v60h97l83 -152z" />
<glyph unicode="&#250;" horiz-adv-x="600" d="M433 49h-29l-44 -23q-29 -15 -58 -26.5q-29 -11.5 -60 -11.5q-30 0 -58.5 9.5q-28.5 9.5 -50 30q-21.5 20.5 -35 54q-13.5 33.5 -13.5 81.5v362h86v-350q0 -58 20.5 -84.5q20.5 -26.5 67.5 -26.5q23 0 49.5 11.5q26.5 11.5 52.5 23.5l63 30v396h86v-525h-66zM265 629l83 152h97v-60l-110 -92z" />
<glyph unicode="&#251;" horiz-adv-x="600" d="M433 49h-29l-44 -23q-29 -15 -58 -26.5q-29 -11.5 -60 -11.5q-30 0 -58.5 9.5q-28.5 9.5 -50 30q-21.5 20.5 -35 54q-13.5 33.5 -13.5 81.5v362h86v-350q0 -58 20.5 -84.5q20.5 -26.5 67.5 -26.5q23 0 49.5 11.5q26.5 11.5 52.5 23.5l63 30v396h86v-525h-66zM324 781l136 -101v-51h-62l-89 81h-17l-90 -81h-62v51l136 101z" />
<glyph unicode="&#252;" horiz-adv-x="600" d="M433 49h-29l-44 -23q-29 -15 -58 -26.5q-29 -11.5 -60 -11.5q-30 0 -58.5 9.5q-28.5 9.5 -50 30q-21.5 20.5 -35 54q-13.5 33.5 -13.5 81.5v362h86v-350q0 -58 20.5 -84.5q20.5 -26.5 67.5 -26.5q23 0 49.5 11.5q26.5 11.5 52.5 23.5l63 30v396h86v-525h-66zM199 629q-35 0 -49 13.5q-14 13.5 -14 47.5q0 35 14 47.5q14 12.5 49 12.5q35 0 49.5 -12.5q14.5 -12.5 14.5 -47.5q0 -34 -14.5 -47.5q-14.5 -13.5 -49.5 -13.5zt0 0zM401 629q-35 0 -49.5 13.5q-14.5 13.5 -14.5 47.5q0 35 14.5 47.5q14.5 12.5 49.5 12.5q35 0 49 -12.5q14 -12.5 14 -47.5q0 -34 -14 -47.5t-49 -13.5z" />
<glyph unicode="&#253;" horiz-adv-x="600" d="M174 -195l84 180l-231 485v55h76l175 -401h41l145 401h80v-55l-295 -720h-75zM265 629l83 152h97v-60l-110 -92z" />
<glyph unicode="&#254;" horiz-adv-x="600" d="M158 49l10 -61v-238h-86v1000h86v-213l-10 -61h30l44 23q29 15 59 26.5q30 11.5 62 11.5q42 0 76.5 -14q34.5 -14 59.5 -45.5q25 -31.5 39 -82.5q14 -51 14 -126q0 -78 -17 -131.5q-17 -53.5 -44.5 -87q-27.5 -33.5 -63.5 -48q-36 -14.5 -74 -14.5q-31 0 -60 10.5q-29 10.5 -57 27.5l-38 23zM168 396v-267l57 -30q25 -13 52 -24.5q27 -11.5 50 -11.5q24 0 47 9.5q23 9.5 41 33q18 23.5 29.5 63.5q11.5 40 11.5 100q0 57 -9 94.5q-9 37.5 -25 59q-16 21.5 -38 30.5q-22 9 -47 9q-23 0 -51.5 -12q-28.5 -12 -54.5 -24z" />
<glyph unicode="&#255;" horiz-adv-x="600" d="M174 -195l84 180l-231 485v55h76l175 -401h41l145 401h80v-55l-295 -720h-75zM199 629q-35 0 -49 13.5q-14 13.5 -14 47.5q0 35 14 47.5q14 12.5 49 12.5q35 0 49.5 -12.5q14.5 -12.5 14.5 -47.5q0 -34 -14.5 -47.5q-14.5 -13.5 -49.5 -13.5zt0 0zM401 629q-35 0 -49.5 13.5q-14.5 13.5 -14.5 47.5q0 35 14.5 47.5q14.5 12.5 49.5 12.5q35 0 49 -12.5q14 -12.5 14 -47.5q0 -34 -14 -47.5t-49 -13.5z" />
<glyph unicode="&#256;" horiz-adv-x="600" d="M38 0v54l229 636h69l226 -636v-54h-72l-61 177h-260l-61 -177zM193 252h212l-94 295h-22zM463 774h-326v74l326 0z" />
<glyph unicode="&#257;" horiz-adv-x="600" d="M99 505l63 12q42 8 80.5 14q38.5 6 74.5 6q33 0 65 -9q32 -9 57 -30q25 -21 40 -54q15 -33 15 -81v-270q0 -19 10 -29.5q10 -10.5 25 -10.5h22v-57q-20 -5 -33 -6.5q-13 -1.5 -22 -1.5q-30 0 -51.5 16q-21.5 16 -30.5 45l-16 0l-45 -21q-33 -15 -64.5 -27.5q-31.5 -12.5 -68.5 -12.5q-30 0 -57 10.5q-27 10.5 -47.5 31.5q-20.5 21 -33 53q-12.5 32 -12.5 75q0 49 17.5 82q17.5 33 48 52.5q30.5 19.5 72.5 27.5q42 8 91 8h109v13q0 63 -26 91q-26 28 -83 28q-31 0 -63 -5q-32 -5 -84 -17l-53 -12zM241 62q25 0 56 11.5q31 11.5 57 24.5l54 26v136h-110q-69 0 -105.5 -22q-36.5 -22 -36.5 -78q0 -56 24.5 -77q24.5 -21 60.5 -21zt0 0zM463 641h-326v74l326 0z" />
<glyph unicode="&#258;" horiz-adv-x="600" d="M38 0v54l229 636h69l226 -636v-54h-72l-61 177h-260l-61 -177zM193 252h212l-94 295h-22zM300 762q-78 0 -115 37q-37 37 -37 115l73 0q0 -45 18.5 -64.5q18.5 -19.5 60.5 -19.5q42 0 60.5 19.5q18.5 19.5 18.5 64.5l73 0q0 -78 -37 -115t-115 -37z" />
<glyph unicode="&#259;" horiz-adv-x="600" d="M99 505l63 12q42 8 80.5 14q38.5 6 74.5 6q33 0 65 -9q32 -9 57 -30q25 -21 40 -54q15 -33 15 -81v-270q0 -19 10 -29.5q10 -10.5 25 -10.5h22v-57q-20 -5 -33 -6.5q-13 -1.5 -22 -1.5q-30 0 -51.5 16q-21.5 16 -30.5 45l-16 0l-45 -21q-33 -15 -64.5 -27.5q-31.5 -12.5 -68.5 -12.5q-30 0 -57 10.5q-27 10.5 -47.5 31.5q-20.5 21 -33 53q-12.5 32 -12.5 75q0 49 17.5 82q17.5 33 48 52.5q30.5 19.5 72.5 27.5q42 8 91 8h109v13q0 63 -26 91q-26 28 -83 28q-31 0 -63 -5q-32 -5 -84 -17l-53 -12zM241 62q25 0 56 11.5q31 11.5 57 24.5l54 26v136h-110q-69 0 -105.5 -22q-36.5 -22 -36.5 -78q0 -56 24.5 -77q24.5 -21 60.5 -21zt0 0zM300 629q-78 0 -115 37q-37 37 -37 115l73 0q0 -45 18.5 -64.5q18.5 -19.5 60.5 -19.5q42 0 60.5 19.5q18.5 19.5 18.5 64.5l73 0q0 -78 -37 -115t-115 -37z" />
<glyph unicode="&#260;" horiz-adv-x="600" d="M38 0v54l229 636h69l226 -636v-54l-87 -71q-29 -23 -36.5 -37q-7.5 -14 -7.5 -32q0 -20 14 -31q14 -11 36 -11q17 0 37.5 6.5q20.5 6.5 43.5 16.5l0 -73q-25 -8 -49 -13q-24 -5 -49 -5q-30 0 -51.5 9.5q-21.5 9.5 -35.5 24q-14 14.5 -20.5 32.5q-6.5 18 -6.5 36q0 41 19.5 66q19.5 25 62.5 50l57 33l-60 176h-260l-61 -177zM193 252h212l-94 295l-22 0z" />
<glyph unicode="&#261;" horiz-adv-x="600" d="M99 505l63 12q42 8 80.5 14q38.5 6 74.5 6q33 0 65 -9q32 -9 57 -30q25 -21 40 -54q15 -33 15 -81v-270q0 -18 9 -28.5q9 -10.5 23 -11.5l25 0v-57l-19 -4l-65 -56q-31 -26 -39 -42q-8 -16 -8 -32q0 -21 14 -32.5q14 -11.5 36 -11.5q17 0 37.5 6.5q20.5 6.5 43.5 16.5l0 -73q-25 -8 -49 -13q-24 -5 -49 -5q-29 0 -50.5 9.5q-21.5 9.5 -35.5 24q-14 14.5 -21 32.5q-7 18 -7 36q0 39 20 67.5q20 28.5 65 55.5l34 21q-32 15 -44 53l-16 0l-45 -21q-33 -15 -64.5 -27.5q-31.5 -12.5 -68.5 -12.5q-30 0 -57 10.5q-27 10.5 -47.5 31.5q-20.5 21 -33 53q-12.5 32 -12.5 75q0 49 17.5 82q17.5 33 48 52.5q30.5 19.5 72.5 27.5q42 8 91 8h109v13q0 63 -26 91q-26 28 -83 28q-31 0 -63 -5q-32 -5 -84 -17l-53 -12zM241 62q25 0 56 11.5q31 11.5 57 24.5l54 26v136h-110q-69 0 -105.5 -22q-36.5 -22 -36.5 -78q0 -56 24.5 -77t60.5 -21z" />
<glyph unicode="&#262;" horiz-adv-x="600" d="M327 64q15 0 35.5 3.5q20.5 3.5 43.5 10q23 6.5 47 15q24 8.5 46 17.5l35 15v-84l-25 -9q-42 -15 -89 -29.5q-47 -14.5 -93 -14.5q-63 0 -112.5 18.5q-49.5 18.5 -84 60.5q-34.5 42 -52.5 109.5q-18 67.5 -18 165.5q0 100 18.5 169q18.5 69 53 111.5q34.5 42.5 85 61q50.5 18.5 113.5 18.5q36 0 78 -9q42 -9 77 -20l27 -9v-83l-36 13q-43 15 -80 23.5q-37 8.5 -66 8.5q-43 0 -76.5 -12.5q-33.5 -12.5 -57 -44q-23.5 -31.5 -36 -87q-12.5 -55.5 -12.5 -140.5q0 -83 12 -137q12 -54 35.5 -85.5q23.5 -31.5 56.5 -43.5q33 -12 75 -12zt0 0zM285 762l83 152h97v-60l-110 -92z" />
<glyph unicode="&#263;" horiz-adv-x="600" d="M316 -12q-54 0 -99.5 15q-45.5 15 -77.5 48q-32 33 -50 84.5q-18 51.5 -18 123.5q0 72 17.5 124.5q17.5 52.5 49.5 86.5q32 34 76 50.5q44 16.5 97 16.5q35 0 76.5 -9q41.5 -9 76.5 -20l27 -9v-80l-36 13q-38 14 -72.5 22.5q-34.5 8.5 -60.5 8.5q-36 0 -66 -10.5q-30 -10.5 -52 -34.5q-22 -24 -34.5 -63q-12.5 -39 -12.5 -96q0 -54 13 -91.5q13 -37.5 35.5 -61q22.5 -23.5 54 -34q31.5 -10.5 67.5 -10.5q30 0 71.5 12.5q41.5 12.5 84.5 31.5l35 15v-80l-25 -9q-42 -15 -87 -29.5q-45 -14.5 -90 -14.5zt0 0zM265 629l83 152h97v-60l-110 -92z" />
<glyph unicode="&#266;" horiz-adv-x="600" d="M327 64q15 0 35.5 3.5q20.5 3.5 43.5 10q23 6.5 47 15q24 8.5 46 17.5l35 15v-84l-25 -9q-42 -15 -89 -29.5q-47 -14.5 -93 -14.5q-63 0 -112.5 18.5q-49.5 18.5 -84 60.5q-34.5 42 -52.5 109.5q-18 67.5 -18 165.5q0 100 18.5 169q18.5 69 53 111.5q34.5 42.5 85 61q50.5 18.5 113.5 18.5q36 0 78 -9q42 -9 77 -20l27 -9v-83l-36 13q-43 15 -80 23.5q-37 8.5 -66 8.5q-43 0 -76.5 -12.5q-33.5 -12.5 -57 -44q-23.5 -31.5 -36 -87q-12.5 -55.5 -12.5 -140.5q0 -83 12 -137q12 -54 35.5 -85.5q23.5 -31.5 56.5 -43.5q33 -12 75 -12zt0 0zM320 767q-36 0 -51 14q-15 14 -15 50q0 37 15 50.5q15 13.5 51 13.5q36 0 51 -13.5q15 -13.5 15 -50.5q0 -36 -15 -50t-51 -14z" />
<glyph unicode="&#267;" horiz-adv-x="600" d="M316 -12q-54 0 -99.5 15q-45.5 15 -77.5 48q-32 33 -50 84.5q-18 51.5 -18 123.5q0 72 17.5 124.5q17.5 52.5 49.5 86.5q32 34 76 50.5q44 16.5 97 16.5q35 0 76.5 -9q41.5 -9 76.5 -20l27 -9v-80l-36 13q-38 14 -72.5 22.5q-34.5 8.5 -60.5 8.5q-36 0 -66 -10.5q-30 -10.5 -52 -34.5q-22 -24 -34.5 -63q-12.5 -39 -12.5 -96q0 -54 13 -91.5q13 -37.5 35.5 -61q22.5 -23.5 54 -34q31.5 -10.5 67.5 -10.5q30 0 71.5 12.5q41.5 12.5 84.5 31.5l35 15v-80l-25 -9q-42 -15 -87 -29.5q-45 -14.5 -90 -14.5zt0 0zM300 634q-36 0 -51 14q-15 14 -15 50q0 37 15 50.5q15 13.5 51 13.5q36 0 51 -13.5q15 -13.5 15 -50.5q0 -36 -15 -50t-51 -14z" />
<glyph unicode="&#268;" horiz-adv-x="600" d="M327 64q15 0 35.5 3.5q20.5 3.5 43.5 10q23 6.5 47 15q24 8.5 46 17.5l35 15v-84l-25 -9q-42 -15 -89 -29.5q-47 -14.5 -93 -14.5q-63 0 -112.5 18.5q-49.5 18.5 -84 60.5q-34.5 42 -52.5 109.5q-18 67.5 -18 165.5q0 100 18.5 169q18.5 69 53 111.5q34.5 42.5 85 61q50.5 18.5 113.5 18.5q36 0 78 -9q42 -9 77 -20l27 -9v-83l-36 13q-43 15 -80 23.5q-37 8.5 -66 8.5q-43 0 -76.5 -12.5q-33.5 -12.5 -57 -44q-23.5 -31.5 -36 -87q-12.5 -55.5 -12.5 -140.5q0 -83 12 -137q12 -54 35.5 -85.5q23.5 -31.5 56.5 -43.5q33 -12 75 -12zt0 0zM296 762l-136 101v51h62l90 -81h17l89 81h62v-51l-136 -101z" />
<glyph unicode="&#269;" horiz-adv-x="600" d="M316 -12q-54 0 -99.5 15q-45.5 15 -77.5 48q-32 33 -50 84.5q-18 51.5 -18 123.5q0 72 17.5 124.5q17.5 52.5 49.5 86.5q32 34 76 50.5q44 16.5 97 16.5q35 0 76.5 -9q41.5 -9 76.5 -20l27 -9v-80l-36 13q-38 14 -72.5 22.5q-34.5 8.5 -60.5 8.5q-36 0 -66 -10.5q-30 -10.5 -52 -34.5q-22 -24 -34.5 -63q-12.5 -39 -12.5 -96q0 -54 13 -91.5q13 -37.5 35.5 -61q22.5 -23.5 54 -34q31.5 -10.5 67.5 -10.5q30 0 71.5 12.5q41.5 12.5 84.5 31.5l35 15v-80l-25 -9q-42 -15 -87 -29.5q-45 -14.5 -90 -14.5zt0 0zM276 629l-136 101v51h62l90 -81h17l89 81h62v-51l-136 -101z" />
<glyph unicode="&#270;" horiz-adv-x="600" d="M88 0v690h202q64 0 113 -16.5q49 -16.5 81.5 -57q32.5 -40.5 49 -107.5q16.5 -67 16.5 -167q0 -95 -16.5 -160q-16.5 -65 -49 -105.5q-32.5 -40.5 -81.5 -58.5q-49 -18 -113 -18zM290 76q44 0 76.5 12q32.5 12 53.5 42q21 30 31.5 81.5q10.5 51.5 10.5 130.5q0 85 -10.5 138q-10.5 53 -32 83q-21.5 30 -54 40.5q-32.5 10.5 -75.5 10.5h-114v-538zM276 762l-136 101v51h62l90 -81h17l89 81h62v-51l-136 -101z" />
<glyph unicode="&#271;" horiz-adv-x="600" d="M319 750h86v-750h-66l-11 49h-29l-18 -16q-26 -23 -47 -34q-21 -11 -44 -11q-28 0 -54 11.5q-26 11.5 -46.5 41.5q-20.5 30 -32.5 83q-12 53 -12 136q0 83 12 137q12 54 32 85q20 31 47 43q27 12 57 12q22 0 42 -9q20 -9 43 -28l21 -17h30l-10 54zM280 429q-21 14 -36.5 23.5q-15.5 9.5 -31.5 9.5q-17 0 -31.5 -7q-14.5 -7 -25.5 -29q-11 -22 -17.5 -61.5q-6.5 -39.5 -6.5 -104.5q0 -65 7.5 -104q7.5 -39 19.5 -59.5q12 -20.5 27.5 -26.5q15.5 -6 30.5 -6q14 0 30.5 11.5q16.5 11.5 36.5 26.5l36 27v273zM481 553v197h107l-49 -197z" />
<glyph unicode="&#272;" horiz-adv-x="600" d="M88 0v316h-82v78h82v296h202q64 0 113 -16.5q49 -16.5 81.5 -57q32.5 -40.5 49 -107.5q16.5 -67 16.5 -167q0 -95 -16.5 -160q-16.5 -65 -49 -105.5q-32.5 -40.5 -81.5 -58.5q-49 -18 -113 -18zM304 394v-78h-128v-240h114q44 0 76.5 12q32.5 12 53.5 42q21 30 31.5 81.5q10.5 51.5 10.5 130.5q0 85 -10.5 138q-10.5 53 -32 83q-21.5 30 -54 40.5q-32.5 10.5 -75.5 10.5h-114l0 -220z" />
<glyph unicode="&#273;" horiz-adv-x="600" d="M585 688v-78h-70v-610h-66l-11 49h-29l-41 -21q-30 -15 -58.5 -27.5q-28.5 -12.5 -60.5 -12.5q-37 0 -72 14q-35 14 -62 46q-27 32 -43.5 84q-16.5 52 -16.5 128q0 76 16 128.5q16 52.5 43 85.5q27 33 63 48q36 15 77 15q31 0 60 -9q29 -9 57 -24l38 -21h30l-10 54v73h-212v78h212v62h86v-62zM373 432q-25 13 -51 21.5q-26 8.5 -49 8.5q-28 0 -52 -10q-24 -10 -42 -33.5q-18 -23.5 -28 -62.5q-10 -39 -10 -96q0 -58 11.5 -95.5q11.5 -37.5 29.5 -60q18 -22.5 41 -31.5q23 -9 47 -9q22 0 48 11.5q26 11.5 51 23.5l60 30l0 273z" />
<glyph unicode="&#274;" horiz-adv-x="600" d="M514 0h-426v690h416v-76h-328v-210h298v-76h-298v-252h338zM463 774h-326v74l326 0z" />
<glyph unicode="&#275;" horiz-adv-x="600" d="M150 253q1 -52 13 -88.5q12 -36.5 33 -59q21 -22.5 50.5 -33q29.5 -10.5 64.5 -10.5q32 0 75.5 12.5q43.5 12.5 93.5 32.5l35 14v-77l-25 -9q-45 -17 -92.5 -32q-47.5 -15 -97.5 -15q-54 0 -97.5 15q-43.5 15 -74 48q-30.5 33 -47.5 84.5q-17 51.5 -17 123.5q0 145 62 211.5q62 66.5 175 66.5q51 0 93 -14q42 -14 71.5 -44.5q29.5 -30.5 46 -79q16.5 -48.5 16.5 -116.5v-30zM301 463q-61 0 -98.5 -31q-37.5 -31 -48.5 -107l289 0q-8 75 -43.5 106.5q-35.5 31.5 -98.5 31.5zt0 0zM463 641h-326v74l326 0z" />
<glyph unicode="&#278;" horiz-adv-x="600" d="M514 0h-426v690h416v-76h-328v-210h298v-76h-298v-252h338zM300 767q-36 0 -51 14q-15 14 -15 50q0 37 15 50.5q15 13.5 51 13.5q36 0 51 -13.5q15 -13.5 15 -50.5q0 -36 -15 -50t-51 -14z" />
<glyph unicode="&#279;" horiz-adv-x="600" d="M150 253q1 -52 13 -88.5q12 -36.5 33 -59q21 -22.5 50.5 -33q29.5 -10.5 64.5 -10.5q32 0 75.5 12.5q43.5 12.5 93.5 32.5l35 14v-77l-25 -9q-45 -17 -92.5 -32q-47.5 -15 -97.5 -15q-54 0 -97.5 15q-43.5 15 -74 48q-30.5 33 -47.5 84.5q-17 51.5 -17 123.5q0 145 62 211.5q62 66.5 175 66.5q51 0 93 -14q42 -14 71.5 -44.5q29.5 -30.5 46 -79q16.5 -48.5 16.5 -116.5v-30zM301 463q-61 0 -98.5 -31q-37.5 -31 -48.5 -107l289 0q-8 75 -43.5 106.5q-35.5 31.5 -98.5 31.5zt0 0zM300 634q-36 0 -51 14q-15 14 -15 50q0 37 15 50.5q15 13.5 51 13.5q36 0 51 -13.5q15 -13.5 15 -50.5q0 -36 -15 -50t-51 -14z" />
<glyph unicode="&#280;" horiz-adv-x="600" d="M514 0l-87 -71q-29 -23 -36.5 -37q-7.5 -14 -7.5 -32q0 -20 14 -31q14 -11 36 -11q17 0 37.5 6.5q20.5 6.5 43.5 16.5l0 -73q-25 -8 -49 -13q-24 -5 -49 -5q-30 0 -51.5 9.5q-21.5 9.5 -35.5 24q-14 14.5 -20.5 32.5q-6.5 18 -6.5 36q0 41 19.5 66q19.5 25 62.5 50l55 32h-351v690h416v-76h-328v-210h298v-76h-298v-252l338 0z" />
<glyph unicode="&#281;" horiz-adv-x="600" d="M458 23q-38 -14 -77.5 -24.5q-39.5 -10.5 -80.5 -10.5q-54 0 -97.5 15q-43.5 15 -74 48q-30.5 33 -47.5 84.5q-17 51.5 -17 123.5q0 145 62 211.5q62 66.5 175 66.5q51 0 93 -14q42 -14 71.5 -44.5q29.5 -30.5 46 -79q16.5 -48.5 16.5 -116.5v-30h-378q1 -52 13 -88.5q12 -36.5 33 -59q21 -22.5 50.5 -33q29.5 -10.5 64.5 -10.5q32 0 75.5 12.5q43.5 12.5 93.5 32.5l35 14v-113l-84 -72q-31 -26 -39 -42q-8 -16 -8 -32q0 -21 14 -32.5q14 -11.5 36 -11.5q17 0 37.5 6.5q20.5 6.5 43.5 16.5l0 -73q-25 -8 -49 -13q-24 -5 -49 -5q-29 0 -50.5 9.5q-21.5 9.5 -35.5 24q-14 14.5 -21 32.5q-7 18 -7 36q0 39 20 67.5q20 28.5 65 55.5l70 43zM301 463q-61 0 -98.5 -31q-37.5 -31 -48.5 -107l289 0q-8 75 -43.5 106.5t-98.5 31.5z" />
<glyph unicode="&#282;" horiz-adv-x="600" d="M514 0h-426v690h416v-76h-328v-210h298v-76h-298v-252h338zM276 762l-136 101v51h62l90 -81h17l89 81h62v-51l-136 -101z" />
<glyph unicode="&#283;" horiz-adv-x="600" d="M150 253q1 -52 13 -88.5q12 -36.5 33 -59q21 -22.5 50.5 -33q29.5 -10.5 64.5 -10.5q32 0 75.5 12.5q43.5 12.5 93.5 32.5l35 14v-77l-25 -9q-45 -17 -92.5 -32q-47.5 -15 -97.5 -15q-54 0 -97.5 15q-43.5 15 -74 48q-30.5 33 -47.5 84.5q-17 51.5 -17 123.5q0 145 62 211.5q62 66.5 175 66.5q51 0 93 -14q42 -14 71.5 -44.5q29.5 -30.5 46 -79q16.5 -48.5 16.5 -116.5v-30zM301 463q-61 0 -98.5 -31q-37.5 -31 -48.5 -107l289 0q-8 75 -43.5 106.5q-35.5 31.5 -98.5 31.5zt0 0zM276 629l-136 101v51h62l90 -81h17l89 81h62v-51l-136 -101z" />
<glyph unicode="&#286;" horiz-adv-x="600" d="M327 64q23 0 56.5 7.5q33.5 7.5 68.5 19.5l0 211h-146v76h228v-337l-25 -9q-42 -15 -89 -29.5q-47 -14.5 -93 -14.5q-63 0 -112.5 18.5q-49.5 18.5 -84 60.5q-34.5 42 -52.5 109.5q-18 67.5 -18 165.5q0 100 18.5 169q18.5 69 53 111.5q34.5 42.5 85 61q50.5 18.5 113.5 18.5q36 0 78 -9q42 -9 77 -20l27 -9v-83l-36 13q-43 15 -80 23.5q-37 8.5 -66 8.5q-43 0 -76.5 -12.5q-33.5 -12.5 -57 -44q-23.5 -31.5 -36 -87q-12.5 -55.5 -12.5 -140.5q0 -83 12 -137q12 -54 35.5 -85.5q23.5 -31.5 56.5 -43.5q33 -12 75 -12zt0 0zM320 762q-78 0 -115 37q-37 37 -37 115l73 0q0 -45 18.5 -64.5q18.5 -19.5 60.5 -19.5q42 0 60.5 19.5q18.5 19.5 18.5 64.5l73 0q0 -78 -37 -115t-115 -37z" />
<glyph unicode="&#287;" horiz-adv-x="600" d="M87 -144l45 -14q99 -30 164 -30q33 0 58 7q25 7 41.5 23.5q16.5 16.5 25 45q8.5 28.5 8.5 71.5v29l10 60l-1 1h-29l-41 -21q-30 -15 -58.5 -27.5q-28.5 -12.5 -60.5 -12.5q-37 0 -72 14q-35 14 -62 46q-27 32 -43.5 84q-16.5 52 -16.5 128q0 76 16 128.5q16 52.5 43 85.5q27 33 63 48q36 15 77 15q31 0 60 -9q29 -9 57 -24l38 -21h31l9 42h66v-567q0 -59 -14.5 -100.5q-14.5 -41.5 -41.5 -68q-27 -26.5 -65.5 -39q-38.5 -12.5 -85.5 -12.5q-48 0 -96 10.5q-48 10.5 -91 21.5l-34 9zM429 129v273l-56 30q-25 13 -51 21.5q-26 8.5 -49 8.5q-28 0 -52 -10q-24 -10 -42 -33.5q-18 -23.5 -28 -62.5q-10 -39 -10 -96q0 -58 11.5 -95.5q11.5 -37.5 29.5 -60q18 -22.5 41 -31.5q23 -9 47 -9q22 0 48 11.5q26 11.5 51 23.5zM300 629q-78 0 -115 37q-37 37 -37 115l73 0q0 -45 18.5 -64.5q18.5 -19.5 60.5 -19.5q42 0 60.5 19.5q18.5 19.5 18.5 64.5l73 0q0 -78 -37 -115t-115 -37z" />
<glyph unicode="&#288;" horiz-adv-x="600" d="M327 64q23 0 56.5 7.5q33.5 7.5 68.5 19.5l0 211h-146v76h228v-337l-25 -9q-42 -15 -89 -29.5q-47 -14.5 -93 -14.5q-63 0 -112.5 18.5q-49.5 18.5 -84 60.5q-34.5 42 -52.5 109.5q-18 67.5 -18 165.5q0 100 18.5 169q18.5 69 53 111.5q34.5 42.5 85 61q50.5 18.5 113.5 18.5q36 0 78 -9q42 -9 77 -20l27 -9v-83l-36 13q-43 15 -80 23.5q-37 8.5 -66 8.5q-43 0 -76.5 -12.5q-33.5 -12.5 -57 -44q-23.5 -31.5 -36 -87q-12.5 -55.5 -12.5 -140.5q0 -83 12 -137q12 -54 35.5 -85.5q23.5 -31.5 56.5 -43.5q33 -12 75 -12zt0 0zM320 767q-36 0 -51 14q-15 14 -15 50q0 37 15 50.5q15 13.5 51 13.5q36 0 51 -13.5q15 -13.5 15 -50.5q0 -36 -15 -50t-51 -14z" />
<glyph unicode="&#289;" horiz-adv-x="600" d="M87 -144l45 -14q99 -30 164 -30q33 0 58 7q25 7 41.5 23.5q16.5 16.5 25 45q8.5 28.5 8.5 71.5v29l10 60l-1 1h-29l-41 -21q-30 -15 -58.5 -27.5q-28.5 -12.5 -60.5 -12.5q-37 0 -72 14q-35 14 -62 46q-27 32 -43.5 84q-16.5 52 -16.5 128q0 76 16 128.5q16 52.5 43 85.5q27 33 63 48q36 15 77 15q31 0 60 -9q29 -9 57 -24l38 -21h31l9 42h66v-567q0 -59 -14.5 -100.5q-14.5 -41.5 -41.5 -68q-27 -26.5 -65.5 -39q-38.5 -12.5 -85.5 -12.5q-48 0 -96 10.5q-48 10.5 -91 21.5l-34 9zM429 129v273l-56 30q-25 13 -51 21.5q-26 8.5 -49 8.5q-28 0 -52 -10q-24 -10 -42 -33.5q-18 -23.5 -28 -62.5q-10 -39 -10 -96q0 -58 11.5 -95.5q11.5 -37.5 29.5 -60q18 -22.5 41 -31.5q23 -9 47 -9q22 0 48 11.5q26 11.5 51 23.5zM300 634q-36 0 -51 14q-15 14 -15 50q0 37 15 50.5q15 13.5 51 13.5q36 0 51 -13.5q15 -13.5 15 -50.5q0 -36 -15 -50t-51 -14z" />
<glyph unicode="&#290;" horiz-adv-x="600" d="M327 64q23 0 56.5 7.5q33.5 7.5 68.5 19.5l0 211h-146v76h228v-337l-25 -9q-42 -15 -89 -29.5q-47 -14.5 -93 -14.5q-63 0 -112.5 18.5q-49.5 18.5 -84 60.5q-34.5 42 -52.5 109.5q-18 67.5 -18 165.5q0 100 18.5 169q18.5 69 53 111.5q34.5 42.5 85 61q50.5 18.5 113.5 18.5q36 0 78 -9q42 -9 77 -20l27 -9v-83l-36 13q-43 15 -80 23.5q-37 8.5 -66 8.5q-43 0 -76.5 -12.5q-33.5 -12.5 -57 -44q-23.5 -31.5 -36 -87q-12.5 -55.5 -12.5 -140.5q0 -83 12 -137q12 -54 35.5 -85.5q23.5 -31.5 56.5 -43.5q33 -12 75 -12zt0 0zM358 -262h-53v38l32 42q-25 1 -46.5 13.5q-21.5 12.5 -21.5 44.5q0 31 14 45.5q14 14.5 46 14.5q31 0 45.5 -13.5q14.5 -13.5 14.5 -48.5q0 -15 -3 -30q-3 -15 -11 -44z" />
<glyph unicode="&#291;" horiz-adv-x="600" d="M87 -144l45 -14q99 -30 164 -30q33 0 58 7q25 7 41.5 23.5q16.5 16.5 25 45q8.5 28.5 8.5 71.5v29l10 60l-1 1h-29l-41 -21q-30 -15 -58.5 -27.5q-28.5 -12.5 -60.5 -12.5q-37 0 -72 14q-35 14 -62 46q-27 32 -43.5 84q-16.5 52 -16.5 128q0 76 16 128.5q16 52.5 43 85.5q27 33 63 48q36 15 77 15q31 0 60 -9q29 -9 57 -24l38 -21h31l9 42h66v-567q0 -59 -14.5 -100.5q-14.5 -41.5 -41.5 -68q-27 -26.5 -65.5 -39q-38.5 -12.5 -85.5 -12.5q-48 0 -96 10.5q-48 10.5 -91 21.5l-34 9zM429 129v273l-56 30q-25 13 -51 21.5q-26 8.5 -49 8.5q-28 0 -52 -10q-24 -10 -42 -33.5q-18 -23.5 -28 -62.5q-10 -39 -10 -96q0 -58 11.5 -95.5q11.5 -37.5 29.5 -60q18 -22.5 41 -31.5q23 -9 47 -9q22 0 48 11.5q26 11.5 51 23.5zM271 827h53v-38l-32 -42q25 -1 46.5 -13.5q21.5 -12.5 21.5 -44.5q0 -31 -14 -45.5q-14 -14.5 -46 -14.5q-31 0 -45.5 13.5q-14.5 13.5 -14.5 48.5q0 15 3 30q3 15 11 44z" />
<glyph unicode="&#294;" horiz-adv-x="600" d="M574 512h-42v-512h-88v326h-288v-326h-88v512h-42v78h42v100h88v-100h288v100h88v-100h42zM156 404h288v108l-288 0z" />
<glyph unicode="&#295;" horiz-adv-x="600" d="M383 688v-78h-212v-73l-10 -61h30l44 22q29 15 63 27q34 12 66 12q30 0 57.5 -9.5q27.5 -9.5 48.5 -30q21 -20.5 33 -54q12 -33.5 12 -81.5v-362h-86v350q0 57 -18.5 83.5q-18.5 26.5 -66.5 26.5q-23 0 -53 -11.5q-30 -11.5 -57 -23.5l-63 -29v-396h-86v610h-70v78h70v62h86l0 -62z" />
<glyph unicode="&#298;" horiz-adv-x="600" d="M484 0h-368v76h140v538h-140v76h368v-76h-140v-538h140zM463 774h-326v74l326 0z" />
<glyph unicode="&#299;" horiz-adv-x="600" d="M527 0h-440v72h213v381h-197v72h283v-453h141zM463 641h-326v74l326 0z" />
<glyph unicode="&#302;" horiz-adv-x="600" d="M484 0l-87 -71q-29 -23 -36.5 -37q-7.5 -14 -7.5 -32q0 -20 14 -31q14 -11 36 -11q17 0 37.5 6.5q20.5 6.5 43.5 16.5l0 -73q-25 -8 -49 -13q-24 -5 -49 -5q-30 0 -51.5 9.5q-21.5 9.5 -35.5 24q-14 14.5 -20.5 32.5q-6.5 18 -6.5 36q0 41 19.5 66q19.5 25 62.5 50l55 32h-293v76h140v538h-140v76h368v-76h-140v-538l140 0z" />
<glyph unicode="&#303;" horiz-adv-x="600" d="M527 0h-10l-74 -64q-31 -26 -39 -42q-8 -16 -8 -32q0 -21 14 -32.5q14 -11.5 36 -11.5q17 0 37.5 6.5q20.5 6.5 43.5 16.5l0 -73q-25 -8 -49 -13q-24 -5 -49 -5q-29 0 -50.5 9.5q-21.5 9.5 -35.5 24q-14 14.5 -21 32.5q-7 18 -7 36q0 39 20 67.5q20 28.5 65 55.5l40 25h-353v72h213v381h-197v72h283v-453h141zM334 639q-38 0 -54 14.5q-16 14.5 -16 52.5q0 38 16 52q16 14 54 14q38 0 54 -14q16 -14 16 -52q0 -38 -16 -52.5t-54 -14.5z" />
<glyph unicode="&#304;" horiz-adv-x="600" d="M484 0h-368v76h140v538h-140v76h368v-76h-140v-538h140zM300 767q-36 0 -51 14q-15 14 -15 50q0 37 15 50.5q15 13.5 51 13.5q36 0 51 -13.5q15 -13.5 15 -50.5q0 -36 -15 -50t-51 -14z" />
<glyph unicode="&#305;" horiz-adv-x="600" d="M527 0h-440v72h213v381h-197v72h283v-453l141 0z" />
<glyph unicode="&#310;" horiz-adv-x="600" d="M158 690v-286h119l184 286h69v-54l-179 -265l203 -317v-54h-74l-199 326h-123v-326h-88v690zM339 -262h-53v38l32 42q-25 1 -46.5 13.5q-21.5 12.5 -21.5 44.5q0 31 14 45.5q14 14.5 46 14.5q31 0 45.5 -13.5q14.5 -13.5 14.5 -48.5q0 -15 -3 -30q-3 -15 -11 -44z" />
<glyph unicode="&#311;" horiz-adv-x="600" d="M171 309h135l149 216h69v-55l-142 -196l167 -219v-55h-76l-168 237h-134v-237h-86v750h86zM319 -262h-53v38l32 42q-25 1 -46.5 13.5q-21.5 12.5 -21.5 44.5q0 31 14 45.5q14 14.5 46 14.5q31 0 45.5 -13.5q14.5 -13.5 14.5 -48.5q0 -15 -3 -30q-3 -15 -11 -44z" />
<glyph unicode="&#313;" horiz-adv-x="600" d="M533 76v-76h-436v690h88v-614zM106 762l83 152h97v-60l-110 -92z" />
<glyph unicode="&#314;" horiz-adv-x="600" d="M282 164q0 -57 23 -79.5q23 -22.5 58 -22.5q22 0 51 10.5q29 10.5 64 29.5l35 19v-77l-25 -14q-31 -17 -66.5 -29.5q-35.5 -12.5 -70.5 -12.5q-35 0 -64 10q-29 10 -49 31q-20 21 -31 54.5q-11 33.5 -11 80.5v514h-148v72h234zM215 798l83 152h97v-60l-110 -92z" />
<glyph unicode="&#315;" horiz-adv-x="600" d="M533 76v-76h-436v690h88v-614zM349 -262h-53v38l32 42q-25 1 -46.5 13.5q-21.5 12.5 -21.5 44.5q0 31 14 45.5q14 14.5 46 14.5q31 0 45.5 -13.5q14.5 -13.5 14.5 -48.5q0 -15 -3 -30q-3 -15 -11 -44z" />
<glyph unicode="&#316;" horiz-adv-x="600" d="M282 164q0 -57 23 -79.5q23 -22.5 58 -22.5q22 0 51 10.5q29 10.5 64 29.5l35 19v-77l-25 -14q-31 -17 -66.5 -29.5q-35.5 -12.5 -70.5 -12.5q-35 0 -64 10q-29 10 -49 31q-20 21 -31 54.5q-11 33.5 -11 80.5v514h-148v72h234zM376 -262h-53v38l32 42q-25 1 -46.5 13.5q-21.5 12.5 -21.5 44.5q0 31 14 45.5q14 14.5 46 14.5q31 0 45.5 -13.5q14.5 -13.5 14.5 -48.5q0 -15 -3 -30q-3 -15 -11 -44z" />
<glyph unicode="&#317;" horiz-adv-x="600" d="M533 76v-76h-436v690h88v-614zM383 453v237h115l-59 -237z" />
<glyph unicode="&#318;" horiz-adv-x="600" d="M282 164q0 -57 23 -79.5q23 -22.5 58 -22.5q22 0 51 10.5q29 10.5 64 29.5l35 19v-77l-25 -14q-31 -17 -66.5 -29.5q-35.5 -12.5 -70.5 -12.5q-35 0 -64 10q-29 10 -49 31q-20 21 -31 54.5q-11 33.5 -11 80.5v514h-148v72h234zM391 553v197h107l-49 -197z" />
<glyph unicode="&#319;" horiz-adv-x="600" d="M533 76v-76h-436v690h88v-614zM432 294q-44 0 -62 16.5q-18 16.5 -18 60.5q0 45 18 60.5q18 15.5 62 15.5q44 0 62 -15.5q18 -15.5 18 -60.5q0 -44 -18 -60.5t-62 -16.5z" />
<glyph unicode="&#320;" horiz-adv-x="600" d="M282 164q0 -57 23 -79.5q23 -22.5 58 -22.5q22 0 51 10.5q29 10.5 64 29.5l35 19v-77l-25 -14q-31 -17 -66.5 -29.5q-35.5 -12.5 -70.5 -12.5q-35 0 -64 10q-29 10 -49 31q-20 21 -31 54.5q-11 33.5 -11 80.5v514h-148v72h234zM529 334q-44 0 -62 16.5q-18 16.5 -18 60.5q0 45 18 60.5q18 15.5 62 15.5q44 0 62 -15.5q18 -15.5 18 -60.5q0 -44 -18 -60.5t-62 -16.5z" />
<glyph unicode="&#321;" horiz-adv-x="600" d="M404 509v-90l-219 -119v-224h348v-76h-436v252l-61 -33v90l61 33v348h88l0 -300z" />
<glyph unicode="&#322;" horiz-adv-x="600" d="M442 539v-90l-160 -87v-198q0 -57 23 -79.5q23 -22.5 58 -22.5q22 0 51 10.5q29 10.5 64 29.5l35 19v-77l-25 -14q-31 -17 -66.5 -29.5q-35.5 -12.5 -70.5 -12.5q-35 0 -64 10q-29 10 -49 31q-20 21 -31 54.5q-11 33.5 -11 80.5v151l-122 -66v90l122 66v273h-148v72h234l0 -298z" />
<glyph unicode="&#323;" horiz-adv-x="600" d="M354 330l80 -157h20l-5 157v360h83v-690h-89l-180 330l-97 186h-21l6 -186v-330h-83v690h89zM265 762l83 152h97v-60l-110 -92z" />
<glyph unicode="&#324;" horiz-adv-x="600" d="M151 525l10 -49h30l44 22q29 15 63 27q34 12 66 12q30 0 57.5 -9.5q27.5 -9.5 48.5 -30q21 -20.5 33 -54q12 -33.5 12 -81.5v-362h-86v350q0 57 -18.5 83.5q-18.5 26.5 -66.5 26.5q-23 0 -53 -11.5q-30 -11.5 -57 -23.5l-63 -29v-396h-86v525zM265 629l83 152h97v-60l-110 -92z" />
<glyph unicode="&#325;" horiz-adv-x="600" d="M354 330l80 -157h20l-5 157v360h83v-690h-89l-180 330l-97 186h-21l6 -186v-330h-83v690h89zM329 -262h-53v38l32 42q-25 1 -46.5 13.5q-21.5 12.5 -21.5 44.5q0 31 14 45.5q14 14.5 46 14.5q31 0 45.5 -13.5q14.5 -13.5 14.5 -48.5q0 -15 -3 -30q-3 -15 -11 -44z" />
<glyph unicode="&#326;" horiz-adv-x="600" d="M151 525l10 -49h30l44 22q29 15 63 27q34 12 66 12q30 0 57.5 -9.5q27.5 -9.5 48.5 -30q21 -20.5 33 -54q12 -33.5 12 -81.5v-362h-86v350q0 57 -18.5 83.5q-18.5 26.5 -66.5 26.5q-23 0 -53 -11.5q-30 -11.5 -57 -23.5l-63 -29v-396h-86v525zM329 -262h-53v38l32 42q-25 1 -46.5 13.5q-21.5 12.5 -21.5 44.5q0 31 14 45.5q14 14.5 46 14.5q31 0 45.5 -13.5q14.5 -13.5 14.5 -48.5q0 -15 -3 -30q-3 -15 -11 -44z" />
<glyph unicode="&#327;" horiz-adv-x="600" d="M354 330l80 -157h20l-5 157v360h83v-690h-89l-180 330l-97 186h-21l6 -186v-330h-83v690h89zM276 762l-136 101v51h62l90 -81h17l89 81h62v-51l-136 -101z" />
<glyph unicode="&#328;" horiz-adv-x="600" d="M151 525l10 -49h30l44 22q29 15 63 27q34 12 66 12q30 0 57.5 -9.5q27.5 -9.5 48.5 -30q21 -20.5 33 -54q12 -33.5 12 -81.5v-362h-86v350q0 57 -18.5 83.5q-18.5 26.5 -66.5 26.5q-23 0 -53 -11.5q-30 -11.5 -57 -23.5l-63 -29v-396h-86v525zM276 629l-136 101v51h62l90 -81h17l89 81h62v-51l-136 -101z" />
<glyph unicode="&#332;" horiz-adv-x="600" d="M138 342q0 -83 10 -137q10 -54 30 -85.5q20 -31.5 50.5 -43.5q30.5 -12 71.5 -12q41 0 71.5 12q30.5 12 50.5 43.5q20 31.5 30 85.5q10 54 10 137q0 85 -10 140q-10 55 -30 87q-20 32 -50.5 44.5q-30.5 12.5 -71.5 12.5q-41 0 -71.5 -12.5q-30.5 -12.5 -50.5 -44q-20 -31.5 -30 -87q-10 -55.5 -10 -140.5zt0 0zM50 342q0 100 16 169q16 69 47.5 111.5q31.5 42.5 78 61q46.5 18.5 108.5 18.5q62 0 108.5 -18.5q46.5 -18.5 78 -61q31.5 -42.5 47.5 -111.5q16 -69 16 -169q0 -98 -16 -165.5q-16 -67.5 -47.5 -109.5q-31.5 -42 -78 -60.5q-46.5 -18.5 -108.5 -18.5q-62 0 -108.5 18.5q-46.5 18.5 -78 60.5q-31.5 42 -47.5 109.5q-16 67.5 -16 165.5zt0 0zM463 774h-326v74l326 0z" />
<glyph unicode="&#333;" horiz-adv-x="600" d="M300 62q37 0 66.5 11q29.5 11 50 34.5q20.5 23.5 31.5 61q11 37.5 11 90.5q0 55 -11 94q-11 39 -31.5 63.5q-20.5 24.5 -50 35.5q-29.5 11 -66.5 11q-37 0 -66.5 -11q-29.5 -11 -50 -35q-20.5 -24 -31.5 -63q-11 -39 -11 -95q0 -53 11 -90.5q11 -37.5 31.5 -61q20.5 -23.5 50 -34.5q29.5 -11 66.5 -11zt0 0zM300 -12q-115 0 -180 66q-65 66 -65 205q0 144 65 211q65 67 180 67q115 0 180 -67q65 -67 65 -211q0 -139 -65 -205q-65 -66 -180 -66zt0 0zM463 641h-326v74l326 0z" />
<glyph unicode="&#336;" horiz-adv-x="600" d="M138 342q0 -83 10 -137q10 -54 30 -85.5q20 -31.5 50.5 -43.5q30.5 -12 71.5 -12q41 0 71.5 12q30.5 12 50.5 43.5q20 31.5 30 85.5q10 54 10 137q0 85 -10 140q-10 55 -30 87q-20 32 -50.5 44.5q-30.5 12.5 -71.5 12.5q-41 0 -71.5 -12.5q-30.5 -12.5 -50.5 -44q-20 -31.5 -30 -87q-10 -55.5 -10 -140.5zt0 0zM50 342q0 100 16 169q16 69 47.5 111.5q31.5 42.5 78 61q46.5 18.5 108.5 18.5q62 0 108.5 -18.5q46.5 -18.5 78 -61q31.5 -42.5 47.5 -111.5q16 -69 16 -169q0 -98 -16 -165.5q-16 -67.5 -47.5 -109.5q-31.5 -42 -78 -60.5q-46.5 -18.5 -108.5 -18.5q-62 0 -108.5 18.5q-46.5 18.5 -78 60.5q-31.5 42 -47.5 109.5q-16 67.5 -16 165.5zt0 0zM206 762l38 161h93v-68l-72 -93zM333 762l91 161h87v-68l-107 -93z" />
<glyph unicode="&#337;" horiz-adv-x="600" d="M300 62q37 0 66.5 11q29.5 11 50 34.5q20.5 23.5 31.5 61q11 37.5 11 90.5q0 55 -11 94q-11 39 -31.5 63.5q-20.5 24.5 -50 35.5q-29.5 11 -66.5 11q-37 0 -66.5 -11q-29.5 -11 -50 -35q-20.5 -24 -31.5 -63q-11 -39 -11 -95q0 -53 11 -90.5q11 -37.5 31.5 -61q20.5 -23.5 50 -34.5q29.5 -11 66.5 -11zt0 0zM300 -12q-115 0 -180 66q-65 66 -65 205q0 144 65 211q65 67 180 67q115 0 180 -67q65 -67 65 -211q0 -139 -65 -205q-65 -66 -180 -66zt0 0zM201 629l38 161h93v-68l-72 -93zM328 629l91 161h87v-68l-107 -93z" />
<glyph unicode="&#338;" horiz-adv-x="600" d="M561 614h-188v-210h158v-76h-158v-252h198v-76h-306q-62 0 -104 18q-42 18 -68 58.5q-26 40.5 -37 105.5q-11 65 -11 160q0 97 11 163.5q11 66.5 37 107.5q26 41 68 59q42 18 104 18h296zM261 614q-40 0 -65 -12q-25 -12 -39 -43q-14 -31 -19 -83.5q-5 -52.5 -5 -133.5q0 -78 5 -129.5q5 -51.5 19 -82q14 -30.5 39 -42.5q25 -12 65 -12h24l0 538z" />
<glyph unicode="&#339;" horiz-adv-x="600" d="M428 -12q-44 0 -73.5 27q-29.5 27 -46.5 69q-15 -42 -43.5 -69q-28.5 -27 -74.5 -27q-42 0 -71.5 15q-29.5 15 -49 48q-19.5 33 -28.5 84.5q-9 51.5 -9 123.5q0 79 9 132.5q9 53.5 28.5 86q19.5 32.5 49 46q29.5 13.5 71.5 13.5q46 0 74 -27q28 -27 43 -68q15 41 43 68q28 27 76 27q36 0 63 -12.5q27 -12.5 45.5 -42q18.5 -29.5 27.5 -78q9 -48.5 9 -121.5v-31h-228q0 -52 8 -88q8 -36 20.5 -58.5q12.5 -22.5 28.5 -33q16 -10.5 33 -10.5q22 0 38.5 4.5q16.5 4.5 45.5 21.5l41 23v-77l-31 -16q-26 -14 -46.5 -22q-20.5 -8 -52.5 -8zt0 0zM116 259q0 -56 4 -94q4 -38 13 -61q9 -23 23 -32.5q14 -9.5 34 -9.5q22 0 36.5 11q14.5 11 23.5 34.5q9 23.5 12.5 61q3.5 37.5 3.5 90.5q0 111 -16 157.5q-16 46.5 -60 46.5q-20 0 -34 -8q-14 -8 -23 -30.5q-9 -22.5 -13 -62.5q-4 -40 -4 -103zt0 0zM425 463q-36 0 -56 -32.5q-20 -32.5 -25 -110.5l152 0q-1 43 -5 71q-4 28 -12.5 44q-8.5 16 -22 22t-31.5 6z" />
<glyph unicode="&#340;" horiz-adv-x="600" d="M88 0v690h222q60 0 105 -10q45 -10 75 -33.5q30 -23.5 45 -63q15 -39.5 15 -99.5q0 -81 -34 -124.5q-34 -43.5 -102 -60.5l136 -244v-55h-73l-146 282h-155v-282zM310 358q39 0 67.5 5.5q28.5 5.5 47 19.5q18.5 14 28 38.5q9.5 24.5 9.5 62.5q0 41 -9.5 66.5q-9.5 25.5 -28 39.5q-18.5 14 -47 19q-28.5 5 -67.5 5h-134v-256zM265 762l83 152h97v-60l-110 -92z" />
<glyph unicode="&#341;" horiz-adv-x="600" d="M482 0h-412v72h104v381h-104v72h170l11 -92h29l61 51q37 31 71 42q34 11 69 11q17 0 32.5 -2.5q15.5 -2.5 30.5 -5.5l0 -88q-23 6 -40 8.5q-17 2.5 -29 2.5q-28 0 -64 -11q-36 -11 -72 -40l-81 -66v-263h224zM265 629l83 152h97v-60l-110 -92z" />
<glyph unicode="&#342;" horiz-adv-x="600" d="M88 0v690h222q60 0 105 -10q45 -10 75 -33.5q30 -23.5 45 -63q15 -39.5 15 -99.5q0 -81 -34 -124.5q-34 -43.5 -102 -60.5l136 -244v-55h-73l-146 282h-155v-282zM310 358q39 0 67.5 5.5q28.5 5.5 47 19.5q18.5 14 28 38.5q9.5 24.5 9.5 62.5q0 41 -9.5 66.5q-9.5 25.5 -28 39.5q-18.5 14 -47 19q-28.5 5 -67.5 5h-134v-256zM349 -262h-53v38l32 42q-25 1 -46.5 13.5q-21.5 12.5 -21.5 44.5q0 31 14 45.5q14 14.5 46 14.5q31 0 45.5 -13.5q14.5 -13.5 14.5 -48.5q0 -15 -3 -30q-3 -15 -11 -44z" />
<glyph unicode="&#343;" horiz-adv-x="600" d="M482 0h-412v72h104v381h-104v72h170l11 -92h29l61 51q37 31 71 42q34 11 69 11q17 0 32.5 -2.5q15.5 -2.5 30.5 -5.5l0 -88q-23 6 -40 8.5q-17 2.5 -29 2.5q-28 0 -64 -11q-36 -11 -72 -40l-81 -66v-263h224zM296 -262h-53v38l32 42q-25 1 -46.5 13.5q-21.5 12.5 -21.5 44.5q0 31 14 45.5q14 14.5 46 14.5q31 0 45.5 -13.5q14.5 -13.5 14.5 -48.5q0 -15 -3 -30q-3 -15 -11 -44z" />
<glyph unicode="&#344;" horiz-adv-x="600" d="M88 0v690h222q60 0 105 -10q45 -10 75 -33.5q30 -23.5 45 -63q15 -39.5 15 -99.5q0 -81 -34 -124.5q-34 -43.5 -102 -60.5l136 -244v-55h-73l-146 282h-155v-282zM310 358q39 0 67.5 5.5q28.5 5.5 47 19.5q18.5 14 28 38.5q9.5 24.5 9.5 62.5q0 41 -9.5 66.5q-9.5 25.5 -28 39.5q-18.5 14 -47 19q-28.5 5 -67.5 5h-134v-256zM276 762l-136 101v51h62l90 -81h17l89 81h62v-51l-136 -101z" />
<glyph unicode="&#345;" horiz-adv-x="600" d="M482 0h-412v72h104v381h-104v72h170l11 -92h29l61 51q37 31 71 42q34 11 69 11q17 0 32.5 -2.5q15.5 -2.5 30.5 -5.5l0 -88q-23 6 -40 8.5q-17 2.5 -29 2.5q-28 0 -64 -11q-36 -11 -72 -40l-81 -66v-263h224zM276 629l-136 101v51h62l90 -81h17l89 81h62v-51l-136 -101z" />
<glyph unicode="&#346;" horiz-adv-x="600" d="M83 511q0 52 16 88.5q16 36.5 44 59.5q28 23 66.5 33q38.5 10 83.5 10q35 0 74.5 -8q39.5 -8 74.5 -19l27 -9v-83l-36 13q-43 16 -78 23q-35 7 -62 7q-27 0 -49.5 -5q-22.5 -5 -38.5 -17.5q-16 -12.5 -25 -33.5q-9 -21 -9 -53q0 -45 22 -70q22 -25 64 -36l97 -27q85 -23 123.5 -70q38.5 -47 38.5 -125q0 -105 -57.5 -153q-57.5 -48 -157.5 -48q-50 0 -98 11q-48 11 -92 27l-25 9v84l35 -15q48 -20 97 -30q49 -10 83 -10q59 0 93 27.5q34 27.5 34 93.5q0 54 -29.5 81q-29.5 27 -74.5 40l-96 27q-70 20 -107.5 66.5q-37.5 46.5 -37.5 111.5zt0 0zM265 762l83 152h97v-60l-110 -92z" />
<glyph unicode="&#347;" horiz-adv-x="600" d="M361 291q38 -11 64 -24q26 -13 42.5 -31q16.5 -18 24 -41.5q7.5 -23.5 7.5 -55.5q0 -71 -45.5 -111q-45.5 -40 -134.5 -40q-53 0 -101.5 11q-48.5 11 -97.5 25l-30 9v80l41 -15q51 -19 97 -27.5q46 -8.5 82 -8.5q54 0 78.5 20q24.5 20 24.5 58q0 18 -5.5 30.5q-5.5 12.5 -15.5 21q-10 8.5 -23.5 13.5q-13.5 5 -28.5 10l-116 34q-61 18 -92.5 53.5q-31.5 35.5 -31.5 92.5q0 67 43 104.5q43 37.5 124 37.5q42 0 84 -7q42 -7 80 -15l30 -6v-79l-36 9q-46 11 -83 17.5q-37 6.5 -69 6.5q-49 0 -68 -16q-19 -16 -19 -51q0 -33 19.5 -49.5q19.5 -16.5 48.5 -24.5zM265 629l83 152h97v-60l-110 -92z" />
<glyph unicode="&#350;" horiz-adv-x="600" d="M83 511q0 52 16 88.5q16 36.5 44 59.5q28 23 66.5 33q38.5 10 83.5 10q35 0 74.5 -8q39.5 -8 74.5 -19l27 -9v-83l-36 13q-43 16 -78 23q-35 7 -62 7q-27 0 -49.5 -5q-22.5 -5 -38.5 -17.5q-16 -12.5 -25 -33.5q-9 -21 -9 -53q0 -45 22 -70q22 -25 64 -36l97 -27q85 -23 123.5 -70q38.5 -47 38.5 -125q0 -100 -52 -148q-52 -48 -144 -52l0 -41h20q30 0 48.5 -8.5q18.5 -8.5 29 -21.5q10.5 -13 14 -29.5q3.5 -16.5 3.5 -31.5q0 -52 -36 -79.5q-36 -27.5 -108 -27.5q-22 0 -49.5 4q-27.5 4 -49.5 10l0 70q35 -11 59 -15q24 -4 39 -4q58 0 58 46q0 29 -15 37q-15 8 -47 8h-36v85q-37 5 -72 14q-35 9 -67 21l-25 9v84l35 -15q48 -20 97 -30q49 -10 83 -10q59 0 93 27.5q34 27.5 34 93.5q0 54 -29.5 81q-29.5 27 -74.5 40l-96 27q-70 20 -107.5 66.5t-37.5 111.5z" />
</font>
</defs>
</svg>
